osu file format v14

[General]
AudioFilename: audio.mp3
AudioLeadIn: 0
PreviewTime: 102275
Countdown: 0
SampleSet: Normal
StackLeniency: 0.7
Mode: 0
LetterboxInBreaks: 0
WidescreenStoryboard: 1

[Editor]
DistanceSpacing: 1.1
BeatDivisor: 4
GridSize: 8
TimelineZoom: 1.7

[Metadata]
Title:Free to Believe
TitleUnicode:Free to Believe
Artist:FELT
ArtistUnicode:FELT
Creator:Konge
Version:Hard
Source:東方Project
Tags:Vivience Parallel Cross C90 東方星蓮船~Undefined Fantastic Object 法界の火 Renko NAGI☆ Touhou Project 聖白蓮 Byakuren Hijiri
BeatmapID:1369686
BeatmapSetID:544039

[Difficulty]
HPDrainRate:5
CircleSize:4
OverallDifficulty:7
ApproachRate:8
SliderMultiplier:1.1
SliderTickRate:1

[Events]
//Background and Video events
0,0,"41816391_p0.jpg",0,0
//Break Periods
//Storyboard Layer 0 (Background)
//Storyboard Layer 1 (Fail)
//Storyboard Layer 2 (Pass)
//Storyboard Layer 3 (Foreground)
//Storyboard Sound Samples

[TimingPoints]
1246,294.117647058824,4,2,0,50,1,0
36466,-166.666666666667,4,2,1,50,0,0
48231,-166.666666666667,4,2,1,60,0,0
49407,-166.666666666667,4,2,1,70,0,0
50584,-100,4,2,0,80,0,0
55290,-100,4,2,1,30,0,0
60069,-200,4,2,1,30,0,0
60657,-142.857142857143,4,2,1,30,0,0
61540,-100,4,2,1,30,0,0
65657,-125,4,2,2,60,0,0
84775,-200,4,2,2,60,0,0
93598,-125,4,2,2,60,0,0
98819,-90.9090909090909,4,2,2,60,0,0
102348,-90.9090909090909,4,2,0,40,0,0
103231,-90.9090909090909,4,2,2,60,0,0
103598,-76.9230769230769,4,1,1,60,0,1
119701,-166.666666666667,4,2,0,60,0,1
119848,-166.666666666667,4,2,0,20,0,0
121834,-100,4,1,1,60,0,0
122422,-100,4,2,3,60,0,0
140657,-50,4,2,0,60,0,0
141834,-166.666666666667,4,2,1,40,0,0
142128,-166.666666666667,4,2,0,40,0,0
142422,-166.666666666667,4,2,1,40,0,0
142716,-166.666666666667,4,2,0,40,0,0
143010,-166.666666666667,4,2,1,40,0,0
143304,-166.666666666667,4,2,0,40,0,0
143598,-166.666666666667,4,2,1,40,0,0
145951,-166.666666666667,4,2,3,50,0,0
146540,-166.666666666667,4,2,3,60,0,0
147128,-166.666666666667,4,2,3,65,0,0
147422,-166.666666666667,4,2,3,70,0,0
147716,-166.666666666667,4,2,3,75,0,0
148010,-100,4,2,0,60,0,0
149260,-100,4,2,3,60,0,0
150657,-76.9230769230769,4,1,1,60,0,1
188304,-100,4,2,3,60,0,0
210657,-100,4,2,3,20,0,0
225290,-100,4,1,0,60,0,0
225951,-100,4,1,0,20,0,0
226246,-100,4,1,0,30,0,0
226540,-100,4,1,0,40,0,0
226834,-100,4,1,0,50,0,0
227128,-100,4,1,0,60,0,0
227422,-100,4,1,0,70,0,0
227716,-100,4,1,0,80,0,0
230657,-76.9230769230769,4,1,1,60,0,1
246834,-200,4,2,0,60,0,0
247973,-200,4,2,0,20,0,0

[HitObjects]
118,18,36540,6,0,P|106:69|78:153,1,131.99999597168
16,195,37716,2,0,P|18:260|25:341,1,131.99999597168
84,378,38893,6,0,P|150:372|216:369,1,131.99999597168
279,315,40069,1,0,0:0:0:0:
279,315,40363,2,0,P|283:276|289:239,2,65.9999979858399
355,377,41246,6,0,P|426:367|461:318,1,131.99999597168
422,242,42422,2,0,P|415:177|415:105,1,131.99999597168
487,59,43598,6,0,P|419:64|345:66,1,131.99999597168
270,42,44775,1,0,0:0:0:0:
270,42,45069,2,0,P|269:77|274:118,2,65.9999979858399
188,77,45951,6,0,P|98:65|51:63,1,131.99999597168
52,165,47128,2,0,P|142:177|189:179,1,131.99999597168
258,149,48010,1,0,0:0:0:0:
258,149,48304,6,0,L|330:162,1,65.9999979858399
367,232,48893,2,0,P|359:268|354:301,1,65.9999979858399
283,349,49481,2,0,P|246:339|206:334,1,65.9999979858399
138,368,50069,1,0,0:0:0:0:
123,285,50216,1,0,0:0:0:0:
113,203,50363,1,0,0:0:0:0:
278,145,50657,5,0,0:0:0:0:
278,145,50804,2,0,P|275:172|275:200,1,55
205,97,51098,1,0,0:0:0:0:
205,97,51245,2,0,P|210:69|213:32,1,55
297,59,51540,5,0,0:0:0:0:
297,59,51687,2,0,P|330:58|376:51,1,55
188,183,51981,1,0,0:0:0:0:
188,183,52128,2,0,P|155:182|109:175,1,55
61,138,52422,5,0,0:0:0:0:
0,212,52569,2,0,P|4:247|5:272,2,55
75,324,53010,5,0,0:0:0:0:
75,324,53157,2,0,P|99:326|132:328,1,55
215,281,53451,1,0,0:0:0:0:
215,281,53598,2,0,P|239:278|272:277,1,55
335,355,53893,1,0,0:0:0:0:
335,355,54040,6,0,P|391:353|467:344,1,110
512,288,54481,1,0,0:0:0:0:
441,221,54628,1,0,0:0:0:0:
509,162,54775,2,0,L|514:122,2,27.5
445,59,55069,1,0,0:0:0:0:
445,59,55216,1,0,0:0:0:0:
445,59,55363,5,0,0:0:0:0:
376,117,55804,1,0,0:0:0:0:
328,44,56246,1,0,0:0:0:0:
248,91,56687,1,0,0:0:0:0:
186,16,57128,1,0,0:0:0:0:
99,61,57422,1,0,0:0:0:0:
97,192,57716,5,0,0:0:0:0:
184,148,58157,1,0,0:0:0:0:
248,227,58598,1,0,0:0:0:0:
344,177,59040,1,0,0:0:0:0:
420,266,59481,5,0,0:0:0:0:
258,365,59775,1,0,0:0:0:0:
211,275,60069,6,0,P|209:289|207:303,1,27.5
288,219,60363,2,0,P|290:232|294:246,1,27.5
213,145,60657,6,0,P|207:163|200:181,1,38.4999988250733
267,15,60951,1,0,0:0:0:0:
267,15,61098,2,0,P|274:53|285:90,1,76.9999976501466
446,106,61540,1,0,0:0:0:0:
377,246,61834,5,0,0:0:0:0:
295,258,61981,1,0,0:0:0:0:
208,268,62128,1,0,0:0:0:0:
133,319,62275,1,0,0:0:0:0:
55,235,62422,5,0,0:0:0:0:
256,192,62569,12,0,64775,0:0:0:0:
391,212,65657,6,0,P|353:207|305:196,1,88
466,188,66246,1,0,0:0:0:0:
466,188,66393,1,0,0:0:0:0:
390,40,68304,6,0,L|403:130,1,88
402,127,68746,1,0,0:0:0:0:
305,41,70657,6,0,P|256:38|198:28,1,88
190,25,71098,1,0,0:0:0:0:
75,155,73010,6,0,P|122:142|180:134,1,88
189,134,73451,1,0,0:0:0:0:
265,205,74187,2,0,L|252:309,1,88
180,321,74775,1,0,0:0:0:0:
303,356,74922,6,0,P|361:356|417:293,1,132
440,222,75657,1,0,0:0:0:0:
440,222,75804,1,0,0:0:0:0:
156,230,77716,6,0,L|54:239,1,88
33,241,78157,1,0,0:0:0:0:
256,146,80069,6,0,P|282:173|344:180,1,88
360,172,80510,1,0,0:0:0:0:
444,83,82422,6,0,P|399:76|348:70,1,88
298,130,82863,2,0,P|302:179|310:223,1,88
263,289,83304,1,0,0:0:0:0:
333,338,83451,1,0,0:0:0:0:
375,265,83598,2,0,L|426:254,2,44
184,250,84187,6,0,P|132:231|58:311,1,176
109,373,85363,2,0,P|138:369|167:362,1,55
174,277,85951,2,0,P|144:280|116:288,1,55
245,330,86540,1,0,0:0:0:0:
44,183,87128,6,0,P|55:129|101:99,2,110
71,264,88598,1,0,0:0:0:0:
131,204,88893,1,0,0:0:0:0:
44,183,89187,1,0,0:0:0:0:
254,323,89481,1,0,0:0:0:0:
411,59,90069,5,0,0:0:0:0:
355,124,90363,2,0,L|358:159,1,27.5
424,207,90657,2,0,B|454:210|454:210|485:193,2,55
311,225,91540,6,0,P|321:286|328:342,1,110
245,383,92716,2,0,P|191:374|137:368,1,110
137,368,93598,6,0,P|153:318|161:268,1,88
150,197,94187,5,0,0:0:0:0:
150,197,94481,1,0,0:0:0:0:
79,246,94775,5,0,0:0:0:0:
79,246,95069,1,0,0:0:0:0:
227,231,95363,5,0,0:0:0:0:
227,231,95657,1,0,0:0:0:0:
214,139,95951,5,0,0:0:0:0:
214,139,96245,1,0,0:0:0:0:
67,157,96540,5,0,0:0:0:0:
67,157,96834,1,0,0:0:0:0:
150,197,97128,5,0,0:0:0:0:
150,197,97422,1,0,0:0:0:0:
139,99,97716,5,0,0:0:0:0:
139,99,98010,1,0,0:0:0:0:
12,195,98304,5,0,0:0:0:0:
58,277,98598,1,0,0:0:0:0:
58,277,98893,6,0,P|103:278|135:283,1,60.5000018463135
188,218,99187,1,0,0:0:0:0:
188,218,99334,2,0,P|245:197|312:212,1,121.000003692627
377,262,99775,1,0,0:0:0:0:
377,262,99922,2,0,P|367:302|366:336,1,60.5000018463135
432,191,100216,2,0,P|430:162|422:119,1,60.5000018463135
369,64,100510,2,0,P|307:51|227:46,1,121.000003692627
249,46,100951,1,0,0:0:0:0:
248,301,101246,6,0,P|236:330|218:365,1,60.5000018463135
135,384,101540,2,0,P|105:372|70:354,1,60.5000018463135
46,258,101834,2,0,P|57:228|75:193,1,60.5000018463135
159,175,102128,2,0,P|188:186|223:204,1,60.5000018463135
149,276,102422,5,0,0:0:0:0:
149,276,103304,2,0,P|186:292|224:301,1,60.5000018463135
304,211,103598,6,0,P|310:141|322:58,1,142.99999345398
80,36,104187,2,0,P|87:112|91:197,1,142.99999345398
46,309,104628,1,0,0:0:0:0:
121,261,104775,2,0,B|164:250|192:261|192:261|215:279|289:260,1,142.99999345398
447,377,105363,1,0,0:0:0:0:
439,371,105657,6,0,P|394:314|409:227,1,142.99999345398
394,48,106246,2,0,P|439:105|417:197,1,142.99999345398
397,246,106687,1,0,0:0:0:0:
321,211,106834,6,0,B|276:194|276:194|238:229|166:207,2,142.99999345398
434,172,107716,1,0,0:0:0:0:
150,8,108010,1,0,0:0:0:0:
191,81,108157,1,0,0:0:0:0:
269,54,108304,6,0,P|337:61|411:79,1,142.99999345398
196,175,108893,2,0,P|127:168|54:150,1,142.99999345398
0,81,109334,1,0,0:0:0:0:
66,7,109481,6,0,P|77:25|89:83,2,71.4999967269899
0,217,110069,1,0,0:0:0:0:
237,318,110363,1,0,0:0:0:0:
309,374,110510,1,0,0:0:0:0:
382,316,110657,6,0,P|451:323|531:340,1,142.99999345398
408,157,111246,2,0,P|338:171|267:179,1,142.99999345398
191,139,111687,1,0,0:0:0:0:
131,202,111834,2,0,P|136:242|141:294,2,71.4999967269899
0,138,112422,1,0,0:0:0:0:
147,21,112716,1,0,0:0:0:0:
211,70,112863,1,0,0:0:0:0:
285,38,113010,6,0,B|328:30|352:52|352:52|370:65|423:62,2,142.99999345398
211,162,113893,2,0,P|217:199|222:255,1,71.4999967269899
172,306,114187,1,0,0:0:0:0:
0,182,114481,1,0,0:0:0:0:
112,0,114775,1,0,0:0:0:0:
318,76,115069,2,0,P|373:84|417:84,1,71.4999967269899
478,42,115363,6,0,P|471:115|470:204,1,142.99999345398
370,362,115951,2,0,L|356:207,1,142.99999345398
282,176,116393,1,0,0:0:0:0:
232,251,116540,2,0,P|195:254|145:245,2,71.4999967269899
50,144,117128,1,0,0:0:0:0:
138,367,117422,1,0,0:0:0:0:
138,367,117569,1,0,0:0:0:0:
138,367,117716,5,0,0:0:0:0:
244,313,118010,1,0,0:0:0:0:
191,205,118304,1,0,0:0:0:0:
81,258,118598,1,0,0:0:0:0:
81,258,118746,1,0,0:0:0:0:
81,258,118893,5,0,0:0:0:0:
336,285,119187,1,0,0:0:0:0:
255,348,119481,1,0,0:0:0:0:
162,196,119775,6,0,P|166:127|176:61,1,131.99999597168
398,249,120951,6,0,P|396:188|336:185,1,131.99999597168
371,351,121834,6,0,P|429:348|500:340,2,110
