osu file format v14

[General]
AudioFilename: audio.mp3
AudioLeadIn: 0
PreviewTime: 102275
Countdown: 0
SampleSet: Soft
StackLeniency: 0.7
Mode: 0
LetterboxInBreaks: 0
WidescreenStoryboard: 0

[Editor]
DistanceSpacing: 1.5
BeatDivisor: 4
GridSize: 8
TimelineZoom: 1.6

[Metadata]
Title:Free to Believe
TitleUnicode:Free to Believe
Artist:FELT
ArtistUnicode:FELT
Creator:Konge
Version:Extra Stage
Source:東方Project
Tags:Vivience Parallel Cross C90 東方星蓮船~Undefined Fantastic Object 法界の火 Renko NAGI☆ Touhou Project 聖白蓮 Byakuren Hijiri
BeatmapID:1152944
BeatmapSetID:544039

[Difficulty]
HPDrainRate:5.5
CircleSize:4
OverallDifficulty:8.5
ApproachRate:9.3
SliderMultiplier:1.1
SliderTickRate:1

[Events]
//Background and Video events
0,0,"41816391_p0.jpg",0,0
//Break Periods
2,211761,220273
//Storyboard Layer 0 (Background)
//Storyboard Layer 1 (Fail)
//Storyboard Layer 2 (Pass)
//Storyboard Layer 3 (Foreground)
//Storyboard Sound Samples

[TimingPoints]
1246,294.117647058824,4,2,0,50,1,0
36466,-100,4,2,1,50,0,0
48231,-100,4,2,1,60,0,0
49407,-100,4,2,1,70,0,0
50584,-66.6666666666667,4,2,0,80,0,0
53010,-66.6666666666667,4,2,0,80,0,0
55290,-100,4,2,1,30,0,0
60069,-76.9230769230769,4,2,2,60,0,0
65657,-50,4,2,0,60,0,0
65951,-125,4,2,2,60,0,0
85363,-166.666666666667,4,2,0,60,0,0
93451,-58.8235294117647,4,2,1,60,0,0
98819,-58.8235294117647,4,2,2,60,0,0
102348,-58.8235294117647,4,2,0,40,0,0
103231,-58.8235294117647,4,2,2,60,0,0
103598,-76.9230769230769,4,1,1,60,0,1
119701,-76.9230769230769,4,2,0,60,0,1
119848,-76.9230769230769,4,2,0,20,0,0
121834,-76.9230769230769,4,1,1,60,0,0
122422,-76.9230769230769,4,2,3,60,0,0
140657,-50,4,2,0,60,0,0
141834,-166.666666666667,4,2,1,40,0,0
142128,-166.666666666667,4,2,0,40,0,0
142422,-166.666666666667,4,2,1,40,0,0
142716,-166.666666666667,4,2,0,40,0,0
143010,-166.666666666667,4,2,1,40,0,0
143304,-166.666666666667,4,2,0,40,0,0
143598,-166.666666666667,4,2,1,40,0,0
145951,-166.666666666667,4,2,3,50,0,0
146540,-166.666666666667,4,2,3,60,0,0
147128,-166.666666666667,4,2,3,65,0,0
147422,-166.666666666667,4,2,3,70,0,0
147716,-166.666666666667,4,2,3,75,0,0
148010,-100,4,2,0,60,0,0
149260,-100,4,2,3,60,0,0
150657,-76.9230769230769,4,1,1,60,0,1
188304,-100,4,2,3,60,0,0
210657,-100,4,2,3,20,0,0
225290,-100,4,1,0,60,0,0
225951,-100,4,1,0,20,0,0
226246,-100,4,1,0,30,0,0
226540,-100,4,1,0,40,0,0
226834,-100,4,1,0,50,0,0
227128,-100,4,1,0,60,0,0
227422,-100,4,1,0,70,0,0
227716,-100,4,1,0,80,0,0
230657,-76.9230769230769,4,1,1,60,0,1
246834,-200,4,2,0,60,0,0
247973,-200,4,2,0,20,0,0

[HitObjects]
98,195,36540,5,12,0:0:0:0:
136,156,37128,1,8,0:0:0:0:
189,147,37716,1,8,0:0:0:0:
238,170,38304,1,8,0:0:0:0:
275,213,38893,1,8,0:0:0:0:
323,236,39481,1,8,0:0:0:0:
377,226,40069,1,8,0:0:0:0:
415,188,40657,1,8,0:0:0:0:
274,25,41246,5,8,0:0:0:0:
246,71,41834,1,8,0:0:0:0:
252,125,42423,1,8,0:0:0:0:
289,164,43010,1,8,0:0:0:0:
340,187,43598,1,8,0:0:0:0:
377,226,44187,1,8,0:0:0:0:
383,279,44776,1,8,0:0:0:0:
355,326,45363,1,8,0:0:0:0:
74,175,45951,5,8,0:0:0:0:
125,156,46540,1,8,0:0:0:0:
178,167,47128,1,8,0:0:0:0:
219,202,47716,1,8,0:0:0:0:
219,202,48010,1,8,0:0:0:0:
236,254,48304,5,8,0:0:0:0:
236,254,48598,1,8,0:0:0:0:
225,307,48892,1,8,0:0:0:0:
225,307,49187,1,8,0:0:0:0:
188,347,49481,1,8,0:0:0:0:
188,347,49775,1,8,0:0:0:0:
135,362,50069,1,2,0:0:0:0:
135,362,50216,1,2,0:0:0:0:
135,362,50363,2,0,L|38:351,1,82.5
32,349,50657,5,4,1:0:0:0:
177,246,50804,1,0,0:0:0:0:
3,230,50951,1,0,0:0:0:0:
252,292,51098,5,4,1:0:0:0:
71,275,51246,1,0,0:0:0:0:
237,182,51393,1,0,0:0:0:0:
82,185,51540,5,4,1:0:0:0:
360,228,51687,6,0,P|389:231|461:225,1,82.5000031471254
296,120,51981,5,4,1:0:0:0:
468,145,52128,1,0,0:0:0:0:
237,182,52275,1,0,0:0:0:0:
354,55,52422,6,0,L|395:53,1,41.2500015735627,4|0,1:0|0:0,0:0:0:0:
171,120,52569,2,0,L|165:79,1,41.2500015735627,4|0,0:3|0:0,0:0:0:0:
269,0,52716,2,0,L|263:40,1,41.2500015735627,4|0,0:3|0:0,0:0:0:0:
49,24,52863,2,0,L|89:30,1,41.2500015735627,4|0,0:3|0:0,0:0:0:0:
0,124,53010,5,4,1:1:0:0:
2,147,53084,1,0,0:0:0:0:
5,174,53157,2,0,L|13:232,3,41.2500015735627
70,327,53451,5,4,1:1:0:0:
109,310,53525,1,0,0:0:0:0:
146,297,53598,2,0,L|201:276,3,41.2500015735627
301,183,53893,5,4,1:1:0:0:
249,171,53967,1,0,0:0:0:0:
198,163,54040,2,0,L|141:149,3,41.2500015735627
414,149,54334,5,4,1:1:0:0:
421,215,54408,1,0,0:0:0:0:
428,281,54481,2,0,L|436:339,3,41.2500015735627
350,371,54775,5,4,1:0:0:0:
350,371,54848,1,0,0:0:0:0:
350,371,54922,1,8,0:3:0:0:
116,223,55069,1,4,0:3:0:0:
346,40,55216,1,4,0:3:0:0:
256,192,55363,6,0,P|226:200|176:200,1,55,2|0,0:0|0:0,0:0:0:0:
256,192,55804,6,0,P|287:184|336:184,2,55,2|0|2,0:0|0:0|0:0,0:0:0:0:
256,192,56246,6,0,P|226:200|176:200,1,55,0|2,0:0|0:0,0:0:0:0:
256,192,56687,6,0,P|287:184|336:184,2,55,2|0|0,0:0|0:0|0:0,0:0:0:0:
256,192,57128,6,0,P|226:200|176:200,2,55,0|0|2,0:0|0:0|0:0,0:0:0:0:
256,192,57716,6,0,P|286:184|336:184,1,55,2|0,0:0|0:0,0:0:0:0:
256,192,58157,6,0,P|225:200|176:200,2,55,2|0|2,0:0|0:0|0:0,0:0:0:0:
256,192,58599,6,0,P|286:184|336:184,1,55,0|2,0:0|0:0,0:0:0:0:
256,192,59040,6,0,P|225:200|176:200,2,55,2|0|2,0:0|0:0|0:0,0:0:0:0:
285,31,59481,1,0,1:0:0:0:
184,100,59628,1,4,0:3:0:0:
439,152,59775,1,0,1:0:0:0:
439,152,60069,6,0,P|416:186|399:228,1,71.4999967269899,2|2,0:0|0:0,0:0:0:0:
212,223,60363,2,0,P|234:187|251:146,1,71.4999967269899,0|2,1:0|0:0,0:0:0:0:
462,188,60657,6,0,P|428:218|398:258,1,71.4999967269899,0|2,1:0|0:0,0:0:0:0:
201,199,60951,1,2,0:0:0:0:
201,199,61098,2,0,P|234:168|264:129,1,71.4999967269899,4|0,1:2|0:0,0:0:0:0:
466,225,61393,1,2,0:0:0:0:
466,226,61540,2,0,P|433:241|404:261,1,71.4999967269899,4|0,1:2|0:0,0:0:0:0:
248,134,61834,5,4,1:0:0:0:
370,336,61981,1,8,0:3:0:0:
391,101,62128,1,4,0:3:0:0:
236,280,62275,1,4,0:3:0:0:
466,226,62422,5,4,0:1:0:0:
256,192,62569,12,0,64775,0:0:0:0:
412,126,65657,6,0,B|373:95|333:101|333:101|315:135|314:178,1,165
316,162,65951,6,0,L|318:75,1,88,2|2,0:0|0:0,0:0:0:0:
314,262,66393,1,0,1:0:0:0:
150,236,68304,6,0,P|115:228|49:250,1,88,2|2,0:0|0:0,0:0:0:0:
217,273,68746,1,0,1:0:0:0:
172,101,70657,6,0,L|274:104,1,88,2|2,0:0|0:0,0:0:0:0:
94,97,71098,1,0,1:0:0:0:
320,124,73010,6,0,P|271:116|228:79,1,88,2|2,0:0|0:0,0:0:0:0:
394,102,73451,1,0,1:0:0:0:
238,111,74187,6,0,P|233:163|230:218,1,88,0|0,0:0|1:0,0:0:0:0:
342,337,74628,1,2,0:0:0:0:
138,356,74775,2,0,L|106:353,1,22,2|0,0:0|0:0,0:0:0:0:
180,292,74922,2,0,P|231:272|285:280,1,110,0|0,1:0|0:0,0:0:0:0:
412,301,75363,6,0,P|407:263|409:209,1,88,2|2,0:0|0:0,0:0:0:0:
342,337,75804,1,0,1:0:0:0:
228,49,77716,6,0,P|224:94|225:155,1,88,2|2,0:0|0:0,0:0:0:0:
153,24,78157,1,0,1:0:0:0:
409,145,80069,6,0,L|309:144,1,88,2|2,0:0|0:0,0:0:0:0:
487,145,80510,1,0,1:0:0:0:
154,257,82422,6,0,P|110:253|67:259,1,88,2|2,0:0|0:0,0:0:0:0:
171,159,82863,2,0,P|215:163|259:158,1,88,0|2,1:0|0:0,0:0:0:0:
102,109,83304,1,0,0:0:0:0:
164,283,83451,1,2,0:0:0:0:
265,149,83598,5,0,0:0:0:0:
156,292,83746,1,2,0:0:0:0:
94,118,83893,2,0,P|87:69|87:35,1,66,0|0,1:0|0:0,0:0:0:0:
294,81,84187,2,0,P|261:112|162:66,1,154,2|0,0:0|0:0,0:0:0:0:
161,67,84775,5,6,1:2:0:0:
324,10,85069,1,0,0:0:0:0:
430,151,85363,6,0,P|423:194|415:222,1,65.9999979858399,2|0,0:0|0:0,0:0:0:0:
415,67,85951,2,0,P|455:51|483:44,1,65.9999979858399,0|2,0:0|0:0,0:0:0:0:
351,122,86540,2,0,P|317:94|297:73,1,65.9999979858399,2|0,0:0|0:0,0:0:0:0:
234,29,87128,6,0,P|201:31|164:40,1,65.9999979858399,2|0,0:0|0:0,0:0:0:0:
301,78,87716,1,0,0:0:0:0:
142,136,88010,2,0,P|174:133|212:125,1,65.9999979858399,2|0,0:0|0:0,0:0:0:0:
250,285,88598,1,2,0:0:0:0:
202,206,88893,1,2,0:0:0:0:
301,78,89187,1,0,0:0:0:0:
299,95,89334,1,2,0:0:0:0:
294,111,89481,5,4,0:0:0:0:
118,176,89775,1,0,0:0:0:0:
213,58,90069,1,2,0:0:0:0:
325,210,90363,2,0,L|318:254,1,32.99999899292,2|0,0:0|0:0,0:0:0:0:
419,188,90657,2,0,L|413:155,1,32.99999899292
395,277,90951,2,0,P|427:268|456:254,1,65.9999979858399,2|2,0:0|0:0,0:0:0:0:
286,173,91540,6,0,B|321:178|344:190|344:190|337:221|314:254,1,131.99999597168,2|2,0:0|0:0,0:0:0:0:
326,339,92422,1,2,0:0:0:0:
240,346,92716,2,0,B|205:341|182:329|182:329|189:298|211:264,1,131.99999597168,0|2,0:0|0:0,0:0:0:0:
142,203,93598,6,0,B|281:241|306:183|266:120|186:139|172:149|247:235|246:288|240:348,1,374.000007133484,8|14,0:0|0:0,0:0:0:0:
45,184,94481,1,8,0:0:0:0:
276,106,94775,1,8,0:0:0:0:
240,346,95069,1,8,0:0:0:0:
179,114,95363,5,8,0:0:0:0:
420,176,95657,1,8,0:0:0:0:
240,346,95951,1,8,0:0:0:0:
276,106,96245,1,8,0:0:0:0:
45,184,96540,5,8,0:0:0:0:
275,260,96834,1,8,0:0:0:0:
231,20,97128,1,8,0:0:0:0:
461,98,97422,1,8,0:0:0:0:
229,171,97716,5,8,0:0:0:0:
471,186,98010,1,8,0:0:0:0:
331,384,98304,1,8,0:0:0:0:
318,141,98598,1,8,0:0:0:0:
75,113,98893,6,0,P|61:160|64:229,1,93.500001783371,4|0,1:0|0:0,0:0:0:0:
156,75,99187,1,2,0:0:0:0:
360,292,99334,2,0,P|373:249|371:176,1,93.500001783371,4|0,1:0|0:0,0:0:0:0:
133,270,99628,2,0,B|229:258,1,93.500001783371,2|0,0:0|1:0,0:0:0:0:
466,106,99922,6,0,B|415:126|373:104|373:104|337:97|279:113,1,187.000003566742,6|0,0:0|1:0,0:0:0:0:
251,340,100363,1,2,0:0:0:0:
148,172,100510,2,0,P|140:124|141:68,1,93.500001783371,4|4,1:0|0:3,0:0:0:0:
404,237,100804,2,0,B|411:293|411:293|389:352,1,93.500001783371,0|8,1:0|0:3,0:0:0:0:
284,112,101098,1,4,0:3:0:0:
251,340,101246,5,4,1:0:0:0:
254,134,101393,1,2,0:0:0:0:
282,258,101540,1,4,1:0:0:0:
168,126,101687,1,0,0:0:0:0:
362,223,101834,1,2,0:0:0:0:
120,278,101981,1,4,1:0:0:0:
215,59,102128,1,4,1:0:0:0:
298,365,102275,1,0,1:0:0:0:
26,210,102422,5,2,0:0:0:0:
25,201,102716,5,2,0:0:0:0:
26,192,103010,5,2,0:0:0:0:
31,184,103304,2,0,B|81:167|135:203,1,93.500001783371,4|4,0:3|0:3,0:0:0:0:
184,266,103598,6,0,P|256:264|345:258,1,142.99999345398,6|0,0:0|0:0,0:0:0:0:
418,251,104040,1,0,0:0:0:0:
307,364,104187,1,8,0:0:0:0:
281,180,104334,2,0,P|286:117|295:84,1,71.4999967269899,2|0,0:0|0:0,0:0:0:0:
424,94,104628,1,2,0:0:0:0:
207,58,104775,6,0,P|279:61|350:59,1,142.99999345398,2|0,0:0|0:0,0:0:0:0:
129,20,105216,1,0,0:0:0:0:
52,61,105363,2,0,P|48:95|51:149,1,71.4999967269899,8|0,0:0|0:0,0:0:0:0:
182,207,105657,2,0,L|197:108,1,71.4999967269899,2|0,0:0|0:0,0:0:0:0:
109,264,105951,6,0,P|169:298|238:282,1,142.99999345398,2|0,0:0|0:0,0:0:0:0:
319,236,106393,1,0,0:0:0:0:
403,278,106540,2,0,P|453:283|493:279,1,71.4999967269899,8|2,0:0|0:0,0:0:0:0:
266,158,106834,2,0,P|224:213|237:281,1,142.99999345398,2|2,0:0|0:0,0:0:0:0:
172,349,107275,1,0,0:0:0:0:
94,297,107422,2,0,P|57:286|10:281,1,71.4999967269899,2|2,0:0|0:0,0:0:0:0:
255,293,107716,2,0,P|291:303|339:309,1,71.4999967269899,8|0,0:0|0:0,0:0:0:0:
100,177,108010,2,0,P|91:214|87:255,1,71.4999967269899,2|2,0:0|0:0,0:0:0:0:
256,384,108304,5,6,0:0:0:0:
509,227,108598,1,2,0:0:0:0:
148,112,108893,1,8,0:0:0:0:
329,174,109187,2,0,P|294:179|259:176,1,71.4999967269899,2|0,0:0|0:0,0:0:0:0:
402,228,109481,6,0,P|423:161|387:101,1,142.99999345398,2|0,0:0|0:0,0:0:0:0:
346,301,109922,1,2,0:0:0:0:
258,268,110069,2,0,P|223:264|162:261,1,71.4999967269899,8|0,0:0|0:0,0:0:0:0:
129,384,110363,6,0,P|171:379|217:377,1,71.4999967269899,2|0,0:0|0:0,0:0:0:0:
100,237,110657,2,0,P|39:257|0:176,1,142.99999345398,2|0,0:0|0:0,0:0:0:0:
154,103,111098,1,2,0:0:0:0:
112,208,111246,1,8,0:0:0:0:
65,56,111393,1,0,0:0:0:0:
235,50,111540,2,0,P|280:55|320:62,1,71.4999967269899,2|0,0:0|0:0,0:0:0:0:
395,84,111834,5,2,0:0:0:0:
480,47,111981,1,0,0:0:0:0:
235,136,112128,2,0,P|190:131|150:124,1,71.4999967269899,2|2,0:0|0:0,0:0:0:0:
150,49,112422,1,8,0:0:0:0:
181,207,112569,1,0,0:0:0:0:
23,139,112716,2,0,P|23:103|26:67,1,71.4999967269899,2|0,0:0|0:0,0:0:0:0:
181,207,113010,6,0,P|112:221|73:301,1,142.99999345398,6|0,0:0|0:0,0:0:0:0:
172,384,113451,1,0,0:0:0:0:
259,374,113598,2,0,B|296:360|334:374|334:374|369:387|415:367,1,142.99999345398,8|0,0:0|0:0,0:0:0:0:
467,321,114040,1,0,0:0:0:0:
265,200,114187,2,0,P|261:244|266:282,1,71.4999967269899,2|0,0:0|0:0,0:0:0:0:
475,163,114481,2,0,P|477:125|469:81,1,71.4999967269899
244,117,114775,2,0,L|167:124,1,71.4999967269899,8|0,0:0|0:0,0:0:0:0:
337,236,115069,2,0,P|378:237|414:243,1,71.4999967269899,2|0,0:0|0:0,0:0:0:0:
205,227,115363,6,0,P|151:261|164:355,1,142.99999345398
229,378,115804,1,2,0:0:0:0:
256,163,115951,2,0,P|217:149|169:151,1,71.4999967269899,8|0,0:0|0:0,0:0:0:0:
0,216,116246,2,0,P|39:230|87:228,1,71.4999967269899,0|2,0:0|0:0,0:0:0:0:
92,61,116540,6,0,L|86:160,1,71.4999967269899
165,318,116834,1,0,0:0:0:0:
165,318,116981,2,0,P|167:275|176:222,1,71.4999967269899,2|8,0:0|0:0,0:0:0:0:
324,217,117275,1,0,0:0:0:0:
279,356,117422,1,0,0:0:0:0:
199,169,117569,1,0,0:0:0:0:
399,161,117716,6,0,B|425:184|419:228|419:228|388:261|400:309,1,142.99999345398
317,183,118157,1,0,0:0:0:0:
341,105,118304,2,0,P|412:80|477:145,1,142.99999345398,8|0,0:0|0:0,0:0:0:0:
233,203,118746,1,0,0:0:0:0:
297,0,118893,5,0,0:0:0:0:
203,342,119187,1,8,0:3:0:0:
47,173,119481,1,4,0:3:0:0:
429,223,119775,6,0,B|373:229|330:189|330:189|301:256|318:296|339:321|339:321|340:292|343:270,1,285.99998690796,4|0,1:0|0:0,0:0:0:0:
123,9,120915,6,0,B|83:30|64:90|135:138|187:107|201:57|201:57|192:91|211:134,1,285.99998690796,2|2,0:0|0:0,0:0:0:0:
245,209,121834,1,8,0:0:0:0:
201,58,121981,1,2,0:0:0:0:
228,219,122128,2,0,P|186:223|146:207,1,71.4999967269899,8|0,0:0|0:0,0:0:0:0:
158,214,122348,1,0,0:0:0:0:
158,214,122422,5,0,0:0:0:0:
48,116,122569,1,2,0:0:0:0:
75,265,122716,2,0,P|37:259|-20:259,1,71.4999967269899,8|0,1:0|0:0,0:0:0:0:
48,116,123010,2,0,P|85:122|121:120,1,71.4999967269899,0|2,0:0|0:0,0:0:0:0:
70,282,123304,2,0,P|35:275|-25:276,1,71.4999967269899,8|0,1:0|0:0,0:0:0:0:
143,233,123598,5,2,0:0:0:0:
82,363,123746,1,0,0:0:0:0:
58,199,123893,1,8,1:0:0:0:
225,265,124040,2,0,P|217:307|198:356,1,71.4999967269899,2|0,0:0|0:0,0:0:0:0:
173,151,124334,2,0,P|181:109|200:60,1,71.4999967269899,2|8,0:0|1:0,0:0:0:0:
328,187,124628,1,0,0:0:0:0:
328,187,124775,6,0,P|292:190|241:183,1,71.4999967269899,2|2,0:0|0:0,0:0:0:0:
410,264,125069,2,0,L|515:268,1,71.4999967269899,8|0,1:0|0:0,0:0:0:0:
296,330,125510,1,2,0:0:0:0:
410,264,125657,2,0,L|515:268,1,71.4999967269899,8|0,1:0|0:0,0:0:0:0:
220,275,125951,5,2,0:0:0:0:
430,234,126246,2,0,P|434:198|433:162,1,71.4999967269899,8|2,1:0|0:0,0:0:0:0:
300,259,126540,2,0,P|296:295|297:331,1,71.4999967269899,0|2,0:0|0:0,0:0:0:0:
430,234,126834,1,8,1:0:0:0:
220,178,126981,6,0,B|254:194|297:170|297:170|326:167|353:193,1,142.99999345398,2|2,0:0|0:0,0:0:0:0:
158,237,127422,2,0,P|124:231|86:231,1,71.4999967269899,8|0,1:0|0:0,0:0:0:0:
142,46,127716,2,0,P|141:87|134:135,1,71.4999967269899,0|2,0:0|0:0,0:0:0:0:
45,152,128010,2,0,P|46:111|53:63,1,71.4999967269899,8|0,1:0|0:0,0:0:0:0:
225,80,128304,1,2,0:0:0:0:
303,115,128451,2,0,P|341:120|375:121,1,71.4999967269899,0|8,0:0|1:0,0:0:0:0:
71,6,128893,1,0,0:0:0:0:
156,26,129040,1,2,0:0:0:0:
7,103,129187,1,8,1:0:0:0:
156,26,129334,6,0,B|195:14|225:16|225:16|263:39|294:36,1,142.99999345398,0|2,0:0|0:0,0:0:0:0:
341,196,129775,2,0,P|305:194|269:189,1,71.4999967269899,8|0,1:0|0:0,0:0:0:0:
390,100,130069,2,0,P|441:103|493:108,1,71.4999967269899,0|2,0:0|0:0,0:0:0:0:
186,221,130363,1,8,1:0:0:0:
293,36,130510,1,0,0:0:0:0:
293,36,130584,1,0,0:0:0:0:
293,36,130657,5,2,0:0:0:0:
395,237,130804,1,2,0:0:0:0:
231,108,130951,2,0,B|173:115|173:115|151:128|151:128|91:136,1,142.99999345398,8|8,1:0|0:3,0:0:0:0:
32,304,131393,1,4,0:3:0:0:
105,259,131540,6,0,B|170:251|205:286|205:286|180:292|157:275,1,142.99999345398,8|2,1:0|0:0,0:0:0:0:
32,304,131981,1,2,0:0:0:0:
235,199,132128,2,0,P|243:159|243:111,1,71.4999967269899,8|0,1:0|0:0,0:0:0:0:
84,64,132422,2,0,P|114:90|156:114,1,71.4999967269899,0|2,0:0|0:0,0:0:0:0:
280,2,132716,2,0,P|241:15|199:39,1,71.4999967269899,8|0,1:0|0:0,0:0:0:0:
235,199,133010,5,2,0:0:0:0:
306,241,133157,2,0,P|345:228|387:204,1,71.4999967269899,0|8,0:0|1:0,0:0:0:0:
150,194,133451,2,0,P|142:257|142:345,1,142.99999345398,2|2,0:0|0:0,0:0:0:0:
141,336,133893,1,8,1:0:0:0:
221,120,134040,1,2,0:0:0:0:
221,120,134187,6,0,P|258:113|292:116,1,71.4999967269899,2|2,0:0|0:0,0:0:0:0:
122,96,134481,2,0,P|135:60|154:32,1,71.4999967269899,8|0,1:0|0:0,0:0:0:0:
122,234,134922,1,2,0:0:0:0:
122,96,135069,2,0,P|135:60|154:32,1,71.4999967269899,8|0,1:0|0:0,0:0:0:0:
286,262,135363,5,2,0:0:0:0:
128,317,135657,2,0,P|90:317|42:308,1,71.4999967269899,8|2,1:0|0:0,0:0:0:0:
286,262,135951,1,0,0:0:0:0:
210,292,136098,1,2,0:0:0:0:
272,342,136246,1,8,1:0:0:0:
430,219,136393,1,0,0:0:0:0:
433,209,136466,1,0,0:0:0:0:
435,198,136540,6,0,P|436:159|431:119,1,71.4999967269899,6|2,0:0|0:0,0:0:0:0:
275,119,136834,2,0,P|273:157|279:198,1,71.4999967269899,8|0,1:0|0:0,0:0:0:0:
226,53,137128,2,0,B|186:45|153:54|153:54|119:67|65:57,1,142.99999345398,0|8,0:0|1:0,0:0:0:0:
4,30,137569,1,0,0:0:0:0:
226,53,137716,5,2,0:0:0:0:
70,208,137863,2,0,P|64:171|64:135,1,71.4999967269899,0|8,0:0|1:0,0:0:0:0:
195,206,138157,1,2,0:0:0:0:
226,211,138231,1,0,0:0:0:0:
258,203,138304,1,0,0:0:0:0:
392,157,138451,1,2,0:0:0:0:
244,128,138598,1,8,1:0:0:0:
274,286,138746,1,0,0:0:0:0:
274,286,138893,6,0,B|316:264|375:275|375:275|369:319,1,142.99999345398,2|8,0:0|1:0,0:0:0:0:
212,361,139334,1,0,0:0:0:0:
258,207,139481,1,0,0:0:0:0:
366,339,139628,1,2,0:0:0:0:
454,170,139775,1,8,1:0:0:0:
308,272,139922,1,0,0:0:0:0:
229,45,140069,5,2,0:0:0:0:
308,272,140216,1,0,0:0:0:0:
308,272,140290,1,2,0:0:0:0:
308,272,140363,1,8,1:0:0:0:
452,170,140510,1,2,0:0:0:0:
258,207,140657,6,0,P|238:155|450:180,1,440,2|4,0:0|0:0,0:0:0:0:
38,85,141834,6,0,P|74:90|109:85,1,65.9999979858399,8|0,0:0|0:0,0:0:0:0:
274,134,142422,2,0,P|238:139|203:134,1,65.9999979858399,8|0,0:0|0:0,0:0:0:0:
34,178,143010,2,0,P|70:183|105:178,1,65.9999979858399,8|0,0:0|0:0,0:0:0:0:
191,245,143598,6,0,B|180:278|180:278|193:309|193:309|176:341|188:386,2,131.99999597168,8|8|8,0:0|0:0|0:0,0:0:0:0:
265,351,145069,1,4,0:0:0:0:
191,245,145363,1,8,0:0:0:0:
375,192,145657,1,4,0:0:0:0:
392,195,145804,1,0,0:0:0:0:
408,201,145951,6,0,P|412:233|413:274,1,65.9999979858399,2|2,0:0|0:0,0:0:0:0:
160,98,146540,2,0,P|164:66|165:25,1,65.9999979858399,2|2,0:0|0:0,0:0:0:0:
64,271,147128,1,2,1:2:0:0:
228,148,147422,1,2,1:2:0:0:
43,18,147716,1,2,1:2:0:0:
168,221,148010,6,0,B|227:237|280:227|280:227|334:215|403:231,2,220,2|2|2,0:0|0:0|0:0,0:0:0:0:
86,193,149334,1,2,0:0:0:0:
86,193,149407,1,2,0:0:0:0:
86,193,149481,1,2,0:0:0:0:
247,316,149628,1,8,1:0:0:0:
205,78,149775,2,0,P|206:39|211:13,1,55,0|2,0:0|0:0,0:0:0:0:
407,152,150069,2,0,P|406:191|401:217,1,55,8|0,1:0|0:0,0:0:0:0:
403,206,150290,1,0,0:0:0:0:
403,206,150363,1,2,0:0:0:0:
149,137,150510,1,8,1:0:0:0:
354,86,150657,6,0,P|422:69|490:133,1,142.99999345398,6|0,0:0|0:0,0:0:0:0:
492,191,151098,1,2,0:0:0:0:
323,305,151246,1,8,0:0:0:0:
238,153,151393,2,0,P|234:106|235:73,1,71.4999967269899
407,152,151687,1,2,0:0:0:0:
282,230,151834,2,0,P|175:229|126:224,1,142.99999345398,2|0,0:0|0:0,0:0:0:0:
58,190,152275,1,2,0:0:0:0:
208,263,152422,2,0,P|205:301|197:347,1,71.4999967269899,8|0,0:0|0:0,0:0:0:0:
133,138,152716,2,0,P|136:100|144:54,1,71.4999967269899,0|2,0:0|0:0,0:0:0:0:
355,67,153010,6,0,P|311:98|209:72,1,142.99999345398,2|0,0:0|0:0,0:0:0:0:
282,18,153451,1,2,0:0:0:0:
437,55,153598,2,0,P|444:96|445:132,1,71.4999967269899,8|0,0:0|0:0,0:0:0:0:
383,243,153893,6,0,P|427:212|529:238,1,142.99999345398,2|2,0:0|0:0,0:0:0:0:
303,282,154334,1,2,0:0:0:0:
240,215,154481,2,0,P|185:213|146:218,1,71.4999967269899,2|0,0:0|0:0,0:0:0:0:
98,369,154775,2,0,P|127:322|142:286,1,71.4999967269899,8|0,0:0|0:0,0:0:0:0:
37,174,155069,2,0,P|62:222|86:253,1,71.4999967269899,2|0,0:0|0:0,0:0:0:0:
256,354,155363,5,6,0:0:0:0:
62,37,155657,1,2,0:0:0:0:
446,37,155951,1,8,0:0:0:0:
344,249,156246,2,0,P|301:240|271:227,1,71.4999967269899,2|0,0:0|0:0,0:0:0:0:
422,200,156540,6,0,P|437:241|387:331,1,142.99999345398,2|0,0:0|0:0,0:0:0:0:
310,361,156981,1,2,0:0:0:0:
168,282,157128,2,0,P|211:291|241:304,1,71.4999967269899,8|0,0:0|0:0,0:0:0:0:
22,348,157422,2,0,L|113:342,1,71.4999967269899,2|0,0:0|0:0,0:0:0:0:
94,193,157716,6,0,P|74:258|19:223,1,142.99999345398,2|0,0:0|0:0,0:0:0:0:
45,125,158157,1,2,0:0:0:0:
258,193,158304,1,8,0:0:0:0:
168,282,158451,1,0,0:0:0:0:
204,109,158598,2,0,P|245:111|286:118,1,71.4999967269899,2|0,0:0|0:0,0:0:0:0:
168,282,158893,1,2,0:0:0:0:
125,118,159040,1,2,0:0:0:0:
329,199,159187,2,0,P|288:197|247:190,1,71.4999967269899,0|2,0:0|0:0,0:0:0:0:
278,100,159481,1,8,0:0:0:0:
408,172,159628,1,2,0:0:0:0:
168,282,159775,2,0,P|161:242|162:205,1,71.4999967269899,0|2,0:0|0:0,0:0:0:0:
408,172,160069,6,0,L|404:314,1,142.99999345398,6|0,0:0|0:0,0:0:0:0:
336,375,160510,1,2,0:0:0:0:
247,341,160657,2,0,B|207:317|183:311|183:311|147:323|120:348,1,142.99999345398,8|0,0:0|0:0,0:0:0:0:
121,346,161098,1,2,0:0:0:0:
36,231,161246,2,0,L|114:237,1,71.4999967269899,0|2,0:0|0:0,0:0:0:0:
289,194,161540,2,0,L|211:200,1,71.4999967269899,0|2,0:0|0:0,0:0:0:0:
64,134,161834,2,0,L|142:140,1,71.4999967269899,8|0,0:0|0:0,0:0:0:0:
282,18,162128,6,0,B|219:28|203:80|203:80|250:104,1,142.99999345398,2|0,0:0|0:0,0:0:0:0:
439,152,162569,1,2,0:0:0:0:
439,152,162716,2,0,P|447:108|446:67,1,71.4999967269899,0|2,0:0|0:0,0:0:0:0:
309,229,163010,2,0,L|316:304,1,71.4999967269899,8|0,0:0|0:0,0:0:0:0:
400,143,163304,2,0,P|364:142|328:144,1,71.4999967269899,2|0,0:0|0:0,0:0:0:0:
402,305,163598,6,0,P|437:305|473:304,1,71.4999967269899,2|2,0:0|0:0,0:0:0:0:
226,294,163893,1,0,0:0:0:0:
301,384,164040,2,0,P|341:379|387:379,1,71.4999967269899,2|8,0:0|0:0,0:0:0:0:
434,229,164334,1,0,0:0:0:0:
222,202,164481,2,0,P|222:237|226:285,1,71.4999967269899,0|2,0:0|0:0,0:0:0:0:
256,124,164775,6,0,P|188:125|100:130,1,142.99999345398,2|0,0:0|0:0,0:0:0:0:
21,143,165216,1,2,0:0:0:0:
107,280,165363,2,0,P|154:229|223:236,1,142.99999345398,8|0,0:0|0:0,0:0:0:0:
102,373,165804,1,2,0:0:0:0:
295,275,165951,2,0,P|305:223|306:199,1,71.4999967269899,2|0,0:0|0:0,0:0:0:0:
124,58,166246,2,0,P|114:110|113:134,1,71.4999967269899,8|2,0:3|0:0,0:0:0:0:
345,99,166540,2,0,P|306:97|257:104,1,71.4999967269899,4|0,0:3|0:0,0:0:0:0:
43,185,166834,6,0,P|118:215|198:114,1,214.49999018097,6|0,0:0|0:0,0:0:0:0:
27,39,167422,2,0,P|17:91|16:115,1,71.4999967269899,2|2,0:0|0:0,0:0:0:0:
49,339,167716,1,8,0:1:0:0:
55,317,168010,1,12,0:1:0:0:
203,26,168304,5,2,0:0:0:0:
205,38,168451,1,8,0:0:0:0:
208,50,168598,1,0,0:0:0:0:
284,259,168893,1,8,0:1:0:0:
283,247,169040,1,2,0:0:0:0:
283,235,169187,1,8,0:3:0:0:
284,223,169334,1,4,0:3:0:0:
288,212,169481,6,0,P|367:198|400:248,1,142.99999345398,6|0,0:0|0:0,0:0:0:0:
387,334,169922,1,2,0:0:0:0:
205,242,170069,1,8,0:0:0:0:
401,93,170216,2,0,P|407:135|410:170,1,71.4999967269899
399,242,170510,1,0,0:0:0:0:
156,164,170657,6,0,P|166:92|234:57,1,142.99999345398,2|0,0:0|0:0,0:0:0:0:
313,73,171098,1,2,0:0:0:0:
162,251,171246,2,0,P|130:243|76:212,1,71.4999967269899,8|0,0:0|0:0,0:0:0:0:
330,173,171540,2,0,P|373:162|406:137,1,71.4999967269899,2|0,0:0|0:0,0:0:0:0:
266,352,171834,6,0,P|258:278|251:192,1,142.99999345398,2|0,0:0|0:0,0:0:0:0:
253,132,172275,1,2,0:0:0:0:
464,36,172422,2,0,P|472:77|472:112,1,71.4999967269899,8|0,0:0|0:0,0:0:0:0:
179,94,172716,6,0,P|234:51|303:68,1,142.99999345398,2|0,0:0|0:0,0:0:0:0:
382,110,173157,1,2,0:0:0:0:
129,169,173304,2,0,P|87:162|53:148,1,71.4999967269899,0|2,0:0|0:0,0:0:0:0:
189,247,173598,2,0,P|147:254|110:253,1,71.4999967269899,8|0,0:0|0:0,0:0:0:0:
282,293,173893,2,0,P|245:314|210:325,1,71.4999967269899,2|2,0:0|0:0,0:0:0:0:
347,35,174187,5,2,0:0:0:0:
51,98,174481,1,2,0:0:0:0:
460,337,174775,1,8,0:0:0:0:
264,218,175069,1,0,0:0:0:0:
265,204,175216,1,2,0:0:0:0:
271,192,175363,2,0,P|313:177|418:195,1,142.99999345398
483,244,175804,1,0,0:0:0:0:
187,240,175951,2,0,P|181:205|177:169,1,71.4999967269899,8|0,0:0|0:0,0:0:0:0:
348,77,176246,6,0,P|346:127|344:168,1,71.4999967269899
87,175,176540,2,0,P|101:125|194:77,1,142.99999345398,2|0,0:0|0:0,0:0:0:0:
344,148,176981,1,2,0:0:0:0:
187,240,177128,2,0,P|184:280|186:316,1,71.4999967269899,8|0,0:0|0:0,0:0:0:0:
419,253,177422,2,0,P|421:212|420:177,1,71.4999967269899
261,113,177716,5,0,0:0:0:0:
315,384,177863,1,2,0:0:0:0:
500,218,178010,2,0,P|505:148|507:68,1,142.99999345398,0|8,0:0|0:0,0:0:0:0:
156,89,178451,1,0,0:0:0:0:
372,7,178598,2,0,P|420:5|457:10,1,71.4999967269899,0|2,0:0|0:0,0:0:0:0:
88,44,178893,5,2,0:0:0:0:
79,47,179187,5,2,0:0:0:0:
72,49,179481,6,0,P|40:112|86:194,1,142.99999345398,8|0,0:0|0:0,0:0:0:0:
147,215,179922,1,2,0:0:0:0:
284,97,180069,2,0,P|249:92|192:90,1,71.4999967269899,2|0,0:0|0:0,0:0:0:0:
252,258,180363,2,0,P|286:262|344:265,1,71.4999967269899,0|2,0:0|0:0,0:0:0:0:
155,243,180657,2,0,P|146:277|142:323,1,71.4999967269899,8|0,0:0|0:0,0:0:0:0:
447,335,180951,6,0,P|458:262|462:191,1,142.99999345398
449,100,181393,1,2,0:0:0:0:
358,308,181540,2,0,P|359:343|363:379,1,71.4999967269899
294,232,181834,2,0,B|262:243|228:235|228:235|189:228|142:244,1,142.99999345398,8|0,0:0|0:0,0:0:0:0:
82,297,182275,1,2,0:0:0:0:
254,156,182422,2,0,P|255:120|254:85,1,71.4999967269899,2|0,0:0|0:0,0:0:0:0:
36,95,182716,2,0,P|34:130|36:166,1,71.4999967269899,2|2,0:0|0:0,0:0:0:0:
177,36,183010,2,0,P|139:31|92:40,1,71.4999967269899,8|0,0:0|0:0,0:0:0:0:
342,154,183304,6,0,P|413:159|431:73,1,142.99999345398,2|2,0:0|0:0,0:0:0:0:
448,9,183746,1,0,0:0:0:0:
268,192,183893,2,0,P|271:255|279:344,1,142.99999345398,2|8,0:0|0:0,0:0:0:0:
311,41,184481,1,8,0:0:0:0:
316,29,184628,1,2,0:0:0:0:
321,18,184775,1,8,0:0:0:0:
51,117,185069,1,8,0:3:0:0:
439,205,185363,2,0,P|437:256|430:293,1,71.4999967269899,4|2,0:3|0:0,0:0:0:0:
263,234,185657,6,0,B|302:198|351:189|351:189|363:244|344:290|344:290|298:278|268:243,1,285.99998690796,6|0,0:0|0:0,0:0:0:0:
240,149,186393,2,0,P|277:127|312:116,1,71.4999967269899,2|8,0:0|0:0,0:0:0:0:
303,369,186834,2,0,P|243:329|187:284,1,142.99999345398,8|0,0:0|0:0,0:0:0:0:
176,202,187275,1,0,0:0:0:0:
192,317,187422,1,8,0:0:0:0:
35,256,187716,1,8,0:0:0:0:
81,237,187863,1,8,0:3:0:0:
128,219,188010,1,4,0:3:0:0:
176,202,188157,1,4,0:3:0:0:
224,184,188304,6,0,P|294:189|342:195,2,110,6|2|8,0:0|0:0|1:0,0:0:0:0:
304,312,189187,1,0,0:0:0:0:
339,308,189334,1,2,0:0:0:0:
375,304,189481,1,2,0:0:0:0:
410,301,189628,1,8,1:0:0:0:
446,297,189775,1,2,0:0:0:0:
199,322,190069,1,8,1:0:0:0:
127,163,190363,1,2,0:0:0:0:
208,173,190510,1,8,0:1:0:0:
158,239,190657,6,0,L|146:109,1,110,2|2,0:0|0:0,0:0:0:0:
372,218,191098,1,2,0:0:0:0:
449,189,191246,2,0,L|461:59,1,110,8|0,1:0|0:0,0:0:0:0:
254,141,191687,1,2,0:0:0:0:
219,137,191834,1,2,0:0:0:0:
183,133,191981,1,8,1:0:0:0:
148,130,192128,1,2,0:0:0:0:
381,39,192422,1,8,1:0:0:0:
353,276,192716,1,2,0:0:0:0:
304,208,192863,1,8,0:1:0:0:
367,153,193010,6,0,P|420:159|480:171,2,110,2|2|8,0:0|0:0|1:0,0:0:0:0:
125,220,193893,1,0,0:0:0:0:
157,244,194040,1,2,0:0:0:0:
198,251,194187,1,2,0:0:0:0:
237,241,194334,1,8,1:0:0:0:
269,215,194481,1,2,0:0:0:0:
238,26,194775,1,8,1:0:0:0:
223,107,194922,1,2,0:0:0:0:
154,60,195069,6,0,P|213:55|263:54,1,110,2|2,0:0|0:0,0:0:0:0:
371,194,195510,1,2,0:0:0:0:
307,246,195657,2,0,P|256:251|197:251,1,110,2|8,0:0|1:0,0:0:0:0:
429,92,196246,1,0,0:0:0:0:
426,146,196393,1,2,0:0:0:0:
423,201,196540,1,2,0:0:0:0:
420,256,196687,1,8,1:0:0:0:
417,311,196834,1,2,0:0:0:0:
120,241,197128,2,0,P|109:180|101:118,1,110,8|2,1:0|0:0,0:0:0:0:
176,85,197569,1,8,1:0:0:0:
148,162,197716,5,2,0:0:0:0:
0,1,198010,1,2,0:0:0:0:
254,85,198304,2,0,P|310:81|363:75,1,110,8|0,1:0|0:0,0:0:0:0:
453,47,198746,1,2,0:0:0:0:
353,63,198893,1,2,0:0:0:0:
499,285,199187,2,0,P|506:258|511:231,1,55,2|2,0:0|0:0,0:0:0:0:
404,306,199481,2,0,P|408:333|416:359,1,55,8|0,1:0|0:0,0:0:0:0:
336,233,199775,6,0,P|275:232|206:241,1,110,0|2,0:0|0:0,0:0:0:0:
440,30,200363,1,2,0:0:0:0:
138,150,200657,2,0,P|199:151|268:142,1,110,8|0,1:0|0:0,0:0:0:0:
270,66,201098,1,2,0:0:0:0:
247,145,201246,5,2,0:0:0:0:
112,366,201540,1,0,0:0:0:0:
93,285,201687,1,2,0:0:0:0:
75,204,201834,2,0,P|47:205|20:208,1,55,8|0,1:0|0:0,0:0:0:0:
137,142,202128,6,0,P|193:146|256:146,1,110,2|2,0:0|0:0,0:0:0:0:
440,53,202716,1,2,0:0:0:0:
257,343,203010,1,8,1:0:0:0:
199,1,203304,1,2,0:0:0:0:
279,18,203451,1,8,1:0:0:0:
359,36,203598,5,2,0:0:0:0:
63,104,203893,1,8,1:0:0:0:
407,214,204187,1,8,1:0:0:0:
256,368,204481,1,4,1:0:0:0:
256,192,204628,12,0,210657,0:0:0:0:
256,192,221246,5,6,0:0:0:0:
256,192,221834,1,2,0:0:0:0:
256,192,222422,5,2,0:0:0:0:
256,192,223010,1,2,0:0:0:0:
256,192,223598,5,2,0:0:0:0:
256,192,224186,1,2,0:0:0:0:
256,192,224774,5,2,0:0:0:0:
256,192,225069,1,2,0:0:0:0:
256,192,225216,1,2,0:0:0:0:
256,192,225363,2,0,P|199:192|144:190,1,110
65,104,225804,6,0,P|92:100|122:97,1,55
125,100,226246,1,0,0:0:0:0:
407,288,226540,5,0,0:0:0:0:
399,301,226834,1,0,0:0:0:0:
63,240,227128,5,0,0:0:0:0:
60,219,227422,1,0,0:0:0:0:
408,36,227716,1,0,0:0:0:0:
397,64,228010,6,0,B|377:116|406:171|406:171|434:225|409:293,1,220
284,237,228746,2,0,P|315:226|351:224,1,55
347,231,229187,1,0,0:0:0:0:
57,269,229481,5,0,0:0:0:0:
53,253,229628,1,0,0:0:0:0:
53,238,229775,1,0,0:0:0:0:
352,102,230069,5,0,0:0:0:0:
423,208,230216,1,0,0:0:0:0:
302,164,230363,1,0,0:0:0:0:
426,129,230510,1,0,0:0:0:0:
347,231,230657,6,0,P|272:236|204:236,1,142.99999345398,6|0,0:0|0:0,0:0:0:0:
131,212,231098,1,2,0:0:0:0:
84,99,231246,1,8,1:0:0:0:
269,135,231393,1,0,0:0:0:0:
119,230,231540,2,0,P|115:276|119:308,1,71.4999967269899,2|0,0:0|0:0,0:0:0:0:
338,364,231834,6,0,L|352:271,1,71.4999967269899,2|0,0:0|0:0,0:0:0:0:
227,116,232128,1,0,0:0:0:0:
272,241,232275,1,2,0:0:0:0:
149,135,232422,2,0,P|113:142|80:153,1,71.4999967269899,8|0,1:0|0:0,0:0:0:0:
325,184,232716,2,0,P|360:177|393:166,1,71.4999967269899,2|8,0:0|1:0,0:0:0:0:
223,35,233010,6,0,P|273:83|341:72,1,142.99999345398,2|2,0:0|0:0,0:0:0:0:
397,21,233451,1,2,0:0:0:0:
144,0,233598,2,0,P|104:1|51:10,1,71.4999967269899,8|0,0:0|0:0,0:0:0:0:
207,207,233893,2,0,L|215:123,1,71.4999967269899,0|2,0:0|0:0,0:0:0:0:
51,141,234187,1,2,0:0:0:0:
151,273,234334,1,0,0:0:0:0:
283,148,234481,2,0,P|249:140|196:134,1,71.4999967269899,0|2,0:0|0:0,0:0:0:0:
353,227,234775,2,0,L|432:220,1,71.4999967269899,8|0,1:0|0:0,0:0:0:0:
141,188,235069,1,2,0:0:0:0:
355,306,235216,1,8,1:0:0:0:
491,61,235363,6,0,P|417:63|335:70,2,142.99999345398,6|2|8,0:0|0:1|0:0,0:0:0:0:
106,93,236246,2,0,P|100:35|101:3,1,71.4999967269899,2|0,0:0|0:0,0:0:0:0:
201,161,236540,6,0,P|130:166|59:170,1,142.99999345398,2|0,0:0|0:0,0:0:0:0:
276,116,236981,1,2,0:0:0:0:
88,248,237128,1,8,0:0:0:0:
24,72,237275,1,0,0:0:0:0:
279,202,237422,2,0,P|276:245|273:291,1,71.4999967269899,2|8,0:0|1:0,0:0:0:0:
99,34,237716,6,0,P|170:29|241:25,1,142.99999345398,2|0,0:0|0:0,0:0:0:0:
362,289,238157,1,2,0:0:0:0:
442,116,238304,2,0,P|408:115|356:112,1,71.4999967269899,8|0,0:0|0:0,0:0:0:0:
132,183,238598,1,0,0:0:0:0:
379,259,238746,1,2,0:0:0:0:
297,65,238893,6,0,L|225:65,1,71.4999967269899,2|0,0:0|0:0,0:0:0:0:
89,117,239187,1,0,0:0:0:0:
177,333,239334,1,2,0:0:0:0:
388,204,239481,2,0,L|295:203,1,71.4999967269899,8|0,0:0|0:0,0:0:0:0:
212,9,239775,1,2,0:0:0:0:
465,221,239922,1,8,1:0:0:0:
150,327,240069,6,0,B|121:321|98:299|98:299|123:254|116:212,2,142.99999345398,2|2|8,0:0|0:0|0:0,0:0:0:0:
151,142,240951,2,0,P|115:136|63:148,1,71.4999967269899,0|2,0:0|0:0,0:0:0:0:
271,196,241246,2,0,L|343:190,1,71.4999967269899,2|0,0:0|0:0,0:0:0:0:
234,266,241540,2,0,P|231:306|241:353,1,71.4999967269899,2|2,0:0|0:0,0:0:0:0:
421,284,241834,2,0,L|430:201,1,71.4999967269899,8|0,0:0|0:0,0:0:0:0:
346,36,242128,2,0,P|311:31|275:32,1,71.4999967269899,2|0,0:0|0:0,0:0:0:0:
111,103,242422,6,0,P|186:111|265:108,1,142.99999345398,2|0,0:0|0:0,0:0:0:0:
35,56,242863,1,2,0:0:0:0:
102,274,243010,1,8,0:0:0:0:
259,98,243157,1,2,0:0:0:0:
14,154,243304,2,0,P|22:189|27:225,1,71.4999967269899
107,98,243598,6,0,P|114:63|120:28,1,71.4999967269899,2|0,0:0|0:0,0:0:0:0:
255,177,243893,2,0,P|219:175|184:169,1,71.4999967269899,0|2,0:0|0:0,0:0:0:0:
390,39,244187,1,8,0:0:0:0:
255,257,244334,1,0,0:0:0:0:
496,188,244481,2,0,P|506:127|508:103,1,71.4999967269899,2|8,0:0|1:0,0:0:0:0:
174,28,244775,5,2,0:0:0:0:
470,266,245069,1,2,0:0:0:0:
118,384,245363,1,8,0:0:0:0:
336,172,245657,5,0,0:0:0:0:
256,163,245804,1,2,0:0:0:0:
177,154,245951,1,8,0:0:0:0:
504,136,246246,1,8,0:3:0:0:
0,192,246540,1,8,0:0:0:0:
256,225,246834,6,0,B|280:189|296:245|276:257|248:273|196:241|228:197|256:173|264:149|261:111,1,213.125,4|0,0:0|0:0,0:0:0:0:
