osu file format v14

[General]
AudioFilename: audio.mp3
AudioLeadIn: 0
PreviewTime: -1
Countdown: 0
SampleSet: None
StackLeniency: 0.7
Mode: 3
LetterboxInBreaks: 0
SpecialStyle: 0
WidescreenStoryboard: 1

[Editor]
DistanceSpacing: 1.4
BeatDivisor: 4
GridSize: 16
TimelineZoom: 2.7

[Metadata]
Title:Flower Flag
TitleUnicode:Flower Flag
Artist:FELT
ArtistUnicode:FELT
Creator:RJR-sama
Version:Hard
Source:東方Project
Tags:touhou youyoumu perfect 東方妖々夢 reitaisai8 FELT-003 Yuuga ni sakase Sumizome no sakura Bloom Nobly Ink Black Cherry Blossom Border of Life NAGI☆ maika
BeatmapID:1747301
BeatmapSetID:834135

[Difficulty]
HPDrainRate:7.8
CircleSize:4
OverallDifficulty:7
ApproachRate:5
SliderMultiplier:1.4
SliderTickRate:1

[Events]
//Background and Video events
0,0,"bg.jpg",0,0
//Break Periods
//Storyboard Layer 0 (Background)
//Storyboard Layer 1 (Fail)
//Storyboard Layer 2 (Pass)
//Storyboard Layer 3 (Foreground)
//Storyboard Sound Samples

[TimingPoints]
745,374.99900373599,4,2,1,20,1,0
63744,-100,4,2,1,20,0,1
87744,-100,4,2,1,20,0,0
138744,-100,4,2,1,20,0,1
162744,-100,4,2,1,20,0,0
210744,-151.515151515152,4,2,1,20,0,0
219744,-100,4,2,1,20,0,0
222744,-100,4,2,1,20,0,1
234744,-100,4,2,1,20,0,0

[HitObjects]
64,192,557,5,0,0:0:0:0:
192,192,620,1,0,0:0:0:0:
320,192,682,1,0,0:0:0:0:
448,192,745,128,0,2244:0:0:0:0:
64,192,745,1,0,0:0:0:0:
320,192,932,1,0,0:0:0:0:
192,192,1057,1,0,0:0:0:0:
320,192,1307,1,0,0:0:0:0:
64,192,1307,1,0,0:0:0:0:
192,192,1494,1,0,0:0:0:0:
64,192,1682,1,0,0:0:0:0:
320,192,1869,1,0,0:0:0:0:
192,192,2057,1,0,0:0:0:0:
64,192,2244,128,0,3744:0:0:0:0:
320,192,2244,1,0,0:0:0:0:
448,192,2432,1,0,0:0:0:0:
192,192,2619,1,0,0:0:0:0:
320,192,2807,1,0,0:0:0:0:
448,192,3182,1,0,0:0:0:0:
192,192,3369,1,0,0:0:0:0:
448,192,3744,128,0,4307:0:0:0:0:
320,192,3744,1,0,0:0:0:0:
64,192,4119,1,0,0:0:0:0:
64,192,4307,128,0,5057:0:0:0:0:
320,192,4307,1,0,0:0:0:0:
192,192,4494,1,0,0:0:0:0:
448,192,4682,1,0,0:0:0:0:
192,192,4869,1,0,0:0:0:0:
320,192,5057,1,0,0:0:0:0:
448,192,5244,128,0,6369:0:0:0:0:
192,192,5244,1,0,0:0:0:0:
64,192,5432,1,0,0:0:0:0:
320,192,5619,1,0,0:0:0:0:
64,192,5807,1,0,0:0:0:0:
320,192,5994,1,0,0:0:0:0:
320,192,6182,1,0,0:0:0:0:
192,192,6369,1,0,0:0:0:0:
64,192,6369,1,0,0:0:0:0:
320,192,6744,128,0,7307:0:0:0:0:
192,192,6744,1,0,0:0:0:0:
448,192,6744,1,0,0:0:0:0:
64,192,6932,1,0,0:0:0:0:
192,192,7119,1,0,0:0:0:0:
192,192,7307,128,0,8244:0:0:0:0:
448,192,7307,1,0,0:0:0:0:
64,192,7494,1,0,0:0:0:0:
320,192,7682,1,0,0:0:0:0:
448,192,7869,1,0,0:0:0:0:
64,192,8057,1,0,0:0:0:0:
448,192,8244,128,0,8807:0:0:0:0:
320,192,8432,1,0,0:0:0:0:
64,192,8432,1,0,0:0:0:0:
192,192,8619,1,0,0:0:0:0:
320,192,8807,128,0,9744:0:0:0:0:
64,192,8807,1,0,0:0:0:0:
448,192,8994,1,0,0:0:0:0:
192,192,9369,128,0,9744:0:0:0:0:
64,192,9369,1,0,0:0:0:0:
448,192,9369,1,0,0:0:0:0:
64,192,9744,128,0,10307:0:0:0:0:
448,192,9744,1,0,0:0:0:0:
320,192,9932,1,0,0:0:0:0:
448,192,10119,1,0,0:0:0:0:
448,192,10307,128,0,11057:0:0:0:0:
320,192,10307,1,0,0:0:0:0:
192,192,10307,1,0,0:0:0:0:
320,192,10494,1,0,0:0:0:0:
64,192,10682,1,0,0:0:0:0:
320,192,10869,1,0,0:0:0:0:
192,192,11057,128,0,11807:0:0:0:0:
64,192,11057,1,0,0:0:0:0:
320,192,11432,1,0,0:0:0:0:
64,192,11619,1,0,0:0:0:0:
448,192,11619,1,0,0:0:0:0:
320,192,11807,1,0,0:0:0:0:
64,192,11994,1,0,0:0:0:0:
448,192,11994,1,0,0:0:0:0:
320,192,12088,1,0,0:0:0:0:
192,192,12182,1,0,0:0:0:0:
320,192,12276,1,0,0:0:0:0:
64,192,12369,1,0,0:0:0:0:
448,192,12369,1,0,0:0:0:0:
192,192,12463,1,0,0:0:0:0:
320,192,12557,1,0,0:0:0:0:
192,192,12651,1,0,0:0:0:0:
64,192,12744,1,0,0:0:0:0:
448,192,12744,128,0,13307:0:0:0:0:
192,192,12932,1,0,0:0:0:0:
320,192,13119,1,0,0:0:0:0:
64,192,13307,128,0,14244:0:0:0:0:
192,192,13307,1,0,0:0:0:0:
448,192,13494,1,0,0:0:0:0:
320,192,13682,1,0,0:0:0:0:
320,192,13869,128,0,14244:0:0:0:0:
448,192,13869,1,0,0:0:0:0:
448,192,14244,128,0,14807:0:0:0:0:
192,192,14244,1,0,0:0:0:0:
320,192,14432,1,0,0:0:0:0:
64,192,14619,1,0,0:0:0:0:
192,192,14807,128,0,15744:0:0:0:0:
320,192,14807,1,0,0:0:0:0:
64,192,14994,1,0,0:0:0:0:
448,192,15182,1,0,0:0:0:0:
320,192,15369,128,0,15744:0:0:0:0:
64,192,15369,1,0,0:0:0:0:
64,192,15744,128,0,16119:0:0:0:0:
448,192,15744,1,0,0:0:0:0:
320,192,15932,1,0,0:0:0:0:
448,192,16119,128,0,16494:0:0:0:0:
192,192,16119,1,0,0:0:0:0:
320,192,16307,1,0,0:0:0:0:
192,192,16494,128,0,16869:0:0:0:0:
64,192,16494,1,0,0:0:0:0:
320,192,16682,1,0,0:0:0:0:
320,192,16869,128,0,17244:0:0:0:0:
448,192,16869,1,0,0:0:0:0:
64,192,17057,1,0,0:0:0:0:
64,192,17244,128,0,18557:0:0:0:0:
192,192,17244,1,0,0:0:0:0:
448,192,17432,1,0,0:0:0:0:
320,192,17619,1,0,0:0:0:0:
192,192,17807,1,0,0:0:0:0:
448,192,17994,1,0,0:0:0:0:
192,192,18182,1,0,0:0:0:0:
320,192,18369,1,0,0:0:0:0:
192,192,18557,128,0,21744:0:0:0:0:
448,192,18557,1,0,0:0:0:0:
320,192,18744,1,0,0:0:0:0:
448,192,18932,1,0,0:0:0:0:
64,192,19119,1,0,0:0:0:0:
320,192,19307,1,0,0:0:0:0:
448,192,19494,1,0,0:0:0:0:
64,192,19682,1,0,0:0:0:0:
320,192,19869,1,0,0:0:0:0:
448,192,20057,1,0,0:0:0:0:
64,192,20244,1,0,0:0:0:0:
448,192,20432,1,0,0:0:0:0:
320,192,20619,1,0,0:0:0:0:
64,192,20807,1,0,0:0:0:0:
448,192,20994,1,0,0:0:0:0:
64,192,21182,1,0,0:0:0:0:
320,192,21369,1,0,0:0:0:0:
448,192,21557,1,0,0:0:0:0:
320,192,21744,128,0,22869:0:0:0:0:
64,192,21744,1,0,0:0:0:0:
448,192,21932,1,0,0:0:0:0:
192,192,22119,1,0,0:0:0:0:
64,192,22307,1,0,0:0:0:0:
448,192,22494,1,0,0:0:0:0:
64,192,22682,1,0,0:0:0:0:
192,192,22869,1,0,0:0:0:0:
448,192,23057,128,0,24182:0:0:0:0:
64,192,23057,1,0,0:0:0:0:
320,192,23432,1,0,0:0:0:0:
64,192,23619,1,0,0:0:0:0:
320,192,23807,1,0,0:0:0:0:
64,192,23994,1,0,0:0:0:0:
320,192,24182,1,0,0:0:0:0:
192,192,24182,1,0,0:0:0:0:
64,192,24369,1,0,0:0:0:0:
192,192,24369,1,0,0:0:0:0:
320,192,24557,1,0,0:0:0:0:
448,192,24557,1,0,0:0:0:0:
64,192,24744,128,0,25307:0:0:0:0:
192,192,24744,1,0,0:0:0:0:
448,192,25119,1,0,0:0:0:0:
192,192,25307,128,0,25682:0:0:0:0:
320,192,25307,1,0,0:0:0:0:
448,192,25494,1,0,0:0:0:0:
64,192,25682,1,0,0:0:0:0:
448,192,25869,128,0,26244:0:0:0:0:
320,192,25869,1,0,0:0:0:0:
192,192,26244,1,0,0:0:0:0:
320,192,26432,128,0,26807:0:0:0:0:
64,192,26807,128,0,27182:0:0:0:0:
448,192,27182,1,0,0:0:0:0:
192,192,27369,128,0,27744:0:0:0:0:
320,192,27369,1,0,0:0:0:0:
64,192,27744,1,0,0:0:0:0:
320,192,28119,1,0,0:0:0:0:
448,192,28307,128,0,28869:0:0:0:0:
192,192,28682,1,0,0:0:0:0:
64,192,28869,1,0,0:0:0:0:
320,192,29057,1,0,0:0:0:0:
192,192,29244,128,0,29619:0:0:0:0:
448,192,29244,1,0,0:0:0:0:
64,192,29619,1,0,0:0:0:0:
320,192,29807,128,0,30369:0:0:0:0:
448,192,30369,1,0,0:0:0:0:
64,192,30557,1,0,0:0:0:0:
448,192,30744,1,0,0:0:0:0:
192,192,30932,1,0,0:0:0:0:
320,192,31119,1,0,0:0:0:0:
448,192,31307,1,0,0:0:0:0:
64,192,31307,128,0,31869:0:0:0:0:
192,192,31869,128,0,32244:0:0:0:0:
320,192,31869,1,0,0:0:0:0:
448,192,32057,1,0,0:0:0:0:
64,192,32244,1,0,0:0:0:0:
320,192,32432,128,0,32807:0:0:0:0:
448,192,32807,1,0,0:0:0:0:
64,192,33369,1,0,0:0:0:0:
192,192,33557,1,0,0:0:0:0:
448,192,33744,128,0,34119:0:0:0:0:
320,192,34119,1,0,0:0:0:0:
64,192,34307,128,0,34869:0:0:0:0:
320,192,34869,128,0,35244:0:0:0:0:
192,192,35244,128,0,35994:0:0:0:0:
448,192,35432,1,0,0:0:0:0:
64,192,35619,1,0,0:0:0:0:
448,192,35807,1,0,0:0:0:0:
64,192,35994,128,0,36744:0:0:0:0:
320,192,35994,1,0,0:0:0:0:
448,192,36182,1,0,0:0:0:0:
192,192,36369,1,0,0:0:0:0:
320,192,36557,1,0,0:0:0:0:
448,192,36744,1,0,0:0:0:0:
192,192,36744,1,0,0:0:0:0:
320,192,37119,1,0,0:0:0:0:
448,192,37307,128,0,37869:0:0:0:0:
320,192,37494,1,0,0:0:0:0:
320,192,37869,1,0,0:0:0:0:
64,192,37869,1,0,0:0:0:0:
64,192,38244,128,0,38619:0:0:0:0:
192,192,38244,1,0,0:0:0:0:
192,192,38619,1,0,0:0:0:0:
448,192,38619,1,0,0:0:0:0:
320,192,38807,1,0,0:0:0:0:
64,192,38994,1,0,0:0:0:0:
320,192,39182,1,0,0:0:0:0:
64,192,39369,1,0,0:0:0:0:
192,192,39557,128,0,40119:0:0:0:0:
320,192,39744,1,0,0:0:0:0:
320,192,40119,1,0,0:0:0:0:
448,192,40119,1,0,0:0:0:0:
64,192,40307,128,0,41244:0:0:0:0:
448,192,40494,1,0,0:0:0:0:
448,192,40869,1,0,0:0:0:0:
448,192,41244,1,0,0:0:0:0:
320,192,41244,128,0,41807:0:0:0:0:
64,192,41619,1,0,0:0:0:0:
192,192,41807,128,0,42182:0:0:0:0:
64,192,41994,1,0,0:0:0:0:
448,192,42182,128,0,42744:0:0:0:0:
64,192,42369,1,0,0:0:0:0:
320,192,42369,1,0,0:0:0:0:
64,192,42744,128,0,43119:0:0:0:0:
320,192,42744,1,0,0:0:0:0:
192,192,42744,1,0,0:0:0:0:
320,192,43119,1,0,0:0:0:0:
192,192,43307,1,0,0:0:0:0:
448,192,43494,1,0,0:0:0:0:
64,192,43682,1,0,0:0:0:0:
192,192,43869,1,0,0:0:0:0:
320,192,43869,1,0,0:0:0:0:
448,192,44057,128,0,44619:0:0:0:0:
320,192,44151,1,0,0:0:0:0:
64,192,44244,1,0,0:0:0:0:
192,192,44619,1,0,0:0:0:0:
64,192,44807,128,0,45182:0:0:0:0:
320,192,44807,1,0,0:0:0:0:
192,192,44994,1,0,0:0:0:0:
448,192,45182,1,0,0:0:0:0:
320,192,45369,128,0,45744:0:0:0:0:
192,192,45369,1,0,0:0:0:0:
64,192,45651,1,0,0:0:0:0:
448,192,45744,1,0,0:0:0:0:
192,192,45744,128,0,46869:0:0:0:0:
64,192,46119,1,0,0:0:0:0:
320,192,46119,1,0,0:0:0:0:
448,192,46494,1,0,0:0:0:0:
320,192,46682,1,0,0:0:0:0:
64,192,46869,1,0,0:0:0:0:
448,192,47057,128,0,48369:0:0:0:0:
320,192,47432,1,0,0:0:0:0:
192,192,47619,1,0,0:0:0:0:
64,192,47619,1,0,0:0:0:0:
320,192,47807,1,0,0:0:0:0:
192,192,47994,1,0,0:0:0:0:
64,192,48182,1,0,0:0:0:0:
320,192,48182,1,0,0:0:0:0:
192,192,48369,1,0,0:0:0:0:
64,192,48369,1,0,0:0:0:0:
320,192,48557,1,0,0:0:0:0:
448,192,48557,1,0,0:0:0:0:
64,192,48744,128,0,49119:0:0:0:0:
192,192,48744,128,0,49119:0:0:0:0:
320,192,49307,128,0,49869:0:0:0:0:
448,192,49307,128,0,49869:0:0:0:0:
192,192,49869,1,0,0:0:0:0:
64,192,49869,1,0,0:0:0:0:
64,192,50057,128,0,50994:0:0:0:0:
448,192,50057,1,0,0:0:0:0:
320,192,50057,1,0,0:0:0:0:
192,192,50432,1,0,0:0:0:0:
320,192,50619,1,0,0:0:0:0:
448,192,50807,1,0,0:0:0:0:
192,192,50994,1,0,0:0:0:0:
320,192,50994,1,0,0:0:0:0:
448,192,51182,1,0,0:0:0:0:
320,192,51369,1,0,0:0:0:0:
192,192,51557,1,0,0:0:0:0:
64,192,51744,128,0,52682:0:0:0:0:
320,192,52307,1,0,0:0:0:0:
448,192,52682,1,0,0:0:0:0:
320,192,52869,1,0,0:0:0:0:
192,192,52869,1,0,0:0:0:0:
448,192,53057,128,0,53807:0:0:0:0:
64,192,53057,1,0,0:0:0:0:
320,192,53432,1,0,0:0:0:0:
192,192,53432,1,0,0:0:0:0:
64,192,53619,1,0,0:0:0:0:
192,192,53619,1,0,0:0:0:0:
320,192,53807,1,0,0:0:0:0:
192,192,53994,1,0,0:0:0:0:
64,192,54182,1,0,0:0:0:0:
64,192,54369,1,0,0:0:0:0:
320,192,54557,1,0,0:0:0:0:
448,192,54744,128,0,55682:0:0:0:0:
64,192,55119,1,0,0:0:0:0:
192,192,55119,1,0,0:0:0:0:
192,192,55307,1,0,0:0:0:0:
320,192,55307,1,0,0:0:0:0:
64,192,55682,1,0,0:0:0:0:
192,192,55682,1,0,0:0:0:0:
320,192,56057,128,0,56619:0:0:0:0:
192,192,56432,1,0,0:0:0:0:
64,192,56432,1,0,0:0:0:0:
192,192,56619,1,0,0:0:0:0:
448,192,56619,1,0,0:0:0:0:
64,192,56807,1,0,0:0:0:0:
448,192,56807,1,0,0:0:0:0:
320,192,56901,1,0,0:0:0:0:
192,192,56994,1,0,0:0:0:0:
448,192,57088,1,0,0:0:0:0:
320,192,57182,1,0,0:0:0:0:
192,192,57276,1,0,0:0:0:0:
64,192,57369,1,0,0:0:0:0:
448,192,57463,1,0,0:0:0:0:
320,192,57557,1,0,0:0:0:0:
192,192,57651,1,0,0:0:0:0:
64,192,57744,128,0,59244:0:0:0:0:
448,192,57744,1,0,0:0:0:0:
192,192,57932,1,0,0:0:0:0:
320,192,58119,1,0,0:0:0:0:
448,192,58119,1,0,0:0:0:0:
192,192,58307,1,0,0:0:0:0:
448,192,58494,1,0,0:0:0:0:
320,192,58682,1,0,0:0:0:0:
192,192,58869,1,0,0:0:0:0:
320,192,59057,1,0,0:0:0:0:
448,192,59057,1,0,0:0:0:0:
192,192,59244,1,0,0:0:0:0:
448,192,59432,1,0,0:0:0:0:
64,192,59807,1,0,0:0:0:0:
320,192,59807,1,0,0:0:0:0:
192,192,60182,1,0,0:0:0:0:
448,192,60182,1,0,0:0:0:0:
64,192,60369,1,0,0:0:0:0:
320,192,60369,1,0,0:0:0:0:
192,192,60557,1,0,0:0:0:0:
448,192,60557,1,0,0:0:0:0:
64,192,60744,128,0,61307:0:0:0:0:
320,192,60744,1,0,0:0:0:0:
192,192,60932,1,0,0:0:0:0:
448,192,61119,1,0,0:0:0:0:
320,192,61119,1,0,0:0:0:0:
192,192,61307,1,0,0:0:0:0:
448,192,61494,1,0,0:0:0:0:
64,192,61494,1,0,0:0:0:0:
192,192,61682,1,0,0:0:0:0:
320,192,61682,1,0,0:0:0:0:
448,192,61869,1,0,0:0:0:0:
64,192,61869,1,0,0:0:0:0:
64,192,62057,128,0,62807:0:0:0:0:
320,192,62057,1,0,0:0:0:0:
192,192,62432,1,0,0:0:0:0:
448,192,62432,1,0,0:0:0:0:
192,192,62619,1,0,0:0:0:0:
320,192,62619,1,0,0:0:0:0:
448,192,62807,1,0,0:0:0:0:
320,192,62807,1,0,0:0:0:0:
192,192,62994,1,0,0:0:0:0:
320,192,63088,1,0,0:0:0:0:
448,192,63182,1,0,0:0:0:0:
64,192,63369,1,0,0:0:0:0:
192,192,63369,1,0,0:0:0:0:
64,192,63557,1,0,0:0:0:0:
192,192,63557,1,0,0:0:0:0:
320,192,63744,1,0,0:0:0:0:
448,192,63744,128,0,64307:0:0:0:0:
192,192,63932,1,0,0:0:0:0:
64,192,64119,1,0,0:0:0:0:
320,192,64119,1,0,0:0:0:0:
192,192,64307,128,0,64869:0:0:0:0:
64,192,64307,1,0,0:0:0:0:
320,192,64494,1,0,0:0:0:0:
448,192,64682,1,0,0:0:0:0:
320,192,64869,1,0,0:0:0:0:
64,192,64869,1,0,0:0:0:0:
448,192,65057,1,0,0:0:0:0:
64,192,65151,1,0,0:0:0:0:
192,192,65244,1,0,0:0:0:0:
320,192,65244,128,0,65807:0:0:0:0:
448,192,65432,1,0,0:0:0:0:
64,192,65619,1,0,0:0:0:0:
192,192,65807,1,0,0:0:0:0:
448,192,65807,128,0,66369:0:0:0:0:
64,192,65994,1,0,0:0:0:0:
320,192,66182,1,0,0:0:0:0:
192,192,66369,1,0,0:0:0:0:
64,192,66369,1,0,0:0:0:0:
320,192,66557,1,0,0:0:0:0:
192,192,66651,1,0,0:0:0:0:
448,192,66744,1,0,0:0:0:0:
64,192,66744,128,0,67307:0:0:0:0:
320,192,66932,1,0,0:0:0:0:
192,192,67119,1,0,0:0:0:0:
448,192,67119,1,0,0:0:0:0:
320,192,67307,128,0,67869:0:0:0:0:
192,192,67307,1,0,0:0:0:0:
448,192,67494,1,0,0:0:0:0:
64,192,67682,1,0,0:0:0:0:
192,192,67869,1,0,0:0:0:0:
448,192,67869,1,0,0:0:0:0:
64,192,68057,1,0,0:0:0:0:
192,192,68151,1,0,0:0:0:0:
320,192,68244,1,0,0:0:0:0:
448,192,68244,128,0,69182:0:0:0:0:
64,192,68432,1,0,0:0:0:0:
320,192,68619,1,0,0:0:0:0:
192,192,68619,1,0,0:0:0:0:
64,192,68807,128,0,69182:0:0:0:0:
192,192,68994,1,0,0:0:0:0:
320,192,69182,1,0,0:0:0:0:
64,192,69369,1,0,0:0:0:0:
192,192,69369,1,0,0:0:0:0:
320,192,69369,1,0,0:0:0:0:
448,192,69557,1,0,0:0:0:0:
192,192,69557,1,0,0:0:0:0:
448,192,69744,1,0,0:0:0:0:
64,192,69744,128,0,70307:0:0:0:0:
320,192,69932,1,0,0:0:0:0:
192,192,70119,1,0,0:0:0:0:
448,192,70119,1,0,0:0:0:0:
320,192,70307,128,0,70869:0:0:0:0:
192,192,70307,1,0,0:0:0:0:
448,192,70494,1,0,0:0:0:0:
192,192,70682,1,0,0:0:0:0:
64,192,70869,1,0,0:0:0:0:
448,192,70869,128,0,71244:0:0:0:0:
192,192,71057,1,0,0:0:0:0:
320,192,71244,1,0,0:0:0:0:
64,192,71244,128,0,71619:0:0:0:0:
192,192,71432,1,0,0:0:0:0:
320,192,71619,1,0,0:0:0:0:
448,192,71619,1,0,0:0:0:0:
192,192,71807,128,0,72744:0:0:0:0:
64,192,71807,1,0,0:0:0:0:
448,192,71994,1,0,0:0:0:0:
320,192,72182,1,0,0:0:0:0:
64,192,72369,1,0,0:0:0:0:
448,192,72369,1,0,0:0:0:0:
320,192,72557,1,0,0:0:0:0:
448,192,72744,128,0,73307:0:0:0:0:
64,192,72744,1,0,0:0:0:0:
320,192,72932,1,0,0:0:0:0:
192,192,73119,1,0,0:0:0:0:
64,192,73119,1,0,0:0:0:0:
320,192,73307,128,0,73869:0:0:0:0:
192,192,73307,1,0,0:0:0:0:
64,192,73494,1,0,0:0:0:0:
448,192,73682,1,0,0:0:0:0:
192,192,73869,1,0,0:0:0:0:
64,192,73869,1,0,0:0:0:0:
448,192,74057,128,0,74619:0:0:0:0:
320,192,74057,1,0,0:0:0:0:
192,192,74432,1,0,0:0:0:0:
64,192,74619,1,0,0:0:0:0:
320,192,74619,1,0,0:0:0:0:
64,192,74994,1,0,0:0:0:0:
192,192,75088,1,0,0:0:0:0:
320,192,75182,1,0,0:0:0:0:
448,192,75276,1,0,0:0:0:0:
64,192,75369,1,0,0:0:0:0:
192,192,75369,1,0,0:0:0:0:
320,192,75463,1,0,0:0:0:0:
448,192,75463,1,0,0:0:0:0:
64,192,75557,1,0,0:0:0:0:
192,192,75557,1,0,0:0:0:0:
320,192,75651,1,0,0:0:0:0:
448,192,75651,1,0,0:0:0:0:
192,192,75744,1,0,0:0:0:0:
64,192,75744,128,0,76307:0:0:0:0:
320,192,75932,1,0,0:0:0:0:
448,192,76119,1,0,0:0:0:0:
192,192,76119,1,0,0:0:0:0:
320,192,76307,128,0,76869:0:0:0:0:
448,192,76494,1,0,0:0:0:0:
192,192,76682,1,0,0:0:0:0:
64,192,76869,1,0,0:0:0:0:
448,192,76869,1,0,0:0:0:0:
192,192,77057,1,0,0:0:0:0:
320,192,77151,1,0,0:0:0:0:
448,192,77244,128,0,77807:0:0:0:0:
64,192,77244,1,0,0:0:0:0:
192,192,77432,1,0,0:0:0:0:
320,192,77619,1,0,0:0:0:0:
192,192,77807,1,0,0:0:0:0:
64,192,77807,128,0,78369:0:0:0:0:
320,192,77994,1,0,0:0:0:0:
448,192,78182,1,0,0:0:0:0:
320,192,78369,1,0,0:0:0:0:
192,192,78369,1,0,0:0:0:0:
448,192,78557,1,0,0:0:0:0:
320,192,78651,1,0,0:0:0:0:
64,192,78744,1,0,0:0:0:0:
192,192,78744,128,0,79307:0:0:0:0:
448,192,78932,1,0,0:0:0:0:
320,192,79119,1,0,0:0:0:0:
64,192,79119,1,0,0:0:0:0:
448,192,79307,128,0,79869:0:0:0:0:
320,192,79494,1,0,0:0:0:0:
64,192,79682,1,0,0:0:0:0:
192,192,79869,1,0,0:0:0:0:
320,192,79869,1,0,0:0:0:0:
64,192,80057,1,0,0:0:0:0:
192,192,80151,1,0,0:0:0:0:
448,192,80244,1,0,0:0:0:0:
320,192,80244,128,0,81182:0:0:0:0:
192,192,80432,1,0,0:0:0:0:
448,192,80619,1,0,0:0:0:0:
64,192,80619,1,0,0:0:0:0:
192,192,80807,128,0,81182:0:0:0:0:
448,192,80994,1,0,0:0:0:0:
64,192,81182,1,0,0:0:0:0:
448,192,81369,1,0,0:0:0:0:
320,192,81369,1,0,0:0:0:0:
64,192,81557,1,0,0:0:0:0:
320,192,81557,1,0,0:0:0:0:
192,192,81744,1,0,0:0:0:0:
448,192,81744,128,0,82307:0:0:0:0:
320,192,81932,1,0,0:0:0:0:
64,192,82119,1,0,0:0:0:0:
192,192,82119,1,0,0:0:0:0:
64,192,82307,128,0,82869:0:0:0:0:
320,192,82307,1,0,0:0:0:0:
192,192,82494,1,0,0:0:0:0:
320,192,82682,1,0,0:0:0:0:
320,192,82869,128,0,83244:0:0:0:0:
448,192,82869,1,0,0:0:0:0:
192,192,82869,1,0,0:0:0:0:
192,192,83057,1,0,0:0:0:0:
64,192,83057,1,0,0:0:0:0:
192,192,83244,128,0,83619:0:0:0:0:
448,192,83244,1,0,0:0:0:0:
64,192,83432,1,0,0:0:0:0:
320,192,83619,1,0,0:0:0:0:
64,192,83807,128,0,84744:0:0:0:0:
448,192,83807,1,0,0:0:0:0:
192,192,83994,1,0,0:0:0:0:
320,192,84182,1,0,0:0:0:0:
448,192,84369,1,0,0:0:0:0:
192,192,84369,1,0,0:0:0:0:
320,192,84557,1,0,0:0:0:0:
448,192,84744,128,0,85307:0:0:0:0:
192,192,84744,1,0,0:0:0:0:
320,192,84932,1,0,0:0:0:0:
192,192,85119,1,0,0:0:0:0:
64,192,85119,1,0,0:0:0:0:
192,192,85307,128,0,85869:0:0:0:0:
320,192,85307,1,0,0:0:0:0:
64,192,85494,1,0,0:0:0:0:
448,192,85682,1,0,0:0:0:0:
320,192,85869,1,0,0:0:0:0:
64,192,85869,1,0,0:0:0:0:
320,192,86057,128,0,86619:0:0:0:0:
448,192,86057,1,0,0:0:0:0:
192,192,86432,1,0,0:0:0:0:
64,192,86619,1,0,0:0:0:0:
448,192,86619,1,0,0:0:0:0:
448,192,86994,1,0,0:0:0:0:
320,192,87088,1,0,0:0:0:0:
192,192,87182,1,0,0:0:0:0:
64,192,87276,1,0,0:0:0:0:
448,192,87369,1,0,0:0:0:0:
320,192,87463,1,0,0:0:0:0:
192,192,87557,1,0,0:0:0:0:
64,192,87651,1,0,0:0:0:0:
448,192,87744,128,0,88494:0:0:0:0:
320,192,87744,1,0,0:0:0:0:
192,192,87932,1,0,0:0:0:0:
320,192,88119,1,0,0:0:0:0:
64,192,88119,1,0,0:0:0:0:
192,192,88307,128,0,88869:0:0:0:0:
320,192,88307,1,0,0:0:0:0:
64,192,88494,1,0,0:0:0:0:
320,192,88682,1,0,0:0:0:0:
64,192,88869,128,0,89244:0:0:0:0:
448,192,88869,1,0,0:0:0:0:
320,192,89057,1,0,0:0:0:0:
448,192,89244,128,0,89994:0:0:0:0:
192,192,89244,1,0,0:0:0:0:
64,192,89432,1,0,0:0:0:0:
320,192,89619,1,0,0:0:0:0:
192,192,89807,128,0,90369:0:0:0:0:
64,192,89807,1,0,0:0:0:0:
320,192,89994,1,0,0:0:0:0:
64,192,90182,1,0,0:0:0:0:
448,192,90369,1,0,0:0:0:0:
320,192,90369,128,0,90744:0:0:0:0:
64,192,90557,1,0,0:0:0:0:
448,192,90744,1,0,0:0:0:0:
192,192,90744,128,0,91119:0:0:0:0:
64,192,90932,1,0,0:0:0:0:
64,192,91119,128,0,91494:0:0:0:0:
320,192,91119,1,0,0:0:0:0:
448,192,91307,1,0,0:0:0:0:
448,192,91494,128,0,91869:0:0:0:0:
192,192,91494,1,0,0:0:0:0:
320,192,91682,1,0,0:0:0:0:
320,192,91869,128,0,92244:0:0:0:0:
64,192,91869,1,0,0:0:0:0:
192,192,92057,1,0,0:0:0:0:
448,192,92244,1,0,0:0:0:0:
64,192,92244,1,0,0:0:0:0:
192,192,92432,1,0,0:0:0:0:
320,192,92619,1,0,0:0:0:0:
448,192,92619,1,0,0:0:0:0:
192,192,92807,1,0,0:0:0:0:
64,192,92994,1,0,0:0:0:0:
320,192,92994,1,0,0:0:0:0:
448,192,93182,1,0,0:0:0:0:
320,192,93369,1,0,0:0:0:0:
192,192,93369,1,0,0:0:0:0:
64,192,93557,1,0,0:0:0:0:
192,192,93744,1,0,0:0:0:0:
448,192,93744,128,0,94682:0:0:0:0:
320,192,93932,1,0,0:0:0:0:
192,192,94119,1,0,0:0:0:0:
64,192,94119,1,0,0:0:0:0:
64,192,94307,128,0,95244:0:0:0:0:
320,192,94307,1,0,0:0:0:0:
192,192,94494,1,0,0:0:0:0:
320,192,94682,1,0,0:0:0:0:
448,192,94869,128,0,95244:0:0:0:0:
192,192,94869,1,0,0:0:0:0:
320,192,95057,1,0,0:0:0:0:
192,192,95244,128,0,95807:0:0:0:0:
320,192,95432,1,0,0:0:0:0:
64,192,95619,1,0,0:0:0:0:
320,192,95807,128,0,96369:0:0:0:0:
448,192,95807,1,0,0:0:0:0:
64,192,95994,1,0,0:0:0:0:
192,192,96182,1,0,0:0:0:0:
448,192,96369,1,0,0:0:0:0:
64,192,96369,128,0,96744:0:0:0:0:
192,192,96744,128,0,97119:0:0:0:0:
320,192,96744,1,0,0:0:0:0:
448,192,96932,1,0,0:0:0:0:
320,192,97119,1,0,0:0:0:0:
64,192,97119,1,0,0:0:0:0:
448,192,97307,128,0,97682:0:0:0:0:
320,192,97307,1,0,0:0:0:0:
192,192,97494,1,0,0:0:0:0:
64,192,97682,1,0,0:0:0:0:
320,192,97869,128,0,99744:0:0:0:0:
192,192,97869,1,0,0:0:0:0:
448,192,98057,1,0,0:0:0:0:
64,192,98057,1,0,0:0:0:0:
192,192,98432,1,0,0:0:0:0:
448,192,98525,1,0,0:0:0:0:
64,192,98619,1,0,0:0:0:0:
192,192,98807,1,0,0:0:0:0:
448,192,98994,1,0,0:0:0:0:
64,192,98994,1,0,0:0:0:0:
448,192,99182,1,0,0:0:0:0:
192,192,99182,1,0,0:0:0:0:
64,192,99369,128,0,99744:0:0:0:0:
192,192,99744,1,0,0:0:0:0:
448,192,99744,1,0,0:0:0:0:
64,192,100119,1,0,0:0:0:0:
192,192,100307,1,0,0:0:0:0:
320,192,100494,1,0,0:0:0:0:
448,192,100682,1,0,0:0:0:0:
64,192,100869,1,0,0:0:0:0:
192,192,101057,1,0,0:0:0:0:
320,192,101244,1,0,0:0:0:0:
448,192,101244,128,0,101807:0:0:0:0:
64,192,101432,1,0,0:0:0:0:
192,192,101619,1,0,0:0:0:0:
320,192,101807,1,0,0:0:0:0:
64,192,101807,1,0,0:0:0:0:
192,192,101994,1,0,0:0:0:0:
448,192,102182,1,0,0:0:0:0:
320,192,102275,1,0,0:0:0:0:
192,192,102369,1,0,0:0:0:0:
64,192,102557,1,0,0:0:0:0:
192,192,102744,1,0,0:0:0:0:
448,192,102744,1,0,0:0:0:0:
320,192,102932,1,0,0:0:0:0:
64,192,103119,1,0,0:0:0:0:
192,192,103307,1,0,0:0:0:0:
448,192,103494,1,0,0:0:0:0:
64,192,103682,1,0,0:0:0:0:
320,192,103869,1,0,0:0:0:0:
192,192,104057,1,0,0:0:0:0:
448,192,104244,1,0,0:0:0:0:
64,192,104244,128,0,105369:0:0:0:0:
192,192,104432,1,0,0:0:0:0:
320,192,104619,1,0,0:0:0:0:
448,192,104807,1,0,0:0:0:0:
192,192,104994,1,0,0:0:0:0:
320,192,105182,1,0,0:0:0:0:
448,192,105369,1,0,0:0:0:0:
192,192,105369,1,0,0:0:0:0:
320,192,105557,1,0,0:0:0:0:
192,192,105744,1,0,0:0:0:0:
64,192,105744,1,0,0:0:0:0:
448,192,105744,128,0,108369:0:0:0:0:
320,192,105932,128,0,106494:0:0:0:0:
192,192,106119,128,0,106682:0:0:0:0:
64,192,106494,1,0,0:0:0:0:
320,192,106682,1,0,0:0:0:0:
64,192,106869,1,0,0:0:0:0:
192,192,107057,1,0,0:0:0:0:
320,192,107244,1,0,0:0:0:0:
64,192,107432,1,0,0:0:0:0:
320,192,107619,1,0,0:0:0:0:
192,192,107807,1,0,0:0:0:0:
64,192,107994,1,0,0:0:0:0:
320,192,108182,1,0,0:0:0:0:
192,192,108369,1,0,0:0:0:0:
64,192,108369,1,0,0:0:0:0:
320,192,108557,1,0,0:0:0:0:
192,192,108650,1,0,0:0:0:0:
64,192,108744,1,0,0:0:0:0:
448,192,108744,128,0,108932:0:0:0:0:
320,192,108932,128,0,109119:0:0:0:0:
192,192,109119,128,0,109307:0:0:0:0:
64,192,109307,128,0,109494:0:0:0:0:
448,192,109494,128,0,109682:0:0:0:0:
320,192,109682,128,0,109869:0:0:0:0:
192,192,109869,128,0,110057:0:0:0:0:
64,192,110057,128,0,110807:0:0:0:0:
448,192,110057,1,0,0:0:0:0:
320,192,110244,1,0,0:0:0:0:
192,192,110432,1,0,0:0:0:0:
448,192,110619,1,0,0:0:0:0:
320,192,110807,1,0,0:0:0:0:
192,192,110807,1,0,0:0:0:0:
448,192,110994,1,0,0:0:0:0:
320,192,110994,1,0,0:0:0:0:
320,192,111182,1,0,0:0:0:0:
192,192,111182,1,0,0:0:0:0:
192,192,111369,1,0,0:0:0:0:
64,192,111369,1,0,0:0:0:0:
320,192,111557,1,0,0:0:0:0:
192,192,111744,1,0,0:0:0:0:
448,192,111744,128,0,114744:0:0:0:0:
64,192,111932,1,0,0:0:0:0:
320,192,112119,1,0,0:0:0:0:
192,192,112307,1,0,0:0:0:0:
64,192,112307,1,0,0:0:0:0:
320,192,112494,1,0,0:0:0:0:
64,192,112682,1,0,0:0:0:0:
192,192,112869,1,0,0:0:0:0:
320,192,113057,1,0,0:0:0:0:
64,192,113057,1,0,0:0:0:0:
192,192,113244,1,0,0:0:0:0:
320,192,113432,1,0,0:0:0:0:
64,192,113619,1,0,0:0:0:0:
192,192,113807,1,0,0:0:0:0:
320,192,113994,1,0,0:0:0:0:
64,192,114182,1,0,0:0:0:0:
192,192,114369,1,0,0:0:0:0:
320,192,114369,1,0,0:0:0:0:
64,192,114557,1,0,0:0:0:0:
192,192,114744,128,0,117744:0:0:0:0:
320,192,114744,1,0,0:0:0:0:
64,192,114932,128,0,115307:0:0:0:0:
448,192,115307,1,0,0:0:0:0:
320,192,115494,1,0,0:0:0:0:
64,192,115682,1,0,0:0:0:0:
448,192,115869,1,0,0:0:0:0:
320,192,116057,1,0,0:0:0:0:
64,192,116057,1,0,0:0:0:0:
448,192,116432,1,0,0:0:0:0:
64,192,116432,1,0,0:0:0:0:
320,192,116619,128,0,117182:0:0:0:0:
448,192,116807,1,0,0:0:0:0:
64,192,116994,1,0,0:0:0:0:
448,192,117182,1,0,0:0:0:0:
448,192,117369,1,0,0:0:0:0:
64,192,117369,1,0,0:0:0:0:
320,192,117557,1,0,0:0:0:0:
64,192,117744,128,0,119244:0:0:0:0:
448,192,117744,1,0,0:0:0:0:
320,192,117932,1,0,0:0:0:0:
192,192,118119,1,0,0:0:0:0:
320,192,118307,1,0,0:0:0:0:
448,192,118307,1,0,0:0:0:0:
192,192,118494,1,0,0:0:0:0:
448,192,118682,1,0,0:0:0:0:
320,192,118869,1,0,0:0:0:0:
192,192,119057,1,0,0:0:0:0:
320,192,119244,128,0,119994:0:0:0:0:
448,192,119244,1,0,0:0:0:0:
64,192,119432,1,0,0:0:0:0:
192,192,119619,1,0,0:0:0:0:
192,192,119807,128,0,120744:0:0:0:0:
448,192,119807,1,0,0:0:0:0:
64,192,119994,1,0,0:0:0:0:
448,192,120182,1,0,0:0:0:0:
64,192,120369,1,0,0:0:0:0:
320,192,120557,1,0,0:0:0:0:
448,192,120744,128,0,121869:0:0:0:0:
64,192,120744,1,0,0:0:0:0:
320,192,120932,1,0,0:0:0:0:
64,192,121119,1,0,0:0:0:0:
192,192,121307,1,0,0:0:0:0:
320,192,121307,1,0,0:0:0:0:
64,192,121494,1,0,0:0:0:0:
320,192,121682,128,0,121869:0:0:0:0:
192,192,121869,128,0,122057:0:0:0:0:
448,192,122057,1,0,0:0:0:0:
320,192,122057,128,0,123369:0:0:0:0:
64,192,122057,128,0,123182:0:0:0:0:
192,192,122432,1,0,0:0:0:0:
448,192,122619,1,0,0:0:0:0:
448,192,122994,1,0,0:0:0:0:
192,192,123182,1,0,0:0:0:0:
64,192,123369,1,0,0:0:0:0:
448,192,123369,1,0,0:0:0:0:
192,192,123557,1,0,0:0:0:0:
320,192,123557,1,0,0:0:0:0:
64,192,123744,128,0,124119:0:0:0:0:
448,192,123744,128,0,124119:0:0:0:0:
320,192,124119,1,0,0:0:0:0:
192,192,124307,128,0,124869:0:0:0:0:
320,192,124307,128,0,124869:0:0:0:0:
64,192,124869,1,0,0:0:0:0:
448,192,124869,1,0,0:0:0:0:
448,192,125057,128,0,125994:0:0:0:0:
192,192,125057,1,0,0:0:0:0:
320,192,125432,1,0,0:0:0:0:
64,192,125619,1,0,0:0:0:0:
192,192,125807,1,0,0:0:0:0:
320,192,125994,1,0,0:0:0:0:
64,192,125994,1,0,0:0:0:0:
192,192,126182,1,0,0:0:0:0:
448,192,126182,1,0,0:0:0:0:
64,192,126369,1,0,0:0:0:0:
320,192,126369,1,0,0:0:0:0:
192,192,126557,1,0,0:0:0:0:
448,192,126744,128,0,127682:0:0:0:0:
320,192,126744,128,0,127494:0:0:0:0:
192,192,127307,1,0,0:0:0:0:
64,192,127307,1,0,0:0:0:0:
64,192,127682,1,0,0:0:0:0:
320,192,127682,1,0,0:0:0:0:
320,192,127869,1,0,0:0:0:0:
448,192,127869,1,0,0:0:0:0:
64,192,128057,128,0,128807:0:0:0:0:
192,192,128057,1,0,0:0:0:0:
320,192,128057,1,0,0:0:0:0:
448,192,128432,1,0,0:0:0:0:
320,192,128432,1,0,0:0:0:0:
192,192,128619,1,0,0:0:0:0:
448,192,128619,1,0,0:0:0:0:
320,192,128807,1,0,0:0:0:0:
192,192,128807,1,0,0:0:0:0:
448,192,128994,1,0,0:0:0:0:
192,192,129182,1,0,0:0:0:0:
192,192,129369,1,0,0:0:0:0:
64,192,129557,1,0,0:0:0:0:
448,192,129744,128,0,130682:0:0:0:0:
192,192,129744,128,0,130119:0:0:0:0:
320,192,130119,1,0,0:0:0:0:
64,192,130119,1,0,0:0:0:0:
320,192,130307,128,0,130682:0:0:0:0:
192,192,130682,1,0,0:0:0:0:
64,192,130682,1,0,0:0:0:0:
64,192,131057,128,0,131619:0:0:0:0:
192,192,131057,128,0,131432:0:0:0:0:
448,192,131432,1,0,0:0:0:0:
320,192,131432,1,0,0:0:0:0:
192,192,131619,1,0,0:0:0:0:
320,192,131619,1,0,0:0:0:0:
448,192,131807,1,0,0:0:0:0:
320,192,131900,1,0,0:0:0:0:
192,192,131994,1,0,0:0:0:0:
64,192,132088,1,0,0:0:0:0:
448,192,132182,1,0,0:0:0:0:
320,192,132275,1,0,0:0:0:0:
192,192,132369,1,0,0:0:0:0:
64,192,132463,1,0,0:0:0:0:
448,192,132557,1,0,0:0:0:0:
320,192,132650,1,0,0:0:0:0:
64,192,132744,128,0,134244:0:0:0:0:
192,192,132744,1,0,0:0:0:0:
448,192,132932,1,0,0:0:0:0:
320,192,133119,1,0,0:0:0:0:
192,192,133119,1,0,0:0:0:0:
448,192,133307,1,0,0:0:0:0:
192,192,133494,1,0,0:0:0:0:
320,192,133682,1,0,0:0:0:0:
448,192,133682,128,0,134057:0:0:0:0:
192,192,133869,1,0,0:0:0:0:
320,192,134057,1,0,0:0:0:0:
192,192,134244,1,0,0:0:0:0:
448,192,134432,1,0,0:0:0:0:
64,192,134619,1,0,0:0:0:0:
320,192,134619,128,0,135557:0:0:0:0:
448,192,134783,1,0,0:0:0:0:
192,192,134807,1,0,0:0:0:0:
64,192,134994,1,0,0:0:0:0:
192,192,135182,1,0,0:0:0:0:
448,192,135182,1,0,0:0:0:0:
64,192,135369,1,0,0:0:0:0:
192,192,135369,1,0,0:0:0:0:
192,192,135557,1,0,0:0:0:0:
448,192,135557,1,0,0:0:0:0:
64,192,135744,1,0,0:0:0:0:
320,192,135744,1,0,0:0:0:0:
448,192,135744,128,0,136307:0:0:0:0:
192,192,135932,1,0,0:0:0:0:
320,192,136119,1,0,0:0:0:0:
64,192,136119,1,0,0:0:0:0:
192,192,136307,1,0,0:0:0:0:
64,192,136494,1,0,0:0:0:0:
448,192,136494,1,0,0:0:0:0:
192,192,136682,1,0,0:0:0:0:
320,192,136682,1,0,0:0:0:0:
448,192,136869,1,0,0:0:0:0:
64,192,136869,1,0,0:0:0:0:
64,192,137057,128,0,137807:0:0:0:0:
448,192,137432,1,0,0:0:0:0:
320,192,137432,1,0,0:0:0:0:
192,192,137619,1,0,0:0:0:0:
320,192,137619,1,0,0:0:0:0:
448,192,137807,1,0,0:0:0:0:
320,192,137807,1,0,0:0:0:0:
192,192,137994,1,0,0:0:0:0:
320,192,138088,1,0,0:0:0:0:
448,192,138182,1,0,0:0:0:0:
64,192,138275,1,0,0:0:0:0:
192,192,138369,1,0,0:0:0:0:
320,192,138463,1,0,0:0:0:0:
448,192,138463,1,0,0:0:0:0:
64,192,138557,1,0,0:0:0:0:
192,192,138557,1,0,0:0:0:0:
320,192,138650,1,0,0:0:0:0:
448,192,138650,1,0,0:0:0:0:
192,192,138744,1,0,0:0:0:0:
64,192,138744,128,0,139307:0:0:0:0:
320,192,138932,1,0,0:0:0:0:
192,192,139119,1,0,0:0:0:0:
448,192,139119,1,0,0:0:0:0:
448,192,139307,128,0,139869:0:0:0:0:
320,192,139307,1,0,0:0:0:0:
64,192,139494,1,0,0:0:0:0:
320,192,139682,1,0,0:0:0:0:
64,192,139869,1,0,0:0:0:0:
192,192,139869,1,0,0:0:0:0:
320,192,140057,1,0,0:0:0:0:
192,192,140150,1,0,0:0:0:0:
64,192,140244,128,0,140807:0:0:0:0:
448,192,140244,1,0,0:0:0:0:
320,192,140432,1,0,0:0:0:0:
192,192,140619,1,0,0:0:0:0:
448,192,140619,1,0,0:0:0:0:
320,192,140807,128,0,141369:0:0:0:0:
448,192,140807,1,0,0:0:0:0:
64,192,140994,1,0,0:0:0:0:
192,192,141182,1,0,0:0:0:0:
448,192,141369,1,0,0:0:0:0:
64,192,141369,1,0,0:0:0:0:
192,192,141557,1,0,0:0:0:0:
320,192,141744,1,0,0:0:0:0:
448,192,141744,128,0,142307:0:0:0:0:
192,192,141932,1,0,0:0:0:0:
64,192,142119,1,0,0:0:0:0:
320,192,142119,1,0,0:0:0:0:
192,192,142307,128,0,142869:0:0:0:0:
64,192,142307,1,0,0:0:0:0:
448,192,142494,1,0,0:0:0:0:
320,192,142682,1,0,0:0:0:0:
448,192,142869,1,0,0:0:0:0:
64,192,142869,1,0,0:0:0:0:
320,192,143057,1,0,0:0:0:0:
192,192,143150,1,0,0:0:0:0:
64,192,143244,128,0,144182:0:0:0:0:
448,192,143244,1,0,0:0:0:0:
192,192,143432,1,0,0:0:0:0:
320,192,143619,1,0,0:0:0:0:
448,192,143619,1,0,0:0:0:0:
448,192,143807,128,0,144182:0:0:0:0:
320,192,143994,1,0,0:0:0:0:
192,192,144182,1,0,0:0:0:0:
448,192,144369,1,0,0:0:0:0:
320,192,144369,1,0,0:0:0:0:
192,192,144557,1,0,0:0:0:0:
64,192,144557,1,0,0:0:0:0:
320,192,144744,1,0,0:0:0:0:
448,192,144744,1,0,0:0:0:0:
192,192,144744,128,0,145307:0:0:0:0:
64,192,144932,1,0,0:0:0:0:
448,192,145119,1,0,0:0:0:0:
64,192,145307,1,0,0:0:0:0:
320,192,145307,128,0,145869:0:0:0:0:
448,192,145494,1,0,0:0:0:0:
192,192,145682,1,0,0:0:0:0:
64,192,145869,1,0,0:0:0:0:
448,192,145869,128,0,146244:0:0:0:0:
192,192,146057,1,0,0:0:0:0:
64,192,146244,128,0,146619:0:0:0:0:
320,192,146244,1,0,0:0:0:0:
192,192,146432,1,0,0:0:0:0:
320,192,146619,1,0,0:0:0:0:
448,192,146619,1,0,0:0:0:0:
192,192,146807,128,0,147744:0:0:0:0:
64,192,146807,1,0,0:0:0:0:
448,192,146994,1,0,0:0:0:0:
320,192,147182,1,0,0:0:0:0:
64,192,147369,1,0,0:0:0:0:
448,192,147369,1,0,0:0:0:0:
320,192,147557,1,0,0:0:0:0:
64,192,147744,1,0,0:0:0:0:
448,192,147744,128,0,148307:0:0:0:0:
320,192,147932,1,0,0:0:0:0:
64,192,148119,1,0,0:0:0:0:
64,192,148307,128,0,148869:0:0:0:0:
320,192,148307,1,0,0:0:0:0:
192,192,148494,1,0,0:0:0:0:
448,192,148682,1,0,0:0:0:0:
320,192,148869,1,0,0:0:0:0:
448,192,149057,128,0,149619:0:0:0:0:
192,192,149057,1,0,0:0:0:0:
320,192,149057,128,0,149432:0:0:0:0:
64,192,149432,1,0,0:0:0:0:
192,192,149619,1,0,0:0:0:0:
320,192,149619,1,0,0:0:0:0:
64,192,149807,1,0,0:0:0:0:
448,192,149994,1,0,0:0:0:0:
320,192,150088,1,0,0:0:0:0:
192,192,150182,1,0,0:0:0:0:
64,192,150275,1,0,0:0:0:0:
448,192,150369,1,0,0:0:0:0:
320,192,150369,1,0,0:0:0:0:
64,192,150463,1,0,0:0:0:0:
192,192,150463,1,0,0:0:0:0:
320,192,150557,1,0,0:0:0:0:
448,192,150557,1,0,0:0:0:0:
64,192,150650,1,0,0:0:0:0:
192,192,150650,1,0,0:0:0:0:
320,192,150744,1,0,0:0:0:0:
448,192,150744,128,0,151307:0:0:0:0:
192,192,150932,1,0,0:0:0:0:
64,192,151119,1,0,0:0:0:0:
192,192,151307,128,0,151869:0:0:0:0:
320,192,151307,1,0,0:0:0:0:
64,192,151494,1,0,0:0:0:0:
448,192,151682,1,0,0:0:0:0:
320,192,151869,1,0,0:0:0:0:
64,192,151869,1,0,0:0:0:0:
448,192,152057,1,0,0:0:0:0:
320,192,152150,1,0,0:0:0:0:
64,192,152244,128,0,152807:0:0:0:0:
192,192,152244,1,0,0:0:0:0:
320,192,152432,1,0,0:0:0:0:
192,192,152619,1,0,0:0:0:0:
448,192,152619,1,0,0:0:0:0:
448,192,152807,128,0,153369:0:0:0:0:
320,192,152807,1,0,0:0:0:0:
192,192,152994,1,0,0:0:0:0:
64,192,153182,1,0,0:0:0:0:
192,192,153369,1,0,0:0:0:0:
320,192,153369,1,0,0:0:0:0:
64,192,153557,1,0,0:0:0:0:
192,192,153650,1,0,0:0:0:0:
320,192,153744,128,0,154307:0:0:0:0:
448,192,153744,1,0,0:0:0:0:
192,192,153932,1,0,0:0:0:0:
64,192,154119,1,0,0:0:0:0:
448,192,154307,128,0,154869:0:0:0:0:
192,192,154307,1,0,0:0:0:0:
64,192,154494,1,0,0:0:0:0:
320,192,154682,1,0,0:0:0:0:
192,192,154869,1,0,0:0:0:0:
64,192,154869,1,0,0:0:0:0:
320,192,155057,1,0,0:0:0:0:
192,192,155150,1,0,0:0:0:0:
64,192,155244,128,0,156182:0:0:0:0:
448,192,155244,1,0,0:0:0:0:
320,192,155432,1,0,0:0:0:0:
192,192,155619,1,0,0:0:0:0:
448,192,155619,1,0,0:0:0:0:
192,192,155807,128,0,156369:0:0:0:0:
320,192,155994,1,0,0:0:0:0:
448,192,156182,1,0,0:0:0:0:
320,192,156369,1,0,0:0:0:0:
64,192,156369,1,0,0:0:0:0:
192,192,156557,1,0,0:0:0:0:
448,192,156557,1,0,0:0:0:0:
64,192,156744,1,0,0:0:0:0:
320,192,156744,128,0,157307:0:0:0:0:
448,192,156932,1,0,0:0:0:0:
192,192,157119,1,0,0:0:0:0:
448,192,157307,128,0,157869:0:0:0:0:
64,192,157307,1,0,0:0:0:0:
192,192,157494,1,0,0:0:0:0:
320,192,157682,1,0,0:0:0:0:
192,192,157869,128,0,158244:0:0:0:0:
64,192,157869,1,0,0:0:0:0:
320,192,158057,1,0,0:0:0:0:
448,192,158244,1,0,0:0:0:0:
64,192,158244,128,0,158619:0:0:0:0:
320,192,158432,1,0,0:0:0:0:
192,192,158619,1,0,0:0:0:0:
448,192,158807,128,0,159744:0:0:0:0:
320,192,158807,1,0,0:0:0:0:
64,192,158994,1,0,0:0:0:0:
192,192,159182,1,0,0:0:0:0:
320,192,159369,1,0,0:0:0:0:
64,192,159369,1,0,0:0:0:0:
192,192,159557,1,0,0:0:0:0:
320,192,159744,1,0,0:0:0:0:
64,192,159744,128,0,160307:0:0:0:0:
192,192,159932,1,0,0:0:0:0:
448,192,160119,1,0,0:0:0:0:
192,192,160307,128,0,160869:0:0:0:0:
320,192,160307,1,0,0:0:0:0:
64,192,160494,1,0,0:0:0:0:
320,192,160682,1,0,0:0:0:0:
448,192,160869,1,0,0:0:0:0:
64,192,160869,1,0,0:0:0:0:
320,192,161057,128,0,161619:0:0:0:0:
192,192,161057,1,0,0:0:0:0:
64,192,161432,1,0,0:0:0:0:
192,192,161619,1,0,0:0:0:0:
448,192,161619,1,0,0:0:0:0:
64,192,161807,1,0,0:0:0:0:
448,192,161994,1,0,0:0:0:0:
320,192,162088,1,0,0:0:0:0:
192,192,162182,1,0,0:0:0:0:
64,192,162182,128,0,162744:0:0:0:0:
448,192,162369,128,0,162744:0:0:0:0:
320,192,162744,128,0,163869:0:0:0:0:
192,192,162744,1,0,0:0:0:0:
448,192,162932,1,0,0:0:0:0:
192,192,163119,1,0,0:0:0:0:
64,192,163119,1,0,0:0:0:0:
448,192,163307,1,0,0:0:0:0:
192,192,163494,1,0,0:0:0:0:
64,192,163682,1,0,0:0:0:0:
192,192,163869,128,0,164244:0:0:0:0:
448,192,163869,1,0,0:0:0:0:
64,192,164057,1,0,0:0:0:0:
448,192,164244,128,0,165369:0:0:0:0:
320,192,164244,1,0,0:0:0:0:
192,192,164432,1,0,0:0:0:0:
64,192,164619,1,0,0:0:0:0:
320,192,164807,1,0,0:0:0:0:
192,192,164994,1,0,0:0:0:0:
64,192,165182,1,0,0:0:0:0:
192,192,165369,128,0,165744:0:0:0:0:
320,192,165369,1,0,0:0:0:0:
64,192,165557,1,0,0:0:0:0:
448,192,165744,1,0,0:0:0:0:
320,192,165744,128,0,166119:0:0:0:0:
192,192,165932,1,0,0:0:0:0:
64,192,166119,128,0,166494:0:0:0:0:
448,192,166119,1,0,0:0:0:0:
192,192,166307,1,0,0:0:0:0:
448,192,166494,128,0,166869:0:0:0:0:
320,192,166494,1,0,0:0:0:0:
192,192,166682,1,0,0:0:0:0:
64,192,166869,1,0,0:0:0:0:
320,192,166869,128,0,167244:0:0:0:0:
192,192,167057,1,0,0:0:0:0:
448,192,167244,1,0,0:0:0:0:
64,192,167244,128,0,167432:0:0:0:0:
192,192,167432,128,0,167619:0:0:0:0:
320,192,167619,128,0,167807:0:0:0:0:
448,192,167807,128,0,167994:0:0:0:0:
64,192,167994,128,0,168182:0:0:0:0:
192,192,168182,128,0,168369:0:0:0:0:
320,192,168369,128,0,168557:0:0:0:0:
448,192,168557,128,0,168744:0:0:0:0:
64,192,168744,128,0,169307:0:0:0:0:
192,192,168744,1,0,0:0:0:0:
320,192,168932,1,0,0:0:0:0:
448,192,169119,1,0,0:0:0:0:
192,192,169307,1,0,0:0:0:0:
320,192,169307,128,0,169869:0:0:0:0:
64,192,169494,1,0,0:0:0:0:
64,192,169682,1,0,0:0:0:0:
448,192,169869,128,0,170244:0:0:0:0:
192,192,169869,1,0,0:0:0:0:
320,192,170057,1,0,0:0:0:0:
64,192,170244,1,0,0:0:0:0:
192,192,170244,128,0,170807:0:0:0:0:
448,192,170432,1,0,0:0:0:0:
320,192,170619,1,0,0:0:0:0:
64,192,170807,128,0,171369:0:0:0:0:
448,192,170807,1,0,0:0:0:0:
320,192,170994,1,0,0:0:0:0:
192,192,171182,1,0,0:0:0:0:
320,192,171369,1,0,0:0:0:0:
448,192,171369,128,0,171744:0:0:0:0:
192,192,171557,1,0,0:0:0:0:
64,192,171744,1,0,0:0:0:0:
320,192,171744,128,0,172119:0:0:0:0:
448,192,171932,1,0,0:0:0:0:
192,192,172119,128,0,172494:0:0:0:0:
64,192,172119,1,0,0:0:0:0:
320,192,172307,1,0,0:0:0:0:
64,192,172494,128,0,172869:0:0:0:0:
448,192,172494,1,0,0:0:0:0:
192,192,172682,1,0,0:0:0:0:
320,192,172869,1,0,0:0:0:0:
448,192,172869,128,0,173244:0:0:0:0:
192,192,173057,1,0,0:0:0:0:
64,192,173244,1,0,0:0:0:0:
320,192,173244,128,0,173994:0:0:0:0:
192,192,173432,1,0,0:0:0:0:
448,192,173619,1,0,0:0:0:0:
64,192,173807,1,0,0:0:0:0:
192,192,173994,128,0,174369:0:0:0:0:
448,192,174182,128,0,174557:0:0:0:0:
64,192,174369,1,0,0:0:0:0:
320,192,174463,1,0,0:0:0:0:
64,192,174557,1,0,0:0:0:0:
192,192,174650,1,0,0:0:0:0:
320,192,174744,128,0,175869:0:0:0:0:
448,192,174744,128,0,175307:0:0:0:0:
64,192,175119,1,0,0:0:0:0:
64,192,175307,128,0,175869:0:0:0:0:
192,192,175307,1,0,0:0:0:0:
448,192,175494,1,0,0:0:0:0:
192,192,175682,1,0,0:0:0:0:
448,192,175869,128,0,176244:0:0:0:0:
192,192,176057,1,0,0:0:0:0:
320,192,176244,1,0,0:0:0:0:
64,192,176244,1,0,0:0:0:0:
192,192,176432,1,0,0:0:0:0:
320,192,176619,1,0,0:0:0:0:
448,192,176619,1,0,0:0:0:0:
192,192,176807,1,0,0:0:0:0:
448,192,176994,1,0,0:0:0:0:
320,192,177088,1,0,0:0:0:0:
192,192,177182,1,0,0:0:0:0:
64,192,177369,1,0,0:0:0:0:
320,192,177369,1,0,0:0:0:0:
192,192,177557,1,0,0:0:0:0:
448,192,177557,1,0,0:0:0:0:
320,192,177744,1,0,0:0:0:0:
64,192,177744,128,0,178119:0:0:0:0:
192,192,177932,1,0,0:0:0:0:
192,192,178119,128,0,178494:0:0:0:0:
448,192,178119,1,0,0:0:0:0:
320,192,178307,1,0,0:0:0:0:
448,192,178494,128,0,178869:0:0:0:0:
64,192,178494,1,0,0:0:0:0:
320,192,178682,1,0,0:0:0:0:
320,192,178869,128,0,179244:0:0:0:0:
64,192,178869,1,0,0:0:0:0:
192,192,179057,1,0,0:0:0:0:
448,192,179244,1,0,0:0:0:0:
64,192,179244,128,0,179807:0:0:0:0:
192,192,179432,1,0,0:0:0:0:
320,192,179619,1,0,0:0:0:0:
448,192,179807,1,0,0:0:0:0:
192,192,179807,128,0,180182:0:0:0:0:
320,192,179994,1,0,0:0:0:0:
448,192,180182,1,0,0:0:0:0:
64,192,180182,1,0,0:0:0:0:
320,192,180369,1,0,0:0:0:0:
192,192,180369,1,0,0:0:0:0:
64,192,180557,1,0,0:0:0:0:
448,192,180557,1,0,0:0:0:0:
192,192,180744,128,0,181869:0:0:0:0:
320,192,180744,128,0,181307:0:0:0:0:
448,192,181119,1,0,0:0:0:0:
448,192,181307,128,0,181869:0:0:0:0:
64,192,181307,1,0,0:0:0:0:
320,192,181682,1,0,0:0:0:0:
320,192,181869,128,0,182244:0:0:0:0:
64,192,181869,1,0,0:0:0:0:
448,192,182057,1,0,0:0:0:0:
192,192,182244,1,0,0:0:0:0:
64,192,182244,1,0,0:0:0:0:
448,192,182432,1,0,0:0:0:0:
64,192,182619,1,0,0:0:0:0:
320,192,182619,1,0,0:0:0:0:
192,192,182807,1,0,0:0:0:0:
448,192,182994,1,0,0:0:0:0:
320,192,183088,1,0,0:0:0:0:
192,192,183182,1,0,0:0:0:0:
64,192,183369,1,0,0:0:0:0:
448,192,183369,1,0,0:0:0:0:
192,192,183557,1,0,0:0:0:0:
448,192,183744,128,0,184682:0:0:0:0:
64,192,183744,1,0,0:0:0:0:
320,192,183838,128,0,184682:0:0:0:0:
192,192,183932,128,0,184682:0:0:0:0:
64,192,184682,1,0,0:0:0:0:
64,192,184869,1,0,0:0:0:0:
320,192,184869,1,0,0:0:0:0:
448,192,185057,128,0,185807:0:0:0:0:
64,192,185432,1,0,0:0:0:0:
320,192,185432,1,0,0:0:0:0:
64,192,185619,1,0,0:0:0:0:
320,192,185619,1,0,0:0:0:0:
64,192,185807,1,0,0:0:0:0:
320,192,185807,1,0,0:0:0:0:
192,192,185994,1,0,0:0:0:0:
320,192,186088,1,0,0:0:0:0:
448,192,186182,1,0,0:0:0:0:
64,192,186275,1,0,0:0:0:0:
192,192,186369,1,0,0:0:0:0:
320,192,186463,1,0,0:0:0:0:
448,192,186557,1,0,0:0:0:0:
64,192,186650,1,0,0:0:0:0:
192,192,186744,128,0,187869:0:0:0:0:
320,192,186744,1,0,0:0:0:0:
448,192,186932,1,0,0:0:0:0:
64,192,187119,1,0,0:0:0:0:
320,192,187307,1,0,0:0:0:0:
448,192,187494,1,0,0:0:0:0:
64,192,187682,1,0,0:0:0:0:
320,192,187869,1,0,0:0:0:0:
448,192,188057,128,0,188994:0:0:0:0:
320,192,188432,1,0,0:0:0:0:
64,192,188619,1,0,0:0:0:0:
320,192,188807,1,0,0:0:0:0:
64,192,188994,1,0,0:0:0:0:
192,192,188994,1,0,0:0:0:0:
320,192,189181,1,0,0:0:0:0:
448,192,189181,1,0,0:0:0:0:
64,192,189369,1,0,0:0:0:0:
192,192,189369,1,0,0:0:0:0:
320,192,189556,1,0,0:0:0:0:
448,192,189556,1,0,0:0:0:0:
192,192,189744,1,0,0:0:0:0:
64,192,189744,128,0,190869:0:0:0:0:
320,192,189931,1,0,0:0:0:0:
448,192,190119,1,0,0:0:0:0:
192,192,190306,1,0,0:0:0:0:
320,192,190306,1,0,0:0:0:0:
448,192,190494,1,0,0:0:0:0:
192,192,190681,1,0,0:0:0:0:
320,192,190869,1,0,0:0:0:0:
448,192,191056,128,0,191994:0:0:0:0:
320,192,191431,1,0,0:0:0:0:
64,192,191619,1,0,0:0:0:0:
192,192,191806,1,0,0:0:0:0:
320,192,191994,1,0,0:0:0:0:
64,192,191994,1,0,0:0:0:0:
192,192,192181,1,0,0:0:0:0:
320,192,192275,1,0,0:0:0:0:
448,192,192369,1,0,0:0:0:0:
320,192,192556,1,0,0:0:0:0:
192,192,192650,1,0,0:0:0:0:
64,192,192744,1,0,0:0:0:0:
448,192,192744,128,0,193869:0:0:0:0:
320,192,192931,1,0,0:0:0:0:
320,192,193119,1,0,0:0:0:0:
192,192,193306,1,0,0:0:0:0:
64,192,193306,1,0,0:0:0:0:
64,192,193494,1,0,0:0:0:0:
64,192,193681,1,0,0:0:0:0:
320,192,193681,1,0,0:0:0:0:
192,192,193869,1,0,0:0:0:0:
320,192,194056,128,0,194619:0:0:0:0:
64,192,194056,1,0,0:0:0:0:
448,192,194244,1,0,0:0:0:0:
64,192,194431,1,0,0:0:0:0:
192,192,194619,1,0,0:0:0:0:
448,192,194806,1,0,0:0:0:0:
64,192,194806,1,0,0:0:0:0:
320,192,194900,1,0,0:0:0:0:
192,192,194994,1,0,0:0:0:0:
64,192,195088,1,0,0:0:0:0:
448,192,195181,1,0,0:0:0:0:
320,192,195275,1,0,0:0:0:0:
192,192,195369,1,0,0:0:0:0:
64,192,195463,1,0,0:0:0:0:
448,192,195556,1,0,0:0:0:0:
320,192,195650,1,0,0:0:0:0:
192,192,195744,1,0,0:0:0:0:
64,192,195744,128,0,196306:0:0:0:0:
192,192,195931,1,0,0:0:0:0:
192,192,196119,1,0,0:0:0:0:
320,192,196306,1,0,0:0:0:0:
448,192,196306,128,0,197713:0:0:0:0:
192,192,196494,1,0,0:0:0:0:
192,192,196681,1,0,0:0:0:0:
64,192,196681,1,0,0:0:0:0:
320,192,196869,1,0,0:0:0:0:
64,192,196869,1,0,0:0:0:0:
192,192,197056,1,0,0:0:0:0:
320,192,197150,1,0,0:0:0:0:
64,192,197244,1,0,0:0:0:0:
192,192,197338,1,0,0:0:0:0:
320,192,197431,1,0,0:0:0:0:
64,192,197525,1,0,0:0:0:0:
192,192,197619,1,0,0:0:0:0:
320,192,197713,1,0,0:0:0:0:
64,192,197806,1,0,0:0:0:0:
192,192,197900,1,0,0:0:0:0:
320,192,197994,1,0,0:0:0:0:
448,192,198088,1,0,0:0:0:0:
64,192,198181,1,0,0:0:0:0:
192,192,198275,1,0,0:0:0:0:
320,192,198369,1,0,0:0:0:0:
448,192,198463,1,0,0:0:0:0:
64,192,198556,1,0,0:0:0:0:
192,192,198650,1,0,0:0:0:0:
320,192,198744,1,0,0:0:0:0:
448,192,198744,128,0,199306:0:0:0:0:
192,192,199119,1,0,0:0:0:0:
64,192,199306,1,0,0:0:0:0:
320,192,199494,128,0,200244:0:0:0:0:
192,192,199494,1,0,0:0:0:0:
448,192,199681,1,0,0:0:0:0:
64,192,199869,1,0,0:0:0:0:
448,192,200056,1,0,0:0:0:0:
64,192,200244,1,0,0:0:0:0:
192,192,200431,128,0,200994:0:0:0:0:
448,192,200431,1,0,0:0:0:0:
320,192,200619,1,0,0:0:0:0:
320,192,200806,1,0,0:0:0:0:
64,192,200994,1,0,0:0:0:0:
448,192,201181,1,0,0:0:0:0:
320,192,201275,1,0,0:0:0:0:
192,192,201369,1,0,0:0:0:0:
64,192,201463,1,0,0:0:0:0:
448,192,201556,1,0,0:0:0:0:
320,192,201650,1,0,0:0:0:0:
192,192,201744,1,0,0:0:0:0:
64,192,201744,1,0,0:0:0:0:
448,192,201931,1,0,0:0:0:0:
64,192,202119,1,0,0:0:0:0:
320,192,202306,1,0,0:0:0:0:
192,192,202494,1,0,0:0:0:0:
448,192,202494,1,0,0:0:0:0:
192,192,202775,1,0,0:0:0:0:
448,192,202775,1,0,0:0:0:0:
192,192,203056,1,0,0:0:0:0:
448,192,203056,1,0,0:0:0:0:
64,192,203244,1,0,0:0:0:0:
320,192,203244,1,0,0:0:0:0:
192,192,203431,1,0,0:0:0:0:
448,192,203431,1,0,0:0:0:0:
64,192,203619,1,0,0:0:0:0:
320,192,203619,1,0,0:0:0:0:
448,192,203806,1,0,0:0:0:0:
64,192,203900,1,0,0:0:0:0:
192,192,203994,1,0,0:0:0:0:
320,192,204088,1,0,0:0:0:0:
64,192,204181,1,0,0:0:0:0:
192,192,204275,1,0,0:0:0:0:
320,192,204369,1,0,0:0:0:0:
448,192,204463,1,0,0:0:0:0:
64,192,204556,1,0,0:0:0:0:
192,192,204650,1,0,0:0:0:0:
320,192,204744,1,0,0:0:0:0:
448,192,204744,128,0,205681:0:0:0:0:
192,192,204931,1,0,0:0:0:0:
64,192,204931,1,0,0:0:0:0:
320,192,205119,1,0,0:0:0:0:
192,192,205306,1,0,0:0:0:0:
64,192,205494,1,0,0:0:0:0:
320,192,205494,1,0,0:0:0:0:
192,192,205681,1,0,0:0:0:0:
64,192,205869,1,0,0:0:0:0:
320,192,206056,1,0,0:0:0:0:
192,192,206056,128,0,206994:0:0:0:0:
448,192,206431,1,0,0:0:0:0:
64,192,206619,1,0,0:0:0:0:
320,192,206806,1,0,0:0:0:0:
448,192,206994,1,0,0:0:0:0:
64,192,206994,1,0,0:0:0:0:
448,192,207181,1,0,0:0:0:0:
320,192,207369,1,0,0:0:0:0:
64,192,207556,1,0,0:0:0:0:
192,192,207650,1,0,0:0:0:0:
320,192,207744,1,0,0:0:0:0:
448,192,207744,128,0,208869:0:0:0:0:
64,192,207931,1,0,0:0:0:0:
192,192,208119,1,0,0:0:0:0:
320,192,208306,1,0,0:0:0:0:
64,192,208494,1,0,0:0:0:0:
192,192,208494,1,0,0:0:0:0:
320,192,208681,1,0,0:0:0:0:
192,192,208681,1,0,0:0:0:0:
64,192,208869,1,0,0:0:0:0:
192,192,208869,1,0,0:0:0:0:
320,192,209056,128,0,209806:0:0:0:0:
192,192,209056,128,0,209806:0:0:0:0:
448,192,209431,1,0,0:0:0:0:
448,192,209619,1,0,0:0:0:0:
448,192,209806,1,0,0:0:0:0:
64,192,209994,1,0,0:0:0:0:
192,192,209994,1,0,0:0:0:0:
64,192,210181,1,0,0:0:0:0:
192,192,210181,1,0,0:0:0:0:
448,192,210369,1,0,0:0:0:0:
320,192,210369,1,0,0:0:0:0:
448,192,210556,1,0,0:0:0:0:
320,192,210556,1,0,0:0:0:0:
64,192,210744,128,0,211306:0:0:0:0:
448,192,211119,1,0,0:0:0:0:
192,192,211306,128,0,211681:0:0:0:0:
448,192,211681,128,0,212056:0:0:0:0:
64,192,212056,1,0,0:0:0:0:
320,192,212244,1,0,0:0:0:0:
192,192,212431,1,0,0:0:0:0:
64,192,212619,1,0,0:0:0:0:
320,192,212806,128,0,213369:0:0:0:0:
448,192,213181,1,0,0:0:0:0:
192,192,213369,1,0,0:0:0:0:
64,192,213556,1,0,0:0:0:0:
192,192,213744,1,0,0:0:0:0:
448,192,213744,1,0,0:0:0:0:
320,192,214119,1,0,0:0:0:0:
64,192,214306,128,0,214681:0:0:0:0:
192,192,214681,1,0,0:0:0:0:
448,192,215056,1,0,0:0:0:0:
64,192,215244,128,0,215431:0:0:0:0:
192,192,215431,128,0,215619:0:0:0:0:
448,192,215619,128,0,215806:0:0:0:0:
320,192,215806,128,0,215994:0:0:0:0:
192,192,215994,128,0,216181:0:0:0:0:
64,192,216181,128,0,216369:0:0:0:0:
448,192,216369,128,0,216556:0:0:0:0:
64,192,216556,128,0,216744:0:0:0:0:
320,192,216556,1,0,0:0:0:0:
192,192,216650,1,0,0:0:0:0:
448,192,216744,128,0,217494:0:0:0:0:
320,192,216931,128,0,217494:0:0:0:0:
192,192,217119,128,0,217494:0:0:0:0:
64,192,217494,128,0,217681:0:0:0:0:
192,192,217681,128,0,217869:0:0:0:0:
320,192,217869,128,0,218056:0:0:0:0:
448,192,218056,128,0,218244:0:0:0:0:
64,192,218244,128,0,218994:0:0:0:0:
192,192,218431,128,0,218994:0:0:0:0:
320,192,218619,128,0,218994:0:0:0:0:
448,192,218994,128,0,219181:0:0:0:0:
320,192,219181,128,0,219369:0:0:0:0:
192,192,219369,128,0,219556:0:0:0:0:
64,192,219556,128,0,219744:0:0:0:0:
448,192,219744,128,0,220869:0:0:0:0:
320,192,219744,1,0,0:0:0:0:
192,192,219744,1,0,0:0:0:0:
64,192,219931,1,0,0:0:0:0:
192,192,220119,1,0,0:0:0:0:
320,192,220306,1,0,0:0:0:0:
64,192,220306,1,0,0:0:0:0:
192,192,220494,1,0,0:0:0:0:
64,192,220681,1,0,0:0:0:0:
192,192,220869,1,0,0:0:0:0:
320,192,220869,1,0,0:0:0:0:
64,192,221056,1,0,0:0:0:0:
320,192,221056,128,0,221806:0:0:0:0:
64,192,221431,1,0,0:0:0:0:
192,192,221619,1,0,0:0:0:0:
448,192,221619,1,0,0:0:0:0:
64,192,221806,1,0,0:0:0:0:
448,192,221994,1,0,0:0:0:0:
320,192,222088,1,0,0:0:0:0:
192,192,222181,1,0,0:0:0:0:
64,192,222275,1,0,0:0:0:0:
448,192,222369,1,0,0:0:0:0:
320,192,222463,1,0,0:0:0:0:
192,192,222556,1,0,0:0:0:0:
64,192,222650,1,0,0:0:0:0:
448,192,222744,128,0,223306:0:0:0:0:
320,192,222744,1,0,0:0:0:0:
192,192,222931,1,0,0:0:0:0:
64,192,223119,1,0,0:0:0:0:
320,192,223306,1,0,0:0:0:0:
192,192,223306,128,0,223869:0:0:0:0:
64,192,223494,1,0,0:0:0:0:
320,192,223681,1,0,0:0:0:0:
448,192,223869,1,0,0:0:0:0:
64,192,224056,1,0,0:0:0:0:
192,192,224150,1,0,0:0:0:0:
320,192,224244,1,0,0:0:0:0:
448,192,224244,128,0,224806:0:0:0:0:
64,192,224431,1,0,0:0:0:0:
192,192,224619,1,0,0:0:0:0:
64,192,224806,128,0,225369:0:0:0:0:
320,192,224806,1,0,0:0:0:0:
192,192,224994,1,0,0:0:0:0:
448,192,225181,1,0,0:0:0:0:
320,192,225369,1,0,0:0:0:0:
192,192,225556,1,0,0:0:0:0:
320,192,225650,1,0,0:0:0:0:
448,192,225744,128,0,226306:0:0:0:0:
64,192,225744,1,0,0:0:0:0:
192,192,225931,1,0,0:0:0:0:
320,192,226119,1,0,0:0:0:0:
64,192,226306,1,0,0:0:0:0:
192,192,226306,128,0,226869:0:0:0:0:
320,192,226494,1,0,0:0:0:0:
448,192,226681,1,0,0:0:0:0:
320,192,226869,1,0,0:0:0:0:
64,192,226869,1,0,0:0:0:0:
448,192,227056,1,0,0:0:0:0:
320,192,227150,1,0,0:0:0:0:
192,192,227244,1,0,0:0:0:0:
64,192,227244,128,0,228181:0:0:0:0:
320,192,227431,1,0,0:0:0:0:
448,192,227619,1,0,0:0:0:0:
320,192,227806,128,0,228369:0:0:0:0:
192,192,227994,1,0,0:0:0:0:
448,192,228181,1,0,0:0:0:0:
192,192,228369,1,0,0:0:0:0:
64,192,228369,1,0,0:0:0:0:
64,192,228556,1,0,0:0:0:0:
448,192,228556,1,0,0:0:0:0:
64,192,228744,1,0,0:0:0:0:
320,192,228744,1,0,0:0:0:0:
448,192,228744,128,0,229306:0:0:0:0:
192,192,228931,1,0,0:0:0:0:
320,192,229119,1,0,0:0:0:0:
64,192,229306,1,0,0:0:0:0:
192,192,229306,128,0,229869:0:0:0:0:
320,192,229494,1,0,0:0:0:0:
448,192,229681,1,0,0:0:0:0:
64,192,229869,128,0,230244:0:0:0:0:
320,192,229869,1,0,0:0:0:0:
448,192,230056,1,0,0:0:0:0:
192,192,230056,1,0,0:0:0:0:
320,192,230244,1,0,0:0:0:0:
448,192,230244,128,0,230619:0:0:0:0:
192,192,230619,1,0,0:0:0:0:
64,192,230619,1,0,0:0:0:0:
320,192,230806,1,0,0:0:0:0:
192,192,230806,128,0,231744:0:0:0:0:
64,192,230994,1,0,0:0:0:0:
448,192,231181,1,0,0:0:0:0:
320,192,231369,1,0,0:0:0:0:
64,192,231369,1,0,0:0:0:0:
448,192,231556,1,0,0:0:0:0:
320,192,231744,1,0,0:0:0:0:
64,192,231744,128,0,232869:0:0:0:0:
448,192,231931,1,0,0:0:0:0:
320,192,231931,1,0,0:0:0:0:
192,192,232119,1,0,0:0:0:0:
320,192,232119,1,0,0:0:0:0:
448,192,232306,1,0,0:0:0:0:
320,192,232494,1,0,0:0:0:0:
192,192,232494,1,0,0:0:0:0:
320,192,232681,1,0,0:0:0:0:
448,192,232681,1,0,0:0:0:0:
192,192,232869,1,0,0:0:0:0:
448,192,232869,128,0,234556:0:0:0:0:
320,192,233056,1,0,0:0:0:0:
64,192,233244,1,0,0:0:0:0:
320,192,233431,1,0,0:0:0:0:
192,192,233431,1,0,0:0:0:0:
64,192,233619,1,0,0:0:0:0:
320,192,233806,1,0,0:0:0:0:
192,192,233806,1,0,0:0:0:0:
64,192,233994,1,0,0:0:0:0:
192,192,234088,1,0,0:0:0:0:
320,192,234181,1,0,0:0:0:0:
64,192,234369,1,0,0:0:0:0:
192,192,234463,1,0,0:0:0:0:
320,192,234556,1,0,0:0:0:0:
64,192,234744,128,0,235869:0:0:0:0:
192,192,234744,1,0,0:0:0:0:
320,192,234931,1,0,0:0:0:0:
448,192,235119,1,0,0:0:0:0:
192,192,235306,1,0,0:0:0:0:
448,192,235494,1,0,0:0:0:0:
320,192,235681,1,0,0:0:0:0:
192,192,235869,1,0,0:0:0:0:
448,192,235869,128,0,236244:0:0:0:0:
320,192,236056,1,0,0:0:0:0:
320,192,236244,128,0,237369:0:0:0:0:
64,192,236244,1,0,0:0:0:0:
192,192,236431,1,0,0:0:0:0:
448,192,236619,1,0,0:0:0:0:
64,192,236806,1,0,0:0:0:0:
448,192,236994,1,0,0:0:0:0:
192,192,237181,1,0,0:0:0:0:
192,192,237369,128,0,237744:0:0:0:0:
64,192,237369,1,0,0:0:0:0:
448,192,237556,1,0,0:0:0:0:
448,192,237744,1,0,0:0:0:0:
64,192,237744,128,0,238119:0:0:0:0:
320,192,237931,1,0,0:0:0:0:
192,192,238119,1,0,0:0:0:0:
448,192,238119,128,0,238494:0:0:0:0:
320,192,238306,1,0,0:0:0:0:
192,192,238494,128,0,238869:0:0:0:0:
64,192,238494,1,0,0:0:0:0:
320,192,238681,1,0,0:0:0:0:
64,192,238869,128,0,239244:0:0:0:0:
448,192,238869,1,0,0:0:0:0:
320,192,239056,1,0,0:0:0:0:
320,192,239244,128,0,239431:0:0:0:0:
192,192,239244,1,0,0:0:0:0:
64,192,239431,128,0,239619:0:0:0:0:
448,192,239431,1,0,0:0:0:0:
320,192,239619,128,0,239806:0:0:0:0:
192,192,239619,1,0,0:0:0:0:
64,192,239806,128,0,239994:0:0:0:0:
448,192,239806,1,0,0:0:0:0:
192,192,239994,1,0,0:0:0:0:
320,192,239994,128,0,240181:0:0:0:0:
448,192,240181,128,0,240369:0:0:0:0:
64,192,240181,1,0,0:0:0:0:
192,192,240369,128,0,240556:0:0:0:0:
320,192,240369,1,0,0:0:0:0:
448,192,240556,128,0,240744:0:0:0:0:
64,192,240556,1,0,0:0:0:0:
192,192,240744,128,0,240931:0:0:0:0:
320,192,240744,1,0,0:0:0:0:
448,192,240931,128,0,241119:0:0:0:0:
64,192,240931,1,0,0:0:0:0:
320,192,241119,1,0,0:0:0:0:
64,192,241119,128,0,241869:0:0:0:0:
192,192,241306,1,0,0:0:0:0:
448,192,241494,1,0,0:0:0:0:
320,192,241681,1,0,0:0:0:0:
192,192,241869,1,0,0:0:0:0:
448,192,241869,128,0,242244:0:0:0:0:
320,192,242056,1,0,0:0:0:0:
320,192,242244,128,0,242431:0:0:0:0:
64,192,242244,1,0,0:0:0:0:
192,192,242431,128,0,242619:0:0:0:0:
64,192,242619,128,0,243369:0:0:0:0:
448,192,242619,1,0,0:0:0:0:
320,192,242806,1,0,0:0:0:0:
192,192,242994,1,0,0:0:0:0:
448,192,243181,1,0,0:0:0:0:
320,192,243369,128,0,243744:0:0:0:0:
192,192,243369,1,0,0:0:0:0:
64,192,243556,1,0,0:0:0:0:
448,192,243744,128,0,244869:0:0:0:0:
192,192,243744,1,0,0:0:0:0:
64,192,243931,1,0,0:0:0:0:
192,192,244119,1,0,0:0:0:0:
320,192,244306,1,0,0:0:0:0:
192,192,244400,1,0,0:0:0:0:
64,192,244494,1,0,0:0:0:0:
320,192,244681,1,0,0:0:0:0:
192,192,244869,1,0,0:0:0:0:
64,192,245056,128,0,246556:0:0:0:0:
320,192,245056,128,0,245431:0:0:0:0:
448,192,245056,1,0,0:0:0:0:
192,192,245431,128,0,245806:0:0:0:0:
448,192,245806,128,0,246181:0:0:0:0:
320,192,245994,1,0,0:0:0:0:
192,192,246088,1,0,0:0:0:0:
320,192,246181,1,0,0:0:0:0:
192,192,246275,1,0,0:0:0:0:
448,192,246369,1,0,0:0:0:0:
320,192,246463,1,0,0:0:0:0:
192,192,246556,1,0,0:0:0:0:
448,192,246650,1,0,0:0:0:0:
64,192,246744,1,0,0:0:0:0:
320,192,246744,128,0,247306:0:0:0:0:
192,192,246931,1,0,0:0:0:0:
448,192,247119,1,0,0:0:0:0:
192,192,247306,128,0,247869:0:0:0:0:
64,192,247494,1,0,0:0:0:0:
448,192,247681,1,0,0:0:0:0:
320,192,247869,1,0,0:0:0:0:
64,192,247869,1,0,0:0:0:0:
448,192,248056,1,0,0:0:0:0:
320,192,248244,1,0,0:0:0:0:
64,192,248244,1,0,0:0:0:0:
448,192,248431,128,0,248806:0:0:0:0:
192,192,248431,1,0,0:0:0:0:
320,192,248619,1,0,0:0:0:0:
64,192,248806,1,0,0:0:0:0:
192,192,248806,128,0,249181:0:0:0:0:
320,192,248994,1,0,0:0:0:0:
64,192,249181,128,0,249744:0:0:0:0:
448,192,249181,1,0,0:0:0:0:
320,192,249369,1,0,0:0:0:0:
448,192,249556,1,0,0:0:0:0:
320,192,249650,1,0,0:0:0:0:
448,192,249744,128,0,250869:0:0:0:0:
192,192,249744,1,0,0:0:0:0:
320,192,249931,1,0,0:0:0:0:
64,192,250119,1,0,0:0:0:0:
192,192,250306,1,0,0:0:0:0:
320,192,250494,1,0,0:0:0:0:
64,192,250681,1,0,0:0:0:0:
192,192,250869,1,0,0:0:0:0:
320,192,251056,1,0,0:0:0:0:
448,192,251244,1,0,0:0:0:0:
64,192,251244,128,0,252369:0:0:0:0:
192,192,251431,1,0,0:0:0:0:
448,192,251619,1,0,0:0:0:0:
320,192,251806,1,0,0:0:0:0:
192,192,251994,1,0,0:0:0:0:
448,192,252181,1,0,0:0:0:0:
320,192,252369,1,0,0:0:0:0:
192,192,252556,1,0,0:0:0:0:
64,192,252744,1,0,0:0:0:0:
448,192,252744,1,0,0:0:0:0:
192,192,252931,1,0,0:0:0:0:
320,192,252931,1,0,0:0:0:0:
448,192,253119,1,0,0:0:0:0:
64,192,253119,1,0,0:0:0:0:
192,192,253306,1,0,0:0:0:0:
320,192,253306,128,0,253681:0:0:0:0:
448,192,253494,1,0,0:0:0:0:
64,192,253681,128,0,254056:0:0:0:0:
192,192,253869,128,0,254056:0:0:0:0:
320,192,253869,1,0,0:0:0:0:
448,192,254056,128,0,254619:0:0:0:0:
320,192,254244,1,0,0:0:0:0:
192,192,254431,1,0,0:0:0:0:
64,192,254619,1,0,0:0:0:0:
320,192,254619,1,0,0:0:0:0:
64,192,254806,1,0,0:0:0:0:
448,192,254806,1,0,0:0:0:0:
192,192,254994,1,0,0:0:0:0:
320,192,255088,1,0,0:0:0:0:
448,192,255181,1,0,0:0:0:0:
320,192,255369,1,0,0:0:0:0:
192,192,255369,1,0,0:0:0:0:
64,192,255556,1,0,0:0:0:0:
448,192,255556,1,0,0:0:0:0:
320,192,255744,128,0,256869:0:0:0:0:
192,192,255744,128,0,255931:0:0:0:0:
64,192,255931,128,0,256119:0:0:0:0:
448,192,256119,128,0,256306:0:0:0:0:
192,192,256306,128,0,256494:0:0:0:0:
64,192,256494,128,0,256681:0:0:0:0:
448,192,256681,128,0,256869:0:0:0:0:
192,192,256869,1,0,0:0:0:0:
64,192,257056,128,0,257994:0:0:0:0:
448,192,257056,1,0,0:0:0:0:
320,192,257056,1,0,0:0:0:0:
192,192,257431,1,0,0:0:0:0:
448,192,257619,1,0,0:0:0:0:
320,192,257806,1,0,0:0:0:0:
192,192,257806,1,0,0:0:0:0:
320,192,257994,1,0,0:0:0:0:
448,192,257994,1,0,0:0:0:0:
192,192,258181,1,0,0:0:0:0:
320,192,258181,1,0,0:0:0:0:
64,192,258369,1,0,0:0:0:0:
192,192,258369,1,0,0:0:0:0:
192,192,258556,1,0,0:0:0:0:
320,192,258556,1,0,0:0:0:0:
448,192,258744,128,0,266244:0:0:0:0:
320,192,258838,128,0,266244:0:0:0:0:
