osu file format v14

[General]
AudioFilename: audio.mp3
AudioLeadIn: 0
PreviewTime: 91802
Countdown: 0
SampleSet: Normal
StackLeniency: 0.7
Mode: 1
LetterboxInBreaks: 0
WidescreenStoryboard: 1

[Editor]
DistanceSpacing: 0.5
BeatDivisor: 2
GridSize: 32
TimelineZoom: 1.4

[Metadata]
Title:Flower Flag (MZC Echoes the Spring Liquid Mix)
TitleUnicode:Flower Flag (MZC Echoes the Spring Liquid Mix)
Artist:FELT
ArtistUnicode:FELT
Creator:Chromoxx
Version:Futsuu
Source:東方妖々夢 ~ Perfect Cherry Blossom.
Tags:drum n' and bass dnb electronic blue drop FELT-004 video game japanese Touhou 東方Project youyoumu 幽雅に咲かせ、墨染の桜 〜 Border of Life yuuga ni sakase sumizome no sakura NAGI☆ 舞花 Maika ZUN reitaisai 例大祭 8 saigyouji yuyuko
BeatmapID:3729769
BeatmapSetID:1817922

[Difficulty]
HPDrainRate:7
CircleSize:5
OverallDifficulty:4
ApproachRate:5
SliderMultiplier:1.4
SliderTickRate:1

[Events]
//Background and Video events
0,0,"bgyuyuko.jpg",0,0
//Break Periods
2,46826,56720
2,173885,183779
//Storyboard Layer 0 (Background)
//Storyboard Layer 1 (Fail)
//Storyboard Layer 2 (Pass)
//Storyboard Layer 3 (Foreground)
//Storyboard Layer 4 (Overlay)
//Storyboard Sound Samples

[TimingPoints]
1450,352.941176470588,4,1,0,60,1,0
12744,-100,4,1,0,70,0,0
24038,-100,4,1,0,80,0,0
46626,-100,4,1,0,60,0,0
69214,-100,4,1,0,70,0,0
91802,-100,4,1,0,80,0,0
114391,-100,4,1,0,70,0,0
128508,-100,4,1,0,90,0,1
151097,-100,4,1,0,80,0,0
173685,-100,4,1,0,60,0,0
184979,-100,4,1,0,70,0,0
218861,-100,4,1,0,90,0,1
241449,-100,4,1,0,80,0,0
264038,-100,4,1,0,60,0,0
275332,-100,4,1,0,70,0,0

[HitObjects]
354,263,1450,5,4,0:0:0:0:
309,182,1979,1,8,0:0:0:0:
309,182,2685,1,0,0:0:0:0:
309,182,3038,1,8,0:0:0:0:
309,182,3391,1,0,0:0:0:0:
242,206,4273,1,8,0:0:0:0:
242,206,4802,1,0,0:0:0:0:
297,200,5861,1,8,0:0:0:0:
265,133,6214,1,0,0:0:0:0:
196,147,7097,1,8,0:0:0:0:
199,278,7626,1,0,0:0:0:0:
199,278,8332,1,8,0:0:0:0:
199,278,8685,1,0,0:0:0:0:
199,278,9038,1,8,0:0:0:0:
199,278,9920,1,0,0:0:0:0:
199,278,10449,1,8,0:0:0:0:
199,278,11508,1,0,0:0:0:0:
199,278,11861,1,8,0:0:0:0:
214,222,12744,1,4,0:0:0:0:
305,201,13273,1,8,0:0:0:0:
305,201,13979,1,0,0:0:0:0:
165,157,14332,1,8,0:0:0:0:
165,157,14685,1,0,0:0:0:0:
165,157,15038,1,8,0:0:0:0:
165,157,15214,1,0,0:0:0:0:
165,157,15567,1,8,0:0:0:0:
165,157,16097,1,0,0:0:0:0:
217,229,16626,1,8,0:0:0:0:
256,294,17155,1,0,0:0:0:0:
256,294,17508,1,0,0:0:0:0:
253,197,17861,1,8,0:0:0:0:
253,197,18038,1,0,0:0:0:0:
253,197,18391,1,8,0:0:0:0:
286,212,18920,1,0,0:0:0:0:
286,212,19626,1,8,0:0:0:0:
177,211,19979,1,0,0:0:0:0:
177,211,20332,1,8,0:0:0:0:
327,248,20685,1,0,0:0:0:0:
327,248,20861,1,8,0:0:0:0:
327,248,21214,1,0,0:0:0:0:
241,237,21567,1,8,0:0:0:0:
241,237,21920,1,0,0:0:0:0:
234,238,22273,1,8,0:0:0:0:
234,238,22626,1,0,0:0:0:0:
234,238,22802,1,0,0:0:0:0:
234,238,22979,1,8,0:0:0:0:
234,238,23155,1,8,0:0:0:0:
234,238,23332,1,0,0:0:0:0:
234,238,23508,1,0,0:0:0:0:
234,238,23685,1,8,0:0:0:0:
204,182,24038,1,4,0:0:0:0:
306,154,24567,1,8,0:0:0:0:
258,205,25097,1,0,0:0:0:0:
258,205,25449,1,8,0:0:0:0:
292,275,25626,1,0,0:0:0:0:
366,317,25802,1,8,0:0:0:0:
366,317,26155,1,0,0:0:0:0:
366,317,26508,1,0,0:0:0:0:
366,317,26861,1,8,0:0:0:0:
155,218,27214,1,8,0:0:0:0:
155,218,27567,1,0,0:0:0:0:
155,218,27744,1,8,0:0:0:0:
155,218,27920,1,0,0:0:0:0:
155,218,28273,1,8,0:0:0:0:
281,217,28449,1,8,0:0:0:0:
155,218,28802,1,0,0:0:0:0:
256,283,29685,1,8,0:0:0:0:
260,152,30214,1,0,0:0:0:0:
260,152,30744,1,8,0:0:0:0:
271,237,31097,1,0,0:0:0:0:
378,252,31273,1,8,0:0:0:0:
378,252,31449,1,0,0:0:0:0:
378,252,31802,1,8,0:0:0:0:
378,252,32155,1,8,0:0:0:0:
378,252,32508,1,0,0:0:0:0:
271,237,32861,1,0,0:0:0:0:
169,244,33214,1,8,0:0:0:0:
169,244,33391,1,0,0:0:0:0:
169,244,33567,1,8,0:0:0:0:
264,113,33920,1,0,0:0:0:0:
319,259,34097,1,0,0:0:0:0:
264,113,34449,1,8,0:0:0:0:
212,237,35332,1,4,0:0:0:0:
380,202,35861,1,8,0:0:0:0:
380,202,36391,1,0,0:0:0:0:
241,238,36744,1,8,0:0:0:0:
241,238,36920,1,0,0:0:0:0:
241,238,37097,1,8,0:0:0:0:
241,238,37449,1,0,0:0:0:0:
241,238,37802,1,8,0:0:0:0:
209,243,38155,1,0,0:0:0:0:
209,243,38332,1,0,0:0:0:0:
241,238,38508,1,8,0:0:0:0:
248,108,38685,1,8,0:0:0:0:
248,108,38861,1,0,0:0:0:0:
248,108,39214,1,0,0:0:0:0:
248,108,39567,1,8,0:0:0:0:
248,108,39744,1,8,0:0:0:0:
248,108,40097,1,0,0:0:0:0:
248,108,40979,1,8,0:0:0:0:
248,108,41508,1,0,0:0:0:0:
248,108,42038,1,8,0:0:0:0:
248,108,42391,1,0,0:0:0:0:
320,260,42567,1,8,0:0:0:0:
320,260,42744,1,0,0:0:0:0:
320,260,43097,1,8,0:0:0:0:
270,262,43449,1,0,0:0:0:0:
276,210,43802,1,8,0:0:0:0:
276,210,43979,1,8,0:0:0:0:
276,210,44155,1,0,0:0:0:0:
276,210,44332,1,0,0:0:0:0:
276,210,44508,1,8,0:0:0:0:
276,210,44861,1,8,0:0:0:0:
276,210,45214,1,0,0:0:0:0:
274,258,45391,1,0,0:0:0:0:
274,258,45744,1,8,0:0:0:0:
343,240,46626,1,4,0:0:0:0:
312,265,57920,5,4,0:0:0:0:
224,178,58626,1,8,0:0:0:0:
224,178,59155,1,0,0:0:0:0:
224,178,59508,1,0,0:0:0:0:
224,178,59861,1,0,0:0:0:0:
224,178,60214,1,8,0:0:0:0:
224,178,60391,1,8,0:0:0:0:
224,178,60744,1,0,0:0:0:0:
177,210,62155,1,8,0:0:0:0:
177,210,62685,1,8,0:0:0:0:
177,210,63038,1,8,0:0:0:0:
177,210,63214,1,8,0:0:0:0:
177,210,63567,1,0,0:0:0:0:
189,211,64979,1,8,0:0:0:0:
189,211,65508,1,0,0:0:0:0:
189,211,66038,1,8,0:0:0:0:
189,211,66214,1,8,0:0:0:0:
189,211,66391,1,0,0:0:0:0:
189,211,66920,1,8,0:0:0:0:
189,211,67273,1,8,0:0:0:0:
189,211,67626,1,0,0:0:0:0:
303,235,69214,1,4,0:0:0:0:
303,235,69567,1,8,0:0:0:0:
277,222,70273,1,8,0:0:0:0:
277,222,70626,1,0,0:0:0:0:
277,222,70979,1,8,0:0:0:0:
277,222,71332,1,0,0:0:0:0:
277,222,71508,1,0,0:0:0:0:
277,222,71685,1,8,0:0:0:0:
277,222,72038,1,0,0:0:0:0:
277,222,72391,1,8,0:0:0:0:
245,226,73097,1,8,0:0:0:0:
245,226,73449,1,0,0:0:0:0:
245,226,73626,1,0,0:0:0:0:
245,226,73979,1,8,0:0:0:0:
245,226,74332,1,8,0:0:0:0:
256,141,74685,1,8,0:0:0:0:
206,181,74861,1,0,0:0:0:0:
256,141,75214,1,8,0:0:0:0:
230,155,75920,1,8,0:0:0:0:
230,155,76273,1,0,0:0:0:0:
230,155,76626,1,8,0:0:0:0:
230,155,77332,1,8,0:0:0:0:
230,155,77685,1,0,0:0:0:0:
230,155,78038,1,8,0:0:0:0:
230,155,78214,1,0,0:0:0:0:
230,155,78567,1,0,0:0:0:0:
225,199,79097,1,8,0:0:0:0:
225,199,79449,1,8,0:0:0:0:
225,199,79626,1,0,0:0:0:0:
225,199,79979,1,0,0:0:0:0:
358,274,80508,1,0,0:0:0:0:
305,201,81038,1,8,0:0:0:0:
305,201,81744,1,0,0:0:0:0:
165,157,82097,1,8,0:0:0:0:
165,157,82449,1,0,0:0:0:0:
165,157,82802,1,8,0:0:0:0:
165,157,82979,1,0,0:0:0:0:
165,157,83332,1,8,0:0:0:0:
165,157,83861,1,0,0:0:0:0:
217,229,84391,1,8,0:0:0:0:
256,294,84920,1,0,0:0:0:0:
256,294,85273,1,0,0:0:0:0:
253,197,85626,1,8,0:0:0:0:
253,197,85802,1,0,0:0:0:0:
253,197,86155,1,8,0:0:0:0:
286,212,86685,1,0,0:0:0:0:
286,212,87391,1,8,0:0:0:0:
177,211,87744,1,0,0:0:0:0:
177,211,88097,1,8,0:0:0:0:
327,248,88449,1,0,0:0:0:0:
327,248,88626,1,8,0:0:0:0:
327,248,88979,1,0,0:0:0:0:
241,237,89508,1,8,0:0:0:0:
234,238,90038,1,8,0:0:0:0:
234,238,90391,1,0,0:0:0:0:
234,238,90744,1,8,0:0:0:0:
234,238,90920,1,8,0:0:0:0:
234,238,91097,1,0,0:0:0:0:
234,238,91273,1,0,0:0:0:0:
234,238,91449,1,8,0:0:0:0:
204,182,91802,1,4,0:0:0:0:
251,228,92508,1,8,0:0:0:0:
251,228,92861,1,8,0:0:0:0:
249,212,93214,1,0,0:0:0:0:
249,212,93567,1,8,0:0:0:0:
249,212,93920,1,0,0:0:0:0:
249,212,94097,1,0,0:0:0:0:
249,212,94273,1,8,0:0:0:0:
249,212,94626,1,0,0:0:0:0:
249,212,94979,1,8,0:0:0:0:
249,212,95155,1,0,0:0:0:0:
249,212,95508,1,0,0:0:0:0:
249,212,95685,1,8,0:0:0:0:
249,212,96038,1,0,0:0:0:0:
249,212,96214,1,0,0:0:0:0:
249,212,96391,1,8,0:0:0:0:
204,114,96567,1,8,0:0:0:0:
204,114,96744,1,0,0:0:0:0:
204,114,97097,1,8,0:0:0:0:
204,114,97449,1,0,0:0:0:0:
313,153,97979,1,8,0:0:0:0:
313,153,98508,1,0,0:0:0:0:
218,191,98861,1,0,0:0:0:0:
224,244,99214,1,8,0:0:0:0:
224,244,99391,1,0,0:0:0:0:
224,244,99744,1,0,0:0:0:0:
224,244,99920,1,8,0:0:0:0:
224,244,100273,1,0,0:0:0:0:
224,244,100626,1,8,0:0:0:0:
330,263,100802,1,8,0:0:0:0:
205,126,100979,1,0,0:0:0:0:
205,126,101332,1,8,0:0:0:0:
205,126,101685,1,0,0:0:0:0:
205,126,101861,1,0,0:0:0:0:
205,126,102038,1,8,0:0:0:0:
330,226,102214,1,8,0:0:0:0:
330,226,102391,1,0,0:0:0:0:
330,226,102744,1,0,0:0:0:0:
256,179,103097,1,12,0:0:0:0:
251,228,103802,1,0,0:0:0:0:
249,212,104155,1,0,0:0:0:0:
251,228,104508,1,8,0:0:0:0:
249,212,104861,1,0,0:0:0:0:
249,212,105214,1,8,0:0:0:0:
249,212,105391,1,8,0:0:0:0:
249,212,105567,1,0,0:0:0:0:
249,212,105920,1,8,0:0:0:0:
249,212,106273,1,0,0:0:0:0:
249,212,106449,1,8,0:0:0:0:
249,212,106802,1,8,0:0:0:0:
249,212,106979,1,0,0:0:0:0:
249,212,107332,1,8,0:0:0:0:
249,212,107508,1,8,0:0:0:0:
249,212,107685,1,0,0:0:0:0:
204,114,107861,1,0,0:0:0:0:
204,114,108038,1,8,0:0:0:0:
204,114,108391,1,0,0:0:0:0:
204,114,108744,1,8,0:0:0:0:
313,153,109273,1,0,0:0:0:0:
313,153,109802,1,8,0:0:0:0:
218,191,110155,1,8,0:0:0:0:
224,244,110508,1,0,0:0:0:0:
224,244,110685,1,8,0:0:0:0:
224,244,111038,1,8,0:0:0:0:
224,244,111214,1,0,0:0:0:0:
224,244,111567,1,8,0:0:0:0:
224,244,111920,1,0,0:0:0:0:
330,263,112097,1,0,0:0:0:0:
205,126,112273,1,8,0:0:0:0:
205,126,112626,1,0,0:0:0:0:
205,126,112979,1,8,0:0:0:0:
205,126,113155,1,8,0:0:0:0:
205,126,113332,1,0,0:0:0:0:
330,226,113508,1,0,0:0:0:0:
330,226,113685,1,8,0:0:0:0:
330,226,114038,1,8,0:0:0:0:
256,179,114391,1,4,0:0:0:0:
236,264,114920,1,8,0:0:0:0:
236,264,115626,1,0,0:0:0:0:
275,231,117214,1,0,0:0:0:0:
275,231,117744,1,0,0:0:0:0:
275,231,118449,1,8,0:0:0:0:
197,191,120038,1,8,0:0:0:0:
197,191,120567,1,0,0:0:0:0:
197,191,121273,1,8,0:0:0:0:
289,225,122861,1,0,0:0:0:0:
289,225,123391,1,0,0:0:0:0:
288,228,124979,1,8,0:0:0:0:
263,226,125685,1,0,0:0:0:0:
257,222,126038,1,8,0:0:0:0:
123,217,126391,1,0,0:0:0:0:
123,217,126744,1,8,0:0:0:0:
123,217,127097,1,0,0:0:0:0:
123,217,127273,1,0,0:0:0:0:
123,217,127449,1,8,0:0:0:0:
123,217,127626,1,8,0:0:0:0:
123,217,127802,1,0,0:0:0:0:
123,217,127979,1,0,0:0:0:0:
123,217,128155,1,8,0:0:0:0:
258,257,128508,1,4,0:0:0:0:
353,222,129038,1,8,0:0:0:0:
234,192,129391,1,8,0:0:0:0:
234,192,129744,1,0,0:0:0:0:
234,192,129920,1,8,0:0:0:0:
192,205,130273,1,8,0:0:0:0:
192,205,130449,1,0,0:0:0:0:
192,205,130802,1,0,0:0:0:0:
211,194,130979,1,8,0:0:0:0:
211,194,131332,1,0,0:0:0:0:
322,218,131685,1,8,0:0:0:0:
322,218,131861,1,8,0:0:0:0:
322,218,132038,1,0,0:0:0:0:
322,218,132391,1,8,0:0:0:0:
322,218,132744,1,0,0:0:0:0:
322,218,132920,1,0,0:0:0:0:
322,218,133097,1,8,0:0:0:0:
322,218,133449,1,0,0:0:0:0:
322,218,133626,1,0,0:0:0:0:
322,218,133802,1,8,0:0:0:0:
322,218,133979,1,8,0:0:0:0:
322,218,134155,1,0,0:0:0:0:
322,218,134685,1,8,0:0:0:0:
322,218,135038,1,0,0:0:0:0:
322,218,135214,1,8,0:0:0:0:
204,125,135391,1,8,0:0:0:0:
322,218,135567,1,0,0:0:0:0:
240,144,136273,1,8,0:0:0:0:
240,144,136449,1,0,0:0:0:0:
240,144,136626,1,8,0:0:0:0:
233,217,136979,1,0,0:0:0:0:
233,217,137332,1,8,0:0:0:0:
233,217,137508,1,0,0:0:0:0:
233,217,137861,1,0,0:0:0:0:
233,217,138038,1,8,0:0:0:0:
233,217,138391,1,0,0:0:0:0:
224,221,138567,1,0,0:0:0:0:
224,221,138744,1,8,0:0:0:0:
266,178,139097,1,8,0:0:0:0:
266,178,139273,1,8,0:0:0:0:
266,178,139449,1,0,0:0:0:0:
266,178,139802,1,12,0:0:0:0:
353,222,140332,1,0,0:0:0:0:
234,192,140685,1,0,0:0:0:0:
234,192,141038,1,8,0:0:0:0:
234,192,141214,1,0,0:0:0:0:
192,205,141567,1,0,0:0:0:0:
192,205,141744,1,8,0:0:0:0:
211,194,142097,1,8,0:0:0:0:
192,205,142273,1,0,0:0:0:0:
211,194,142626,1,8,0:0:0:0:
322,218,142979,1,0,0:0:0:0:
322,218,143155,1,0,0:0:0:0:
322,218,143332,1,8,0:0:0:0:
322,218,143685,1,0,0:0:0:0:
322,218,144038,1,8,0:0:0:0:
322,218,144214,1,8,0:0:0:0:
322,218,144391,1,0,0:0:0:0:
322,218,144744,1,8,0:0:0:0:
322,218,144920,1,8,0:0:0:0:
322,218,145097,1,0,0:0:0:0:
322,218,145273,1,0,0:0:0:0:
322,218,145449,1,8,0:0:0:0:
322,218,145979,1,0,0:0:0:0:
322,218,146332,1,8,0:0:0:0:
322,218,146508,1,0,0:0:0:0:
204,125,146685,1,0,0:0:0:0:
322,218,146861,1,8,0:0:0:0:
240,144,147567,1,0,0:0:0:0:
240,144,147744,1,8,0:0:0:0:
240,144,147920,1,0,0:0:0:0:
233,217,148273,1,8,0:0:0:0:
233,217,148626,1,0,0:0:0:0:
233,217,148802,1,8,0:0:0:0:
233,217,149155,1,8,0:0:0:0:
233,217,149332,1,0,0:0:0:0:
233,217,149685,1,8,0:0:0:0:
224,221,149861,1,8,0:0:0:0:
224,221,150038,1,0,0:0:0:0:
266,178,150391,1,0,0:0:0:0:
266,178,150567,1,0,0:0:0:0:
266,178,150744,1,8,0:0:0:0:
266,178,151097,1,4,0:0:0:0:
213,226,151626,1,8,0:0:0:0:
213,226,152155,1,0,0:0:0:0:
213,226,152508,1,8,0:0:0:0:
213,226,152685,1,0,0:0:0:0:
213,226,153038,1,8,0:0:0:0:
213,226,153391,1,8,0:0:0:0:
213,226,153567,1,0,0:0:0:0:
279,221,153920,1,8,0:0:0:0:
209,180,154273,1,0,0:0:0:0:
209,180,154449,1,0,0:0:0:0:
209,180,154626,1,8,0:0:0:0:
209,180,154979,1,0,0:0:0:0:
209,189,155332,1,8,0:0:0:0:
215,284,155508,1,8,0:0:0:0:
215,284,155861,1,0,0:0:0:0:
215,284,156744,1,8,0:0:0:0:
281,250,157273,1,0,0:0:0:0:
281,250,157802,1,8,0:0:0:0:
266,194,158155,1,0,0:0:0:0:
266,194,158332,1,8,0:0:0:0:
266,194,158685,1,0,0:0:0:0:
361,282,159038,1,0,0:0:0:0:
361,282,159214,1,8,0:0:0:0:
361,282,159567,1,0,0:0:0:0:
327,219,159920,1,8,0:0:0:0:
327,219,160097,1,8,0:0:0:0:
327,219,160273,1,0,0:0:0:0:
327,219,160626,1,8,0:0:0:0:
327,219,160979,1,0,0:0:0:0:
327,219,161155,1,0,0:0:0:0:
115,248,161508,1,8,0:0:0:0:
266,178,162391,1,4,0:0:0:0:
213,226,162920,1,8,0:0:0:0:
213,226,163449,1,0,0:0:0:0:
213,226,163802,1,8,0:0:0:0:
213,226,163979,1,0,0:0:0:0:
213,226,164332,1,8,0:0:0:0:
213,226,164685,1,8,0:0:0:0:
213,226,164861,1,0,0:0:0:0:
279,221,165214,1,8,0:0:0:0:
209,180,165567,1,0,0:0:0:0:
209,180,165744,1,0,0:0:0:0:
209,180,165920,1,8,0:0:0:0:
209,180,166273,1,0,0:0:0:0:
209,189,166626,1,8,0:0:0:0:
215,284,166802,1,8,0:0:0:0:
215,284,167155,1,0,0:0:0:0:
215,284,168038,1,8,0:0:0:0:
281,250,168567,1,0,0:0:0:0:
281,250,169097,1,8,0:0:0:0:
266,194,169449,1,0,0:0:0:0:
266,194,169626,1,8,0:0:0:0:
266,194,169979,1,0,0:0:0:0:
361,282,170332,1,0,0:0:0:0:
361,282,170508,1,8,0:0:0:0:
361,282,170861,1,0,0:0:0:0:
327,219,171214,1,8,0:0:0:0:
327,219,171391,1,8,0:0:0:0:
327,219,171567,1,0,0:0:0:0:
327,219,171920,1,8,0:0:0:0:
327,219,172273,1,0,0:0:0:0:
327,219,172449,1,0,0:0:0:0:
115,248,172802,1,8,0:0:0:0:
282,218,173685,1,4,0:0:0:0:
253,298,184979,5,0,0:0:0:0:
253,298,185508,1,8,0:0:0:0:
253,298,186391,1,0,0:0:0:0:
253,298,186567,1,0,0:0:0:0:
253,298,186920,1,8,0:0:0:0:
253,298,187802,1,0,0:0:0:0:
253,298,188508,1,8,0:0:0:0:
286,180,189214,1,0,0:0:0:0:
286,180,189391,1,0,0:0:0:0:
286,180,189744,1,8,0:0:0:0:
184,261,190626,1,0,0:0:0:0:
184,261,191155,1,8,0:0:0:0:
179,268,192038,1,0,0:0:0:0:
179,268,192214,1,0,0:0:0:0:
179,268,192567,1,8,0:0:0:0:
179,268,193449,1,0,0:0:0:0:
179,268,194155,1,8,0:0:0:0:
179,268,194861,1,0,0:0:0:0:
179,268,195038,1,0,0:0:0:0:
182,273,195391,1,8,0:0:0:0:
210,277,196273,1,4,0:0:0:0:
284,185,196979,1,8,0:0:0:0:
284,185,197332,1,8,0:0:0:0:
284,185,197685,1,0,0:0:0:0:
284,185,198391,1,8,0:0:0:0:
265,183,199097,1,0,0:0:0:0:
265,183,199449,1,0,0:0:0:0:
265,183,199802,1,8,0:0:0:0:
265,183,200155,1,8,0:0:0:0:
265,183,200508,1,0,0:0:0:0:
265,183,201214,1,8,0:0:0:0:
213,195,201920,1,0,0:0:0:0:
126,172,202626,1,8,0:0:0:0:
302,296,202979,1,8,0:0:0:0:
268,207,203332,1,0,0:0:0:0:
268,207,204038,1,8,0:0:0:0:
252,210,204744,1,0,0:0:0:0:
278,255,205097,1,0,0:0:0:0:
278,255,205449,1,8,0:0:0:0:
272,256,205802,1,8,0:0:0:0:
264,257,206155,1,0,0:0:0:0:
247,260,206861,1,8,0:0:0:0:
319,229,207567,1,4,0:0:0:0:
279,199,208273,1,8,0:0:0:0:
279,199,208626,1,8,0:0:0:0:
294,177,208979,1,4,0:0:0:0:
294,177,209685,1,8,0:0:0:0:
294,177,210038,1,8,0:0:0:0:
236,154,210391,1,4,0:0:0:0:
236,154,211097,1,8,0:0:0:0:
236,159,211449,1,8,0:0:0:0:
236,163,211802,1,4,0:0:0:0:
230,155,212508,1,8,0:0:0:0:
230,157,212861,1,8,0:0:0:0:
229,163,213214,1,4,0:0:0:0:
229,163,213920,1,4,0:0:0:0:
229,163,214626,1,4,0:0:0:0:
222,173,215332,1,4,0:0:0:0:
222,173,216038,1,4,0:0:0:0:
222,173,216391,1,4,0:0:0:0:
222,173,216744,1,4,0:0:0:0:
220,178,217097,1,4,0:0:0:0:
213,182,217449,1,0,0:0:0:0:
213,182,217626,1,0,0:0:0:0:
213,182,217802,1,8,0:0:0:0:
213,182,217979,1,8,0:0:0:0:
213,182,218155,1,0,0:0:0:0:
213,182,218332,1,0,0:0:0:0:
235,181,218508,1,8,0:0:0:0:
258,257,218861,1,4,0:0:0:0:
353,222,219391,1,8,0:0:0:0:
234,192,219744,1,8,0:0:0:0:
234,192,220097,1,0,0:0:0:0:
234,192,220273,1,8,0:0:0:0:
192,205,220626,1,8,0:0:0:0:
192,205,220802,1,0,0:0:0:0:
192,205,221155,1,0,0:0:0:0:
211,194,221332,1,8,0:0:0:0:
211,194,221685,1,0,0:0:0:0:
322,218,222038,1,8,0:0:0:0:
322,218,222214,1,8,0:0:0:0:
322,218,222391,1,0,0:0:0:0:
322,218,222744,1,8,0:0:0:0:
322,218,223097,1,0,0:0:0:0:
322,218,223273,1,0,0:0:0:0:
322,218,223449,1,8,0:0:0:0:
322,218,223802,1,0,0:0:0:0:
322,218,223979,1,0,0:0:0:0:
322,218,224155,1,8,0:0:0:0:
322,218,224332,1,8,0:0:0:0:
322,218,224508,1,0,0:0:0:0:
322,218,225038,1,8,0:0:0:0:
322,218,225391,1,0,0:0:0:0:
322,218,225567,1,8,0:0:0:0:
204,125,225744,1,8,0:0:0:0:
322,218,225920,1,0,0:0:0:0:
240,144,226626,1,8,0:0:0:0:
240,144,226802,1,0,0:0:0:0:
240,144,226979,1,8,0:0:0:0:
233,217,227332,1,0,0:0:0:0:
233,217,227685,1,8,0:0:0:0:
233,217,227861,1,0,0:0:0:0:
233,217,228214,1,0,0:0:0:0:
233,217,228391,1,8,0:0:0:0:
233,217,228744,1,0,0:0:0:0:
224,221,228920,1,0,0:0:0:0:
224,221,229097,1,8,0:0:0:0:
266,178,229449,1,8,0:0:0:0:
266,178,229626,1,8,0:0:0:0:
266,178,229802,1,0,0:0:0:0:
266,178,230155,1,12,0:0:0:0:
353,222,230685,1,0,0:0:0:0:
234,192,231038,1,0,0:0:0:0:
234,192,231391,1,8,0:0:0:0:
234,192,231567,1,0,0:0:0:0:
192,205,231920,1,0,0:0:0:0:
192,205,232097,1,8,0:0:0:0:
211,194,232449,1,8,0:0:0:0:
192,205,232626,1,0,0:0:0:0:
211,194,232979,1,8,0:0:0:0:
322,218,233332,1,0,0:0:0:0:
322,218,233508,1,0,0:0:0:0:
322,218,233685,1,8,0:0:0:0:
322,218,234038,1,0,0:0:0:0:
322,218,234391,1,8,0:0:0:0:
322,218,234567,1,8,0:0:0:0:
322,218,234744,1,0,0:0:0:0:
322,218,235097,1,8,0:0:0:0:
322,218,235273,1,8,0:0:0:0:
322,218,235449,1,0,0:0:0:0:
322,218,235626,1,0,0:0:0:0:
322,218,235802,1,8,0:0:0:0:
322,218,236332,1,0,0:0:0:0:
322,218,236685,1,8,0:0:0:0:
322,218,236861,1,0,0:0:0:0:
204,125,237038,1,0,0:0:0:0:
322,218,237214,1,8,0:0:0:0:
240,144,237920,1,0,0:0:0:0:
240,144,238097,1,8,0:0:0:0:
240,144,238273,1,0,0:0:0:0:
233,217,238626,1,8,0:0:0:0:
233,217,238979,1,0,0:0:0:0:
233,217,239155,1,8,0:0:0:0:
233,217,239508,1,8,0:0:0:0:
233,217,239685,1,0,0:0:0:0:
233,217,240038,1,8,0:0:0:0:
224,221,240214,1,8,0:0:0:0:
224,221,240391,1,0,0:0:0:0:
266,178,240744,1,0,0:0:0:0:
266,178,240920,1,0,0:0:0:0:
266,178,241097,1,8,0:0:0:0:
266,178,241449,1,4,0:0:0:0:
213,226,241979,1,8,0:0:0:0:
213,226,242508,1,0,0:0:0:0:
213,226,242861,1,8,0:0:0:0:
213,226,243038,1,0,0:0:0:0:
213,226,243391,1,8,0:0:0:0:
213,226,243744,1,8,0:0:0:0:
213,226,243920,1,0,0:0:0:0:
279,221,244273,1,8,0:0:0:0:
209,180,244626,1,0,0:0:0:0:
209,180,244802,1,0,0:0:0:0:
209,180,244979,1,8,0:0:0:0:
209,180,245332,1,0,0:0:0:0:
209,189,245685,1,8,0:0:0:0:
215,284,245861,1,8,0:0:0:0:
215,284,246214,1,0,0:0:0:0:
215,284,247097,1,8,0:0:0:0:
281,250,247626,1,0,0:0:0:0:
281,250,248155,1,8,0:0:0:0:
266,194,248508,1,0,0:0:0:0:
266,194,248685,1,8,0:0:0:0:
266,194,249038,1,0,0:0:0:0:
361,282,249391,1,0,0:0:0:0:
361,282,249567,1,8,0:0:0:0:
361,282,249920,1,0,0:0:0:0:
327,219,250273,1,8,0:0:0:0:
327,219,250449,1,8,0:0:0:0:
327,219,250626,1,0,0:0:0:0:
327,219,250979,1,8,0:0:0:0:
327,219,251332,1,0,0:0:0:0:
327,219,251508,1,0,0:0:0:0:
115,248,251861,1,8,0:0:0:0:
266,178,252744,1,4,0:0:0:0:
213,226,253273,1,8,0:0:0:0:
213,226,253802,1,0,0:0:0:0:
213,226,254155,1,8,0:0:0:0:
213,226,254332,1,0,0:0:0:0:
213,226,254685,1,8,0:0:0:0:
213,226,255038,1,8,0:0:0:0:
213,226,255214,1,0,0:0:0:0:
279,221,255567,1,8,0:0:0:0:
209,180,255920,1,0,0:0:0:0:
209,180,256097,1,0,0:0:0:0:
209,180,256273,1,8,0:0:0:0:
209,180,256626,1,0,0:0:0:0:
209,189,256979,1,8,0:0:0:0:
215,284,257155,1,8,0:0:0:0:
215,284,257508,1,0,0:0:0:0:
215,284,258391,1,8,0:0:0:0:
281,250,258920,1,0,0:0:0:0:
281,250,259449,1,8,0:0:0:0:
266,194,259802,1,0,0:0:0:0:
266,194,259979,1,8,0:0:0:0:
266,194,260332,1,0,0:0:0:0:
361,282,260685,1,0,0:0:0:0:
361,282,260861,1,8,0:0:0:0:
361,282,261214,1,0,0:0:0:0:
327,219,261567,1,8,0:0:0:0:
327,219,261744,1,8,0:0:0:0:
327,219,261920,1,0,0:0:0:0:
327,219,262273,1,8,0:0:0:0:
327,219,262626,1,0,0:0:0:0:
327,219,262802,1,0,0:0:0:0:
115,248,263155,1,8,0:0:0:0:
354,263,264038,5,4,0:0:0:0:
309,182,264567,1,8,0:0:0:0:
309,182,265273,1,0,0:0:0:0:
309,182,265626,1,8,0:0:0:0:
309,182,265979,1,0,0:0:0:0:
242,206,266861,1,8,0:0:0:0:
242,206,267391,1,0,0:0:0:0:
297,200,268449,1,8,0:0:0:0:
265,133,268802,1,0,0:0:0:0:
196,147,269685,1,8,0:0:0:0:
199,278,270214,1,0,0:0:0:0:
199,278,270920,1,8,0:0:0:0:
199,278,271273,1,0,0:0:0:0:
199,278,271626,1,8,0:0:0:0:
199,278,272508,1,0,0:0:0:0:
199,278,273038,1,8,0:0:0:0:
199,278,274097,1,0,0:0:0:0:
199,278,274449,1,8,0:0:0:0:
214,222,275332,1,4,0:0:0:0:
305,201,275861,1,8,0:0:0:0:
305,201,276567,1,0,0:0:0:0:
165,157,276920,1,8,0:0:0:0:
165,157,277273,1,0,0:0:0:0:
165,157,277626,1,8,0:0:0:0:
165,157,277802,1,0,0:0:0:0:
165,157,278155,1,8,0:0:0:0:
165,157,278685,1,0,0:0:0:0:
217,229,279214,1,8,0:0:0:0:
256,294,279744,1,0,0:0:0:0:
256,294,280097,1,0,0:0:0:0:
253,197,280449,1,8,0:0:0:0:
253,197,280626,1,0,0:0:0:0:
253,197,280979,1,8,0:0:0:0:
286,212,281508,1,0,0:0:0:0:
286,212,282214,1,8,0:0:0:0:
177,211,282567,1,0,0:0:0:0:
177,211,282920,1,8,0:0:0:0:
327,248,283273,1,0,0:0:0:0:
327,248,283449,1,8,0:0:0:0:
327,248,283802,1,0,0:0:0:0:
241,237,284155,1,8,0:0:0:0:
241,237,284508,1,0,0:0:0:0:
364,298,284685,1,0,0:0:0:0:
234,238,284861,1,8,0:0:0:0:
234,238,285214,1,0,0:0:0:0:
234,238,285567,1,8,0:0:0:0:
234,238,285744,1,8,0:0:0:0:
234,238,285920,1,0,0:0:0:0:
234,238,286097,1,0,0:0:0:0:
234,238,286273,1,8,0:0:0:0:
252,240,286449,1,8,0:0:0:0:
