osu file format v14

[General]
AudioFilename: audio.mp3
AudioLeadIn: 0
PreviewTime: 62993
Countdown: 0
SampleSet: Soft
StackLeniency: 0.7
Mode: 0
LetterboxInBreaks: 0
WidescreenStoryboard: 1

[Editor]
DistanceSpacing: 1.6
BeatDivisor: 4
GridSize: 4
TimelineZoom: 1.6

[Metadata]
Title:Flower Flag
TitleUnicode:Flower Flag
Artist:FELT
ArtistUnicode:FELT
Creator:Bearizm
Version:Lunatic
Source:東方妖々夢 ~ Perfect Cherry Blossom.
Tags:Touhou LowComboFC 幽雅に咲かせ、墨染の桜 〜 Border of Life NAGI☆ 舞花 Maika ZUN 東方project reitaisai 例大祭 8
BeatmapID:1251852
BeatmapSetID:585723

[Difficulty]
HPDrainRate:6
CircleSize:4
OverallDifficulty:8
ApproachRate:9
SliderMultiplier:1.4
SliderTickRate:1

[Events]
//Background and Video events
0,0,"BG2.png",0,0
//Break Periods
2,93943,99098
2,210943,215955
//Storyboard Layer 0 (Background)
//Storyboard Layer 1 (Fail)
//Storyboard Layer 2 (Pass)
//Storyboard Layer 3 (Foreground)
//Storyboard Sound Samples

[TimingPoints]
743,375,4,2,1,50,1,0
11993,-100,4,2,1,60,0,0
12743,-100,4,2,1,70,0,1
24743,-100,4,2,1,70,0,0
25118,-100,4,2,1,50,0,0
36743,-100,4,2,1,60,0,0
60743,-100,4,2,1,70,0,0
63743,-80,4,2,1,70,0,1
87743,-80,4,2,1,70,0,0
87930,-80,4,2,1,50,0,0
93743,-80,4,2,1,70,0,0
99743,-100,4,2,1,60,0,0
135743,-100,4,2,1,70,0,0
138743,-80,4,2,1,70,0,1
162743,-80,4,2,1,70,0,0
186743,-80,4,2,1,70,0,1
186836,-80,4,2,1,70,0,0
188711,-80,4,2,1,5,0,0
188805,-80,4,2,1,70,0,0
197055,-80,4,2,1,50,0,0
197430,-80,4,2,1,70,0,0
197711,-66.6666666666667,4,2,1,70,0,0
197993,-80,4,2,1,70,0,0
201461,-66.6666666666667,4,2,1,70,0,0
201743,-80,4,2,1,70,0,0
202774,-66.6666666666667,4,2,1,70,0,0
203055,-80,4,2,1,70,0,0
207743,-80,4,2,1,70,0,1
208961,-80,4,2,1,70,0,0
209055,-80,4,2,1,70,0,1
209430,-80,4,2,1,60,0,1
209618,-80,4,2,1,65,0,1
209805,-80,4,2,1,70,0,1
209993,-80,4,2,1,75,0,1
210180,-80,4,2,1,80,0,1
210368,-80,4,2,1,85,0,1
210555,-80,4,2,1,90,0,1
210743,-80,4,2,1,50,0,0
219743,-100,4,2,1,60,0,0
221055,-80,4,2,1,60,0,0
222743,-80,4,2,1,70,0,1
234743,-80,4,2,1,70,0,0
257055,-80,4,2,1,70,0,1
257430,-80,4,2,1,60,0,1
257618,-80,4,2,1,65,0,1
257805,-80,4,2,1,70,0,1
257993,-80,4,2,1,75,0,1
258180,-80,4,2,1,80,0,1
258368,-80,4,2,1,75,0,1
258555,-80,4,2,1,70,0,1
258805,-156.25,4,2,1,70,0,0
258836,-156.25,4,2,1,20,0,0

[Colours]
Combo1 : 255,72,72
Combo2 : 0,128,255
Combo3 : 255,128,128
Combo4 : 128,255,255

[HitObjects]
424,75,743,6,0,P|428:143|440:215,1,140,6|0,0:0|0:0,0:0:0:0:
512,299,1305,2,0,P|456:259|384:279,1,140,2|0,1:2|3:0,0:0:0:0:
289,222,1868,2,0,P|257:238|217:246,1,70,2|0,0:0|3:0,0:0:0:0:
284,103,2243,6,0,P|351:114|422:123,1,140,2|0,0:0|0:0,0:0:0:0:
218,34,2805,2,0,P|178:30|101:113,1,140,0|0,3:0|3:0,0:0:0:0:
159,189,3368,2,0,P|168:223|168:262,1,70,2|0,1:2|0:0,0:0:0:0:
90,343,3743,6,0,P|162:335|229:331,1,140,2|0,0:0|0:0,0:0:0:0:
351,213,4305,2,0,P|391:209|469:272,1,140,2|0,1:2|3:0,0:0:0:0:
367,326,4868,1,0,0:0:0:0:
263,231,5055,6,0,L|268:91,2,140,2|2|0,3:2|0:0|0:0,0:0:0:0:
164,285,5993,1,0,1:0:0:0:
165,295,6180,1,0,1:0:0:0:
166,305,6368,1,0,0:3:0:0:
168,316,6743,6,0,P|229:303|291:346,1,140,6|0,0:0|0:0,0:0:0:0:
253,208,7305,2,0,P|256:174|271:136,1,70,2|0,1:2|0:0,0:0:0:0:
380,255,7680,2,0,P|358:228|341:191,1,70,0|0,3:0|0:0,0:0:0:0:
506,199,8055,6,0,P|472:195|434:181,1,70,0|0,3:0|0:0,0:0:0:0:
493,100,8430,1,0,1:0:0:0:
493,100,8805,2,0,P|452:45|380:51,1,140,0|0,3:0|3:0,0:0:0:0:
278,12,9368,2,0,P|243:23|207:24,1,70,0|0,1:0|0:0,0:0:0:0:
79,160,9743,6,0,L|218:174,1,140,0|0,3:0|3:0,0:0:0:0:
416,256,10305,2,0,L|277:270,1,140,0|0,1:0|3:0,0:0:0:0:
276,270,10868,1,2,0:0:0:0:
304,84,11055,6,0,P|348:80|420:140,1,140,4|0,3:2|1:0,0:0:0:0:
181,131,11618,2,0,P|173:87|173:51,1,70,4|0,0:0|0:0,0:0:0:0:
331,171,11993,1,8,3:0:0:0:
181,131,12180,1,0,1:0:0:0:
147,122,12273,1,0,1:0:0:0:
113,125,12367,1,10,3:0:0:0:
81,141,12461,1,0,1:0:0:0:
56,165,12555,1,0,1:0:0:0:
41,197,12648,1,0,1:0:0:0:
37,231,12743,6,0,L|56:372,1,140,4|0,0:0|1:0,0:0:0:0:
170,224,13305,2,0,P|211:221|278:285,1,140,2|0,0:0|3:0,0:0:0:0:
212,371,13868,2,0,P|176:367|137:366,1,70,2|0,1:2|0:0,0:0:0:0:
279,286,14243,6,0,P|312:284|348:279,1,70,2|0,3:2|0:0,0:0:0:0:
368,272,14524,1,0,3:0:0:0:
368,272,14618,1,0,1:0:0:0:
233,198,14805,2,0,P|195:190|123:250,1,140,2|0,3:2|3:0,0:0:0:0:
323,158,15368,2,0,P|330:122|333:77,1,70,2|0,1:2|0:0,0:0:0:0:
203,269,15743,6,0,P|206:303|212:338,1,70,2|0,3:2|0:0,0:0:0:0:
312,176,16118,1,0,1:2:0:0:
242,87,16305,2,0,L|101:93,1,140,2|0,0:0|3:0,0:0:0:0:
5,200,16868,2,0,L|80:196,1,70,2|0,1:2|0:0,0:0:0:0:
168,337,17243,6,0,P|154:305|151:269,1,70,2|0,3:2|0:0,0:0:0:0:
166,188,17524,1,0,3:0:0:0:
166,188,17618,1,0,1:0:0:0:
378,267,17805,2,0,L|239:278,1,140,2|2,3:2|3:2,0:0:0:0:
425,154,18368,2,0,L|499:161,1,70,0|0,1:0|0:0,0:0:0:0:
322,18,18743,6,0,P|282:14|212:81,1,140,6|0,3:2|1:0,0:0:0:0:
303,239,19305,2,0,P|303:193|298:91,1,140,2|0,0:0|3:0,0:0:0:0:
454,174,19868,2,0,P|415:193|377:196,1,70,2|0,1:2|0:0,0:0:0:0:
170,144,20243,6,0,P|130:137|66:180,1,105,2|0,3:2|3:0,0:0:0:0:
66,183,20618,1,0,1:0:0:0:
128,346,20805,2,0,L|268:331,1,140,2|0,3:2|3:0,0:0:0:0:
378,316,21368,1,2,1:2:0:0:
378,316,21743,6,0,B|384:268|384:268|368:224|368:224|372:180,1,140,2|0,3:2|1:0,0:0:0:0:
448,120,22305,2,0,P|376:136|316:96,1,140,2|0,0:0|3:0,0:0:0:0:
395,38,22868,1,0,1:0:0:0:
220,64,23055,2,0,P|227:135|232:204,1,140,4|8,3:2|3:0,0:0:0:0:
156,264,23618,5,0,1:0:0:0:
64,232,23805,1,0,3:0:0:0:
231,203,23993,5,0,1:0:0:0:
249,298,24180,1,0,1:0:0:0:
137,168,24368,5,8,3:0:0:0:
210,104,24555,1,4,3:0:0:0:
156,264,24743,5,4,3:2:0:0:
156,264,25118,6,0,P|149:228|151:189,1,70,2|0,0:0|0:0,0:0:0:0:
210,104,25493,2,0,L|352:110,1,140,2|0,0:0|0:0,0:0:0:0:
443,172,26055,2,0,B|459:120|459:120|443:31,2,140,2|2|2,0:0|0:0|0:0,0:0:0:0:
428,175,27180,2,0,P|430:211|438:249,1,70,2|2,0:0|0:0,0:0:0:0:
493,340,27555,1,2,0:0:0:0:
328,200,27743,6,0,P|289:193|212:256,2,140
292,344,28868,2,0,P|300:308|296:276,1,70,2|0,0:0|0:0,0:0:0:0:
108,236,29243,2,0,L|124:376,1,140,2|0,0:0|0:0,0:0:0:0:
240,164,29805,2,0,L|224:304,1,140,2|2,0:0|0:0,0:0:0:0:
320,360,30368,1,2,0:0:0:0:
420,308,30555,1,2,0:0:0:0:
408,196,30743,6,0,L|396:48,1,140,2|0,0:0|0:0,0:0:0:0:
292,20,31305,2,0,L|304:168,1,140,2|0,0:0|0:0,0:0:0:0:
228,244,31868,1,2,0:0:0:0:
228,244,32055,1,2,0:0:0:0:
136,176,32243,2,0,P|100:168|24:236,1,140,2|0,0:0|0:0,0:0:0:0:
56,336,32805,2,0,L|208:328,1,140,2|0,0:0|0:0,0:0:0:0:
308,320,33368,1,2,0:0:0:0:
308,320,33555,1,2,0:0:0:0:
239,240,33743,6,0,B|234:192|234:192|245:149|245:149|239:100,1,140
148,36,34305,2,0,P|112:32|40:104,1,140
172,276,35055,2,0,P|244:268|312:264,1,140
416,304,35618,2,0,P|408:340|408:372,1,70
504,232,35993,1,2,0:0:0:0:
476,124,36180,1,2,0:0:0:0:
368,96,36368,2,0,P|328:104|288:108,1,70,2|0,0:3|0:0,0:0:0:0:
196,68,36743,5,6,0:0:0:0:
196,68,37118,1,2,0:0:0:0:
116,144,37305,2,0,P|124:224|128:284,1,140,2|0,0:0|3:0,0:0:0:0:
36,220,37868,1,0,3:0:0:0:
208,184,38055,6,0,P|256:188|304:260,2,140,0|8|2,3:0|0:0|0:0,0:0:0:0:
140,320,39180,1,0,3:0:0:0:
140,320,39368,1,0,0:0:0:0:
252,312,39555,1,2,0:0:0:0:
252,312,39743,6,0,L|400:304,1,140,0|8,3:0|0:0,0:0:0:0:
328,260,40211,1,8,0:0:0:0:
328,244,40305,2,0,L|332:208,1,35,0|0,3:0|0:0,0:0:0:0:
344,128,40493,1,8,0:0:0:0:
344,128,40868,1,0,0:0:0:0:
244,80,41055,1,0,0:0:0:0:
146,110,41243,6,0,L|151:194,1,70,0|10,3:0|0:0,0:0:0:0:
153,200,41524,1,0,3:0:0:0:
153,200,41618,1,0,0:0:0:0:
16,272,41805,2,0,P|56:264|92:264,1,70,0|2,3:0|0:0,0:0:0:0:
200,336,42180,1,0,3:0:0:0:
200,336,42368,2,0,P|240:344|276:344,1,70,0|2,1:0|0:0,0:0:0:0:
396,240,42743,6,0,L|384:100,1,140,4|0,3:2|0:0,0:0:0:0:
288,44,43305,2,0,P|244:40|172:104,1,140,8|0,0:0|3:0,0:0:0:0:
226,197,43868,1,0,0:0:0:0:
226,197,44055,6,0,P|236:233|241:271,1,70,0|2,3:0|0:0,0:0:0:0:
97,294,44430,2,0,P|123:267|153:244,1,70
250,353,44805,2,0,P|213:343|178:328,1,70,2|0,3:2|0:0,0:0:0:0:
332,230,45180,1,0,3:0:0:0:
332,230,45368,2,0,P|364:217|398:208,1,70,2|0,0:0|0:0,0:0:0:0:
212,77,45743,6,0,P|179:65|91:125,1,140,4|0,3:2|0:0,0:0:0:0:
159,254,46305,2,0,P|155:217|149:182,1,70,2|0,0:0|0:0,0:0:0:0:
12,280,46680,2,0,P|6:314|2:349,1,70,2|0,0:0|0:0,0:0:0:0:
152,268,47055,2,0,B|197:261|197:261|243:275|243:275|288:268,1,140,4|4,3:2|3:0,0:0:0:0:
260,168,47618,5,0,1:0:0:0:
182,363,47805,1,4,3:0:0:0:
149,184,47993,5,0,1:0:0:0:
267,351,48180,1,8,3:0:0:0:
332,253,48368,5,4,3:0:0:0:
214,285,48555,1,4,3:0:0:0:
409,352,48743,6,0,P|412:279|418:211,1,140,6|0,0:0|0:0,0:0:0:0:
493,169,49305,2,0,P|423:172|372:120,1,140,6|0,0:0|0:0,0:0:0:0:
454,92,49868,1,0,1:0:0:0:
276,38,50055,6,0,P|279:103|281:183,1,140,6|0,0:0|0:0,0:0:0:0:
204,260,50618,2,0,P|169:269|131:272,1,70,2|2,0:0|0:0,0:0:0:0:
40,74,50993,1,0,0:0:0:0:
134,22,51180,1,8,3:0:0:0:
235,64,51368,1,4,3:0:0:0:
265,169,51555,1,0,0:0:0:0:
204,260,51743,6,0,P|196:296|194:328,1,70,4|0,0:0|0:0,0:0:0:0:
346,210,52118,1,0,0:0:0:0:
346,210,52305,2,0,P|343:175|336:141,1,70,0|0,1:0|0:0,0:0:0:0:
403,295,52680,2,0,P|425:268|444:239,1,70,4|0,3:0|0:0,0:0:0:0:
248,186,53055,6,0,P|207:179|127:248,1,140,4|4,0:0|3:0,0:0:0:0:
183,382,53618,1,0,1:0:0:0:
183,382,53805,2,0,P|188:344|189:303,1,70,2|0,0:0|0:0,0:0:0:0:
42,206,54181,1,0,1:0:0:0:
42,206,54368,2,0,P|43:240|48:275,1,70,4|2,3:0|0:0,0:0:0:0:
276,256,54743,6,0,B|227:249|227:249|184:258|184:258|138:251,1,140,4|0,0:0|3:0,0:0:0:0:
262,166,55305,2,0,P|263:132|257:91,1,70,4|0,3:0|0:0,0:0:0:0:
127,270,55680,2,0,P|122:304|123:339,1,70,4|0,3:0|0:0,0:0:0:0:
179,101,56055,6,0,P|145:90|56:135,1,140,4|0,3:2|1:0,0:0:0:0:
214,267,56618,1,4,0:0:0:0:
214,267,56805,2,0,P|251:262|287:261,1,70,0|8,0:0|3:0,0:0:0:0:
412,272,57180,1,0,1:0:0:0:
412,272,57274,1,0,1:0:0:0:
412,272,57368,1,0,1:0:0:0:
336,348,57555,1,4,3:0:0:0:
272,136,57743,6,0,P|328:128|396:180,1,140,4|0,0:0|1:0,0:0:0:0:
172,136,58305,2,0,P|164:96|160:64,1,70,2|0,3:2|0:0,0:0:0:0:
100,216,58680,2,0,P|73:185|53:159,1,70,2|0,3:2|1:0,0:0:0:0:
312,212,59055,6,0,L|296:352,1,140,6|2,3:2|3:2,0:0:0:0:
180,240,59618,2,0,L|188:312,1,70,0|2,1:0|3:2,0:0:0:0:
316,192,59993,1,0,0:0:0:0:
136,112,60180,1,2,3:2:0:0:
180,240,60368,1,0,1:0:0:0:
292,80,60555,1,0,3:0:0:0:
25,37,60743,2,0,P|11:74|7:105,1,70,4|0,3:2|0:0,0:0:0:0:
148,208,61118,5,0,1:0:0:0:
345,120,61305,1,0,3:0:0:0:
111,96,61493,5,0,1:0:0:0:
365,125,61680,1,0,3:0:0:0:
128,216,61868,5,0,1:0:0:0:
425,276,62055,2,0,P|430:241|426:207,1,70,4|0,3:2|0:0,0:0:0:0:
384,131,62430,5,0,3:0:0:0:
296,157,62618,1,0,3:0:0:0:
226,99,62805,1,0,1:0:0:0:
240,8,62993,1,0,1:0:0:0:
298,175,63180,6,0,P|296:191|290:211,1,35,0|0,3:0|3:0,0:0:0:0:
113,252,63368,1,2,1:3:0:0:
154,242,63461,1,0,1:0:0:0:
195,254,63555,1,0,1:0:0:0:
225,286,63649,1,0,1:0:0:0:
236,327,63743,6,0,L|366:318,1,131.25,6|0,3:2|0:0,0:0:0:0:
389,316,64118,1,0,1:0:0:0:
464,184,64305,2,0,P|440:116|347:106,1,175,2|0,0:0|3:0,0:0:0:0:
232,152,64868,2,0,P|234:108|239:64,1,87.5,2|0,1:2|0:0,0:0:0:0:
100,8,65243,6,0,P|105:54|108:100,1,87.5,2|0,3:2|0:0,0:0:0:0:
68,316,65618,1,0,1:0:0:0:
4,212,65805,2,0,B|48:208|48:208|90:221|90:221|135:218,1,131.25,2|0,3:2|0:0,0:0:0:0:
156,216,66180,1,0,3:0:0:0:
316,252,66368,2,0,P|328:296|320:336,1,87.5,2|0,1:2|0:0,0:0:0:0:
156,216,66743,6,0,L|166:85,1,131.25,2|0,3:2|3:0,0:0:0:0:
168,63,67118,1,2,1:2:0:0:
319,208,67305,1,2,0:0:0:0:
317,229,67398,1,0,0:0:0:0:
315,251,67492,1,2,0:0:0:0:
166,339,67680,1,0,3:0:0:0:
156,216,67868,2,0,L|149:128,1,87.5,2|2,1:2|0:2,0:0:0:0:
321,163,68243,6,0,L|314:251,1,87.5,2|0,3:2|0:2,0:0:0:0:
313,272,68524,1,0,3:0:0:0:
313,272,68618,1,0,1:0:0:0:
60,208,68805,6,0,L|53:120,1,87.5,2|0,3:2|0:0,0:0:0:0:
191,292,69180,1,2,3:2:0:0:
196,188,69368,2,0,L|200:100,1,87.5,0|2,1:0|3:2,0:0:0:0:
336,144,69743,6,0,B|380:140|380:140|424:156|424:156|464:152,1,131.25,4|0,3:2|0:0,0:0:0:0:
488,148,70118,1,0,1:0:0:0:
360,312,70305,2,0,L|184:288,1,175,2|0,0:0|3:0,0:0:0:0:
56,244,70868,2,0,P|36:284|32:328,1,87.5,2|0,1:2|0:0,0:0:0:0:
232,178,71243,6,0,P|227:134|208:96,1,87.5,2|0,3:2|0:0,0:0:0:0:
192,84,71524,1,0,3:0:0:0:
192,84,71618,1,0,1:0:0:0:
152,264,71805,2,0,B|196:256|196:256|240:264|240:264|284:256,1,131.25,2|0,3:2|0:0,0:0:0:0:
304,252,72180,1,0,3:0:0:0:
208,376,72368,2,0,L|120:364,1,87.5,2|2,1:2|0:0,0:0:0:0:
152,264,72649,1,2,0:0:0:0:
160,244,72743,6,0,B|180:196|180:196|164:116,1,131.25,4|0,3:2|3:0,0:0:0:0:
160,96,73118,1,0,1:0:0:0:
152,264,73305,2,0,P|236:256|240:256,1,87.5,2|2,0:0|0:0,0:0:0:0:
79,341,73680,1,0,3:0:0:0:
79,341,73774,1,0,3:0:0:0:
79,341,73868,1,0,1:0:0:0:
56,124,74055,6,0,L|48:36,1,87.5,4|0,3:2|0:0,0:0:0:0:
160,176,74430,5,0,3:0:0:0:
4,240,74618,1,4,1:2:0:0:
184,168,74805,5,0,3:0:0:0:
104,360,74993,1,0,1:0:0:0:
100,338,75086,1,0,1:0:0:0:
96,316,75180,1,0,1:0:0:0:
328,268,75368,5,0,3:0:0:0:
315,309,75461,1,0,3:0:0:0:
283,338,75555,1,0,3:0:0:0:
241,345,75649,1,0,3:0:0:0:
201,328,75743,6,0,P|212:284|216:236,1,87.5,6|0,3:2|0:0,0:0:0:0:
16,188,76118,1,0,1:0:0:0:
16,188,76305,2,0,P|20:231|30:273,1,87.5,2|0,0:0|0:0,0:0:0:0:
240,140,76680,1,0,3:0:0:0:
116,220,76868,2,0,B|132:176|132:176|116:88,1,131.25,2|0,1:2|0:0,0:0:0:0:
96,80,77243,6,0,P|144:84|192:72,1,87.5,2|0,3:2|0:0,0:0:0:0:
200,68,77524,1,0,3:0:0:0:
200,68,77618,1,0,1:0:0:0:
404,56,77805,2,0,P|348:48|284:140,1,175,2|0,3:2|3:0,0:0:0:0:
364,248,78368,2,0,P|408:236|452:236,1,87.5,2|0,1:2|0:0,0:0:0:0:
252,330,78743,6,0,L|120:318,1,131.25,2|0,3:2|3:0,0:0:0:0:
100,316,79118,1,0,1:0:0:0:
188,196,79305,1,2,0:0:0:0:
191,217,79398,1,0,0:0:0:0:
195,239,79492,1,2,0:0:0:0:
28,188,79680,1,0,3:0:0:0:
172,52,79868,2,0,P|220:36|296:84,1,131.25,2|0,1:2|0:0,0:0:0:0:
288,152,80243,6,0,P|292:108|308:68,1,87.5,2|0,3:2|0:0,0:0:0:0:
384,128,80524,1,0,3:0:0:0:
384,128,80618,1,0,1:0:0:0:
368,276,80805,2,0,L|192:264,1,175,2|2,3:2|3:2,0:0:0:0:
444,208,81368,1,0,1:0:0:0:
272,352,81555,1,2,3:2:0:0:
128,184,81743,6,0,P|120:140|128:96,1,87.5,4|0,3:2|0:0,0:0:0:0:
340,48,82118,1,0,1:0:0:0:
340,48,82305,2,0,L|324:228,1,175,2|0,0:0|3:0,0:0:0:0:
304,360,82868,1,0,1:0:0:0:
232,176,83055,1,2,0:0:0:0:
232,176,83243,6,0,P|188:192|140:188,1,87.5,0|0,3:0|0:0,0:0:0:0:
128,184,83524,1,0,3:0:0:0:
128,184,83618,1,0,1:0:0:0:
0,100,83805,2,0,L|12:232,1,131.25,2|0,3:2|0:0,0:0:0:0:
15,251,84180,1,2,3:2:0:0:
132,96,84368,2,0,L|128:183,1,87.5,2|0,1:2|0:0,0:0:0:0:
256,320,84743,6,0,L|244:188,1,131.25,4|0,3:2|3:0,0:0:0:0:
241,169,85118,1,0,1:0:0:0:
452,312,85305,2,0,L|460:224,1,87.5,2|2,0:0|0:0,0:0:0:0:
352,41,85680,2,0,P|352:60|356:85,1,43.75,0|0,3:0|3:0,0:0:0:0:
390,170,85868,1,0,1:0:0:0:
241,169,86055,6,0,B|283:165|283:165|327:177|327:177|370:172,1,131.25,6|0,3:2|0:0,0:0:0:0:
390,170,86430,1,0,1:0:0:0:
222,174,86618,1,2,1:2:0:0:
312,272,86805,1,0,3:0:0:0:
240,68,86993,1,0,1:0:0:0:
218,64,87086,1,0,1:0:0:0:
175,56,87180,6,0,P|163:80|159:100,1,43.75,8|0,3:0|0:0,0:0:0:0:
233,234,87368,1,2,3:0:0:0:
237,214,87461,2,0,P|231:192|221:173,1,43.75,8|0,3:0|0:0,0:0:0:0:
0,196,87649,1,0,3:0:0:0:
21,200,87743,5,4,3:2:0:0:
256,192,87930,12,0,90368,1:0:0:0:
256,192,90743,12,4,93743,0:0:0:0:
400,196,99743,5,6,0:0:0:0:
400,196,100118,1,2,0:0:0:0:
300,244,100305,1,2,0:0:0:0:
220,164,100493,2,0,L|236:20,1,140,2|0,0:0|0:0,0:0:0:0:
336,72,101055,6,0,P|368:60|408:56,1,70,2|0,0:0|0:0,0:0:0:0:
462,187,101430,2,0,P|430:173|396:168,1,70,2|0,0:0|0:0,0:0:0:0:
328,292,101805,2,0,P|361:279|396:276,1,70,2|0,0:0|0:0,0:0:0:0:
232,228,102180,1,2,0:0:0:0:
136,288,102368,1,2,0:0:0:0:
132,176,102555,1,0,3:0:0:0:
132,176,102743,5,0,3:0:0:0:
132,176,103118,2,0,P|164:188|200:192,1,70,2|0,0:0|0:0,0:0:0:0:
312,180,103493,1,0,0:0:0:0:
312,180,103680,1,2,0:0:0:0:
420,216,103868,2,0,P|432:248|432:292,1,70
360,368,104243,5,0,0:0:0:0:
260,316,104430,1,0,0:0:0:0:
260,316,104618,1,2,0:0:0:0:
148,332,104805,1,0,0:0:0:0:
191,228,104993,2,0,P|190:193|179:160,1,70,0|2,0:0|0:0,0:0:0:0:
148,332,105368,1,0,1:0:0:0:
148,332,105743,6,0,L|288:320,1,140,4|2,3:2|0:0,0:0:0:0:
400,308,106305,2,0,P|404:342|396:376,1,70
327,223,106680,2,0,P|319:189|323:155,2,70,0|2|0,0:0|0:0|0:0,0:0:0:0:
404,129,107243,6,0,P|358:76|288:77,1,140,2|0,0:0|0:0,0:0:0:0:
216,156,107805,2,0,L|228:296,1,140,2|0,0:0|0:0,0:0:0:0:
140,364,108368,1,0,0:0:0:0:
44,308,108555,1,2,0:0:0:0:
44,308,108743,6,0,P|36:272|40:236,1,70,4|0,3:2|0:0,0:0:0:0:
184,312,109118,2,0,P|154:293|131:266,1,70,0|0,3:0|0:0,0:0:0:0:
284,215,109493,2,0,P|250:223|216:220,1,70,0|0,3:0|0:0,0:0:0:0:
140,136,109868,1,0,3:0:0:0:
188,36,110055,6,0,P|222:28|256:31,1,70,4|0,0:0|3:0,0:0:0:0:
360,72,110430,1,0,0:0:0:0:
324,180,110618,1,2,3:2:0:0:
400,260,110805,1,2,0:0:0:0:
306,181,110993,1,0,1:0:0:0:
288,182,111180,1,8,3:0:0:0:
200,248,111368,1,4,3:0:0:0:
218,249,111555,1,0,3:0:0:0:
112,300,111743,6,0,B|96:252|96:252|112:160,1,140,4|0,3:2|0:0,0:0:0:0:
208,108,112305,2,0,P|244:112|276:128,1,70,0|0,1:0|0:0,0:0:0:0:
424,152,112680,2,0,P|392:168|358:172,1,70,0|0,3:0|0:0,0:0:0:0:
216,220,113055,6,0,P|260:216|312:288,1,140,4|0,3:2|0:0,0:0:0:0:
236,372,113618,2,0,L|164:364,1,70,0|0,0:0|3:0,0:0:0:0:
92,280,113993,1,0,0:0:0:0:
140,180,114180,1,0,3:0:0:0:
84,296,114368,1,0,1:0:0:0:
48,116,114555,1,2,0:0:0:0:
148,164,114743,6,0,L|288:152,1,140,4|0,3:2|0:0,0:0:0:0:
384,204,115305,2,0,P|396:240|400:276,1,70,0|0,1:0|0:0,0:0:0:0:
276,363,115680,2,0,P|280:329|292:296,1,70,0|0,3:0|0:0,0:0:0:0:
400,272,116055,1,2,3:2:0:0:
248,184,116243,5,0,0:0:0:0:
156,248,116430,1,8,3:0:0:0:
156,248,116618,2,0,L|84:240,1,70,4|0,3:0|0:0,0:0:0:0:
248,184,116993,1,0,0:0:0:0:
348,236,117180,2,0,P|356:272|352:308,1,70,0|2,3:0|0:0,3:0:0:0:
244,276,117555,1,0,3:0:0:0:
444,200,117743,6,0,P|460:272|452:344,1,140,4|2,3:2|0:0,0:0:0:0:
348,148,118305,2,0,P|360:116|384:84,1,70,0|0,1:0|0:0,0:0:0:0:
264,208,118680,2,0,P|249:176|244:137,1,70,0|0,3:0|0:0,0:0:0:0:
360,244,119055,6,0,B|376:288|376:288|356:380,1,140,4|0,3:2|1:0,0:0:0:0:
280,296,119618,1,0,0:0:0:0:
168,280,119805,2,0,B|119:274|119:274|76:285|76:285|28:280,1,140,0|0,3:0|3:0,0:0:0:0:
72,196,120368,1,0,1:0:0:0:
128,360,120555,1,2,0:0:0:0:
68,180,120743,6,0,P|68:144|80:112,1,70,4|0,3:2|0:0,0:0:0:0:
268,184,121118,1,2,0:0:0:0:
268,184,121305,2,0,P|279:216|279:251,1,70,0|0,1:0|0:0,0:0:0:0:
188,336,121680,1,0,3:0:0:0:
188,336,121868,1,0,0:0:0:0:
90,144,122055,6,0,P|97:243|98:287,1,140,4|8,3:2|3:0,0:0:0:0:
268,184,122618,2,0,P|264:220|262:256,1,70,4|0,3:2|0:0,0:0:0:0:
344,332,122993,1,8,3:0:0:0:
448,288,123180,2,0,L|411:281,1,35,0|0,3:0|3:0,0:0:0:0:
262,253,123368,1,0,1:0:0:0:
356,344,123555,1,8,0:3:0:0:
420,124,123743,5,4,3:2:0:0:
328,56,123930,1,0,0:0:0:0:
224,96,124118,1,2,0:0:0:0:
340,248,124305,2,0,L|480:240,1,140,4|0,3:2|3:0,0:0:0:0:
479,240,124868,1,0,1:0:0:0:
276,176,125055,6,0,P|236:172|168:240,1,140,4|0,3:2|3:0,0:0:0:0:
248,368,125618,2,0,P|256:332|252:300,1,70,0|2,1:0|3:2,0:0:0:0:
103,162,125993,1,0,0:0:0:0:
144,265,126180,1,8,3:0:0:0:
251,299,126368,1,4,3:0:0:0:
343,236,126555,1,0,0:0:0:0:
308,76,126743,6,0,L|166:90,1,140,4|0,3:2|0:0,0:0:0:0:
33,158,127305,2,0,L|109:162,1,70,0|0,1:0|0:0,0:0:0:0:
245,218,127680,2,0,L|169:222,1,70,0|0,3:0|0:0,0:0:0:0:
308,76,128055,6,0,P|352:72|424:140,1,140,4|0,3:2|3:0,0:0:0:0:
348,272,128618,1,0,1:0:0:0:
348,272,128805,2,0,P|352:238|364:205,1,70,0|0,3:0|0:0,0:0:0:0:
460,261,129180,1,2,0:0:0:0:
256,225,129368,2,0,L|184:233,1,70,2|0,3:2|0:0,0:0:0:0:
372,72,129743,6,0,L|512:88,1,140,4|8,3:2|3:0,0:0:0:0:
440,172,130305,2,0,P|452:200|460:248,1,70,8|0,3:0|0:0,0:0:0:0:
348,236,130680,2,0,P|336:264|308:303,1,70,4|0,3:0|0:0,0:0:0:0:
112,144,131055,6,0,P|196:136|244:176,1,140,4|0,3:2|1:0,0:0:0:0:
16,192,131618,1,4,0:0:0:0:
16,192,131805,2,0,P|7:155|11:123,1,70,0|8,0:0|3:0,0:0:0:0:
160,244,132181,1,0,1:0:0:0:
158,261,132274,1,0,1:0:0:0:
156,278,132368,1,0,1:0:0:0:
15,162,132555,1,0,1:0:0:0:
12,142,132649,1,0,1:0:0:0:
11,124,132743,5,4,3:2:0:0:
104,64,132930,1,2,0:0:0:0:
212,100,133118,1,0,1:0:0:0:
232,208,133305,2,0,L|220:348,1,140,2|2,3:2|3:2,0:0:0:0:
440,284,133868,1,0,1:0:0:0:
224,200,134055,6,0,L|212:340,1,140,6|2,3:2|3:2,0:0:0:0:
64,228,134618,2,0,L|72:300,1,70,0|2,1:0|3:2,0:0:0:0:
226,182,134993,1,0,0:0:0:0:
31,105,135180,1,2,3:2:0:0:
245,190,135368,1,0,1:0:0:0:
64,228,135555,1,2,3:2:0:0:
159,40,135743,2,0,P|195:52|231:55,1,70,4|0,3:2|0:0,0:0:0:0:
376,40,136118,5,0,1:0:0:0:
351,277,136305,1,0,3:0:0:0:
510,100,136493,1,0,1:0:0:0:
278,149,136680,1,0,3:0:0:0:
496,247,136868,1,0,1:0:0:0:
236,334,137055,2,0,P|224:302|224:266,1,70,4|0,3:2|0:0,0:0:0:0:
344,202,137430,5,0,3:0:0:0:
278,149,137618,1,0,1:0:0:0:
262,233,137805,5,0,1:0:0:0:
428,172,137993,1,0,1:0:0:0:
186,141,138180,6,0,P|188:156|194:177,1,35,0|0,3:0|3:0,0:0:0:0:
343,255,138368,1,2,1:3:0:0:
306,233,138461,1,0,1:0:0:0:
262,233,138555,1,0,1:0:0:0:
224,254,138649,1,0,1:0:0:0:
201,290,138743,6,0,L|66:281,1,131.25,6|0,3:2|0:0,0:0:0:0:
48,279,139118,1,0,1:0:0:0:
186,141,139305,2,0,L|98:149,1,87.5,2|0,0:0|0:0,0:0:0:0:
0,28,139680,1,0,3:0:0:0:
0,28,139868,2,0,L|88:36,1,87.5,2|0,1:2|0:0,0:0:0:0:
0,189,140243,6,0,L|132:177,1,131.25,2|0,3:2|3:0,0:0:0:0:
151,176,140618,1,0,1:0:0:0:
308,208,140805,2,0,B|324:164|324:164|304:76,1,131.25,2|0,3:2|0:0,0:0:0:0:
300,64,141180,1,0,3:0:0:0:
300,224,141368,2,0,L|387:215,1,87.5,2|0,1:2|0:0,0:0:0:0:
212,72,141743,6,0,L|81:85,1,131.25,2|0,3:2|3:0,0:0:0:0:
59,88,142118,1,0,1:0:0:0:
0,228,142305,1,2,0:0:0:0:
22,231,142398,1,0,0:0:0:0:
44,233,142492,1,2,0:0:0:0:
164,247,142680,1,0,3:0:0:0:
251,259,142868,2,0,L|163:247,1,87.5,2|0,1:2|0:0,0:0:0:0:
316,96,143243,6,0,L|229:107,1,87.5,2|0,3:2|0:0,0:0:0:0:
208,112,143524,1,0,3:0:0:0:
208,112,143618,1,0,1:0:0:0:
338,271,143805,2,0,L|250:259,1,87.5,2|0,3:2|0:0,0:0:0:0:
112,244,144180,1,2,3:2:0:0:
312,152,144368,1,0,1:0:0:0:
200,364,144555,1,2,3:2:0:0:
138,128,144743,6,0,L|311:151,1,175,4|0,3:2|1:0,0:0:0:0:
176,304,145305,2,0,L|3:281,1,175,2|0,0:2|3:0,0:0:0:0:
144,128,145868,2,0,L|57:140,1,87.5,2|0,1:2|0:0,0:0:0:0:
252,180,146243,6,0,B|268:132|268:132|248:44,1,131.25,2|0,3:2|3:0,0:0:0:0:
242,193,146618,2,0,P|286:186|334:185,1,87.5,0|2,1:0|3:2,0:0:0:0:
164,124,146993,1,0,0:0:0:0:
292,272,147180,1,0,3:0:0:0:
281,75,147368,1,2,1:2:0:0:
168,236,147555,1,0,0:0:0:0:
355,172,147743,6,0,P|357:128|364:84,1,87.5,6|0,3:2|0:0,0:0:0:0:
371,64,148024,1,0,3:0:0:0:
371,64,148118,1,0,1:0:0:0:
248,184,148305,2,0,P|252:118|261:51,1,131.25,2|0,0:0|0:0,0:0:0:0:
268,32,148680,1,0,3:0:0:0:
460,144,148868,1,0,1:0:0:0:
238,169,149055,6,0,B|194:161|194:161|154:168|154:168|108:159,1,131.25,6|0,3:2|0:0,0:0:0:0:
156,72,149430,5,0,3:0:0:0:
196,248,149618,1,4,1:2:0:0:
150,48,149805,5,0,3:0:0:0:
65,151,149993,1,0,1:0:0:0:
86,155,150086,1,0,1:0:0:0:
108,159,150180,2,0,L|153:153,1,43.75,8|0,0:3|0:0,0:0:0:0:
320,136,150368,5,0,3:0:0:0:
304,95,150461,1,8,3:0:0:0:
271,67,150555,1,0,3:0:0:0:
228,60,150649,1,0,3:0:0:0:
187,73,150743,6,0,L|203:247,1,175,6|0,3:2|1:0,0:0:0:0:
316,328,151305,2,0,P|356:312|400:308,1,87.5,2|0,0:0|0:0,0:0:0:0:
448,80,151680,1,0,3:0:0:0:
464,196,151868,2,0,P|420:192|380:175,1,87.5,2|0,1:2|0:0,0:0:0:0:
156,80,152243,6,0,P|108:84|68:156,1,131.25,2|0,3:2|3:0,0:0:0:0:
68,172,152618,1,0,1:0:0:0:
264,154,152805,2,0,L|440:134,1,175,2|0,3:2|3:0,0:0:0:0:
408,308,153368,2,0,P|360:308|320:296,1,87.5,2|0,1:2|0:0,0:0:0:0:
160,184,153743,6,0,L|172:317,1,131.25,2|0,3:2|3:0,0:0:0:0:
174,332,154118,1,0,1:0:0:0:
32,240,154305,1,2,0:0:0:0:
30,261,154398,1,0,0:0:0:0:
28,283,154492,1,2,0:0:0:0:
44,128,154680,1,0,3:0:0:0:
166,250,154868,2,0,B|186:244|210:242|210:242|232:248|254:250|254:250|279:243|302:242,1,131.25,2|0,1:2|0:0,0:0:0:0:
312,228,155243,6,0,P|296:272|296:312,1,87.5,2|0,3:2|0:0,0:0:0:0:
392,284,155524,1,0,3:0:0:0:
392,284,155618,1,0,1:0:0:0:
376,68,155805,2,0,P|328:48|236:112,1,175,2|2,3:2|3:2,0:0:0:0:
306,299,156368,2,0,P|345:287|392:283,1,87.5,0|0,1:0|3:0,0:0:0:0:
235,112,156743,6,0,P|195:100|148:96,1,87.5,6|0,3:2|0:0,0:0:0:0:
284,208,157118,1,0,1:0:0:0:
284,208,157305,2,0,L|272:28,1,175,2|0,0:2|3:0,0:0:0:0:
424,120,157868,1,0,1:0:0:0:
172,172,158055,1,2,0:0:0:0:
172,172,158243,6,0,L|166:85,1,87.5,0|0,3:0|0:0,0:0:0:0:
164,64,158524,1,0,3:0:0:0:
164,64,158618,1,0,1:0:0:0:
8,216,158805,2,0,L|17:80,1,131.25,2|0,3:2|0:0,0:0:0:0:
20,64,159180,1,2,3:2:0:0:
267,123,159368,2,0,P|278:168|267:211,1,87.5,2|0,1:2|0:0,0:0:0:0:
144,236,159743,6,0,L|274:223,1,131.25,4|0,3:2|3:0,0:0:0:0:
296,222,160118,1,0,1:0:0:0:
328,48,160305,2,0,P|285:32|240:36,1,87.5,2|2,0:0|0:0,0:0:0:0:
376,164,160680,1,0,3:0:0:0:
397,161,160773,1,0,3:0:0:0:
419,159,160867,1,0,1:0:0:0:
256,304,161055,6,0,L|125:291,1,131.25,4|0,3:2|0:0,0:0:0:0:
104,290,161430,1,0,1:0:0:0:
248,188,161618,1,2,1:2:0:0:
172,380,161805,1,0,3:0:0:0:
88,120,161993,1,0,1:0:0:0:
109,115,162086,1,0,1:0:0:0:
151,108,162180,6,0,P|164:132|172:168,1,43.75,8|0,3:0|0:0,0:0:0:0:
100,311,162368,1,2,0:3:0:0:
104,290,162461,2,0,P|111:269|121:250,1,43.75,8|0,3:0|0:0,0:0:0:0:
335,270,162649,1,0,3:0:0:0:
313,268,162743,6,0,L|136:251,1,175,6|0,3:2|1:0,0:0:0:0:
64,132,163305,2,0,P|96:48|176:56,1,175,2|0,0:0|3:0,0:0:0:0:
308,20,163868,2,0,P|296:64|296:112,1,87.5,2|0,1:2|0:0,0:0:0:0:
480,156,164243,6,0,P|480:108|412:72,1,131.25,2|0,3:2|3:0,0:0:0:0:
392,76,164618,1,0,1:0:0:0:
336,264,164805,2,0,L|512:248,1,175,2|2,3:2|3:2,0:0:0:0:
300,368,165368,2,0,L|212:360,1,87.5,2|0,1:2|0:0,0:0:0:0:
108,268,165743,6,0,P|103:222|118:184,1,87.5,2|0,3:2|0:0,0:0:0:0:
16,148,166024,1,0,3:0:0:0:
38,145,166118,2,0,L|214:129,1,175,2|2,1:2|0:0,0:0:0:0:
296,244,166680,1,0,3:0:0:0:
296,244,166868,2,0,L|284:336,1,87.5,0|2,1:0|0:0,0:0:0:0:
456,196,167243,6,0,L|443:110,1,87.5,0|0,3:0|0:0,0:0:0:0:
438,88,167524,1,0,3:0:0:0:
438,88,167618,1,2,1:2:0:0:
320,12,167805,2,0,P|275:7|232:20,1,87.5,0|2,3:0|0:0,0:0:0:0:
112,88,168180,5,2,3:2:0:0:
224,220,168368,1,0,1:0:0:0:
100,73,168555,5,2,3:2:0:0:
152,320,168743,2,0,L|334:297,1,175,6|0,3:2|1:0,0:0:0:0:
403,203,169305,2,0,P|406:153|386:112,1,87.5,2|0,0:0|0:0,0:0:0:0:
276,76,169680,1,0,3:0:0:0:
168,136,169868,2,0,P|125:127|79:125,1,87.5,2|0,1:2|0:0,0:0:0:0:
80,308,170243,6,0,P|124:312|192:264,1,131.25,2|0,3:2|3:0,0:0:0:0:
112,220,170618,1,0,1:0:0:0:
277,325,170805,2,0,B|320:317|320:317|365:321|365:321|408:313,1,131.25,2|0,3:2|0:0,0:0:0:0:
428,309,171180,1,0,3:0:0:0:
277,233,171368,2,0,P|265:189|257:141,1,87.5,2|0,1:2|0:0,0:0:0:0:
512,30,171743,6,0,P|504:73|492:115,1,87.5,6|0,3:2|0:0,0:0:0:0:
486,136,172024,1,0,3:0:0:0:
486,136,172118,2,0,P|446:112|354:180,1,175,2|2,1:2|0:0,0:0:0:0:
416,328,172680,2,0,P|427:281|420:240,1,87.5,0|2,3:0|1:2,0:0:0:0:
272,104,173055,6,0,B|224:120|224:120|144:104,1,131.25,4|0,3:2|0:0,0:0:0:0:
220,24,173430,1,0,1:0:0:0:
292,200,173618,1,4,1:2:0:0:
124,99,173805,1,0,3:2:0:0:
356,72,173993,1,2,1:2:0:0:
140,240,174180,6,0,P|142:261|147:282,1,43.75,0|0,1:0|1:0,0:0:0:0:
368,320,174368,1,0,3:0:0:0:
368,276,174461,1,0,3:0:0:0:
343,241,174555,1,0,3:0:0:0:
303,228,174649,1,0,3:0:0:0:
262,241,174743,6,0,P|272:160|280:64,1,175,6|0,3:2|1:0,0:0:0:0:
104,16,175305,2,0,P|105:66|112:120,1,87.5,2|0,0:0|0:0,0:0:0:0:
124,224,175680,1,0,3:0:0:0:
280,48,175868,2,0,P|340:48|385:126,1,131.25,2|0,1:2|0:0,0:0:0:0:
364,112,176243,6,0,P|352:156|344:204,1,87.5,2|0,3:2|0:0,0:0:0:0:
439,185,176524,1,0,3:0:0:0:
435,165,176618,1,0,1:0:0:0:
247,137,176805,2,0,B|203:129|203:129|163:136|163:136|117:127,1,131.25,2|0,3:2|0:0,0:0:0:0:
98,121,177180,1,2,3:2:0:0:
112,296,177368,2,0,P|160:295|206:275,1,87.5,2|0,1:2|0:0,0:0:0:0:
429,212,177743,6,0,P|388:197|344:197,1,87.5,2|0,3:2|0:0,0:0:0:0:
303,290,178024,1,0,3:0:0:0:
304,268,178118,2,0,L|323:85,1,175,2|2,1:2|0:0,0:0:0:0:
172,252,178680,1,0,3:0:0:0:
172,252,178868,2,0,L|180:340,1,87.5,2|2,1:2|0:0,0:0:0:0:
373,270,179243,6,0,P|347:215|274:208,1,131.25,2|0,3:2|3:0,0:0:0:0:
264,214,179618,1,0,1:0:0:0:
276,92,179805,2,0,P|281:48|283:4,1,87.5,2|0,3:2|0:0,0:0:0:0:
176,144,180180,1,2,3:2:0:0:
372,96,180368,1,0,1:0:0:0:
196,32,180555,1,2,0:0:0:0:
284,232,180743,6,0,L|458:220,1,175,6|0,3:2|1:0,0:0:0:0:
224,152,181305,2,0,P|176:144|112:240,1,175,2|0,0:0|3:0,0:0:0:0:
204,380,181868,2,0,P|209:336|197:292,1,87.5,2|2,1:2|0:0,0:0:0:0:
340,276,182243,6,0,L|472:260,1,131.25,2|0,3:2|3:0,0:0:0:0:
492,256,182618,1,2,1:2:0:0:
320,148,182805,2,0,L|231:137,1,87.5,2|0,3:2|0:0,0:0:0:0:
112,124,183180,1,2,3:2:0:0:
264,236,183368,1,2,1:2:0:0:
200,40,183555,1,2,0:0:0:0:
120,260,183743,6,0,P|124:304|136:352,1,87.5,6|0,3:2|0:0,0:0:0:0:
144,364,184024,1,0,3:0:0:0:
144,364,184118,1,0,1:0:0:0:
352,292,184305,2,0,P|362:249|366:205,1,87.5,2|0,0:0|0:0,0:0:0:0:
244,224,184680,1,2,3:2:0:0:
456,260,184868,1,2,1:2:0:0:
143,206,185055,6,0,P|108:220|56:224,1,87.5,6|0,3:2|0:0,0:0:0:0:
240,152,185430,1,0,1:0:0:0:
343,185,185618,1,0,1:0:0:0:
382,286,185805,1,0,3:0:0:0:
326,381,185993,1,0,1:0:0:0:
348,164,186180,5,8,3:0:0:0:
306,152,186273,1,8,3:0:0:0:
264,163,186368,1,0,1:0:0:0:
235,195,186461,1,8,3:0:0:0:
227,237,186555,2,0,P|233:259|237:287,1,43.75,4|0,3:0|3:0,0:0:0:0:
224,372,186743,5,6,3:2:0:0:
80,272,186930,1,2,0:0:0:0:
308,232,187118,1,2,0:0:0:0:
224,372,187305,1,6,1:2:0:0:
192,164,187493,2,0,P|184:120|181:77,1,87.5,2|0,0:0|3:0,0:0:0:0:
100,212,187868,1,2,0:0:0:0:
100,212,188055,6,0,L|276:196,1,175,6|0,3:2|0:0,0:0:0:0:
296,180,188524,2,0,P|280:224|276:268,1,87.5,0|0,3:0|0:0,0:0:0:0:
376,244,188805,1,0,3:0:0:0:
228,120,188993,1,0,1:0:0:0:
120,178,189180,1,2,3:2:0:0:
125,55,189368,1,0,0:0:0:0:
228,120,189555,1,0,3:0:0:0:
116,296,189743,5,6,3:2:0:0:
116,296,189930,2,0,P|75:282|32:284,1,87.5
216,212,190305,2,0,P|192:120|108:124,1,175,6|0,1:2|3:0,0:0:0:0:
31,284,190868,1,0,0:0:0:0:
216,212,191055,6,0,B|304:192|300:244|388:212,1,175,2|6,3:2|3:2,0:0:0:0:
376,80,191618,1,2,0:0:0:0:
363,106,191711,1,2,0:0:0:0:
360,135,191805,1,2,3:2:0:0:
365,163,191899,1,2,0:0:0:0:
387,212,191993,5,0,1:0:0:0:
349,192,192086,1,0,0:0:0:0:
306,196,192180,1,0,1:0:0:0:
271,221,192274,1,0,1:0:0:0:
283,272,192368,5,8,3:0:0:0:
286,291,192461,1,8,3:0:0:0:
290,310,192555,1,4,3:0:0:0:
294,329,192649,1,4,3:0:0:0:
240,326,192743,6,0,L|64:313,1,175,4|0,3:2|0:0,0:0:0:0:
65,115,193305,2,0,P|105:99|153:99,1,87.5,2|0,1:2|0:0,0:0:0:0:
139,278,193680,2,0,P|122:237|122:194,1,87.5,4|0,3:2|0:0,0:0:0:0:
306,154,194055,6,0,L|294:328,1,175,4|0,3:2|3:0,0:0:0:0:
294,329,194618,1,4,1:2:0:0:
477,294,194805,1,8,3:0:0:0:
473,272,194898,1,8,3:0:0:0:
464,228,194993,5,4,3:0:0:0:
424,246,195086,1,4,3:0:0:0:
381,245,195180,1,4,3:0:0:0:
342,226,195274,1,4,3:0:0:0:
368,180,195368,5,0,3:0:0:0:
395,194,195462,1,0,3:0:0:0:
426,194,195555,1,4,3:2:0:0:
453,181,195649,1,0,3:0:0:0:
408,147,195743,5,4,3:2:0:0:
408,147,196118,5,0,3:0:0:0:
324,240,196305,2,0,P|283:227|236:228,1,87.5,4|0,1:2|0:0,0:0:0:0:
365,367,196680,2,0,P|412:368|451:355,1,87.5,0|2,3:0|0:0,0:0:0:0:
408,140,197055,1,0,1:0:0:0:
402,118,197148,1,0,1:0:0:0:
397,97,197242,1,0,1:0:0:0:
256,192,197430,6,0,L|248:280,1,87.5,2|0,0:0|0:0,0:0:0:0:
232,148,197711,6,0,L|244:252,1,105.000004005432,2|0,0:0|0:0,0:0:0:0:
264,368,197993,5,2,0:0:0:0:
129,322,198180,1,0,3:0:0:0:
132,300,198273,1,0,3:0:0:0:
141,248,198368,5,2,1:3:0:0:
89,260,198461,1,8,3:0:0:0:
43,233,198555,1,4,3:0:0:0:
30,181,198649,1,4,3:0:0:0:
57,135,198743,6,0,L|233:148,1,175,4|0,3:2|0:0,0:0:0:0:
156,44,199305,1,2,3:2:0:0:
208,248,199493,2,0,L|340:232,1,131.25,0|0,1:0|0:0,0:0:0:0:
360,230,199868,1,0,0:0:0:0:
296,336,200055,1,2,0:0:0:0:
208,248,200243,5,0,3:0:0:0:
412,168,200430,2,0,L|396:348,1,175,0|0,1:0|3:0,0:0:0:0:
396,342,200993,1,0,1:0:0:0:
304,224,201180,6,0,P|260:236|216:232,1,87.5,2|0,0:0|0:0,0:0:0:0:
231,337,201461,6,0,L|219:232,1,105.000004005432,2|0,0:0|0:0,0:0:0:0:
204,120,201743,5,4,3:2:0:0:
112,200,201930,2,0,P|68:196|26:208,1,87.5,0|0,1:0|0:0,0:0:0:0:
83,320,202305,1,2,3:2:0:0:
204,120,202493,6,0,L|193:33,1,87.5,2|0,1:2|0:0,0:0:0:0:
178,160,202774,6,0,L|189:55,1,105.000004005432,2|0,0:2|0:0,0:0:0:0:
168,248,203055,5,2,0:0:0:0:
168,248,203430,1,0,1:0:0:0:
340,221,203618,2,0,L|428:209,1,87.5,4|0,0:0|0:0,0:0:0:0:
236,104,203993,6,0,P|232:136|232:160,1,43.75,0|0,1:0|1:0,0:0:0:0:
352,288,204180,2,0,P|350:266|347:244,1,43.75,0|0,3:0|3:0,0:0:0:0:
512,116,204368,1,0,1:0:0:0:
510,73,204461,1,0,1:0:0:0:
484,38,204555,1,0,1:0:0:0:
443,27,204649,1,0,1:0:0:0:
402,41,204743,5,4,3:2:0:0:
436,240,204930,2,0,P|444:284|448:329,1,87.5,0|0,1:0|0:0,0:0:0:0:
316,196,205305,2,0,P|272:197|231:182,1,87.5,4|0,3:2|0:0,0:0:0:0:
291,76,205680,1,0,1:0:0:0:
259,277,205868,1,2,0:0:0:0:
104,176,206055,6,0,B|126:166|150:164|150:164|190:171|190:171|214:163|236:164,1,131.25,4|0,3:2|0:0,0:0:0:0:
188,80,206430,1,0,3:0:0:0:
152,264,206618,2,0,P|150:306|164:352,1,87.5,4|0,0:2|0:0,0:0:0:0:
272,292,206993,1,0,1:0:0:0:
56,248,207180,1,0,1:0:0:0:
163,349,207368,1,0,3:0:0:0:
196,96,207555,1,0,1:0:0:0:
193,116,207648,1,0,1:0:0:0:
190,138,207742,5,4,3:2:0:0:
163,349,207930,1,0,3:0:0:0:
92,132,208118,5,0,1:0:0:0:
252,320,208305,1,0,3:0:0:0:
20,196,208493,5,0,1:0:0:0:
301,232,208680,1,0,3:0:0:0:
0,288,208868,5,0,1:0:0:0:
283,132,209055,2,0,L|267:0,1,131.25,4|0,3:2|0:0,0:0:0:0:
286,153,209430,5,0,3:0:0:0:
395,96,209618,1,0,3:0:0:0:
390,218,209805,1,0,1:0:0:0:
282,276,209993,1,0,1:0:0:0:
178,211,210180,1,0,1:0:0:0:
184,88,210368,1,2,1:3:0:0:
292,31,210555,1,0,1:0:0:0:
286,153,210743,5,0,0:0:0:0:
72,184,216555,5,0,0:0:0:0:
72,184,216649,1,0,0:0:0:0:
72,184,216743,1,0,0:0:0:0:
172,148,217305,1,0,0:0:0:0:
260,204,217680,1,0,0:0:0:0:
244,308,218243,5,0,0:0:0:0:
260,204,218805,1,0,0:0:0:0:
172,148,219180,1,0,0:0:0:0:
72,184,219555,1,0,0:0:0:0:
72,184,219649,1,0,0:0:0:0:
72,184,219743,6,0,P|80:148|84:112,1,70,2|0,3:2|0:0,0:0:0:0:
0,252,220118,1,0,0:0:0:0:
4,272,220305,1,0,0:0:0:0:
24,348,220493,1,0,0:0:0:0:
180,300,220680,1,0,3:0:0:0:
0,252,220868,1,0,1:0:0:0:
275,184,221055,6,0,L|267:316,1,131.25,4|0,3:2|0:0,0:0:0:0:
267,337,221430,1,0,3:0:0:0:
160,160,221618,1,0,1:0:0:0:
388,260,221805,1,0,3:0:0:0:
168,342,221993,5,0,1:0:0:0:
174,321,222086,1,0,1:0:0:0:
180,300,222180,2,0,L|174:252,1,43.75,0|0,3:0|0:0,0:0:0:0:
160,160,222368,1,0,3:0:0:0:
316,360,222555,5,0,1:0:0:0:
322,339,222648,1,0,1:0:0:0:
335,297,222743,6,0,L|313:123,1,175,6|0,3:2|1:0,0:0:0:0:
484,272,223305,2,0,L|476:360,1,87.5,2|0,0:0|0:0,0:0:0:0:
496,168,223680,1,0,3:0:0:0:
310,105,223868,1,2,1:2:0:0:
224,293,224055,1,0,0:0:0:0:
246,296,224149,1,0,0:0:0:0:
268,300,224243,6,0,L|403:284,1,131.25,2|0,3:2|3:0,0:0:0:0:
484,272,224618,1,0,1:0:0:0:
298,206,224805,6,0,B|285:160|301:120,1,87.5,2|0,3:2|0:0,0:0:0:0:
414,169,225180,1,0,3:0:0:0:
224,278,225368,2,0,L|92:270,1,131.25,2|0,1:2|0:0,0:0:0:0:
240,266,225743,6,0,B|232:310|232:310|244:354,1,87.5,2|0,3:2|0:0,0:0:0:0:
342,301,226024,1,0,3:0:0:0:
320,305,226118,1,2,1:2:0:0:
428,208,226305,1,2,0:0:0:0:
449,211,226398,1,0,0:0:0:0:
471,215,226492,1,2,0:0:0:0:
316,120,226680,1,0,3:0:0:0:
488,52,226868,2,0,P|504:96|500:136,1,87.5,2|0,1:2|0:0,0:0:0:0:
288,207,227243,6,0,L|156:195,1,131.25,2|0,3:2|3:0,0:0:0:0:
148,271,227618,2,0,P|152:227|140:183,1,87.5,0|2,1:0|3:2,0:0:0:0:
12,243,227993,1,0,0:0:0:0:
141,185,228180,1,2,3:2:0:0:
28,103,228368,1,0,1:0:0:0:
114,354,228555,1,0,1:0:0:0:
135,351,228648,1,0,1:0:0:0:
158,349,228743,6,0,L|334:333,1,175,4|0,3:2|1:0,0:0:0:0:
440,244,229305,2,0,P|442:199|425:157,1,87.5,2|0,0:0|0:0,0:0:0:0:
300,224,229680,1,0,3:0:0:0:
428,160,229868,1,0,1:0:0:0:
272,48,230055,1,2,0:0:0:0:
272,48,230243,6,0,P|256:88|258:132,1,87.5,0|0,3:0|0:0,0:0:0:0:
344,104,230524,1,0,3:0:0:0:
344,104,230618,1,0,1:0:0:0:
156,80,230805,2,0,L|68:68,1,87.5,2|0,3:2|0:0,0:0:0:0:
132,253,231180,1,2,3:2:0:0:
252,232,231368,2,0,L|340:220,1,87.5,0|2,1:0|0:0,0:0:0:0:
425,209,231649,1,2,0:0:0:0:
425,209,231743,5,4,3:2:0:0:
251,92,231930,1,0,1:0:0:0:
312,324,232118,1,0,1:0:0:0:
416,64,232305,1,4,3:2:0:0:
180,160,232493,1,0,1:0:0:0:
338,220,232680,1,8,3:0:0:0:
280,32,232868,1,0,0:0:0:0:
259,40,232961,1,0,0:0:0:0:
239,48,233055,6,0,L|152:40,1,87.5,6|0,3:2|0:0,0:0:0:0:
252,232,233430,2,0,L|340:220,1,87.5,8|2,3:0|0:0,0:0:0:0:
120,252,233805,1,4,3:0:0:0:
308,80,233993,1,0,1:0:0:0:
304,101,234086,1,0,1:0:0:0:
300,123,234180,1,0,1:0:0:0:
136,270,234368,5,2,3:0:0:0:
161,215,234462,1,8,3:3:0:0:
220,222,234556,1,0,3:0:0:0:
231,280,234649,1,0,3:0:0:0:
180,310,234743,6,0,L|6:295,1,175,4|0,3:2|1:0,0:0:0:0:
220,222,235305,2,0,P|280:214|348:310,1,175,2|0,0:0|3:0,0:0:0:0:
308,140,235868,2,0,P|304:96|320:52,1,87.5,2|0,1:2|0:0,0:0:0:0:
496,92,236243,6,0,L|508:224,1,131.25,2|0,3:2|3:0,0:0:0:0:
510,245,236618,1,0,1:0:0:0:
444,368,236805,2,0,P|400:382|356:380,1,87.5,2|0,3:2|0:0,0:0:0:0:
204,240,237180,1,0,3:0:0:0:
204,240,237368,2,0,P|247:239|288:253,1,87.5,2|0,1:2|0:0,0:0:0:0:
104,196,237743,6,0,P|97:126|92:64,1,131.25,2|0,3:2|3:0,0:0:0:0:
91,44,238118,1,2,1:2:0:0:
260,112,238305,1,0,0:0:0:0:
258,133,238398,1,0,0:0:0:0:
256,155,238492,1,2,0:0:0:0:
240,296,238680,1,0,3:0:0:0:
368,240,238868,1,2,1:2:0:0:
256,155,239055,1,0,0:0:0:0:
348,348,239243,6,0,L|484:336,1,131.25,2|0,3:2|3:0,0:0:0:0:
480,228,239618,2,0,P|469:270|471:313,1,87.5,2|0,1:2|3:0,0:0:0:0:
368,240,239993,1,2,0:0:0:0:
478,336,240180,1,2,3:2:0:0:
405,160,240368,1,0,1:0:0:0:
362,151,240461,1,0,1:0:0:0:
321,164,240555,1,0,3:0:0:0:
291,195,240649,1,0,3:0:0:0:
279,237,240743,6,0,L|287:63,1,175,6|0,3:2|1:0,0:0:0:0:
188,176,241305,2,0,P|148:156|104:156,1,87.5,2|0,0:0|0:0,0:0:0:0:
80,304,241680,1,0,3:0:0:0:
219,290,241868,2,0,L|351:278,1,131.25,2|0,1:2|0:0,0:0:0:0:
424,228,242243,6,0,P|426:183|408:140,1,87.5,2|0,3:2|0:0,0:0:0:0:
340,196,242524,1,0,3:0:0:0:
340,196,242618,1,0,1:0:0:0:
268,36,242805,2,0,L|444:52,1,175,2|0,3:2|3:0,0:0:0:0:
340,196,243368,2,0,L|252:204,1,87.5,2|0,1:2|0:0,0:0:0:0:
80,220,243743,5,6,3:2:0:0:
216,280,243930,1,0,0:0:0:0:
216,280,244024,1,0,3:0:0:0:
216,280,244118,2,0,B|235:222|235:222|205:112,1,175,2|2,1:2|0:0,0:0:0:0:
80,220,244680,1,0,3:0:0:0:
216,280,244868,1,2,1:2:0:0:
360,248,245055,2,0,P|362:204|348:163,1,87.5,4|2,3:2|0:0,0:0:0:0:
272,48,245430,5,0,3:0:0:0:
468,144,245618,1,0,1:0:0:0:
272,216,245805,5,2,0:0:0:0:
348,163,245993,1,8,3:0:0:0:
120,88,246180,6,0,P|111:112|107:144,1,43.75,0|0,1:0|1:0,0:0:0:0:
272,216,246368,2,0,P|247:207|215:203,1,43.75,2|0,3:0|1:0,0:0:0:0:
124,320,246555,1,0,1:0:0:0:
145,325,246648,1,0,1:0:0:0:
168,328,246743,6,0,L|341:312,1,175,4|0,3:2|1:0,0:0:0:0:
444,216,247305,2,0,P|448:171|432:128,1,87.5,2|0,0:0|0:0,0:0:0:0:
304,80,247680,1,0,3:0:0:0:
176,140,247868,2,0,L|88:132,1,87.5,2|0,1:2|0:0,0:0:0:0:
212,276,248243,6,0,L|81:291,1,131.25,2|0,3:2|3:0,0:0:0:0:
60,295,248618,1,0,1:0:0:0:
296,320,248805,2,0,P|306:274|296:232,1,87.5,2|0,3:2|0:0,0:0:0:0:
156,92,249180,1,0,3:0:0:0:
124,200,249368,2,0,L|212:188,1,87.5,2|0,1:2|0:0,0:0:0:0:
380,88,249743,6,0,P|344:32|280:32,1,131.25,2|0,3:2|3:0,0:0:0:0:
269,45,250118,1,2,1:2:0:0:
312,212,250305,1,0,0:0:0:0:
317,233,250398,1,0,0:0:0:0:
323,254,250493,1,2,0:0:0:0:
168,351,250680,1,0,3:0:0:0:
168,351,250868,2,0,P|175:302|184:264,1,87.5,2|0,1:2|0:0,0:0:0:0:
172,48,251243,6,0,P|110:34|61:74,1,131.25,2|0,3:2|3:0,0:0:0:0:
56,152,251618,2,0,P|50:108|35:67,1,87.5,2|0,1:2|3:0,0:0:0:0:
8,264,251993,1,2,0:0:0:0:
92,352,252180,1,2,3:2:0:0:
292,216,252368,1,0,1:0:0:0:
295,173,252461,1,0,1:0:0:0:
274,135,252555,1,2,3:2:0:0:
235,118,252649,1,0,3:0:0:0:
193,126,252743,6,0,L|204:300,1,175,4|0,3:2|1:0,0:0:0:0:
400,324,253305,2,0,P|416:284|420:240,1,87.5,2|0,0:0|0:0,0:0:0:0:
344,120,253680,1,0,3:0:0:0:
420,240,253868,1,2,1:2:0:0:
464,48,254055,1,2,0:0:0:0:
344,120,254243,6,0,L|212:108,1,131.25,2|0,3:2|3:0,0:0:0:0:
191,106,254618,1,0,1:0:0:0:
32,176,254805,2,0,P|20:220|28:264,1,87.5,2|0,3:2|0:0,0:0:0:0:
216,348,255180,1,0,3:0:0:0:
216,348,255368,2,0,P|222:305|210:263,1,87.5,2|2,1:2|0:0,0:0:0:0:
114,221,255649,1,2,0:0:0:0:
136,219,255743,6,0,L|268:207,1,131.25,4|0,3:2|3:0,0:0:0:0:
440,88,256305,2,0,P|409:11|327:13,1,175,0|0,1:0|3:0,0:0:0:0:
327,12,256868,1,0,1:0:0:0:
373,229,257055,2,0,P|380:272|385:316,1,87.5,4|0,3:2|0:0,0:0:0:0:
175,293,257431,5,0,3:0:0:0:
189,172,257618,1,0,3:0:0:0:
300,122,257806,1,0,1:0:0:0:
399,193,257993,1,0,1:0:0:0:
385,316,258181,1,0,1:0:0:0:
273,365,258368,1,10,3:0:0:0:
175,293,258555,1,4,3:0:0:0:
288,244,258805,6,0,B|289:282|263:319|229:313|199:324|174:342|174:342|187:313|191:282|178:251|210:218|250:210|250:210|194:188|158:134|184:92|184:46|172:4|172:4|206:34|244:57|295:55|325:114|316:168|316:168|329:115|380:73|426:96|469:91|513:73|513:73|485:110|466:152|473:202|418:236|357:233|357:233|391:258|406:300|381:324|373:353|373:386|373:386|356:359|335:336|301:328|292:284|312:244,1,1597.86666666667,2|0,3:2|0:0,0:0:0:0:
