osu file format v14

[General]
AudioFilename: audio.mp3
AudioLeadIn: 0
PreviewTime: 62993
Countdown: 0
SampleSet: Soft
StackLeniency: 0.7
Mode: 0
LetterboxInBreaks: 0
WidescreenStoryboard: 1

[Editor]
DistanceSpacing: 1.4
BeatDivisor: 4
GridSize: 32
TimelineZoom: 1.6

[Metadata]
Title:Flower Flag
TitleUnicode:Flower Flag
Artist:FELT
ArtistUnicode:FELT
Creator:Bearizm
Version:LCFC's Normal
Source:東方妖々夢 ~ Perfect Cherry Blossom.
Tags:Touhou LowComboFC 幽雅に咲かせ、墨染の桜 〜 Border of Life NAGI☆ 舞花 Maika ZUN 東方project reitaisai 例大祭 8
BeatmapID:1264205
BeatmapSetID:585723

[Difficulty]
HPDrainRate:4
CircleSize:3.5
OverallDifficulty:4
ApproachRate:5
SliderMultiplier:1.2
SliderTickRate:1

[Events]
//Background and Video events
0,0,"BG1.jpg",0,0
//Break Periods
2,24943,32543
2,99943,104055
2,105943,107543
2,210943,218543
//Storyboard Layer 0 (Background)
//Storyboard Layer 1 (Fail)
//Storyboard Layer 2 (Pass)
//Storyboard Layer 3 (Foreground)
//Storyboard Sound Samples

[TimingPoints]
743,375,4,2,1,70,1,0
12743,-100,4,2,1,70,0,1
24743,-100,4,2,1,70,0,0
63743,-100,4,2,1,70,0,1
87743,-100,4,2,1,70,0,0
138743,-100,4,2,1,70,0,1
162743,-100,4,2,1,70,0,0
186743,-100,4,2,1,70,0,1
186836,-100,4,2,1,70,0,0
209055,-100,4,2,1,70,0,1
210743,-100,4,2,1,70,0,0
222743,-100,4,2,1,70,0,1
234743,-100,4,2,1,70,0,0
257055,-100,4,2,1,70,0,1
258805,-100,4,2,1,70,0,0
258930,-100,4,2,1,20,0,0

[Colours]
Combo1 : 255,72,72
Combo2 : 0,128,255
Combo3 : 255,128,128
Combo4 : 128,255,255

[HitObjects]
43,48,743,6,0,P|57:106|68:165,1,120,6|0,0:0|0:0,0:0:0:0:
142,203,1305,2,0,P|127:261|116:320,1,120,2|0,1:2|3:0,0:0:0:0:
181,373,1868,1,2,0:0:0:0:
346,341,2243,5,2,0:0:0:0:
346,341,2430,2,0,L|406:349,1,60,0|0,0:0|0:0,0:0:0:0:
450,277,2805,2,0,P|471:242|453:165,1,120,0|0,3:0|3:0,0:0:0:0:
392,111,3368,1,2,1:2:0:0:
235,166,3743,6,0,P|175:155|117:140,1,120,2|0,0:0|0:0,0:0:0:0:
48,93,4305,2,0,P|62:151|73:210,1,120,2|0,1:2|3:0,0:0:0:0:
50,291,4868,1,0,0:0:0:0:
50,291,5055,6,0,L|177:319,1,120,2|2,3:2|0:0,0:0:0:0:
226,376,5618,2,0,L|343:350,1,120,0|0,0:0|1:0,0:0:0:0:
403,290,6180,1,0,1:0:0:0:
403,290,6368,1,0,0:3:0:0:
280,173,6743,6,0,P|261:117|285:63,1,120,6|0,0:0|0:0,0:0:0:0:
362,32,7305,1,2,1:2:0:0:
362,32,7493,2,0,P|420:46|479:57,1,120,0|2,0:0|0:0,0:0:0:0:
496,245,8243,5,0,0:0:0:0:
496,245,8430,2,0,P|438:231|379:220,1,120,0|0,1:0|3:0,0:0:0:0:
229,296,9180,1,0,3:0:0:0:
229,296,9368,2,0,L|165:300,1,60,0|0,1:0|0:0,0:0:0:0:
103,247,9743,6,0,P|84:191|108:137,1,120,0|0,3:0|3:0,0:0:0:0:
57,69,10305,2,0,L|175:87,1,120,0|0,1:0|3:0,0:0:0:0:
257,69,10868,1,2,0:0:0:0:
338,50,11055,6,0,L|356:168,1,120,4|0,3:2|1:0,0:0:0:0:
410,233,11618,1,4,0:0:0:0:
410,233,11805,2,0,L|292:215,1,120,2|0,0:0|1:0,0:0:0:0:
212,249,12368,2,0,L|225:318,1,60,10|0,3:0|1:0,0:0:0:0:
154,357,12743,6,0,P|95:367|40:347,1,120,4|0,0:0|1:0,0:0:0:0:
3,271,13305,2,0,L|18:152,1,120,2|0,0:0|3:0,0:0:0:0:
4,68,13868,1,2,1:2:0:0:
154,143,14243,6,0,L|273:128,1,120,2|0,3:2|1:0,0:0:0:0:
333,186,14805,2,0,P|343:245|323:300,1,120,2|0,3:2|3:0,0:0:0:0:
257,354,15368,1,2,1:2:0:0:
89,337,15743,6,0,L|104:218,1,120,2|0,3:2|1:2,0:0:0:0:
74,139,16305,2,0,L|193:124,1,120,2|0,0:0|3:0,0:0:0:0:
261,173,16868,1,2,1:2:0:0:
339,25,17243,6,0,P|394:4|453:14,1,120,2|0,3:2|1:0,0:0:0:0:
486,91,17805,2,0,L|471:210,1,120,2|2,3:2|3:2,0:0:0:0:
484,293,18368,1,0,1:0:0:0:
374,162,18743,6,0,P|315:151|260:173,1,120,6|0,3:2|1:0,0:0:0:0:
227,250,19305,2,0,P|168:260|113:238,1,120,2|0,0:0|3:0,0:0:0:0:
72,164,19868,1,2,1:2:0:0:
184,39,20243,6,0,L|304:25,1,120,2|0,3:2|1:0,0:0:0:0:
385,48,20805,2,0,P|396:106|374:161,1,120,2|0,3:2|3:0,0:0:0:0:
317,223,21368,1,2,1:2:0:0:
178,317,21743,6,0,L|59:304,1,120,2|0,3:2|1:0,0:0:0:0:
56,219,22305,2,0,L|175:232,1,120,2|0,0:0|3:0,0:0:0:0:
253,265,22868,1,0,1:0:0:0:
334,247,23055,6,0,L|348:367,1,120,4|8,3:2|3:0,0:0:0:0:
431,353,23618,2,0,L|438:293,1,60,0|0,1:0|3:0,0:0:0:0:
450,210,23993,2,0,L|509:217,2,60,0|0|8,1:0|1:0|3:0,0:0:0:0:
318,105,24743,5,4,3:2:0:0:
256,192,33743,12,2,35993,0:0:0:0:
88,113,36743,6,0,P|147:103|202:123,1,120,6|2,0:0|0:0,0:0:0:0:
257,186,37305,2,0,P|316:196|371:176,1,120,2|0,0:0|3:0,0:0:0:0:
433,118,37868,1,0,3:0:0:0:
433,118,38055,6,0,P|423:177|443:232,1,120,0|8,3:0|0:0,0:0:0:0:
315,342,38805,2,0,P|256:327|197:316,1,120,2|0,0:0|3:0,0:0:0:0:
123,354,39368,1,0,0:0:0:0:
123,354,39555,1,2,0:0:0:0:
64,293,39743,6,0,L|78:173,2,120,0|8|8,3:0|0:0|0:0,0:0:0:0:
203,200,40868,1,0,0:0:0:0:
355,130,41243,6,0,L|488:115,1,120,0|0,3:0|0:0,0:0:0:0:
477,200,41805,2,0,L|357:213,1,120,0|0,3:0|3:0,0:0:0:0:
309,282,42368,1,0,1:0:0:0:
159,209,42743,6,0,P|100:194|41:183,1,120,4|0,3:2|0:0,0:0:0:0:
7,259,43305,2,0,L|38:380,1,120,8|0,0:0|3:0,0:0:0:0:
120,366,43868,1,0,0:0:0:0:
120,366,44055,1,0,3:0:0:0:
189,318,44243,6,0,P|272:306|362:354,2,180,2|2|2,0:0|3:2|1:2,0:0:0:0:
97,177,45743,6,0,P|106:118|85:63,1,120,4|0,3:2|0:0,0:0:0:0:
166,40,46305,2,0,P|221:19|280:30,1,120,2|2,0:0|0:0,0:0:0:0:
346,82,46868,1,0,0:0:0:0:
346,82,47055,6,0,L|326:206,1,120,4|4,3:2|3:0,0:0:0:0:
247,229,47618,1,0,1:0:0:0:
159,372,47993,2,0,L|93:363,2,60,0|8|4,1:0|3:0|3:0,0:0:0:0:
243,382,48555,1,4,3:0:0:0:
319,346,48743,6,0,P|374:326|432:336,1,120,6|0,0:0|0:0,0:0:0:0:
498,283,49305,2,0,L|486:164,1,120,6|0,0:0|0:0,0:0:0:0:
485,79,49868,1,0,1:0:0:0:
485,79,50055,6,0,P|426:94|367:105,1,120,6|0,0:0|0:0,0:0:0:0:
289,74,50618,1,2,0:0:0:0:
123,101,50993,2,0,B|107:33,2,60,0|8|4,0:0|3:0|3:0,0:0:0:0:
83,174,51555,1,0,0:0:0:0:
105,255,51743,6,0,P|160:275|218:265,1,120,4|0,0:0|0:0,0:0:0:0:
301,247,52305,2,0,L|427:261,1,120,0|4,1:0|3:0,0:0:0:0:
487,106,53055,6,0,P|427:108|368:119,1,120,4|4,0:0|3:0,0:0:0:0:
299,169,53618,1,0,1:0:0:0:
299,169,53805,1,2,0:0:0:0:
342,241,53993,2,0,B|328:299,2,60,0|0|4,0:0|1:0|3:0,0:0:0:0:
414,198,54555,1,2,0:0:0:0:
498,225,54743,6,0,L|486:105,1,120,4|0,0:0|3:0,0:0:0:0:
417,56,55305,2,0,P|358:67|299:81,1,120,4|4,3:0|3:0,0:0:0:0:
230,129,55868,1,0,0:0:0:0:
163,179,56055,6,0,P|143:235|154:294,1,120,4|0,3:2|1:0,0:0:0:0:
214,351,56618,1,4,0:0:0:0:
323,223,56993,2,0,P|381:212|437:232,1,120,8|0,3:0|1:0,0:0:0:0:
490,296,57555,1,4,3:0:0:0:
434,359,57743,6,0,P|376:369|320:349,1,120,4|0,0:0|1:0,0:0:0:0:
267,284,58305,2,0,P|209:273|153:293,1,120,2|2,3:2|3:2,0:0:0:0:
22,186,59055,6,0,L|6:49,1,120,6|2,3:2|3:2,0:0:0:0:
75,16,59618,1,0,1:0:0:0:
226,87,59993,2,0,L|286:94,2,60,0|2|0,0:0|3:2|1:0,0:0:0:0:
176,154,60555,1,0,3:0:0:0:
225,222,60743,6,0,L|238:341,2,120,4|0|0,3:2|1:0|1:0,0:0:0:0:
303,192,61680,1,0,3:0:0:0:
303,192,61868,1,0,1:0:0:0:
372,145,62055,6,0,P|427:124|486:135,1,120,4|0,3:2|3:0,0:0:0:0:
508,217,62618,1,0,3:0:0:0:
428,364,62993,2,0,P|372:384|313:373,1,120,0|2,1:0|1:3,0:0:0:0:
300,290,63555,1,0,1:0:0:0:
231,239,63743,6,0,L|112:252,1,120,6|0,3:2|1:0,0:0:0:0:
49,196,64305,2,0,P|37:138|57:83,1,120,2|0,0:0|3:0,0:0:0:0:
126,33,64868,1,2,1:2:0:0:
291,62,65243,6,0,B|307:97|307:97|287:186,1,120,2|0,3:2|1:0,0:0:0:0:
231,239,65805,1,2,3:2:0:0:
351,355,66180,1,0,3:0:0:0:
351,355,66368,2,0,L|413:364,1,60,2|0,1:2|0:0,0:0:0:0:
475,310,66743,6,0,P|487:251|467:196,1,120,2|2,3:2|1:2,0:0:0:0:
400,145,67305,2,0,L|280:155,1,120,2|0,0:0|3:0,0:0:0:0:
214,102,67868,1,2,1:2:0:0:
57,162,68243,6,0,L|46:281,1,120,2|0,3:2|1:0,0:0:0:0:
68,362,68805,1,2,3:2:0:0:
228,334,69180,1,2,3:2:0:0:
228,334,69368,2,0,L|293:342,1,60,0|2,1:0|3:2,0:0:0:0:
346,280,69743,6,0,L|465:268,1,120,4|0,3:2|1:0,0:0:0:0:
497,190,70305,2,0,P|516:134|505:76,1,120,2|0,0:0|3:0,0:0:0:0:
435,28,70868,1,2,1:2:0:0:
286,107,71243,6,0,L|167:119,1,120,2|0,3:2|1:0,0:0:0:0:
99,68,71805,1,2,3:2:0:0:
13,212,72180,1,0,3:0:0:0:
13,212,72368,2,0,L|25:272,1,60,2|2,1:2|0:0,0:0:0:0:
95,315,72743,6,0,P|153:303|208:323,1,120,4|0,3:2|1:0,0:0:0:0:
288,296,73305,2,0,L|315:162,1,120,2|0,0:0|3:0,0:0:0:0:
321,94,73868,1,0,1:0:0:0:
266,29,74055,6,0,B|231:45|231:45|142:25,1,120,4|0,3:2|3:0,0:0:0:0:
76,65,74618,1,4,1:2:0:0:
16,221,74993,2,0,L|43:355,1,120,0|0,1:0|3:0,0:0:0:0:
179,245,75743,6,0,P|237:233|292:253,1,120,6|0,3:2|1:0,0:0:0:0:
351,313,76305,2,0,P|409:324|464:304,1,120,2|0,0:0|3:0,0:0:0:0:
500,227,76868,1,2,1:2:0:0:
447,67,77243,6,0,L|317:52,1,120,2|0,3:2|1:0,0:0:0:0:
270,114,77805,1,2,3:2:0:0:
120,182,78180,1,0,3:0:0:0:
120,182,78368,2,0,L|111:122,1,60,2|0,1:2|0:0,0:0:0:0:
137,42,78743,6,0,P|192:22|250:33,1,120,2|0,3:2|1:0,0:0:0:0:
270,114,79305,2,0,L|255:244,1,120,2|0,0:0|3:0,0:0:0:0:
294,313,79868,1,2,1:2:0:0:
457,352,80243,6,0,P|468:294|448:239,1,120,2|0,3:2|1:0,0:0:0:0:
385,180,80805,1,2,3:2:0:0:
232,251,81180,1,2,3:2:0:0:
232,251,81368,2,0,L|172:260,1,60,0|2,1:0|3:2,0:0:0:0:
103,212,81743,6,0,B|87:177|87:177|107:88,1,120,4|0,3:2|1:0,0:0:0:0:
163,37,82305,2,0,L|283:18,1,120,2|0,0:0|3:0,0:0:0:0:
356,57,82868,1,0,1:0:0:0:
429,97,83055,6,0,L|411:215,1,120,2|0,0:0|0:0,0:0:0:0:
449,291,83618,1,0,1:0:0:0:
298,365,83993,1,0,0:0:0:0:
298,365,84180,2,0,L|230:356,1,60,2|2,3:2|1:2,0:0:0:0:
179,297,84555,1,0,0:0:0:0:
95,304,84743,6,0,P|83:245|103:190,1,120,4|0,3:2|1:0,0:0:0:0:
159,128,85305,2,0,P|103:147|45:135,1,120,2|0,0:0|3:0,0:0:0:0:
0,61,85868,1,0,1:0:0:0:
73,20,86055,6,0,B|108:4|108:4|197:24,1,120,6|0,3:2|1:0,0:0:0:0:
241,86,86618,2,0,L|359:68,2,120,2|0|2,1:2|1:0|3:0,0:0:0:0:
177,242,87743,6,0,L|297:253,1,120,4|0,3:2|1:0,0:0:0:0:
278,334,88305,2,0,L|158:323,1,120,2|0,0:0|3:0,0:0:0:0:
92,270,88868,1,2,1:2:0:0:
13,121,89243,6,0,P|1:62|21:7,1,120,2|0,3:2|1:0,0:0:0:0:
104,12,89805,2,0,P|116:71|96:126,1,120,2|0,3:2|3:0,0:0:0:0:
53,198,90368,1,2,1:2:0:0:
198,114,90743,6,0,B|233:98|233:98|322:118,1,120,2|2,3:2|1:2,0:0:0:0:
381,164,91305,1,0,0:0:0:0:
381,164,91493,2,0,P|393:223|373:278,1,120,2|0,0:0|1:0,0:0:0:0:
220,348,92243,6,0,L|97:362,1,120,2|0,3:2|1:0,0:0:0:0:
36,307,92805,1,0,3:0:0:0:
36,307,92993,2,0,L|49:243,1,60,2|0,0:0|3:0,0:0:0:0:
21,168,93368,1,0,1:0:0:0:
143,53,93743,6,0,L|262:39,1,120,4|0,3:2|1:0,0:0:0:0:
330,88,94305,2,0,P|349:144|336:202,1,120,2|0,0:0|3:0,0:0:0:0:
273,258,94868,1,0,1:2:0:0:
111,212,95243,6,0,B|95:247|95:247|115:336,1,120,2|0,3:2|1:0,0:0:0:0:
193,349,95805,2,0,L|312:362,1,120,2|0,3:2|3:0,0:0:0:0:
393,339,96368,1,2,1:2:0:0:
321,187,96743,6,0,P|265:167|207:179,1,120,2|0,3:2|1:0,0:0:0:0:
125,158,97305,2,0,P|105:102|117:44,1,120,4|0,3:2|3:0,0:0:0:0:
194,11,97868,1,0,1:0:0:0:
261,60,98055,6,0,L|380:73,1,120,2|0,0:0|3:0,0:0:0:0:
459,102,98618,2,0,P|479:158|467:216,1,120,0|0,1:0|1:0,0:0:0:0:
409,277,99180,1,8,0:3:0:0:
409,277,99368,1,4,0:3:0:0:
257,204,99743,5,6,0:0:0:0:
270,323,105368,6,0,L|257:204,1,120,0|4,1:0|3:2,0:0:0:0:
256,192,108743,12,0,110993,1:0:0:0:
254,136,111743,6,0,P|312:125|371:109,1,120,4|0,3:2|0:0,0:0:0:0:
447,144,112305,1,0,1:0:0:0:
447,144,112493,2,0,P|467:199|457:258,1,120,0|0,0:0|0:0,0:0:0:0:
386,304,113055,1,4,3:2:0:0:
232,236,113430,6,0,L|113:220,1,120,0|0,0:0|3:0,0:0:0:0:
66,290,113993,2,0,L|50:171,1,120,0|0,0:0|1:0,0:0:0:0:
91,98,114555,1,2,0:0:0:0:
133,25,114743,6,0,P|191:14|247:34,1,120,4|0,3:2|0:0,0:0:0:0:
294,103,115305,2,0,P|352:113|408:93,1,120,0|0,1:0|3:0,0:0:0:0:
475,41,115868,1,0,0:0:0:0:
475,41,116055,6,0,L|456:166,1,120,2|8,3:2|3:0,0:0:0:0:
494,235,116618,1,4,3:0:0:0:
482,318,116805,2,0,P|424:329|365:345,1,120,0|0,0:0|3:0,0:0:0:0:
295,296,117368,1,2,0:0:0:0:
134,345,117743,6,0,P|123:286|143:230,1,120,4|2,3:2|0:0,0:0:0:0:
211,183,118305,2,0,L|330:199,1,120,0|0,1:0|3:0,0:0:0:0:
355,118,118868,1,0,0:0:0:0:
355,118,119055,6,0,L|236:103,1,120,4|0,3:2|1:0,0:0:0:0:
97,7,119805,2,0,L|217:23,1,120,0|0,3:0|3:0,0:0:0:0:
299,13,120368,1,0,1:0:0:0:
436,109,120743,6,0,P|447:168|427:224,1,120,4|2,3:2|0:0,0:0:0:0:
349,252,121305,2,0,P|292:232|234:243,1,120,0|0,1:0|3:0,0:0:0:0:
174,303,121868,1,0,0:0:0:0:
98,266,122055,6,0,P|78:211|89:152,1,120,4|8,3:2|3:0,0:0:0:0:
154,98,122618,1,4,3:2:0:0:
318,64,122993,2,0,L|312:5,2,60,8|0|0,3:0|3:0|1:0,0:0:0:0:
285,141,123555,1,8,0:3:0:0:
345,199,123743,6,0,L|333:322,1,120,4|2,3:2|0:0,0:0:0:0:
266,368,124305,2,0,L|146:357,1,120,4|0,3:2|3:0,0:0:0:0:
71,318,124868,1,0,1:0:0:0:
71,318,125055,6,0,P|56:259|45:200,1,120,4|0,3:2|3:0,0:0:0:0:
94,131,125618,1,0,1:0:0:0:
257,94,125993,2,0,L|321:106,2,60,0|8|4,0:0|3:0|3:0,0:0:0:0:
207,161,126555,1,0,0:0:0:0:
240,238,126743,6,0,L|358:218,1,120,4|0,3:2|0:0,0:0:0:0:
407,286,127305,2,0,L|426:167,1,120,0|0,1:0|3:0,0:0:0:0:
337,25,128055,6,0,P|281:4|222:14,1,120,4|0,3:2|3:0,0:0:0:0:
161,72,128618,1,0,1:0:0:0:
59,205,128993,2,0,L|-1:197,2,60,0|2|2,0:0|0:0|3:2,0:0:0:0:
139,180,129555,1,0,0:0:0:0:
188,248,129743,6,0,P|244:269|303:258,1,120,4|8,3:2|3:0,0:0:0:0:
375,218,130305,2,0,L|389:96,1,120,8|4,3:0|3:0,0:0:0:0:
336,32,130868,1,0,0:0:0:0:
253,15,131055,6,0,L|133:28,1,120,4|0,3:2|1:0,0:0:0:0:
64,76,131618,1,4,0:0:0:0:
119,234,131993,2,0,L|110:298,2,60,8|0|0,3:0|1:0|1:0,0:0:0:0:
177,174,132555,1,0,1:0:0:0:
252,210,132743,6,0,L|390:186,1,120,4|0,3:2|1:0,0:0:0:0:
427,250,133305,2,0,L|406:369,1,120,2|2,3:2|3:2,0:0:0:0:
247,312,134055,6,0,P|188:301|133:322,1,120,6|2,3:2|3:2,0:0:0:0:
65,374,134618,1,0,1:0:0:0:
21,211,134993,2,0,L|33:147,2,60,0|2|0,0:0|3:2|1:0,0:0:0:0:
96,247,135555,1,2,3:2:0:0:
148,181,135743,6,0,L|128:62,2,120,4|0|0,3:2|1:0|1:0,0:0:0:0:
211,236,136680,1,0,3:0:0:0:
211,236,136868,1,0,1:0:0:0:
255,164,137055,6,0,L|374:144,1,120,4|0,3:2|3:0,0:0:0:0:
445,99,137618,1,0,1:0:0:0:
455,266,137993,2,0,L|475:385,1,120,0|2,1:0|1:3,0:0:0:0:
392,364,138555,1,0,1:0:0:0:
309,359,138743,6,0,P|288:303|299:245,1,120,6|0,3:2|1:0,0:0:0:0:
353,181,139305,2,0,L|226:195,1,120,2|0,0:0|3:0,0:0:0:0:
155,163,139868,1,2,1:2:0:0:
12,251,140243,6,0,B|-4:286|-4:286|16:375,1,120,2|0,3:2|1:0,0:0:0:0:
97,375,140805,1,2,3:2:0:0:
239,285,141180,1,0,3:0:0:0:
239,285,141368,2,0,L|302:295,1,60,2|0,1:2|0:0,0:0:0:0:
361,349,141743,6,0,L|347:229,1,120,2|0,3:2|1:0,0:0:0:0:
427,205,142305,2,0,L|440:86,1,120,2|0,0:0|3:0,0:0:0:0:
385,21,142868,1,2,1:2:0:0:
279,151,143243,6,0,P|223:172|165:162,1,120,2|0,3:2|1:0,0:0:0:0:
104,104,143805,1,2,3:2:0:0:
242,8,144180,1,2,3:2:0:0:
242,8,144368,2,0,L|306:15,1,60,0|2,1:0|3:2,0:0:0:0:
385,21,144743,6,0,B|401:56|401:56|381:145,1,120,4|0,3:2|1:0,0:0:0:0:
311,179,145305,2,0,P|291:234|301:292,1,120,2|0,0:2|3:0,0:0:0:0:
363,350,145868,1,2,1:2:0:0:
212,276,146243,6,0,P|153:265|97:285,1,120,2|0,3:2|1:0,0:0:0:0:
42,348,146805,1,2,3:2:0:0:
5,184,147180,1,0,3:0:0:0:
5,184,147368,2,0,L|12:124,1,60,2|0,1:2|0:0,0:0:0:0:
70,64,147743,6,0,L|190:52,1,120,6|0,3:2|1:0,0:0:0:0:
269,78,148305,2,0,P|288:134|277:192,1,120,2|0,0:0|3:0,0:0:0:0:
209,241,148868,1,0,1:0:0:0:
251,313,149055,6,0,L|370:324,1,120,6|0,3:2|3:0,0:0:0:0:
433,267,149618,1,4,1:2:0:0:
470,103,149993,2,0,L|351:92,1,120,0|0,1:0|3:0,0:0:0:0:
192,149,150743,6,0,P|173:205|183:263,1,120,6|0,3:2|1:0,0:0:0:0:
267,269,151305,2,0,P|285:212|275:154,1,120,2|0,0:0|3:0,0:0:0:0:
242,76,151868,1,2,1:2:0:0:
381,170,152243,6,0,L|500:152,1,120,2|0,3:2|1:0,0:0:0:0:
511,69,152805,1,2,3:2:0:0:
350,18,153180,1,0,3:0:0:0:
350,18,153368,2,0,L|288:7,1,60,2|0,1:2|0:0,0:0:0:0:
242,76,153743,6,0,L|260:195,1,120,2|0,3:2|1:0,0:0:0:0:
308,262,154305,2,0,P|363:282|422:272,1,120,2|0,0:0|3:0,0:0:0:0:
475,206,154868,1,2,1:2:0:0:
361,84,155243,6,0,L|230:75,1,120,2|0,3:2|1:0,0:0:0:0:
168,34,155805,1,2,3:2:0:0:
65,167,156180,1,2,3:2:0:0:
65,167,156368,2,0,L|78:233,1,60,0|0,1:0|3:0,0:0:0:0:
152,262,156743,6,0,B|187:246|187:246|276:266,1,120,6|0,3:2|1:0,0:0:0:0:
328,320,157305,2,0,L|315:200,1,120,2|0,0:2|3:0,0:0:0:0:
360,130,157868,1,0,1:0:0:0:
427,179,158055,6,0,L|439:298,1,120,2|0,0:0|0:0,0:0:0:0:
402,373,158617,1,0,1:0:0:0:
240,327,158992,1,0,0:0:0:0:
240,327,159180,2,0,L|174:336,1,60,2|2,3:2|1:2,0:0:0:0:
103,368,159555,1,0,0:0:0:0:
29,326,159743,6,0,P|8:270|18:211,1,120,4|0,3:2|1:0,0:0:0:0:
81,157,160305,2,0,P|139:166|195:146,1,120,2|0,0:0|3:0,0:0:0:0:
233,71,160868,1,0,1:0:0:0:
315,84,161055,6,0,L|330:203,1,120,4|0,3:2|1:0,0:0:0:0:
300,281,161618,2,0,P|244:300|185:291,2,120,2|0|2,1:2|1:0|0:3,0:0:0:0:
435,181,162743,6,0,P|447:122|427:67,1,120,6|0,3:2|1:0,0:0:0:0:
350,32,163305,2,0,L|231:47,1,120,2|0,0:0|3:0,0:0:0:0:
152,17,163868,1,2,1:2:0:0:
80,169,164243,6,0,L|70:289,1,120,2|0,3:2|1:0,0:0:0:0:
152,307,164805,2,0,L|162:187,1,120,2|2,3:2|3:2,0:0:0:0:
141,105,165368,1,2,1:2:0:0:
243,238,165743,6,0,P|302:250|357:230,1,120,2|2,3:2|1:2,0:0:0:0:
396,155,166305,1,0,0:0:0:0:
396,155,166493,2,0,B|431:139|431:139|520:159,1,120,2|0,0:0|1:0,0:0:0:0:
502,325,167243,6,0,L|382:312,1,120,0|2,3:0|1:2,0:0:0:0:
309,270,167805,1,0,3:0:0:0:
309,270,167993,2,0,L|241:279,1,60,2|2,0:0|3:2,0:0:0:0:
184,330,168368,1,0,1:0:0:0:
39,244,168743,6,0,L|26:124,1,120,6|0,3:2|1:0,0:0:0:0:
80,60,169305,2,0,P|139:48|194:68,1,120,2|0,0:0|3:0,0:0:0:0:
220,148,169868,1,2,1:2:0:0:
294,298,170243,6,0,L|413:310,1,120,2|0,3:2|1:0,0:0:0:0:
478,257,170805,2,0,P|490:198|470:143,1,120,2|0,3:2|3:0,0:0:0:0:
390,117,171368,1,2,1:2:0:0:
222,130,171743,6,0,B|206:165|206:165|226:254,1,120,6|2,3:2|1:2,0:0:0:0:
192,322,172305,1,0,0:0:0:0:
192,322,172493,2,0,P|136:341|78:329,1,120,2|2,0:0|1:2,0:0:0:0:
32,257,173055,1,4,3:2:0:0:
94,200,173243,6,0,L|106:137,2,60,0|0|4,0:0|1:0|1:2,0:0:0:0:
14,173,173805,1,0,3:2:0:0:
38,92,173993,2,0,L|157:79,1,120,2|0,1:2|3:0,0:0:0:0:
309,149,174743,6,0,P|322:207|302:262,1,120,6|0,3:2|1:0,0:0:0:0:
251,329,175305,2,0,L|132:319,1,120,2|0,0:0|3:0,0:0:0:0:
61,272,175868,1,2,1:2:0:0:
141,124,176243,6,0,P|153:66|133:10,1,120,2|0,3:2|1:0,0:0:0:0:
49,17,176805,2,0,P|36:75|55:131,1,120,2|2,3:2|3:2,0:0:0:0:
104,200,177368,1,2,1:2:0:0:
245,109,177743,6,0,L|369:124,1,120,2|2,3:2|1:2,0:0:0:0:
427,177,178305,1,0,0:0:0:0:
427,177,178493,2,0,B|443:212|443:212|423:301,1,120,2|2,0:0|1:2,0:0:0:0:
259,260,179243,6,0,B|243:295|243:295|260:374,1,120,2|0,3:2|1:0,0:0:0:0:
343,365,179805,1,2,3:2:0:0:
343,365,179993,2,0,L|412:376,1,60,0|2,0:0|3:2,0:0:0:0:
483,353,180368,1,0,1:0:0:0:
349,250,180743,6,0,P|330:194|342:136,1,120,6|0,3:2|1:0,0:0:0:0:
409,85,181305,2,0,L|291:68,1,120,2|0,0:0|3:0,0:0:0:0:
225,121,181868,1,2,1:2:0:0:
89,220,182243,6,0,L|106:338,1,120,2|2,3:2|1:2,0:0:0:0:
189,343,182805,2,0,L|171:224,1,120,2|2,3:2|3:2,0:0:0:0:
136,147,183368,1,2,1:2:0:0:
302,169,183743,6,0,P|314:226|294:282,1,120,6|0,3:2|1:0,0:0:0:0:
312,365,184305,2,0,P|368:384|426:371,1,120,2|2,0:0|3:2,0:0:0:0:
471,299,184868,1,2,1:2:0:0:
471,299,185055,6,0,B|487:264|487:264|467:175,1,120,6|0,3:2|1:0,0:0:0:0:
414,119,185618,2,0,L|295:101,2,120,0|0|0,1:0|1:0|1:0,0:0:0:0:
277,217,186743,6,0,P|218:227|159:242,1,120,6|2,3:2|0:0,0:0:0:0:
91,290,187305,2,0,P|105:231|116:172,1,120,6|0,1:2|3:0,0:0:0:0:
76,98,187868,1,2,0:0:0:0:
76,98,188055,6,0,P|132:79|190:92,2,120,6|0|0,3:2|0:0|3:0,0:0:0:0:
38,173,188993,1,0,1:0:0:0:
81,240,189180,2,0,P|138:252|194:233,1,120,2|0,3:2|3:0,0:0:0:0:
239,160,189743,6,0,L|370:175,1,120,6|0,3:2|0:0,0:0:0:0:
412,106,190305,2,0,L|427:237,1,120,6|0,1:2|3:0,0:0:0:0:
472,295,190868,1,0,0:0:0:0:
472,295,191055,6,0,P|413:309|354:320,1,120,2|6,3:2|3:2,0:0:0:0:
275,290,191618,1,2,0:0:0:0:
118,351,191993,1,0,1:0:0:0:
118,351,192180,2,0,P|130:293|111:237,1,120,0|4,1:0|3:0,0:0:0:0:
62,168,192743,6,0,P|42:111|55:54,1,120,4|0,3:2|0:0,0:0:0:0:
126,9,193305,2,0,L|258:28,2,120,2|4|4,1:2|3:2|3:2,0:0:0:0:
195,161,194430,2,0,L|204:225,2,60,0|4|8,3:0|1:2|3:0,0:0:0:0:
264,112,194993,2,0,L|382:94,1,120,4|0,3:0|3:0,0:0:0:0:
436,159,195555,1,4,3:2:0:0:
361,197,195743,6,0,P|349:255|368:311,1,120,4|0,3:2|3:0,0:0:0:0:
419,378,196305,2,0,L|300:361,1,120,4|0,1:2|3:0,0:0:0:0:
232,311,196868,1,2,0:0:0:0:
232,311,197055,6,0,P|174:299|118:318,2,120,0|2|0,1:0|0:0|0:0,0:0:0:0:
307,273,197993,1,2,0:0:0:0:
381,233,198180,2,0,P|392:174|373:118,1,120,0|4,3:0|3:0,0:0:0:0:
299,77,198743,6,0,L|176:65,1,120,4|0,3:2|0:0,0:0:0:0:
112,115,199305,1,2,3:2:0:0:
112,115,199493,2,0,L|124:238,1,120,0|0,1:0|0:0,0:0:0:0:
192,281,200055,6,0,P|250:292|306:273,2,120,2|0|0,0:0|1:0|3:0,0:0:0:0:
123,234,200993,1,0,1:0:0:0:
199,199,201180,2,0,L|187:79,1,120,2|0,0:0|0:0,0:0:0:0:
139,9,201743,5,4,3:2:0:0:
139,9,201930,2,0,P|198:23|257:34,1,120,0|2,1:0|3:2,0:0:0:0:
307,100,202493,2,0,P|365:87|424:75,1,120,2|0,1:2|0:0,0:0:0:0:
495,121,203055,6,0,P|514:177|501:235,1,120,2|0,0:0|1:0,0:0:0:0:
434,286,203618,1,4,0:0:0:0:
277,347,203993,2,0,L|157:335,1,120,0|0,1:0|1:0,0:0:0:0:
16,244,204743,1,4,3:2:0:0:
16,244,204930,2,0,P|4:186|23:130,1,120,0|4,1:0|3:2,0:0:0:0:
98,92,205493,2,0,L|231:107,1,120,2|2,0:0|0:0,0:0:0:0:
295,134,206055,6,0,L|281:253,1,120,4|0,3:2|3:0,0:0:0:0:
313,330,206618,1,4,0:2:0:0:
206,199,206993,1,0,1:0:0:0:
206,199,207180,2,0,P|150:179|93:192,1,120,0|0,1:0|1:0,0:0:0:0:
26,244,207743,6,0,L|39:124,1,120,4|0,3:2|1:0,0:0:0:0:
8,46,208305,2,0,L|127:32,1,120,0|0,3:0|3:0,0:0:0:0:
203,67,208868,1,0,1:0:0:0:
285,51,209055,6,0,L|271:170,1,120,4|0,3:2|3:0,0:0:0:0:
314,242,209618,1,0,3:0:0:0:
178,341,209993,2,0,L|59:327,1,120,0|2,1:0|1:3,0:0:0:0:
40,244,210555,1,0,1:0:0:0:
21,161,210743,5,0,0:0:0:0:
154,329,219743,6,0,P|210:310|268:323,1,120,2|0,3:2|0:0,0:0:0:0:
341,363,220305,2,0,P|397:382|455:369,1,120,0|0,0:0|3:0,0:0:0:0:
504,300,220868,1,0,1:0:0:0:
496,215,221055,6,0,L|484:95,1,120,4|0,3:2|3:0,0:0:0:0:
439,23,221618,1,0,1:0:0:0:
298,115,221993,2,0,P|240:127|184:108,1,120,0|0,1:0|3:0,0:0:0:0:
127,45,222555,1,0,1:0:0:0:
61,97,222743,6,0,L|74:221,1,120,6|0,3:2|1:0,0:0:0:0:
127,280,223305,2,0,P|183:299|241:286,1,120,2|0,0:0|3:0,0:0:0:0:
289,217,223868,1,2,1:2:0:0:
455,242,224243,6,0,L|443:361,1,120,2|0,3:2|1:0,0:0:0:0:
360,377,224805,1,2,3:2:0:0:
192,377,225180,1,0,3:0:0:0:
192,377,225368,2,0,L|124:383,1,60,2|0,1:2|0:0,0:0:0:0:
76,319,225743,6,0,P|57:263|70:205,1,120,2|2,3:2|1:2,0:0:0:0:
138,156,226305,2,0,L|258:168,1,120,2|0,0:0|3:0,0:0:0:0:
333,130,226868,1,2,1:2:0:0:
194,33,227243,6,0,L|74:21,1,120,2|0,3:2|1:0,0:0:0:0:
0,61,227805,1,2,3:2:0:0:
76,203,228180,1,2,3:2:0:0:
76,203,228368,2,0,L|70:270,1,60,0|0,1:0|1:0,0:0:0:0:
126,325,228743,6,0,B|161:309|161:309|250:329,1,120,4|0,3:2|1:0,0:0:0:0:
298,265,229305,2,0,P|354:245|411:258,1,120,2|0,0:0|3:0,0:0:0:0:
469,318,229868,1,0,1:0:0:0:
494,238,230055,6,0,L|513:113,1,120,2|0,0:0|0:0,0:0:0:0:
461,51,230618,1,0,1:0:0:0:
320,143,230993,1,0,0:0:0:0:
320,143,231180,2,0,L|257:154,1,60,2|0,3:2|1:0,0:0:0:0:
178,134,231555,1,2,0:0:0:0:
113,188,231743,6,0,L|94:310,1,120,4|0,3:2|1:0,0:0:0:0:
146,372,232305,2,0,L|268:353,1,120,4|8,3:2|3:0,0:0:0:0:
319,289,232868,1,0,0:0:0:0:
381,344,233055,6,0,P|438:356|494:337,1,120,6|8,3:2|3:0,0:0:0:0:
471,255,233618,2,0,L|489:136,2,120,2|0|2,0:0|1:0|3:0,0:0:0:0:
355,132,234743,6,0,P|298:119|242:138,1,120,4|0,3:2|1:0,0:0:0:0:
175,190,235305,2,0,P|195:133|182:76,1,120,2|0,0:0|3:0,0:0:0:0:
114,25,235868,1,2,1:2:0:0:
2,150,236243,6,0,L|10:270,1,120,2|0,3:2|1:0,0:0:0:0:
82,311,236805,2,0,L|202:319,1,120,2|0,3:2|3:0,0:0:0:0:
263,261,237368,1,2,1:2:0:0:
419,323,237743,6,0,B|435:288|435:288|415:199,1,120,2|2,3:2|1:2,0:0:0:0:
363,144,238305,1,0,0:0:0:0:
363,144,238493,2,0,P|307:124|250:137,1,120,2|2,0:0|1:2,0:0:0:0:
86,178,239243,6,0,P|74:120|93:64,1,120,2|2,3:2|1:2,0:0:0:0:
166,23,239805,1,0,3:0:0:0:
166,23,239993,2,0,L|235:17,1,60,2|2,0:0|3:2,0:0:0:0:
305,44,240368,1,0,1:0:0:0:
168,141,240743,6,0,P|148:197|161:254,1,120,6|0,3:2|1:0,0:0:0:0:
231,300,241305,2,0,P|288:286|344:306,1,120,2|0,0:0|3:0,0:0:0:0:
393,375,241868,1,2,1:2:0:0:
482,232,242243,6,0,L|499:94,1,120,2|0,3:2|1:0,0:0:0:0:
438,52,242805,2,0,B|403:36|403:36|314:56,1,120,2|0,3:2|3:0,0:0:0:0:
266,116,243368,1,2,1:2:0:0:
124,25,243743,6,0,P|66:12|10:31,1,120,6|2,3:2|1:2,0:0:0:0:
30,112,244305,2,0,L|41:240,1,120,2|0,0:0|3:0,0:0:0:0:
17,312,244868,1,2,1:2:0:0:
81,365,245055,6,0,L|209:354,1,120,4|0,3:2|3:0,0:0:0:0:
244,282,245618,2,0,L|363:292,1,120,0|8,1:0|3:0,0:0:0:0:
445,273,246180,1,0,1:0:0:0:
445,273,246368,2,0,L|458:210,1,60,2|0,3:0|1:0,0:0:0:0:
384,171,246743,6,0,P|371:113|390:57,1,120,4|0,3:2|1:0,0:0:0:0:
324,4,247305,2,0,L|204:14,1,120,2|0,0:0|3:0,0:0:0:0:
144,73,247868,1,2,1:2:0:0:
54,215,248243,6,0,B|89:231|89:231|178:211,1,120,2|0,3:2|1:0,0:0:0:0:
251,225,248805,2,0,L|232:353,1,120,2|0,3:2|3:0,0:0:0:0:
150,358,249368,1,2,1:2:0:0:
54,215,249743,6,0,P|34:159|47:101,1,120,2|2,3:2|1:2,0:0:0:0:
112,48,250305,1,0,0:0:0:0:
112,48,250493,2,0,P|170:60|226:41,1,120,2|2,0:0|1:2,0:0:0:0:
367,132,251243,6,0,L|354:264,1,120,2|2,3:2|1:2,0:0:0:0:
286,298,251805,1,0,3:0:0:0:
286,298,251993,2,0,L|301:370,1,60,2|2,0:0|3:2,0:0:0:0:
379,379,252368,1,0,1:0:0:0:
488,251,252743,6,0,L|500:132,1,120,4|0,3:2|1:0,0:0:0:0:
469,53,253305,2,0,L|350:42,1,120,2|0,0:0|3:0,0:0:0:0:
281,91,253868,1,2,1:2:0:0:
125,153,254243,6,0,L|113:273,1,120,2|0,3:2|1:0,0:0:0:0:
196,263,254805,2,0,L|208:143,1,120,2|0,3:2|3:0,0:0:0:0:
159,73,255368,1,2,1:2:0:0:
287,181,255743,6,0,P|345:193|401:174,1,120,4|0,3:2|0:0,0:0:0:0:
466,121,256305,2,0,P|446:177|458:235,1,120,0|0,1:0|3:0,0:0:0:0:
511,300,256868,1,0,1:0:0:0:
465,370,257055,6,0,P|406:381|350:362,1,120,4|0,3:2|3:0,0:0:0:0:
289,303,257618,2,0,L|169:315,2,120,0|0|10,3:0|1:0|3:0,0:0:0:0:
346,241,258555,6,0,L|356:150,1,80,4|2,3:0|3:2,0:0:0:0:
256,192,258930,12,0,265493,0:0:0:0:
