osu file format v14

[General]
AudioFilename: Flower Flag.mp3
AudioLeadIn: 2500
PreviewTime: 62901
Countdown: 0
SampleSet: Soft
StackLeniency: 0.7
Mode: 3
LetterboxInBreaks: 0
SpecialStyle: 0
WidescreenStoryboard: 0

[Editor]
Bookmarks: 48744,60744,92481,123744,162744,168744,254056
DistanceSpacing: 1.4
BeatDivisor: 4
GridSize: 16
TimelineZoom: 1.8

[Metadata]
Title:Flower Flag
TitleUnicode:Flower Flag
Artist:FELT
ArtistUnicode:FELT
Creator:17VA
Version:Lunatic
Source:東方Project
Tags:touhou youyoumu perfect 東方妖々夢 reitaisai8 FELT-003 Yuuga ni sakase Sumizome no sakura Bloom Nobly Ink Black Cherry Blossom Border of Life NAGI☆ maika
BeatmapID:1142360
BeatmapSetID:539088

[Difficulty]
HPDrainRate:8.7
CircleSize:7
OverallDifficulty:7.5
ApproachRate:5
SliderMultiplier:1.4
SliderTickRate:1

[Events]
//Background and Video events
0,0,"bg.jpg",0,0
//Break Periods
//Storyboard Layer 0 (Background)
//Storyboard Layer 1 (Fail)
//Storyboard Layer 2 (Pass)
//Storyboard Layer 3 (Foreground)
//Storyboard Sound Samples

[TimingPoints]
745,374.99900373599,4,2,1,40,1,0
63744,-100,4,2,1,40,0,1
87744,-100,4,2,1,40,0,0
138744,-100,4,2,1,40,0,1
162744,-100,4,2,1,40,0,0
210744,-151.515151515152,4,2,1,40,0,0
219744,-100,4,2,1,40,0,0
222744,-100,4,2,1,40,0,1
234744,-100,4,2,1,40,0,0

[HitObjects]
36,192,557,5,0,0:0:0:0:
182,192,620,1,0,0:0:0:0:
402,192,651,1,0,0:0:0:0:
329,192,682,1,0,0:0:0:0:
256,192,713,1,0,0:0:0:0:
36,192,745,1,0,0:0:0:70:cym.wav
182,192,745,128,0,1307:0:0:0:0:
475,192,745,1,0,0:0:0:0:
329,192,932,1,0,0:0:0:0:
109,192,1119,1,0,0:0:0:0:
402,192,1307,128,0,2244:0:0:0:0:
36,192,1307,1,0,0:0:0:0:
256,192,1307,1,0,0:0:0:40:sna.wav
475,192,1307,1,0,0:0:0:0:
182,192,1494,1,0,0:0:0:0:
109,192,1682,1,0,0:0:0:70:acoustic kick.wav
329,192,1682,1,0,0:0:0:0:
475,192,1869,128,0,2244:0:0:0:0:
36,192,1869,1,0,0:0:0:0:
109,192,2057,1,0,0:0:0:70:acoustic kick.wav
256,192,2057,1,0,0:0:0:0:
182,192,2244,128,0,2807:0:0:0:0:
36,192,2244,1,0,0:0:0:0:
329,192,2244,1,0,0:0:0:0:
256,192,2432,1,0,0:0:0:70:sna.wav
36,192,2619,1,0,0:0:0:0:
256,192,2807,1,0,0:0:0:70:acoustic kick.wav
402,192,2807,128,0,3744:0:0:0:0:
475,192,2807,1,0,0:0:0:0:
36,192,2994,1,0,0:0:0:0:
182,192,3182,1,0,0:0:0:70:acoustic kick.wav
329,192,3182,1,0,0:0:0:0:
475,192,3369,128,0,3744:0:0:0:0:
36,192,3369,1,0,0:0:0:0:
182,192,3369,1,0,0:0:0:40:sna.wav
109,192,3369,1,0,0:0:0:0:
256,192,3557,1,0,0:0:0:0:
182,192,3651,1,0,0:0:0:0:
109,192,3698,1,0,0:0:0:0:
36,192,3744,128,0,4307:0:0:0:0:
329,192,3744,1,0,0:0:0:70:acoustic kick.wav
182,192,3932,1,0,0:0:0:0:
475,192,4119,1,0,0:0:0:0:
256,192,4119,1,0,0:0:0:0:
329,192,4307,128,0,5057:0:0:0:0:
475,192,4307,1,0,0:0:0:0:
182,192,4307,1,0,0:0:0:0:
402,192,4307,1,0,0:0:0:40:sna.wav
36,192,4494,1,0,0:0:0:0:
256,192,4682,1,0,0:0:0:70:acoustic kick.wav
475,192,4682,1,0,0:0:0:0:
36,192,4869,1,0,0:0:0:0:
182,192,5057,128,0,5244:0:0:0:0:
109,192,5057,1,0,0:0:0:70:acoustic kick.wav
475,192,5057,1,0,0:0:0:0:
256,192,5244,128,0,6369:0:0:0:0:
36,192,5244,1,0,0:0:0:0:
329,192,5244,1,0,0:0:0:0:
182,192,5432,1,0,0:0:0:0:
475,192,5432,1,0,0:0:0:0:
36,192,5619,1,0,0:0:0:0:
182,192,5807,1,0,0:0:0:0:
475,192,5807,1,0,0:0:0:0:
109,192,5994,1,0,0:0:0:0:
36,192,5994,1,0,0:0:0:0:
329,192,5994,1,0,0:0:0:0:
402,192,5994,1,0,0:0:0:40:sna.wav
36,192,6182,1,0,0:0:0:0:
329,192,6182,1,0,0:0:0:40:sna.wav
182,192,6369,1,0,0:0:0:0:
109,192,6369,1,0,0:0:0:0:
475,192,6369,1,0,0:0:0:40:sna.wav
402,192,6369,1,0,0:0:0:0:
329,192,6557,1,0,0:0:0:0:
182,192,6619,1,0,0:0:0:0:
256,192,6682,1,0,0:0:0:0:
36,192,6744,1,0,0:0:0:0:
475,192,6744,1,0,0:0:0:0:
329,192,6744,128,0,7307:0:0:0:70:cym.wav
182,192,6932,1,0,0:0:0:0:
475,192,7119,1,0,0:0:0:0:
402,192,7307,1,0,0:0:0:40:sna.wav
256,192,7307,1,0,0:0:0:0:
109,192,7307,128,0,8244:0:0:0:0:
36,192,7307,1,0,0:0:0:0:
475,192,7494,1,0,0:0:0:0:
182,192,7682,1,0,0:0:0:70:acoustic kick.wav
329,192,7682,1,0,0:0:0:0:
475,192,7869,1,0,0:0:0:0:
36,192,7869,128,0,8244:0:0:0:0:
182,192,8057,1,0,0:0:0:70:acoustic kick.wav
402,192,8057,1,0,0:0:0:0:
475,192,8244,1,0,0:0:0:0:
329,192,8244,128,0,8807:0:0:0:0:
256,192,8244,1,0,0:0:0:0:
182,192,8432,1,0,0:0:0:40:sna.wav
36,192,8432,1,0,0:0:0:0:
109,192,8432,1,0,0:0:0:0:
475,192,8619,1,0,0:0:0:0:
109,192,8807,128,0,9744:0:0:0:0:
402,192,8807,1,0,0:0:0:0:
256,192,8807,1,0,0:0:0:70:acoustic kick.wav
36,192,8807,1,0,0:0:0:0:
475,192,8994,1,0,0:0:0:0:
329,192,9182,1,0,0:0:0:70:acoustic kick.wav
182,192,9182,1,0,0:0:0:0:
329,192,9369,1,0,0:0:0:0:
36,192,9369,128,0,9744:0:0:0:0:
402,192,9369,1,0,0:0:0:40:sna.wav
475,192,9369,1,0,0:0:0:0:
256,192,9557,1,0,0:0:0:0:
329,192,9651,1,0,0:0:0:0:
402,192,9698,1,0,0:0:0:0:
475,192,9744,128,0,10307:0:0:0:0:
182,192,9744,1,0,0:0:0:70:acoustic kick.wav
329,192,9932,1,0,0:0:0:0:
36,192,10119,1,0,0:0:0:0:
256,192,10119,1,0,0:0:0:0:
329,192,10307,1,0,0:0:0:0:
182,192,10307,128,0,11057:0:0:0:0:
109,192,10307,1,0,0:0:0:0:
402,192,10307,1,0,0:0:0:40:sna.wav
475,192,10494,1,0,0:0:0:0:
36,192,10682,1,0,0:0:0:0:
256,192,10682,1,0,0:0:0:70:acoustic kick.wav
402,192,10682,1,0,0:0:0:0:
475,192,10869,1,0,0:0:0:0:
329,192,11057,128,0,11244:0:0:0:0:
36,192,11057,1,0,0:0:0:70:acoustic kick.wav
402,192,11057,1,0,0:0:0:70:cym.wav
182,192,11244,1,0,0:0:0:0:
475,192,11244,1,0,0:0:0:0:
256,192,11244,128,0,11994:0:0:0:0:
329,192,11432,1,0,0:0:0:40:sna.wav
36,192,11432,1,0,0:0:0:0:
402,192,11619,1,0,0:0:0:70:cym.wav
36,192,11619,1,0,0:0:0:0:
109,192,11619,1,0,0:0:0:0:
329,192,11619,1,0,0:0:0:0:
182,192,11807,1,0,0:0:0:0:
475,192,11807,1,0,0:0:0:0:
475,192,11994,1,0,0:0:0:0:
329,192,11994,1,8,3:0:0:0:
36,192,11994,1,0,0:0:0:40:dr.wav
109,192,12088,1,0,0:0:0:40:dr.wav
402,192,12182,1,4,3:0:0:0:
182,192,12182,1,0,0:0:0:40:dr.wav
256,192,12276,1,0,0:0:0:40:dr.wav
329,192,12369,1,8,3:0:0:0:
475,192,12369,1,0,0:0:0:0:
36,192,12369,1,0,0:0:0:40:dr.wav
109,192,12463,1,0,0:0:0:40:dr.wav
402,192,12557,1,4,3:0:0:0:
182,192,12557,1,0,0:0:0:40:dr.wav
256,192,12651,1,0,0:0:0:40:dr.wav
475,192,12744,1,0,0:0:0:0:
182,192,12744,1,0,0:0:0:70:cym.wav
109,192,12744,1,0,0:0:0:0:
329,192,12744,1,0,0:0:0:0:
36,192,12744,128,0,13869:0:0:0:0:
329,192,12932,1,0,0:0:0:0:
256,192,12932,1,0,0:0:0:0:
109,192,13119,1,0,0:0:0:0:
402,192,13119,1,0,0:0:0:40:sna.wav
475,192,13119,1,0,0:0:0:0:
329,192,13307,128,0,14244:0:0:0:0:
256,192,13307,1,0,0:0:0:0:
182,192,13307,1,0,0:0:0:0:
402,192,13494,1,0,0:0:0:0:
475,192,13494,1,0,0:0:0:0:
109,192,13682,1,0,0:0:0:70:acoustic kick.wav
475,192,13869,128,0,14244:0:0:0:0:
256,192,13869,1,0,0:0:0:0:
402,192,13869,1,0,0:0:0:40:sna.wav
182,192,14057,1,0,0:0:0:0:
109,192,14151,1,0,0:0:0:0:
256,192,14244,1,0,0:0:0:70:acoustic kick.wav
36,192,14244,128,0,15369:0:0:0:0:
182,192,14432,1,0,0:0:0:0:
256,192,14432,1,0,0:0:0:0:
109,192,14619,1,0,0:0:0:0:
475,192,14619,1,0,0:0:0:0:
402,192,14619,1,0,0:0:0:40:sna.wav
256,192,14807,1,0,0:0:0:70:acoustic kick.wav
329,192,14807,1,0,0:0:0:0:
182,192,14807,128,0,15744:0:0:0:0:
402,192,14994,1,0,0:0:0:0:
475,192,14994,1,0,0:0:0:0:
256,192,15182,1,0,0:0:0:70:acoustic kick.wav
402,192,15369,1,0,0:0:0:40:sna.wav
475,192,15369,128,0,15744:0:0:0:0:
109,192,15369,1,0,0:0:0:0:
256,192,15557,1,0,0:0:0:0:
329,192,15651,1,0,0:0:0:0:
36,192,15744,1,0,0:0:0:0:
402,192,15744,128,0,16119:0:0:0:0:
109,192,15744,1,0,0:0:0:70:acoustic kick.wav
329,192,15932,1,0,0:0:0:0:
182,192,16119,1,0,0:0:0:0:
256,192,16119,128,0,16494:0:0:0:0:
475,192,16119,1,0,0:0:0:40:sna.wav
109,192,16119,1,0,0:0:0:0:
36,192,16307,1,0,0:0:0:0:
402,192,16307,1,0,0:0:0:0:
109,192,16330,1,0,0:0:0:0:
182,192,16354,1,0,0:0:0:0:
329,192,16494,128,0,16869:0:0:0:0:
36,192,16494,1,0,0:0:0:0:
475,192,16494,1,0,0:0:0:0:
109,192,16682,1,0,0:0:0:0:
256,192,16682,1,0,0:0:0:70:acoustic kick.wav
182,192,16869,128,0,17244:0:0:0:0:
402,192,16869,1,0,0:0:0:0:
475,192,16869,1,0,0:0:0:40:sna.wav
109,192,17057,1,0,0:0:0:0:
329,192,17057,1,0,0:0:0:0:
256,192,17244,128,0,18557:0:0:0:0:
36,192,17244,1,0,0:0:0:70:acoustic kick.wav
402,192,17244,1,0,0:0:0:0:
475,192,17244,128,0,17807:0:0:0:0:
329,192,17244,128,0,17432:0:0:0:0:
402,192,17432,128,0,17619:0:0:0:0:
109,192,17432,1,0,0:0:0:0:
329,192,17619,128,0,17994:0:0:0:0:
182,192,17619,1,0,0:0:0:40:sna.wav
402,192,17807,128,0,18182:0:0:0:0:
36,192,17807,1,0,0:0:0:70:acoustic kick.wav
109,192,17807,1,0,0:0:0:0:
475,192,17994,128,0,18369:0:0:0:0:
182,192,17994,1,0,0:0:0:0:
329,192,18182,128,0,18557:0:0:0:0:
109,192,18182,1,0,0:0:0:70:acoustic kick.wav
36,192,18369,1,0,0:0:0:40:sna.wav
182,192,18369,1,0,0:0:0:0:
402,192,18369,128,0,18557:0:0:0:0:
109,192,18557,1,0,0:0:0:0:
475,192,18557,1,0,0:0:0:0:
182,192,18744,128,0,19869:0:0:0:0:
36,192,18744,1,0,0:0:0:0:
256,192,18744,1,0,0:0:0:70:cym.wav
402,192,18744,1,0,0:0:0:0:
329,192,18932,1,0,0:0:0:0:
475,192,18932,1,0,0:0:0:0:
36,192,19119,1,0,0:0:0:0:
109,192,19119,1,0,0:0:0:0:
256,192,19119,1,0,0:0:0:40:sna.wav
329,192,19307,128,0,19682:0:0:0:0:
402,192,19307,1,0,0:0:0:0:
475,192,19307,1,0,0:0:0:0:
36,192,19494,1,0,0:0:0:0:
256,192,19494,1,0,0:0:0:0:
109,192,19682,1,0,0:0:0:70:acoustic kick.wav
475,192,19869,128,0,20244:0:0:0:0:
329,192,19869,1,0,0:0:0:40:sna.wav
402,192,19869,1,0,0:0:0:0:
36,192,19869,1,0,0:0:0:0:
256,192,20057,1,0,0:0:0:0:
182,192,20151,1,0,0:0:0:0:
109,192,20244,128,0,21369:0:0:0:0:
36,192,20244,1,0,0:0:0:0:
329,192,20244,1,0,0:0:0:70:acoustic kick.wav
256,192,20432,1,0,0:0:0:0:
182,192,20432,1,0,0:0:0:0:
402,192,20619,1,0,0:0:0:40:sna.wav
475,192,20619,1,0,0:0:0:0:
329,192,20619,1,0,0:0:0:0:
256,192,20807,128,0,21182:0:0:0:0:
36,192,20807,1,0,0:0:0:70:acoustic kick.wav
182,192,20994,1,0,0:0:0:0:
475,192,20994,1,0,0:0:0:0:
36,192,21182,1,0,0:0:0:0:
329,192,21182,1,0,0:0:0:70:acoustic kick.wav
402,192,21369,128,0,21744:0:0:0:0:
256,192,21369,1,0,0:0:0:40:sna.wav
475,192,21369,1,0,0:0:0:0:
182,192,21557,1,0,0:0:0:0:
256,192,21651,1,0,0:0:0:0:
329,192,21744,1,0,0:0:0:70:acoustic kick.wav
475,192,21744,1,0,0:0:0:0:
182,192,21791,1,0,0:0:0:0:
36,192,21838,128,0,22307:0:0:0:0:
256,192,21932,1,0,0:0:0:0:
329,192,22119,1,0,0:0:0:0:
402,192,22119,1,0,0:0:0:40:sna.wav
475,192,22119,1,0,0:0:0:0:
182,192,22307,128,0,23057:0:0:0:0:
256,192,22307,1,0,0:0:0:0:
475,192,22494,1,0,0:0:0:0:
36,192,22494,1,0,0:0:0:0:
256,192,22682,1,0,0:0:0:70:acoustic kick.wav
329,192,22869,128,0,23057:0:0:0:0:
402,192,22869,1,0,0:0:0:40:sna.wav
475,192,22869,1,0,0:0:0:0:
256,192,23057,128,0,24182:0:0:0:0:
36,192,23057,1,0,0:0:0:0:
109,192,23057,1,0,0:0:0:70:cym.wav
475,192,23432,1,8,3:0:0:0:
329,192,23432,1,0,0:0:0:0:
36,192,23619,1,0,0:0:0:0:
109,192,23619,1,0,0:0:0:0:
182,192,23619,1,0,0:0:0:40:sna.wav
329,192,23807,1,0,0:0:0:40:sna.wav
36,192,23994,1,0,0:0:0:0:
109,192,23994,1,0,0:0:0:0:
402,192,23994,1,0,0:0:0:40:sna.wav
475,192,23994,1,0,0:0:0:0:
109,192,24182,1,0,0:0:0:0:
182,192,24182,1,0,0:0:0:0:
329,192,24182,1,0,0:0:0:40:sna.wav
402,192,24182,1,0,0:0:0:0:
182,192,24369,1,0,0:0:0:0:
329,192,24369,1,0,0:0:0:0:
256,192,24369,1,4,3:0:0:0:
109,192,24557,1,0,0:0:0:0:
402,192,24557,1,0,0:0:0:0:
36,192,24744,1,0,0:0:0:0:
256,192,24744,1,0,0:0:0:70:cym.wav
475,192,24744,1,0,0:0:0:0:
109,192,25119,1,0,0:0:0:0:
329,192,25119,1,0,0:0:0:0:
182,192,25307,1,0,0:0:0:0:
402,192,25307,1,0,0:0:0:0:
475,192,25494,1,0,0:0:0:0:
256,192,25494,128,0,25869:0:0:0:0:
36,192,25682,1,0,0:0:0:0:
329,192,25682,1,0,0:0:0:0:
182,192,25869,1,0,0:0:0:0:
475,192,25869,1,0,0:0:0:0:
329,192,26244,128,0,26807:0:0:0:0:
256,192,26244,1,0,0:0:0:0:
36,192,26432,1,0,0:0:0:0:
475,192,26807,1,0,0:0:0:0:
109,192,27182,1,0,0:0:0:0:
329,192,27182,1,0,0:0:0:0:
475,192,27369,1,0,0:0:0:0:
256,192,27369,1,0,0:0:0:0:
182,192,27557,128,0,28307:0:0:0:0:
36,192,27744,1,0,0:0:0:0:
256,192,28119,1,0,0:0:0:0:
475,192,28307,1,0,0:0:0:0:
329,192,28682,1,0,0:0:0:0:
182,192,28869,1,0,0:0:0:0:
402,192,29057,1,0,0:0:0:0:
109,192,29244,128,0,29619:0:0:0:0:
256,192,29244,1,0,0:0:0:0:
36,192,29619,1,0,0:0:0:0:
329,192,29807,128,0,30182:0:0:0:0:
256,192,29807,1,0,0:0:0:0:
475,192,29994,128,0,30182:0:0:0:0:
402,192,30182,128,0,30744:0:0:0:0:
36,192,30182,1,0,0:0:0:0:
475,192,30369,128,0,30744:0:0:0:0:
109,192,30369,1,0,0:0:0:0:
256,192,30369,1,0,0:0:0:0:
182,192,30557,1,0,0:0:0:0:
256,192,30744,128,0,31307:0:0:0:0:
329,192,30744,1,2,0:0:0:0:
402,192,30932,1,2,0:0:0:0:
475,192,31119,1,2,0:0:0:0:
182,192,31307,128,0,32244:0:0:0:0:
36,192,31307,1,2,0:0:0:0:
402,192,31869,1,0,0:0:0:0:
256,192,32057,1,0,0:0:0:0:
109,192,32244,128,0,32619:0:0:0:0:
475,192,32244,1,0,0:0:0:0:
402,192,32432,1,0,0:0:0:0:
182,192,32619,1,0,0:0:0:0:
36,192,32807,128,0,33369:0:0:0:0:
256,192,32807,1,0,0:0:0:0:
182,192,33369,1,0,0:0:0:0:
329,192,33557,1,0,0:0:0:0:
36,192,33744,1,0,0:0:0:0:
256,192,33744,1,0,0:0:0:0:
329,192,34119,1,0,0:0:0:0:
475,192,34119,1,0,0:0:0:0:
182,192,34307,128,0,34869:0:0:0:0:
256,192,34307,1,0,0:0:0:0:
36,192,34869,128,0,35807:0:0:0:0:
329,192,34869,1,0,0:0:0:0:
475,192,35244,128,0,36744:0:0:0:0:
329,192,35244,1,0,0:0:0:0:
256,192,35432,1,0,0:0:0:0:
402,192,35432,128,0,35807:0:0:0:0:
182,192,35619,1,0,0:0:0:0:
329,192,35619,128,0,35994:0:0:0:0:
256,192,35807,128,0,36182:0:0:0:0:
109,192,35807,1,0,0:0:0:0:
402,192,35994,1,2,0:0:0:0:
182,192,35994,128,0,36369:0:0:0:0:
36,192,35994,128,0,36557:0:0:0:0:
329,192,36182,1,2,0:0:0:0:
109,192,36182,128,0,36557:0:0:0:0:
256,192,36369,1,2,0:0:0:0:
402,192,36369,128,0,36744:0:0:0:0:
182,192,36557,1,2,0:0:0:0:
256,192,36651,1,2,0:0:0:0:
329,192,36744,128,0,39182:0:0:0:0:
36,192,36744,1,2,0:0:0:0:
109,192,36744,1,0,0:0:0:70:cym.wav
36,192,37119,1,0,0:0:0:0:
475,192,37307,128,0,37869:0:0:0:0:
36,192,37494,1,0,0:0:0:0:
36,192,37869,1,0,0:0:0:0:
475,192,38244,128,0,39182:0:0:0:0:
36,192,38244,1,0,0:0:0:0:
182,192,38432,1,0,0:0:0:0:
256,192,38432,1,0,0:0:0:0:
36,192,38619,1,0,0:0:0:0:
402,192,38807,128,0,39182:0:0:0:0:
36,192,38994,1,0,0:0:0:0:
109,192,39182,128,0,39557:0:0:0:0:
256,192,39182,1,0,0:0:0:0:
475,192,39369,1,0,0:0:0:0:
182,192,39557,1,0,0:0:0:0:
256,192,39651,1,0,0:0:0:0:
329,192,39698,1,0,0:0:0:0:
402,192,39744,128,0,40494:0:0:0:0:
36,192,39744,1,0,0:0:0:0:
109,192,39744,1,0,0:0:0:0:
182,192,39932,1,0,0:0:0:0:
256,192,39932,1,0,0:0:0:0:
36,192,40119,1,0,0:0:0:0:
109,192,40119,1,0,0:0:0:0:
475,192,40307,128,0,40869:0:0:0:0:
36,192,40494,1,0,0:0:0:0:
329,192,40682,128,0,41244:0:0:0:0:
36,192,40869,1,0,0:0:0:0:
256,192,41244,128,0,41994:0:0:0:0:
36,192,41244,1,0,0:0:0:0:
475,192,41432,1,0,0:0:0:0:
402,192,41526,1,0,0:0:0:0:
36,192,41619,1,0,0:0:0:0:
329,192,41619,1,0,0:0:0:0:
182,192,41807,128,0,42369:0:0:0:0:
475,192,41807,1,0,0:0:0:0:
36,192,41994,1,0,0:0:0:0:
475,192,42182,1,0,0:0:0:0:
256,192,42182,1,0,0:0:0:70:acoustic kick.wav
329,192,42369,128,0,42744:0:0:0:0:
36,192,42369,1,0,0:0:0:0:
109,192,42369,1,0,0:0:0:40:sna.wav
256,192,42369,1,0,0:0:0:0:
475,192,42557,1,0,0:0:0:0:
256,192,42651,1,0,0:0:0:0:
182,192,42698,1,0,0:0:0:0:
36,192,42744,128,0,43494:0:0:0:0:
109,192,42744,1,0,0:0:0:70:cym.wav
109,192,43119,1,0,0:0:0:0:
402,192,43307,128,0,43869:0:0:0:0:
109,192,43494,1,0,0:0:0:0:
329,192,43869,128,0,44057:0:0:0:0:
36,192,43869,1,0,0:0:0:0:
182,192,43869,1,0,0:0:0:0:
256,192,44057,128,0,44713:0:0:0:0:
475,192,44057,1,0,0:0:0:0:
182,192,44151,1,0,0:0:0:0:
109,192,44198,1,0,0:0:0:0:
36,192,44244,128,0,45182:0:0:0:0:
402,192,44244,1,0,0:0:0:0:
329,192,44432,1,0,0:0:0:0:
475,192,44619,1,0,0:0:0:0:
329,192,44807,128,0,45369:0:0:0:0:
256,192,44807,1,0,0:0:0:0:
402,192,44807,1,0,0:0:0:70:acoustic kick.wav
109,192,44901,1,0,0:0:0:0:
182,192,44994,1,0,0:0:0:0:
475,192,45182,1,0,0:0:0:70:acoustic kick.wav
256,192,45182,1,0,0:0:0:0:
36,192,45369,1,0,0:0:0:0:
182,192,45369,128,0,45744:0:0:0:0:
402,192,45557,1,0,0:0:0:0:
256,192,45651,1,0,0:0:0:0:
329,192,45698,1,0,0:0:0:0:
402,192,45744,128,0,46682:0:0:0:0:
36,192,45744,1,0,0:0:0:70:cym.wav
475,192,45744,1,0,0:0:0:70:acoustic kick.wav
109,192,45744,1,0,0:0:0:0:
182,192,46119,128,0,46307:0:0:0:0:
109,192,46119,1,0,0:0:0:0:
36,192,46307,128,0,46869:0:0:0:0:
109,192,46494,1,0,0:0:0:0:
256,192,46682,128,0,46963:0:0:0:0:
109,192,46869,1,0,0:0:0:0:
475,192,46869,128,0,47057:0:0:0:0:
36,192,47057,128,0,48557:0:0:0:0:
182,192,47104,128,0,47244:0:0:0:0:
256,192,47151,128,0,47291:0:0:0:0:
329,192,47198,128,0,48557:0:0:0:0:
475,192,47244,128,0,48557:0:0:0:0:
402,192,47432,1,0,0:0:0:70:acoustic kick.wav
109,192,47619,1,0,0:0:0:0:
256,192,47619,1,0,0:0:0:40:sna.wav
402,192,47807,1,0,0:0:0:0:
182,192,47994,128,0,48557:0:0:0:0:
109,192,47994,1,0,0:0:0:0:
256,192,47994,1,0,0:0:0:40:sna.wav
256,192,48182,1,0,0:0:0:40:dr.wav
402,192,48182,1,0,0:0:0:0:
109,192,48369,1,0,0:0:0:0:
256,192,48369,1,0,0:0:0:40:dr.wav
256,192,48557,1,0,0:0:0:40:dr.wav
402,192,48557,1,0,0:0:0:0:
109,192,48744,128,0,49119:0:0:0:0:
402,192,48744,128,0,49119:0:0:0:0:
36,192,48744,1,0,0:0:0:0:
475,192,48744,1,0,0:0:0:0:
182,192,48744,1,0,0:0:0:0:
329,192,48744,1,0,0:0:0:70:cym.wav
182,192,49119,1,0,0:0:0:0:
329,192,49119,1,2,0:0:0:0:
36,192,49307,128,0,49494:0:0:0:0:
475,192,49307,128,2,49494:0:0:0:0:
109,192,49307,128,0,49869:0:0:0:0:
402,192,49307,128,0,49869:0:0:0:0:
256,192,49307,1,0,0:0:0:0:
182,192,49494,128,0,49682:0:0:0:0:
329,192,49494,128,2,49682:0:0:0:0:
36,192,49682,128,0,49869:0:0:0:0:
475,192,49682,128,2,49869:0:0:0:0:
182,192,49869,1,0,0:0:0:0:
329,192,49869,1,0,0:0:0:0:
256,192,49869,1,0,0:0:0:40:dr.wav
109,192,50057,128,0,50338:0:0:0:0:
36,192,50057,128,0,50713:0:0:0:0:
182,192,50057,128,0,50338:0:0:0:0:
329,192,50057,128,0,50526:0:0:0:0:
402,192,50057,128,0,50526:0:0:0:0:
475,192,50057,128,0,50807:0:0:0:0:
182,192,50432,128,0,50994:0:0:0:0:
109,192,50432,128,0,50713:0:0:0:0:
329,192,50619,128,0,51182:0:0:0:0:
402,192,50619,128,0,50994:0:0:0:0:
109,192,50807,128,0,51182:0:0:0:0:
36,192,50807,128,0,51369:0:0:0:0:
256,192,50994,1,0,0:0:0:0:
475,192,50994,1,0,0:0:0:0:
182,192,51182,1,0,0:0:0:0:
402,192,51182,1,0,0:0:0:40:sna.wav
109,192,51369,1,0,0:0:0:0:
329,192,51369,1,0,0:0:0:40:sna.wav
36,192,51557,1,0,0:0:0:0:
256,192,51557,1,0,0:0:0:0:
182,192,51744,128,0,52588:0:0:0:0:
475,192,51744,128,0,52963:0:0:0:70:cym.wav
402,192,51791,128,0,52213:0:0:0:0:
109,192,51791,128,0,52213:0:0:0:0:
36,192,51838,128,0,52963:0:0:0:0:
329,192,51838,128,0,52776:0:0:0:0:
109,192,52307,1,0,0:0:0:0:
402,192,52307,1,0,0:0:0:40:dr.wav
182,192,52682,1,0,0:0:0:0:
329,192,52869,1,0,0:0:0:0:
36,192,53057,1,0,0:0:0:0:
475,192,53057,1,0,0:0:0:0:
256,192,53057,128,0,53807:0:0:0:0:
109,192,53057,128,0,53432:0:0:0:0:
402,192,53057,128,0,53432:0:0:0:70:cym.wav
182,192,53432,1,0,0:0:0:0:
329,192,53432,1,0,0:0:0:70:acoustic kick.wav
109,192,53619,1,0,0:0:0:0:
36,192,53619,1,0,0:0:0:0:
475,192,53619,1,0,0:0:0:0:
402,192,53619,1,0,0:0:0:40:dr.wav
182,192,53807,1,0,0:0:0:0:
329,192,53807,1,2,0:0:0:0:
109,192,53994,1,0,0:0:0:0:
402,192,53994,1,0,0:0:0:0:
36,192,54182,1,0,0:0:0:0:
256,192,54182,1,0,0:0:0:40:sna.wav
475,192,54182,1,0,0:0:0:0:
256,192,54369,1,0,0:0:0:0:
109,192,54557,1,0,0:0:0:0:
402,192,54557,1,2,0:0:0:0:
36,192,54744,128,0,55588:0:0:0:0:
182,192,54744,128,0,55026:0:0:0:0:
329,192,54744,128,0,55213:0:0:0:0:
475,192,54744,128,0,55776:0:0:0:0:
256,192,54744,1,0,0:0:0:70:cym.wav
109,192,55119,128,0,55588:0:0:0:0:
182,192,55119,1,0,0:0:0:0:
402,192,55307,128,0,55776:0:0:0:0:
329,192,55307,1,0,0:0:0:40:dr.wav
256,192,55494,1,0,0:0:0:0:
36,192,55682,1,0,0:0:0:0:
109,192,55682,1,0,0:0:0:40:dr.wav
402,192,55869,1,0,0:0:0:70:cym.wav
475,192,55869,1,0,0:0:0:0:
36,192,56057,128,0,56619:0:0:0:0:
109,192,56057,128,0,56338:0:0:0:0:
182,192,56057,128,0,56338:0:0:0:0:
329,192,56057,128,0,56526:0:0:0:0:
402,192,56057,128,0,56526:0:0:0:70:cym.wav
475,192,56057,128,0,56901:0:0:0:0:
109,192,56432,128,0,56713:0:0:0:0:
182,192,56432,128,0,56807:0:0:0:0:
329,192,56619,128,0,56713:0:0:0:0:
402,192,56619,128,0,56807:0:0:0:70:cym.wav
256,192,56807,1,0,0:0:0:0:
36,192,56807,1,0,0:0:0:0:
329,192,56901,1,0,0:0:0:0:
109,192,56901,1,0,0:0:0:0:
402,192,56994,1,0,0:0:0:0:
182,192,56994,1,8,3:0:0:0:
475,192,57088,1,0,0:0:0:0:
256,192,57088,1,0,0:0:0:0:
182,192,57182,1,0,0:0:0:0:dr.wav
36,192,57182,1,0,0:0:0:0:
402,192,57276,1,0,0:0:0:0:
256,192,57276,1,0,0:0:0:0:dr.wav
182,192,57369,1,0,0:0:0:40:dr.wav
36,192,57369,1,0,0:0:0:0:
475,192,57463,1,0,0:0:0:0:
329,192,57463,1,0,0:0:0:40:dr.wav
256,192,57557,1,0,0:0:0:40:dr.wav
109,192,57557,1,4,3:0:0:0:
475,192,57651,1,0,0:0:0:0:
329,192,57651,1,0,0:0:0:40:dr.wav
36,192,57744,128,0,59057:0:0:0:0:
109,192,57744,128,0,59057:0:0:0:0:
182,192,57744,1,0,0:0:0:70:cym.wav
256,192,57744,128,0,58119:0:0:0:0:
475,192,57932,1,0,0:0:0:0:
329,192,58119,1,0,0:0:0:70:sna.wav
182,192,58119,1,0,0:0:0:0:
475,192,58307,1,0,0:0:0:0:
329,192,58494,1,0,0:0:0:0:
182,192,58494,1,0,0:0:0:0:
475,192,58682,1,0,0:0:0:0:
402,192,58682,128,0,59057:0:0:0:0:
329,192,58869,1,0,0:0:0:70:sna.wav
256,192,59057,1,0,0:0:0:70:cym.wav
475,192,59057,128,0,59994:0:0:0:0:
182,192,59057,1,0,0:0:0:0:
36,192,59244,1,0,0:0:0:0:
329,192,59244,1,0,0:0:0:0:
182,192,59432,128,0,59549:0:0:0:0:
256,192,59455,128,0,59572:0:0:0:0:
329,192,59479,128,0,60182:0:0:0:0:
36,192,59619,1,0,0:0:0:70:sna.wav
256,192,59783,128,0,59901:0:0:0:0:
402,192,59807,1,0,0:0:0:0:
182,192,59807,128,0,59924:0:0:0:0:
109,192,59830,128,0,59947:0:0:0:0:
36,192,59854,128,0,60557:0:0:0:0:
256,192,59994,1,0,0:0:0:0:
475,192,60182,1,2,0:0:0:0:
402,192,60182,1,0,0:0:0:0:
256,192,60369,1,0,0:0:0:0:
329,192,60369,1,0,0:0:0:70:sna.wav
182,192,60557,1,2,0:0:0:0:
109,192,60557,1,0,0:0:0:0:
256,192,60744,128,0,61026:0:0:0:70:cym.wav
475,192,60744,128,0,61026:0:0:0:70:acoustic kick.wav
36,192,60744,128,0,61026:0:0:0:0:
182,192,60932,128,0,61026:0:0:0:0:
329,192,60932,128,0,61026:0:0:0:0:
256,192,61119,128,0,61401:0:0:0:70:sna.wav
36,192,61119,128,0,61401:0:0:0:0:
475,192,61119,128,0,61401:0:0:0:0:
329,192,61307,128,0,61401:0:0:0:0:
182,192,61307,128,0,61401:0:0:0:70:acoustic kick.wav
36,192,61494,128,0,61963:0:0:0:0:
109,192,61494,128,0,61588:0:0:0:0:
475,192,61494,128,0,61963:0:0:0:0:
256,192,61494,128,0,61588:0:0:0:70:sna.wav
402,192,61494,128,0,61588:0:0:0:0:
109,192,61682,128,0,61963:0:0:0:0:
182,192,61682,128,0,61776:0:0:0:70:acoustic kick.wav
402,192,61682,128,0,61963:0:0:0:0:
329,192,61682,128,0,61776:0:0:0:0:
256,192,61869,128,0,61963:0:0:0:70:sna.wav
182,192,62057,128,0,62338:0:0:0:70:acoustic kick.wav
329,192,62057,128,0,62526:0:0:0:0:
36,192,62057,128,0,62901:0:0:0:0:
475,192,62057,128,0,62901:0:0:0:0:
256,192,62057,128,0,62901:0:0:0:70:cym.wav
109,192,62432,128,0,62526:0:0:0:0:
182,192,62432,128,0,62526:0:0:0:0:
329,192,62619,128,0,62713:0:0:0:40:sna.wav
402,192,62619,128,0,62713:0:0:0:0:
109,192,62807,128,0,62901:0:0:0:0:
182,192,62807,128,0,62901:0:0:0:40:sna.wav
256,192,62994,1,0,0:0:0:0:
475,192,62994,1,0,0:0:0:40:dr.wav
36,192,62994,1,0,0:0:0:0:
182,192,63088,1,0,0:0:0:0:
402,192,63088,1,0,0:0:0:40:dr.wav
109,192,63182,1,0,0:0:0:0:
329,192,63182,1,0,0:0:0:40:dr.wav
36,192,63276,1,0,0:0:0:0:
256,192,63276,1,0,0:0:0:40:dr.wav
329,192,63369,1,0,0:0:0:40:dr.wav
475,192,63369,1,0,0:0:0:0:
36,192,63463,1,0,0:0:0:0:
182,192,63463,1,0,0:0:0:40:dr.wav
329,192,63557,1,0,0:0:0:40:dr.wav
475,192,63557,1,0,0:0:0:0:
36,192,63651,1,0,0:0:0:0:
182,192,63651,1,0,0:0:0:40:dr.wav
475,192,63744,128,0,64307:0:0:0:0:
256,192,63744,128,0,63932:0:0:0:70:cym.wav
36,192,63744,1,0,0:0:0:0:
109,192,63744,128,0,64307:0:0:0:0:
402,192,63744,1,0,0:0:0:0:
329,192,63744,128,0,64119:0:0:0:0:
182,192,63932,1,0,0:0:0:0:
36,192,64119,1,0,0:0:0:0:
256,192,64119,1,0,0:0:0:40:sna.wav
329,192,64307,128,0,64494:0:0:0:0:
402,192,64307,128,0,64682:0:0:0:0:
182,192,64307,128,0,64869:0:0:0:0:
36,192,64494,1,0,0:0:0:0:
109,192,64494,1,0,0:0:0:0:
329,192,64682,1,0,0:0:0:70:acoustic kick.wav
256,192,64682,128,0,64869:0:0:0:0:
475,192,64869,1,0,0:0:0:0:
402,192,64869,1,0,0:0:0:40:sna.wav
36,192,64869,128,0,65244:0:0:0:0:
329,192,65057,128,0,65244:0:0:0:0:
182,192,65057,1,0,0:0:0:0:
402,192,65151,128,0,65338:0:0:0:0:
475,192,65244,128,0,65807:0:0:0:0:
182,192,65244,128,0,65432:0:0:0:0:
256,192,65244,128,0,65619:0:0:0:70:acoustic kick.wav
109,192,65244,1,0,0:0:0:0:
402,192,65432,1,0,0:0:0:0:
329,192,65619,1,0,0:0:0:40:sna.wav
109,192,65619,1,0,0:0:0:0:
402,192,65807,128,0,66369:0:0:0:0:
182,192,65807,128,0,65994:0:0:0:70:acoustic kick.wav
36,192,65807,128,0,66182:0:0:0:0:
109,192,65807,128,0,66369:0:0:0:0:
475,192,65994,1,0,0:0:0:0:
256,192,65994,1,0,0:0:0:0:
329,192,66182,1,0,0:0:0:70:acoustic kick.wav
182,192,66182,128,0,66369:0:0:0:0:
36,192,66369,1,0,0:0:0:0:
475,192,66369,128,0,66744:0:0:0:0:
256,192,66369,1,0,0:0:0:40:sna.wav
329,192,66557,128,0,66744:0:0:0:0:
109,192,66557,1,0,0:0:0:0:
256,192,66651,128,0,66838:0:0:0:0:
109,192,66744,128,0,66932:0:0:0:0:
402,192,66744,1,0,0:0:0:0:
182,192,66744,128,0,67119:0:0:0:70:acoustic kick.wav
36,192,66744,128,0,67494:0:0:0:0:
329,192,66932,1,0,0:0:0:0:
256,192,67119,128,0,67307:0:0:0:0:
402,192,67119,1,0,0:0:0:40:sna.wav
475,192,67119,1,0,0:0:0:0:
329,192,67307,128,0,67682:0:0:0:0:
402,192,67307,128,0,67494:0:0:0:0:
109,192,67307,1,0,0:0:0:0:
475,192,67307,128,0,67869:0:0:0:0:
256,192,67494,1,0,0:0:0:0:
182,192,67494,1,0,0:0:0:0:
182,192,67682,128,0,68057:0:0:0:0:
109,192,67682,1,0,0:0:0:70:acoustic kick.wav
402,192,67869,1,0,0:0:0:0:
256,192,67869,1,0,0:0:0:40:sna.wav
36,192,67869,128,0,68244:0:0:0:0:
329,192,68057,128,0,68244:0:0:0:0:
109,192,68057,1,0,0:0:0:0:
402,192,68151,128,0,68338:0:0:0:0:
256,192,68244,1,0,0:0:0:0:
182,192,68244,128,0,68807:0:0:0:70:acoustic kick.wav
475,192,68244,128,0,68807:0:0:0:0:
36,192,68432,1,0,0:0:0:0:
329,192,68432,128,0,68619:0:0:0:0:
402,192,68619,128,0,68994:0:0:0:0:
256,192,68619,1,0,0:0:0:40:sna.wav
329,192,68807,128,0,68994:0:0:0:0:
36,192,68807,1,0,0:0:0:70:acoustic kick.wav
109,192,68807,128,0,69182:0:0:0:0:
256,192,68994,1,0,0:0:0:0:
475,192,68994,128,0,69182:0:0:0:0:
329,192,69182,128,0,69369:0:0:0:0:
182,192,69182,1,0,0:0:0:70:acoustic kick.wav
256,192,69369,1,0,0:0:0:40:sna.wav
475,192,69369,128,0,69557:0:0:0:0:
36,192,69369,1,0,0:0:0:0:
109,192,69369,1,0,0:0:0:0:
329,192,69557,128,0,69744:0:0:0:0:
109,192,69557,1,0,0:0:0:0:
36,192,69557,1,0,0:0:0:0:
109,192,69744,1,0,0:0:0:70:cym.wav
475,192,69744,128,0,70494:0:0:0:0:
36,192,69744,128,0,70119:0:0:0:0:
402,192,69744,1,0,0:0:0:0:
256,192,69744,128,0,69932:0:0:0:0:
329,192,69932,1,0,0:0:0:0:
109,192,70119,1,0,0:0:0:0:
256,192,70119,1,0,0:0:0:40:sna.wav
402,192,70119,1,0,0:0:0:0:
182,192,70307,128,0,70682:0:0:0:0:
329,192,70307,128,0,70869:0:0:0:0:
36,192,70307,128,0,70682:0:0:0:0:
109,192,70494,1,0,0:0:0:0:
256,192,70682,1,0,0:0:0:70:acoustic kick.wav
475,192,70682,128,0,70869:0:0:0:0:
36,192,70869,1,0,0:0:0:0:
109,192,70869,128,0,71244:0:0:0:0:
402,192,70869,1,0,0:0:0:0:
182,192,70869,1,0,0:0:0:40:sna.wav
256,192,71057,1,0,0:0:0:0:
329,192,71057,128,0,71244:0:0:0:0:
402,192,71151,128,0,71338:0:0:0:0:
36,192,71244,128,0,71432:0:0:0:0:
475,192,71244,128,0,71807:0:0:0:0:
256,192,71244,128,0,71619:0:0:0:0:
182,192,71244,1,0,0:0:0:70:acoustic kick.wav
182,192,71432,128,0,71619:0:0:0:0:
402,192,71432,1,0,0:0:0:0:
36,192,71619,128,0,71807:0:0:0:0:
329,192,71619,1,0,0:0:0:40:sna.wav
256,192,71807,128,0,72182:0:0:0:70:acoustic kick.wav
402,192,71807,128,0,72369:0:0:0:0:
109,192,71807,128,0,72744:0:0:0:0:
182,192,71994,1,0,0:0:0:0:
329,192,72182,1,0,0:0:0:70:acoustic kick.wav
256,192,72276,1,0,0:0:0:0:
475,192,72369,1,0,0:0:0:0:
36,192,72369,1,0,0:0:0:40:sna.wav
182,192,72369,128,0,72744:0:0:0:0:
402,192,72557,128,0,72744:0:0:0:0:
329,192,72651,128,0,72838:0:0:0:0:
256,192,72744,128,0,73119:0:0:0:0:
36,192,72744,128,0,73307:0:0:0:70:cym.wav
475,192,72744,128,0,72932:0:0:0:0:
182,192,72932,1,0,0:0:0:0:
402,192,73119,1,0,0:0:0:0:
109,192,73119,1,0,0:0:0:40:sna.wav
256,192,73307,1,0,0:0:0:0:
182,192,73307,128,0,73494:0:0:0:0:
329,192,73307,128,0,73682:0:0:0:0:
475,192,73307,128,0,73869:0:0:0:0:
36,192,73494,1,0,0:0:0:0:
256,192,73682,128,0,74244:0:0:0:0:
182,192,73682,1,0,0:0:0:70:acoustic kick.wav
109,192,73776,1,0,0:0:0:0:
36,192,73869,1,0,0:0:0:0:
329,192,73869,1,0,0:0:0:40:sna.wav
36,192,74057,128,0,74526:0:0:0:0:
109,192,74057,128,0,74432:0:0:0:70:cym.wav
182,192,74057,128,0,74338:0:0:0:0:
402,192,74057,128,0,74994:0:0:0:0:
475,192,74057,1,0,0:0:0:0:
329,192,74244,1,0,0:0:0:0:
475,192,74432,1,0,0:0:0:0:
256,192,74432,1,0,0:0:0:0:
182,192,74526,1,0,0:0:0:0:
109,192,74619,1,0,0:0:0:0:
329,192,74619,1,0,0:0:0:40:sna.wav
36,192,74713,1,0,0:0:0:0:
256,192,74713,1,0,0:0:0:0:
475,192,74807,1,0,0:0:0:0:
182,192,74807,1,0,0:0:0:70:acoustic kick.wav
109,192,74901,1,0,0:0:0:0:
36,192,74994,1,0,0:0:0:0:
256,192,74994,1,0,0:0:0:40:dr.wav
329,192,75088,1,0,0:0:0:40:dr.wav
109,192,75088,1,0,0:0:0:0:
182,192,75182,1,0,0:0:0:0:
402,192,75182,1,0,0:0:0:40:dr.wav
256,192,75276,1,0,0:0:0:0:
475,192,75276,1,0,0:0:0:40:dr.wav
36,192,75369,1,0,0:0:0:0:
182,192,75369,1,0,0:0:0:40:dr.wav
475,192,75463,1,0,0:0:0:0:
329,192,75463,1,0,0:0:0:40:dr.wav
36,192,75557,1,0,0:0:0:0:
182,192,75557,1,0,0:0:0:40:dr.wav
329,192,75651,1,0,0:0:0:40:dr.wav
475,192,75651,1,0,0:0:0:0:
475,192,75744,1,0,0:0:0:0:
182,192,75744,128,0,76119:0:0:0:0:
109,192,75744,1,0,0:0:0:70:cym.wav
256,192,75744,128,0,75932:0:0:0:0:
36,192,75744,128,0,76307:0:0:0:0:
402,192,75744,128,0,76307:0:0:0:0:
329,192,75932,1,0,0:0:0:0:
256,192,76119,1,0,0:0:0:40:sna.wav
475,192,76119,1,0,0:0:0:0:
329,192,76307,128,0,76869:0:0:0:0:
182,192,76307,128,0,76494:0:0:0:0:
109,192,76307,128,0,76682:0:0:0:0:
402,192,76494,1,0,0:0:0:0:
475,192,76494,1,0,0:0:0:0:
256,192,76682,128,0,76869:0:0:0:0:
182,192,76682,1,0,0:0:0:70:acoustic kick.wav
36,192,76869,1,0,0:0:0:0:
109,192,76869,1,0,0:0:0:40:sna.wav
475,192,76869,128,0,77244:0:0:0:0:
329,192,77057,1,0,0:0:0:0:
182,192,77057,128,0,77244:0:0:0:0:
109,192,77151,128,0,77338:0:0:0:0:
329,192,77244,128,0,77432:0:0:0:0:
402,192,77244,1,0,0:0:0:0:
36,192,77244,128,0,77807:0:0:0:0:
256,192,77244,128,0,77619:0:0:0:70:acoustic kick.wav
109,192,77432,1,0,0:0:0:0:
402,192,77619,1,0,0:0:0:40:sna.wav
182,192,77619,1,0,0:0:0:0:
475,192,77807,128,0,78182:0:0:0:0:
329,192,77807,128,0,77994:0:0:0:0:
402,192,77807,128,0,78369:0:0:0:0:
109,192,77807,128,0,78369:0:0:0:70:acoustic kick.wav
256,192,77994,1,0,0:0:0:0:
36,192,77994,1,0,0:0:0:0:
182,192,78182,1,0,0:0:0:70:acoustic kick.wav
329,192,78182,128,0,78369:0:0:0:0:
475,192,78369,1,0,0:0:0:0:
256,192,78369,1,0,0:0:0:40:sna.wav
36,192,78369,128,0,78744:0:0:0:0:
182,192,78557,128,0,78744:0:0:0:0:
402,192,78557,1,0,0:0:0:0:
256,192,78651,128,0,78838:0:0:0:0:
109,192,78744,1,0,0:0:0:0:
329,192,78744,128,0,79119:0:0:0:70:acoustic kick.wav
402,192,78744,128,0,78932:0:0:0:0:
475,192,78744,128,0,79494:0:0:0:0:
182,192,78932,1,0,0:0:0:0:
109,192,79119,1,0,0:0:0:40:sna.wav
256,192,79119,128,0,79307:0:0:0:0:
36,192,79119,1,0,0:0:0:0:
36,192,79307,128,0,79869:0:0:0:0:
182,192,79307,128,0,79682:0:0:0:0:
402,192,79307,1,0,0:0:0:0:
109,192,79307,128,0,79494:0:0:0:0:
329,192,79494,1,0,0:0:0:0:
256,192,79494,1,0,0:0:0:0:
329,192,79682,128,0,79869:0:0:0:0:
402,192,79682,1,0,0:0:0:70:acoustic kick.wav
109,192,79869,1,0,0:0:0:0:
475,192,79869,128,0,80619:0:0:0:0:
256,192,79869,1,0,0:0:0:40:sna.wav
182,192,80057,128,0,80244:0:0:0:0:
402,192,80057,1,0,0:0:0:0:
329,192,80057,128,0,80807:0:0:0:0:
109,192,80151,128,0,80338:0:0:0:0:
256,192,80244,1,0,0:0:0:70:acoustic kick.wav
36,192,80244,128,0,80807:0:0:0:0:
402,192,80432,1,0,0:0:0:0:
182,192,80432,128,0,80619:0:0:0:0:
109,192,80619,128,0,80994:0:0:0:0:
256,192,80619,1,0,0:0:0:40:sna.wav
475,192,80807,1,0,0:0:0:70:acoustic kick.wav
182,192,80807,128,0,80994:0:0:0:0:
402,192,80807,128,0,81182:0:0:0:0:
36,192,80994,128,0,81182:0:0:0:0:
256,192,80994,1,0,0:0:0:0:
329,192,81182,1,0,0:0:0:70:acoustic kick.wav
182,192,81182,128,0,81369:0:0:0:0:
475,192,81369,1,0,0:0:0:0:
256,192,81369,1,0,0:0:0:40:sna.wav
402,192,81369,1,0,0:0:0:0:
36,192,81369,128,0,81557:0:0:0:0:
475,192,81557,1,0,0:0:0:0:
182,192,81557,128,0,81744:0:0:0:0:
402,192,81557,1,0,0:0:0:0:
402,192,81744,1,0,0:0:0:70:cym.wav
109,192,81744,1,0,0:0:0:0:
475,192,81744,128,0,82869:0:0:0:0:
36,192,81744,128,0,81932:0:0:0:0:
256,192,81744,128,0,82026:0:0:0:0:
182,192,81932,128,0,82119:0:0:0:0:
329,192,81932,128,0,82026:0:0:0:0:
256,192,82119,1,0,0:0:0:40:sna.wav
329,192,82119,1,0,0:0:0:0:
36,192,82119,128,0,82869:0:0:0:0:
109,192,82307,1,0,0:0:0:0:
329,192,82307,128,0,82588:0:0:0:0:
182,192,82307,128,0,82776:0:0:0:0:
256,192,82494,1,0,0:0:0:0:
402,192,82682,1,0,0:0:0:0:
329,192,82682,1,0,0:0:0:70:acoustic kick.wav
182,192,82869,1,0,0:0:0:40:sna.wav
109,192,82869,1,0,0:0:0:0:
402,192,82869,128,0,83244:0:0:0:0:
182,192,83057,128,0,83244:0:0:0:0:
256,192,83057,1,0,0:0:0:70:cym.wav
109,192,83151,128,0,83338:0:0:0:0:
36,192,83244,128,0,84088:0:0:0:0:
329,192,83244,1,0,0:0:0:0:
475,192,83244,128,0,83432:0:0:0:0:
256,192,83244,128,0,83526:0:0:0:0:
182,192,83432,128,0,83526:0:0:0:0:
329,192,83432,128,0,83619:0:0:0:0:
256,192,83619,1,0,0:0:0:40:sna.wav
182,192,83619,1,0,0:0:0:0:
475,192,83619,128,0,84276:0:0:0:0:
109,192,83807,128,0,84088:0:0:0:0:
329,192,83807,1,0,0:0:0:70:acoustic kick.wav
402,192,83807,128,0,84276:0:0:0:0:
256,192,83994,1,0,0:0:0:0:
109,192,84182,1,0,0:0:0:70:acoustic kick.wav
36,192,84182,1,0,0:0:0:0:
256,192,84276,1,0,0:0:0:0:
475,192,84369,1,0,0:0:0:0:
182,192,84369,128,0,84744:0:0:0:0:
402,192,84369,1,0,0:0:0:40:sna.wav
402,192,84557,128,0,84744:0:0:0:0:
109,192,84557,1,0,0:0:0:0:
329,192,84651,128,0,84838:0:0:0:0:
36,192,84744,128,0,85119:0:0:0:0:
475,192,84744,128,0,85307:0:0:0:0:
256,192,84744,128,0,85119:0:0:0:70:acoustic kick.wav
182,192,84932,1,0,0:0:0:0:
329,192,84932,1,0,0:0:0:0:
402,192,85119,1,0,0:0:0:0:
109,192,85119,1,0,0:0:0:40:sna.wav
329,192,85307,128,0,85494:0:0:0:0:
182,192,85307,128,0,85682:0:0:0:0:
256,192,85307,1,0,0:0:0:0:
36,192,85307,128,0,85869:0:0:0:0:
475,192,85494,1,0,0:0:0:0:
256,192,85682,128,0,86244:0:0:0:0:
329,192,85682,1,0,0:0:0:70:acoustic kick.wav
402,192,85869,1,0,0:0:0:0:
475,192,85869,1,0,0:0:0:0:
182,192,85869,1,0,0:0:0:40:sna.wav
109,192,86057,128,0,86994:0:0:0:0:
329,192,86057,128,0,86338:0:0:0:70:cym.wav
402,192,86057,128,0,86432:0:0:0:0:
475,192,86057,128,0,86526:0:0:0:0:
36,192,86057,1,0,0:0:0:0:
182,192,86244,1,0,0:0:0:0:
36,192,86432,1,0,0:0:0:40:sna.wav
256,192,86432,1,0,0:0:0:0:
329,192,86526,1,0,0:0:0:0:
182,192,86619,1,0,0:0:0:70:cym.wav
402,192,86619,1,0,0:0:0:0:
475,192,86713,1,0,0:0:0:0:
256,192,86713,1,0,0:0:0:0:
36,192,86807,5,0,0:0:0:0:
329,192,86807,1,0,0:0:0:70:acoustic kick.wav
402,192,86901,1,0,0:0:0:0:
475,192,86994,1,0,0:0:0:0:
256,192,86994,1,0,0:0:0:40:dr.wav
182,192,87088,1,0,0:0:0:40:dr.wav
402,192,87088,1,0,0:0:0:0:
329,192,87182,1,0,0:0:0:40:dr.wav
109,192,87182,1,0,0:0:0:0:
36,192,87276,1,0,0:0:0:0:
256,192,87276,1,0,0:0:0:40:dr.wav
475,192,87369,1,0,0:0:0:0:
329,192,87369,1,0,0:0:0:40:dr.wav
182,192,87463,1,0,0:0:0:40:dr.wav
36,192,87463,1,0,0:0:0:0:
329,192,87557,1,0,0:0:0:40:dr.wav
475,192,87557,1,0,0:0:0:0:
36,192,87651,1,0,0:0:0:0:
182,192,87651,1,0,0:0:0:40:dr.wav
402,192,87744,128,0,89244:0:0:0:0:
475,192,87744,128,0,87932:0:0:0:0:
329,192,87744,1,0,0:0:0:0:
256,192,87744,128,0,88307:0:0:0:0:
109,192,87744,1,0,0:0:0:70:cym.wav
36,192,87744,1,0,0:0:0:0:
36,192,87932,1,0,0:0:0:0:
329,192,87932,128,0,88119:0:0:0:0:
109,192,88119,1,0,0:0:0:0:
182,192,88119,1,0,0:0:0:40:sna.wav
475,192,88119,128,0,88494:0:0:0:0:
182,192,88307,128,0,88869:0:0:0:0:
36,192,88307,1,0,0:0:0:0:
329,192,88494,1,0,0:0:0:0:
256,192,88494,1,0,0:0:0:0:
109,192,88682,1,0,0:0:0:70:acoustic kick.wav
475,192,88869,128,0,89244:0:0:0:0:
256,192,88869,1,0,0:0:0:40:sna.wav
36,192,88869,1,0,0:0:0:0:
329,192,88869,128,0,89244:0:0:0:0:
182,192,89057,1,0,0:0:0:0:
36,192,89244,128,0,89432:0:0:0:0:
182,192,89244,1,0,0:0:0:70:acoustic kick.wav
109,192,89244,128,0,90744:0:0:0:0:
256,192,89244,128,0,89807:0:0:0:0:
475,192,89432,1,0,0:0:0:0:
182,192,89432,128,0,89619:0:0:0:0:
329,192,89619,1,0,0:0:0:0:
402,192,89619,1,0,0:0:0:40:sna.wav
36,192,89619,128,0,89994:0:0:0:0:
329,192,89807,128,0,90369:0:0:0:0:
475,192,89807,1,0,0:0:0:70:acoustic kick.wav
182,192,89994,1,0,0:0:0:0:
256,192,89994,1,0,0:0:0:0:
402,192,90182,1,0,0:0:0:70:acoustic kick.wav
36,192,90369,128,0,90744:0:0:0:0:
256,192,90369,1,0,0:0:0:0:
475,192,90369,1,0,0:0:0:40:sna.wav
182,192,90369,128,0,90744:0:0:0:0:
329,192,90557,1,0,0:0:0:0:
475,192,90744,128,0,91494:0:0:0:0:
402,192,90744,1,0,0:0:0:70:acoustic kick.wav
256,192,90744,128,0,92057:0:0:0:0:
329,192,90744,1,0,0:0:0:0:
36,192,90932,1,0,0:0:0:0:
109,192,91119,128,0,91869:0:0:0:0:
182,192,91119,1,0,0:0:0:0:
329,192,91119,1,0,0:0:0:40:sna.wav
36,192,91307,1,0,0:0:0:0:
402,192,91494,128,0,92244:0:0:0:0:
182,192,91494,1,0,0:0:0:0:
329,192,91682,1,0,0:0:0:70:acoustic kick.wav
475,192,91869,1,0,0:0:0:0:
36,192,91869,128,0,93369:0:0:0:0:
182,192,91869,1,0,0:0:0:40:sna.wav
329,192,92057,1,0,0:0:0:0:
109,192,92244,128,0,92432:0:0:0:0:
475,192,92244,128,0,92807:0:0:0:0:
182,192,92244,128,0,93182:0:0:0:70:acoustic kick.wav
256,192,92432,128,0,92619:0:0:0:0:
329,192,92619,128,0,92994:0:0:0:0:
402,192,92619,128,0,92807:0:0:0:40:sna.wav
256,192,92807,128,0,92994:0:0:0:70:acoustic kick.wav
475,192,92994,128,0,93182:0:0:0:0:
109,192,92994,128,0,93182:0:0:0:0:
329,192,93182,128,0,93369:0:0:0:70:acoustic kick.wav
182,192,93369,128,0,93557:0:0:0:0:
256,192,93369,128,0,93744:0:0:0:0:
402,192,93369,1,0,0:0:0:40:sna.wav
475,192,93369,1,0,0:0:0:0:
475,192,93557,128,0,93744:0:0:0:0:
36,192,93557,128,0,93744:0:0:0:0:
402,192,93651,128,0,93838:0:0:0:0:
329,192,93744,128,0,94307:0:0:0:0:
182,192,93744,1,0,0:0:0:70:acoustic kick.wav
36,192,93932,1,0,0:0:0:0:
182,192,94119,1,0,0:0:0:40:sna.wav
475,192,94119,1,0,0:0:0:0:
256,192,94119,1,0,0:0:0:0:
402,192,94307,128,0,94869:0:0:0:0:
109,192,94307,1,0,0:0:0:0:
36,192,94494,1,0,0:0:0:0:
256,192,94494,1,0,0:0:0:0:
36,192,94682,1,0,0:0:0:70:acoustic kick.wav
475,192,94869,128,0,95244:0:0:0:0:
109,192,94869,1,0,0:0:0:0:
329,192,94869,1,0,0:0:0:0:
182,192,94869,1,0,0:0:0:40:sna.wav
402,192,95057,1,0,0:0:0:0:
256,192,95057,1,0,0:0:0:0:
182,192,95150,1,0,0:0:0:0:
109,192,95244,128,0,95807:0:0:0:0:
36,192,95244,1,0,0:0:0:0:
329,192,95244,1,0,0:0:0:70:acoustic kick.wav
475,192,95432,1,0,0:0:0:0:
182,192,95619,1,0,0:0:0:0:
329,192,95619,1,0,0:0:0:40:sna.wav
182,192,95807,128,0,96369:0:0:0:0:
475,192,95807,1,0,0:0:0:70:acoustic kick.wav
36,192,95994,1,0,0:0:0:0:
329,192,95994,1,0,0:0:0:0:
402,192,96182,1,0,0:0:0:70:acoustic kick.wav
36,192,96369,128,0,96744:0:0:0:0:
475,192,96369,1,0,0:0:0:0:
256,192,96369,1,0,0:0:0:0:
329,192,96369,1,0,0:0:0:40:sna.wav
329,192,96557,1,0,0:0:0:0:
402,192,96650,1,0,0:0:0:0:
475,192,96744,128,0,97307:0:0:0:0:
109,192,96744,1,0,0:0:0:0:
256,192,96744,1,0,0:0:0:70:acoustic kick.wav
182,192,96932,1,0,0:0:0:0:
36,192,97119,1,0,0:0:0:0:
256,192,97119,1,0,0:0:0:40:sna.wav
402,192,97119,1,0,0:0:0:0:
109,192,97307,128,0,97869:0:0:0:0:
329,192,97307,128,0,97869:0:0:0:70:cym.wav
182,192,97307,1,0,0:0:0:0:
402,192,97494,1,0,0:0:0:0:
36,192,97682,1,0,0:0:0:70:acoustic kick.wav
475,192,97869,128,0,99744:0:0:0:0:
256,192,97869,1,0,0:0:0:70:sna.wav
109,192,98057,1,0,0:0:0:0:
182,192,98057,1,0,0:0:0:70:cym.wav
36,192,98057,128,0,99744:0:0:0:0:
182,192,98432,128,0,98994:0:0:0:0:
109,192,98432,1,0,0:0:0:70:acoustic kick.wav
256,192,98525,1,0,0:0:0:0:
329,192,98619,128,0,98994:0:0:0:0:
402,192,98619,1,0,0:0:0:40:sna.wav
256,192,98807,128,0,98994:0:0:0:0:
109,192,98994,1,0,0:0:0:0:
402,192,98994,1,0,0:0:0:40:sna.wav
182,192,99182,1,0,0:0:0:0:
329,192,99182,1,0,0:0:0:40:dr.wav
256,192,99369,128,0,99744:0:0:0:40:dr.wav
109,192,99744,1,0,0:0:0:0:
402,192,99744,1,0,0:0:0:70:cym.wav
182,192,99932,1,0,0:0:0:0:
475,192,99932,1,0,0:0:0:0:
256,192,100119,1,0,0:0:0:0:
36,192,100119,1,0,0:0:0:0:
329,192,100307,1,0,0:0:0:0:
109,192,100307,1,0,0:0:0:0:
402,192,100494,1,0,0:0:0:0:
182,192,100494,1,0,0:0:0:0:
475,192,100682,1,0,0:0:0:0:
256,192,100682,1,0,0:0:0:0:
36,192,100869,1,0,0:0:0:0:
329,192,100869,1,0,0:0:0:0:
256,192,101057,1,0,0:0:0:0:
475,192,101244,1,0,0:0:0:0:
182,192,101244,128,0,101807:0:0:0:0:
109,192,101432,1,0,0:0:0:0:
402,192,101432,1,0,0:0:0:0:
329,192,101619,1,0,0:0:0:0:
256,192,101807,1,0,0:0:0:0:
475,192,101807,1,0,0:0:0:0:
36,192,101994,1,0,0:0:0:0:
402,192,102182,1,0,0:0:0:0:
329,192,102275,1,0,0:0:0:0:
256,192,102369,1,0,0:0:0:0:
109,192,102369,1,0,0:0:0:0:
402,192,102557,1,0,0:0:0:0:
36,192,102744,1,0,0:0:0:0:
475,192,102744,1,0,0:0:0:0:
109,192,102932,1,0,0:0:0:0:
182,192,103119,1,0,0:0:0:0:
475,192,103119,1,0,0:0:0:0:
402,192,103307,1,0,0:0:0:0:
256,192,103307,1,0,0:0:0:0:
109,192,103494,128,0,103588:0:0:0:0:
329,192,103494,1,0,0:0:0:0:
182,192,103682,128,0,103775:0:0:0:0:
402,192,103682,1,0,0:0:0:0:
329,192,103869,128,0,103963:0:0:0:0:
475,192,103869,1,0,0:0:0:0:
256,192,104057,128,0,104150:0:0:0:0:
109,192,104057,1,0,0:0:0:0:
402,192,104244,128,0,104338:0:0:0:0:
182,192,104244,128,0,105369:0:0:0:0:
36,192,104244,1,0,0:0:0:0:
475,192,104432,128,0,104525:0:0:0:0:
329,192,104619,128,0,104713:0:0:0:0:
36,192,104807,128,0,105369:0:0:0:0:
402,192,104807,128,0,104900:0:0:0:0:
256,192,104994,128,0,105088:0:0:0:0:
329,192,105182,128,0,105275:0:0:0:0:
256,192,105369,1,0,0:0:0:40:sna.wav
475,192,105369,1,0,0:0:0:0:
402,192,105369,128,0,105463:0:0:0:0:
329,192,105557,128,0,105650:0:0:0:0:
36,192,105744,128,0,108369:0:0:0:0:
475,192,105744,128,0,105838:0:0:0:70:acoustic kick.wav
109,192,105744,128,0,105838:0:0:0:70:cym.wav
182,192,105932,128,0,106963:0:0:0:0:
256,192,105932,128,0,106025:0:0:0:0:
329,192,106119,128,0,106963:0:0:0:0:
402,192,106119,128,0,106213:0:0:0:0:
475,192,106307,128,0,108369:0:0:0:0:
109,192,106307,128,0,106400:0:0:0:0:
402,192,106494,128,0,106588:0:0:0:0:
256,192,106682,128,0,106775:0:0:0:0:
109,192,106869,128,0,106963:0:0:0:0:
256,192,107057,1,0,0:0:0:0:
402,192,107244,1,2,0:0:0:0:
182,192,107244,1,0,0:0:0:0:
329,192,107432,1,2,0:0:0:0:
109,192,107432,1,0,0:0:0:0:
256,192,107619,1,0,0:0:0:0:
402,192,107807,1,0,0:0:0:0:
256,192,107807,128,0,108369:0:0:0:0:
109,192,107994,1,2,0:0:0:0:
402,192,108182,1,2,0:0:0:0:
182,192,108369,1,0,0:0:0:0:
109,192,108369,1,0,0:0:0:0:
402,192,108557,1,0,0:0:0:0:
36,192,108744,128,0,110057:0:0:0:70:cym.wav
256,192,108744,1,0,0:0:0:70:acoustic kick.wav
109,192,108744,128,0,108932:0:0:0:0:
475,192,108744,128,0,109869:0:0:0:0:
402,192,108932,128,0,109119:0:0:0:0:
256,192,109119,1,0,0:0:0:70:acoustic kick.wav
182,192,109119,128,0,109307:0:0:0:0:
329,192,109307,128,0,109494:0:0:0:0:
256,192,109494,1,0,0:0:0:70:acoustic kick.wav
109,192,109494,128,0,109682:0:0:0:0:
402,192,109682,128,0,109869:0:0:0:0:
256,192,109869,1,0,0:0:0:70:acoustic kick.wav
182,192,109869,128,0,110057:0:0:0:0:
402,192,110057,1,0,0:0:0:0:
475,192,110057,128,0,110807:0:0:0:0:
329,192,110057,1,0,0:0:0:70:cym.wav
36,192,110244,128,0,111744:0:0:0:70:acoustic kick.wav
182,192,110244,1,0,0:0:0:0:
109,192,110432,128,0,110807:0:0:0:0:
256,192,110432,1,0,0:0:0:0:
182,192,110619,128,0,110994:0:0:0:70:acoustic kick.wav
329,192,110619,1,0,0:0:0:0:
256,192,110807,128,0,111182:0:0:0:0:
402,192,110807,1,0,0:0:0:0:
329,192,110994,128,0,111369:0:0:0:70:acoustic kick.wav
475,192,110994,128,0,111557:0:0:0:0:
109,192,110994,1,0,0:0:0:40:sna.wav
402,192,111182,128,0,111557:0:0:0:0:
182,192,111182,1,0,0:0:0:40:dr.wav
256,192,111369,1,0,0:0:0:40:dr.wav
109,192,111369,128,0,111744:0:0:0:0:
329,192,111557,1,0,0:0:0:40:dr.wav
256,192,111650,1,0,0:0:0:0:
475,192,111744,1,0,0:0:0:0:
402,192,111744,1,0,0:0:0:40:dr.wav
182,192,111744,128,0,114182:0:0:0:0:
329,192,111932,1,0,0:0:0:0:
475,192,112119,1,0,0:0:0:0:
36,192,112307,128,0,112869:0:0:0:0:
256,192,112307,1,0,0:0:0:40:sna.wav
475,192,112494,1,0,0:0:0:0:
329,192,112682,1,0,0:0:0:0:
475,192,112869,1,0,0:0:0:0:
256,192,113057,1,0,0:0:0:70:cym.wav
329,192,113057,128,0,113432:0:0:0:0:
475,192,113244,1,0,0:0:0:0:
36,192,113244,128,0,114182:0:0:0:0:
402,192,113432,128,0,113807:0:0:0:0:
256,192,113432,1,0,0:0:0:0:
475,192,113619,1,0,0:0:0:0:
109,192,113807,128,0,114182:0:0:0:0:
256,192,113807,1,0,0:0:0:0:
475,192,113994,1,0,0:0:0:0:
256,192,114182,1,0,0:0:0:40:dr.wav
402,192,114182,128,0,114557:0:0:0:0:
36,192,114369,1,0,0:0:0:0:
182,192,114369,1,0,0:0:0:40:sna.wav
329,192,114557,1,0,0:0:0:0:
256,192,114650,1,0,0:0:0:0:
182,192,114697,1,0,0:0:0:0:
402,192,114744,1,0,0:0:0:70:cym.wav
109,192,114744,128,0,115494:0:0:0:0:
475,192,114744,1,0,0:0:0:0:
329,192,114932,128,0,115307:0:0:0:0:
36,192,115307,128,0,115869:0:0:0:0:
256,192,115307,1,0,0:0:0:40:sna.wav
475,192,115494,1,0,0:0:0:0:
182,192,115682,128,0,116244:0:0:0:0:
329,192,115682,1,0,0:0:0:0:
475,192,115869,1,0,0:0:0:0:
329,192,116057,1,0,0:0:0:0:
402,192,116057,1,0,0:0:0:70:cym.wav
256,192,116244,128,0,116994:0:0:0:0:
475,192,116244,1,0,0:0:0:0:
36,192,116432,1,0,0:0:0:40:dr.wav
109,192,116525,1,0,0:0:0:0:
182,192,116619,1,0,0:0:0:40:dr.wav
475,192,116619,1,0,0:0:0:0:
36,192,116807,1,0,0:0:0:0:
329,192,116807,128,0,117369:0:0:0:0:
475,192,116994,1,0,0:0:0:0:
256,192,117182,1,0,0:0:0:0:
109,192,117182,1,0,0:0:0:70:acoustic kick.wav
256,192,117369,1,0,0:0:0:0:
182,192,117369,128,0,117744:0:0:0:0:
475,192,117369,1,0,0:0:0:40:sna.wav
36,192,117369,1,0,0:0:0:40:dr.wav
36,192,117557,1,0,0:0:0:40:dr.wav
256,192,117650,1,0,0:0:0:0:
329,192,117697,1,0,0:0:0:0:
475,192,117744,1,0,0:0:0:70:cym.wav
402,192,117744,128,0,118494:0:0:0:0:
36,192,117744,1,0,0:0:0:0:
109,192,117932,1,0,0:0:0:0:
475,192,118119,1,0,0:0:0:0:
36,192,118119,1,0,0:0:0:0:
256,192,118119,1,0,0:0:0:0:
109,192,118307,128,0,118869:0:0:0:0:
329,192,118307,1,0,0:0:0:40:sna.wav
475,192,118494,1,0,0:0:0:0:
182,192,118494,1,0,0:0:0:0:
256,192,118682,1,0,0:0:0:0:
329,192,118869,1,0,0:0:0:0:
182,192,118869,128,0,119057:0:0:0:0:
475,192,118869,1,0,0:0:0:0:
256,192,119057,128,0,119713:0:0:0:0:
36,192,119057,1,0,0:0:0:0:
329,192,119150,1,0,0:0:0:0:
402,192,119197,1,0,0:0:0:0:
475,192,119244,128,0,120182:0:0:0:0:
109,192,119244,1,0,0:0:0:0:
182,192,119432,1,0,0:0:0:0:
329,192,119432,1,0,0:0:0:40:sna.wav
109,192,119619,1,0,0:0:0:0:
182,192,119807,128,0,120369:0:0:0:0:
36,192,119807,1,0,0:0:0:0:
256,192,119807,1,0,0:0:0:0:
329,192,119900,1,0,0:0:0:0:
402,192,119994,1,0,0:0:0:0:
256,192,120182,1,0,0:0:0:0:
36,192,120182,1,0,0:0:0:0:
475,192,120369,1,0,0:0:0:40:sna.wav
329,192,120369,128,0,120744:0:0:0:0:
109,192,120557,1,0,0:0:0:0:
256,192,120650,1,0,0:0:0:0:
182,192,120697,1,0,0:0:0:0:
109,192,120744,128,0,121682:0:0:0:0:
36,192,120744,1,0,0:0:0:0:
402,192,120744,1,0,0:0:0:70:cym.wav
475,192,120744,1,0,0:0:0:0:
256,192,120932,1,0,0:0:0:0:
182,192,121025,1,0,0:0:0:0:
329,192,121119,128,0,121307:0:0:0:0:
402,192,121119,1,0,0:0:0:0:
475,192,121307,128,0,121869:0:0:0:0:
36,192,121307,1,0,0:0:0:0:
256,192,121307,1,0,0:0:0:40:dr.wav
402,192,121494,1,0,0:0:0:0:
256,192,121682,128,0,121963:0:0:0:0:
182,192,121682,1,0,0:0:0:0:
36,192,121869,128,0,122057:0:0:0:0:
402,192,121869,1,0,0:0:0:0:
109,192,121869,1,0,0:0:0:0:
475,192,122057,128,0,123557:0:0:0:70:cym.wav
329,192,122104,128,0,122244:0:0:0:0:
256,192,122150,128,0,122291:0:0:0:0:
182,192,122197,128,0,123557:0:0:0:0:
36,192,122244,128,0,123557:0:0:0:0:
109,192,122432,1,0,0:0:0:40:sna.wav
402,192,122619,1,0,0:0:0:70:cym.wav
256,192,122619,1,0,0:0:0:40:sna.wav
109,192,122807,1,0,0:0:0:0:
329,192,122994,128,0,123557:0:0:0:0:
402,192,122994,1,0,0:0:0:0:
256,192,122994,1,0,0:0:0:40:sna.wav
109,192,123182,1,0,0:0:0:0:
256,192,123182,1,0,0:0:0:40:dr.wav
402,192,123369,1,0,0:0:0:0:
256,192,123369,1,0,0:0:0:40:dr.wav
109,192,123557,1,0,0:0:0:0:
256,192,123557,1,0,0:0:0:40:dr.wav
109,192,123744,1,0,0:0:0:0:
402,192,123744,1,0,0:0:0:70:cym.wav
475,192,123744,128,0,124119:0:0:0:0:
36,192,123744,128,0,124119:0:0:0:0:
182,192,123744,128,0,124025:0:0:0:0:
329,192,123744,128,2,123838:0:0:0:0:
329,192,123932,128,0,124119:0:0:0:0:
256,192,123932,128,2,124025:0:0:0:0:
256,192,124119,1,2,0:0:0:0:
182,192,124119,1,0,0:0:0:0:
402,192,124307,128,0,124869:0:0:0:0:
36,192,124307,128,0,124588:0:0:0:0:
475,192,124307,128,0,124588:0:0:0:0:
109,192,124307,128,0,124869:0:0:0:0:
182,192,124307,128,0,124400:0:0:0:0:
329,192,124307,128,2,124400:0:0:0:0:
329,192,124494,128,2,124775:0:0:0:0:
182,192,124494,128,0,124775:0:0:0:0:
475,192,124682,128,2,124869:0:0:0:0:
36,192,124682,128,0,124869:0:0:0:0:
256,192,124869,1,0,0:0:0:40:dr.wav
329,192,124869,1,0,0:0:0:0:
182,192,124869,1,0,0:0:0:0:
109,192,125057,128,0,125525:0:0:0:0:
402,192,125057,128,0,125338:0:0:0:0:
329,192,125057,128,0,125338:0:0:0:70:cym.wav
36,192,125057,128,0,125807:0:0:0:0:
475,192,125057,128,0,125713:0:0:0:0:
182,192,125057,128,0,125525:0:0:0:0:
329,192,125432,128,0,125994:0:0:0:0:
402,192,125432,128,0,125713:0:0:0:0:
182,192,125619,128,0,126182:0:0:0:0:
109,192,125619,128,0,125994:0:0:0:0:
475,192,125807,128,0,126369:0:0:0:0:
402,192,125807,128,0,126182:0:0:0:0:
256,192,125994,1,0,0:0:0:0:
36,192,125994,1,0,0:0:0:0:
109,192,126182,1,0,0:0:0:0:
329,192,126182,1,0,0:0:0:40:sna.wav
402,192,126369,1,0,0:0:0:40:sna.wav
182,192,126369,1,0,0:0:0:0:
475,192,126557,1,0,0:0:0:0:
256,192,126557,1,0,0:0:0:0:
329,192,126744,128,0,127588:0:0:0:70:cym.wav
36,192,126744,128,0,127963:0:0:0:0:
109,192,126791,128,0,127213:0:0:0:0:
402,192,126791,128,0,127166:0:0:0:0:
182,192,126838,128,0,127775:0:0:0:0:
475,192,126838,128,0,127963:0:0:0:0:
402,192,127307,1,0,0:0:0:40:dr.wav
109,192,127307,1,0,0:0:0:0:
329,192,127682,1,0,0:0:0:0:
182,192,127869,1,0,0:0:0:0:
109,192,128057,128,0,128432:0:0:0:0:
402,192,128057,128,0,128432:0:0:0:0:
256,192,128057,128,0,128807:0:0:0:70:cym.wav
36,192,128057,1,0,0:0:0:0:
475,192,128057,1,0,0:0:0:0:
36,192,128432,1,0,0:0:0:0:
475,192,128432,1,0,0:0:0:70:acoustic kick.wav
182,192,128619,1,0,0:0:0:0:
109,192,128619,1,0,0:0:0:0:
402,192,128619,1,0,0:0:0:40:dr.wav
329,192,128619,1,0,0:0:0:0:
475,192,128807,1,0,0:0:0:70:acoustic kick.wav
36,192,128807,1,0,0:0:0:0:
329,192,128994,1,0,0:0:0:0:
182,192,128994,1,0,0:0:0:0:
36,192,129182,1,0,0:0:0:0:
475,192,129182,1,0,0:0:0:0:
256,192,129182,1,2,0:0:0:0:
256,192,129369,1,2,0:0:0:0:
182,192,129557,1,0,0:0:0:0:
329,192,129557,1,2,0:0:0:0:
475,192,129744,128,0,130588:0:0:0:0:
256,192,129744,1,0,0:0:0:70:cym.wav
109,192,129744,128,0,130213:0:0:0:0:
36,192,129744,128,0,130775:0:0:0:0:
402,192,129744,128,0,130025:0:0:0:0:
329,192,130119,128,0,130588:0:0:0:0:
402,192,130119,1,0,0:0:0:40:dr.wav
182,192,130307,128,0,130775:0:0:0:0:
109,192,130307,1,0,0:0:0:40:dr.wav
256,192,130494,1,0,0:0:0:0:
329,192,130682,1,0,0:0:0:40:dr.wav
475,192,130682,1,0,0:0:0:0:
182,192,130869,1,0,0:0:0:70:cym.wav
36,192,130869,1,0,0:0:0:0:
36,192,131057,128,0,131900:0:0:0:0:
329,192,131057,128,0,131338:0:0:0:0:
109,192,131057,128,0,131525:0:0:0:0:
475,192,131057,128,0,131619:0:0:0:0:
182,192,131057,128,0,131525:0:0:0:70:cym.wav
402,192,131057,128,0,131338:0:0:0:0:
402,192,131432,128,0,131713:0:0:0:0:
329,192,131432,128,0,131807:0:0:0:0:
109,192,131619,128,0,131807:0:0:0:0:
182,192,131619,128,0,131713:0:0:0:70:cym.wav
256,192,131807,1,0,0:0:0:0:
475,192,131807,1,0,0:0:0:0:
402,192,131900,1,0,0:0:0:0:
182,192,131900,1,0,0:0:0:0:
109,192,131994,1,0,0:0:0:0:
329,192,131994,1,8,3:0:0:0:
256,192,132088,1,0,0:0:0:0:
36,192,132088,1,0,0:0:0:0:
329,192,132182,1,0,0:0:0:0:dr.wav
475,192,132182,1,0,0:0:0:0:
256,192,132275,1,0,0:0:0:0:dr.wav
109,192,132275,1,0,0:0:0:0:
475,192,132369,1,0,0:0:0:0:
329,192,132369,1,0,0:0:0:40:dr.wav
36,192,132463,1,0,0:0:0:0:
182,192,132463,1,0,0:0:0:40:dr.wav
256,192,132557,1,0,0:0:0:40:dr.wav
402,192,132557,1,0,0:0:0:0:
182,192,132650,1,0,0:0:0:40:dr.wav
36,192,132650,1,0,0:0:0:0:
402,192,132744,128,0,134057:0:0:0:0:
475,192,132744,128,0,134057:0:0:0:0:
256,192,132744,128,0,133119:0:0:0:0:
329,192,132744,1,0,0:0:0:70:cym.wav
36,192,132932,1,0,0:0:0:0:
182,192,133119,1,0,0:0:0:70:sna.wav
329,192,133119,1,0,0:0:0:0:
36,192,133307,1,0,0:0:0:0:
182,192,133494,1,0,0:0:0:0:
329,192,133494,1,0,0:0:0:0:
109,192,133682,128,0,134057:0:0:0:0:
36,192,133682,1,0,0:0:0:0:
182,192,133869,1,0,0:0:0:70:sna.wav
329,192,134057,1,0,0:0:0:0:
36,192,134057,128,0,134994:0:0:0:0:
256,192,134057,1,0,0:0:0:70:cym.wav
475,192,134244,1,0,0:0:0:0:
182,192,134244,128,0,134432:0:0:0:0:
329,192,134432,128,0,134619:0:0:0:0:
182,192,134619,128,0,135182:0:0:0:0:
256,192,134619,1,0,0:0:0:0:
475,192,134619,1,0,0:0:0:70:sna.wav
256,192,134783,128,0,134900:0:0:0:0:
109,192,134807,1,0,0:0:0:0:
329,192,134807,128,0,134924:0:0:0:0:
402,192,134830,128,0,134947:0:0:0:0:
475,192,134854,128,0,135557:0:0:0:0:
256,192,134994,1,0,0:0:0:0:
36,192,135182,1,0,0:0:0:0:
109,192,135182,1,2,0:0:0:0:
256,192,135369,1,0,0:0:0:70:sna.wav
182,192,135369,1,0,0:0:0:0:
329,192,135557,1,2,0:0:0:0:
402,192,135557,1,0,0:0:0:0:
256,192,135744,128,0,136025:0:0:0:70:cym.wav
475,192,135744,128,0,136025:0:0:0:70:acoustic kick.wav
36,192,135744,128,0,136025:0:0:0:0:
182,192,135744,128,0,135838:0:0:0:0:
329,192,135744,128,0,135838:0:0:0:0:
109,192,135932,128,0,136025:0:0:0:0:
402,192,135932,128,0,136025:0:0:0:0:
36,192,136119,128,0,136400:0:0:0:0:
256,192,136119,128,0,136400:0:0:0:70:sna.wav
475,192,136119,128,0,136400:0:0:0:0:
182,192,136119,128,0,136213:0:0:0:0:
329,192,136119,128,0,136213:0:0:0:0:
402,192,136307,128,0,136400:0:0:0:70:acoustic kick.wav
109,192,136307,128,0,136400:0:0:0:0:
36,192,136494,128,0,136963:0:0:0:0:
475,192,136494,128,0,136963:0:0:0:0:
329,192,136494,128,0,136588:0:0:0:0:
256,192,136494,128,0,136588:0:0:0:70:sna.wav
182,192,136494,128,0,136588:0:0:0:0:
182,192,136682,128,0,136963:0:0:0:0:
329,192,136682,128,0,136963:0:0:0:0:
402,192,136682,128,0,136775:0:0:0:70:acoustic kick.wav
109,192,136682,128,0,136775:0:0:0:0:
256,192,136869,128,0,136963:0:0:0:70:sna.wav
475,192,137057,128,0,137900:0:0:0:70:cym.wav
109,192,137057,128,0,137525:0:0:0:0:
402,192,137057,128,0,137338:0:0:0:0:
256,192,137057,128,0,137900:0:0:0:70:acoustic kick.wav
36,192,137057,128,0,137900:0:0:0:0:
329,192,137432,128,0,137525:0:0:0:0:
402,192,137432,128,0,137525:0:0:0:0:
109,192,137619,128,0,137713:0:0:0:0:
182,192,137619,128,0,137713:0:0:0:70:cym.wav
402,192,137807,128,0,137900:0:0:0:0:
329,192,137807,128,0,137900:0:0:0:0:
36,192,137994,1,0,0:0:0:0:
256,192,137994,1,0,0:0:0:40:dr.wav
475,192,137994,1,0,0:0:0:0:
109,192,138088,1,0,0:0:0:0:
329,192,138088,1,0,0:0:0:40:dr.wav
182,192,138182,1,0,0:0:0:0:
402,192,138182,1,0,0:0:0:40:dr.wav
256,192,138275,1,0,0:0:0:0:
475,192,138275,1,0,0:0:0:40:dr.wav
36,192,138369,1,0,0:0:0:0:
182,192,138369,1,0,0:0:0:40:dr.wav
475,192,138463,1,0,0:0:0:0:
329,192,138463,1,0,0:0:0:40:dr.wav
36,192,138557,1,0,0:0:0:0:
182,192,138557,1,0,0:0:0:40:dr.wav
329,192,138650,1,0,0:0:0:40:dr.wav
475,192,138650,1,0,0:0:0:0:
36,192,138744,128,0,139307:0:0:0:0:
402,192,138744,128,0,139307:0:0:0:0:
256,192,138744,128,0,138932:0:0:0:70:cym.wav
182,192,138744,128,0,139119:0:0:0:0:
109,192,138744,1,0,0:0:0:0:
475,192,138744,1,0,0:0:0:0:
329,192,138932,1,0,0:0:0:0:
256,192,139119,1,0,0:0:0:40:sna.wav
475,192,139119,1,0,0:0:0:0:
329,192,139307,128,0,139869:0:0:0:0:
109,192,139307,128,0,139682:0:0:0:0:
182,192,139307,128,0,139494:0:0:0:0:
475,192,139494,1,0,0:0:0:0:
402,192,139494,1,0,0:0:0:0:
182,192,139682,1,0,0:0:0:70:acoustic kick.wav
256,192,139682,128,0,139869:0:0:0:0:
109,192,139869,1,0,0:0:0:40:sna.wav
475,192,139869,128,0,140244:0:0:0:0:
36,192,139869,1,0,0:0:0:0:
329,192,140057,1,0,0:0:0:0:
182,192,140057,128,0,140244:0:0:0:0:
109,192,140150,128,0,140338:0:0:0:0:
256,192,140244,128,0,140619:0:0:0:0:
36,192,140244,128,0,140807:0:0:0:0:
402,192,140244,1,0,0:0:0:70:acoustic kick.wav
329,192,140244,128,0,140432:0:0:0:0:
109,192,140432,1,0,0:0:0:0:
182,192,140619,1,0,0:0:0:40:sna.wav
402,192,140619,1,0,0:0:0:0:
475,192,140807,128,0,141182:0:0:0:0:
109,192,140807,128,0,141369:0:0:0:70:acoustic kick.wav
329,192,140807,128,0,140994:0:0:0:0:
402,192,140807,128,0,141369:0:0:0:0:
36,192,140994,1,0,0:0:0:0:
256,192,140994,1,0,0:0:0:0:
329,192,141182,128,0,141369:0:0:0:0:
182,192,141182,1,0,0:0:0:70:acoustic kick.wav
256,192,141369,1,0,0:0:0:40:sna.wav
475,192,141369,1,0,0:0:0:0:
36,192,141369,128,0,141744:0:0:0:0:
182,192,141557,128,0,141744:0:0:0:0:
402,192,141557,1,0,0:0:0:0:
256,192,141650,128,0,141838:0:0:0:0:
475,192,141744,128,0,142494:0:0:0:0:
329,192,141744,128,0,142119:0:0:0:0:
402,192,141744,128,0,141932:0:0:0:70:acoustic kick.wav
109,192,141744,1,0,0:0:0:0:
182,192,141932,1,0,0:0:0:0:
36,192,142119,1,0,0:0:0:0:
256,192,142119,128,0,142307:0:0:0:0:
109,192,142119,1,0,0:0:0:40:sna.wav
36,192,142307,128,0,142869:0:0:0:0:
402,192,142307,1,0,0:0:0:0:
109,192,142307,128,0,142494:0:0:0:0:
182,192,142307,128,0,142682:0:0:0:0:
329,192,142494,1,0,0:0:0:0:
256,192,142494,1,0,0:0:0:0:
402,192,142682,1,0,0:0:0:70:acoustic kick.wav
329,192,142682,128,0,143057:0:0:0:0:
475,192,142869,128,0,143244:0:0:0:0:
256,192,142869,1,0,0:0:0:40:sna.wav
109,192,142869,1,0,0:0:0:0:
402,192,143057,1,0,0:0:0:0:
182,192,143057,128,0,143244:0:0:0:0:
109,192,143150,128,0,143338:0:0:0:0:
256,192,143244,1,0,0:0:0:0:
329,192,143244,128,0,143807:0:0:0:70:acoustic kick.wav
36,192,143244,128,0,143807:0:0:0:0:
475,192,143432,1,0,0:0:0:0:
182,192,143432,128,0,143619:0:0:0:0:
256,192,143619,1,0,0:0:0:40:sna.wav
109,192,143619,128,0,143994:0:0:0:0:
475,192,143807,1,0,0:0:0:70:acoustic kick.wav
402,192,143807,128,0,144182:0:0:0:0:
182,192,143807,128,0,143994:0:0:0:0:
256,192,143994,1,0,0:0:0:0:
36,192,143994,128,0,144182:0:0:0:0:
182,192,144182,128,0,144369:0:0:0:0:
329,192,144182,1,0,0:0:0:70:acoustic kick.wav
475,192,144369,1,0,0:0:0:0:
256,192,144369,1,0,0:0:0:40:sna.wav
402,192,144369,1,0,0:0:0:0:
36,192,144369,128,0,144557:0:0:0:0:
475,192,144557,1,0,0:0:0:0:
182,192,144557,128,0,144744:0:0:0:0:
402,192,144557,1,0,0:0:0:0:
109,192,144744,1,0,0:0:0:0:
256,192,144744,128,0,144932:0:0:0:0:
36,192,144744,128,0,145494:0:0:0:0:
475,192,144744,128,0,145119:0:0:0:0:
402,192,144744,1,0,0:0:0:70:cym.wav
182,192,144932,1,0,0:0:0:0:
402,192,145119,1,0,0:0:0:0:
256,192,145119,1,0,0:0:0:40:sna.wav
109,192,145119,1,0,0:0:0:0:
182,192,145307,128,0,145869:0:0:0:0:
329,192,145307,128,0,145682:0:0:0:0:
475,192,145307,128,0,145682:0:0:0:0:
402,192,145494,1,0,0:0:0:0:
36,192,145682,128,0,145869:0:0:0:0:
256,192,145682,1,0,0:0:0:70:acoustic kick.wav
109,192,145869,1,0,0:0:0:0:
402,192,145869,128,0,145963:0:0:0:0:
475,192,145869,1,0,0:0:0:0:
329,192,145869,1,0,0:0:0:40:sna.wav
182,192,146057,128,0,146244:0:0:0:0:
256,192,146057,1,0,0:0:0:0:
402,192,146057,128,0,146150:0:0:0:0:
109,192,146150,128,0,146338:0:0:0:0:
36,192,146244,128,0,146807:0:0:0:0:
402,192,146244,1,0,0:0:0:70:acoustic kick.wav
256,192,146244,128,0,146525:0:0:0:0:
475,192,146244,128,0,146432:0:0:0:0:
329,192,146432,128,0,146619:0:0:0:0:
109,192,146432,1,0,0:0:0:0:
182,192,146619,1,0,0:0:0:40:sna.wav
475,192,146619,128,0,146807:0:0:0:0:
256,192,146619,1,0,0:0:0:0:
109,192,146807,128,0,147369:0:0:0:0:
256,192,146807,128,0,147182:0:0:0:70:acoustic kick.wav
402,192,146807,128,0,147744:0:0:0:0:
329,192,146994,1,0,0:0:0:0:
182,192,147182,1,0,0:0:0:70:acoustic kick.wav
256,192,147275,1,0,0:0:0:0:
475,192,147369,1,0,0:0:0:40:sna.wav
329,192,147369,128,0,147463:0:0:0:0:
36,192,147369,1,0,0:0:0:0:
109,192,147557,128,0,147744:0:0:0:0:
329,192,147557,128,0,147650:0:0:0:0:
182,192,147650,128,0,147838:0:0:0:0:
36,192,147744,128,0,148213:0:0:0:0:
256,192,147744,128,0,148213:0:0:0:0:
475,192,147744,128,0,148400:0:0:0:70:cym.wav
329,192,147744,1,0,0:0:0:70:acoustic kick.wav
402,192,147932,128,0,148213:0:0:0:0:
182,192,147932,1,0,0:0:0:0:
109,192,148119,128,0,148213:0:0:0:40:sna.wav
182,192,148119,128,0,148213:0:0:0:0:
329,192,148307,128,0,148588:0:0:0:0:
36,192,148307,128,0,148963:0:0:0:0:
182,192,148307,128,0,148775:0:0:0:0:
256,192,148307,1,0,0:0:0:0:
475,192,148494,128,0,148588:0:0:0:0:
256,192,148682,128,0,149244:0:0:0:70:acoustic kick.wav
329,192,148682,128,0,148775:0:0:0:0:
402,192,148775,1,0,0:0:0:0:
182,192,148869,128,0,148963:0:0:0:40:sna.wav
475,192,148869,1,0,0:0:0:0:
475,192,149057,128,0,149525:0:0:0:0:
402,192,149057,128,0,149432:0:0:0:70:cym.wav
109,192,149057,128,0,149994:0:0:0:0:
329,192,149057,128,0,149338:0:0:0:0:
36,192,149057,128,0,149150:0:0:0:0:
182,192,149244,1,0,0:0:0:0:
36,192,149432,1,0,0:0:0:0:
256,192,149432,1,0,0:0:0:0:
329,192,149525,1,0,0:0:0:0:
182,192,149619,1,0,0:0:0:40:sna.wav
402,192,149619,1,0,0:0:0:0:
256,192,149713,1,0,0:0:0:0:
475,192,149713,1,0,0:0:0:0:
36,192,149807,1,0,0:0:0:0:
329,192,149807,1,0,0:0:0:70:acoustic kick.wav
402,192,149900,1,0,0:0:0:0:
256,192,149994,1,0,0:0:0:0:
475,192,149994,1,0,0:0:0:40:dr.wav
402,192,150088,1,0,0:0:0:40:dr.wav
182,192,150088,1,0,0:0:0:0:
109,192,150182,1,0,0:0:0:0:
329,192,150182,1,0,0:0:0:40:dr.wav
36,192,150275,1,0,0:0:0:0:
256,192,150275,1,0,0:0:0:40:dr.wav
475,192,150369,1,0,0:0:0:0:
329,192,150369,1,0,0:0:0:40:dr.wav
36,192,150463,1,0,0:0:0:0:
182,192,150463,1,0,0:0:0:40:dr.wav
329,192,150557,1,0,0:0:0:40:dr.wav
475,192,150557,1,0,0:0:0:0:
182,192,150650,1,0,0:0:0:40:dr.wav
36,192,150650,1,0,0:0:0:0:
402,192,150744,1,0,0:0:0:70:cym.wav
329,192,150744,128,0,151119:0:0:0:0:
256,192,150744,128,0,150932:0:0:0:0:
475,192,150744,128,0,151307:0:0:0:0:
109,192,150744,128,0,151307:0:0:0:0:
36,192,150744,1,0,0:0:0:0:
182,192,150932,1,0,0:0:0:0:
36,192,151119,1,0,0:0:0:0:
256,192,151119,1,0,0:0:0:40:sna.wav
182,192,151307,128,0,151869:0:0:0:0:
402,192,151307,128,0,151682:0:0:0:0:
329,192,151307,128,0,151494:0:0:0:0:
36,192,151494,1,0,0:0:0:0:
109,192,151494,1,0,0:0:0:0:
256,192,151682,128,0,151869:0:0:0:0:
329,192,151682,1,0,0:0:0:70:acoustic kick.wav
402,192,151869,1,0,0:0:0:40:sna.wav
475,192,151869,1,0,0:0:0:0:
36,192,151869,128,0,152244:0:0:0:0:
182,192,152057,1,0,0:0:0:0:
329,192,152057,128,0,152244:0:0:0:0:
402,192,152150,128,0,152338:0:0:0:0:
109,192,152244,1,0,0:0:0:70:acoustic kick.wav
182,192,152244,128,0,152432:0:0:0:0:
475,192,152244,128,0,152807:0:0:0:0:
256,192,152244,128,0,152619:0:0:0:0:
402,192,152432,1,0,0:0:0:0:
329,192,152619,1,0,0:0:0:0:
109,192,152619,1,0,0:0:0:40:sna.wav
36,192,152807,128,0,153182:0:0:0:0:
402,192,152807,128,0,153369:0:0:0:70:acoustic kick.wav
182,192,152807,128,0,152994:0:0:0:0:
109,192,152807,128,0,153369:0:0:0:0:
256,192,152994,1,0,0:0:0:0:
475,192,152994,1,0,0:0:0:0:
182,192,153182,128,0,153369:0:0:0:0:
329,192,153182,1,0,0:0:0:70:acoustic kick.wav
475,192,153369,128,0,153744:0:0:0:0:
256,192,153369,1,0,0:0:0:40:sna.wav
36,192,153369,1,0,0:0:0:0:
109,192,153557,1,0,0:0:0:0:
329,192,153557,128,0,153744:0:0:0:0:
256,192,153650,128,0,153838:0:0:0:0:
36,192,153744,128,0,154494:0:0:0:0:
182,192,153744,128,0,154119:0:0:0:0:
402,192,153744,1,0,0:0:0:70:acoustic kick.wav
109,192,153744,128,0,153932:0:0:0:0:
329,192,153932,1,0,0:0:0:0:
475,192,154119,1,0,0:0:0:0:
256,192,154119,128,0,154307:0:0:0:0:
402,192,154119,1,0,0:0:0:40:sna.wav
109,192,154307,1,0,0:0:0:0:
475,192,154307,128,0,154869:0:0:0:0:
329,192,154307,128,0,154682:0:0:0:0:
402,192,154307,128,0,154494:0:0:0:0:
182,192,154494,1,0,0:0:0:0:
256,192,154494,1,0,0:0:0:0:
109,192,154682,1,0,0:0:0:70:acoustic kick.wav
182,192,154682,128,0,154869:0:0:0:0:
256,192,154869,1,0,0:0:0:40:sna.wav
36,192,154869,128,0,155619:0:0:0:0:
402,192,154869,1,0,0:0:0:0:
109,192,155057,1,0,0:0:0:0:
329,192,155057,128,0,155244:0:0:0:0:
182,192,155057,128,0,155807:0:0:0:0:
402,192,155150,128,0,155338:0:0:0:0:
256,192,155244,1,0,0:0:0:70:acoustic kick.wav
475,192,155244,128,0,155807:0:0:0:0:
329,192,155432,128,0,155619:0:0:0:0:
109,192,155432,1,0,0:0:0:0:
256,192,155619,1,0,0:0:0:40:sna.wav
402,192,155619,128,0,155994:0:0:0:0:
109,192,155807,128,0,156182:0:0:0:0:
329,192,155807,128,0,155994:0:0:0:0:
36,192,155807,1,0,0:0:0:70:acoustic kick.wav
256,192,155994,1,0,0:0:0:0:
475,192,155994,128,0,156182:0:0:0:0:
329,192,156182,128,0,156369:0:0:0:0:
182,192,156182,1,0,0:0:0:70:acoustic kick.wav
475,192,156369,128,0,156557:0:0:0:0:
109,192,156369,1,0,0:0:0:0:
36,192,156369,1,0,0:0:0:0:
256,192,156369,1,0,0:0:0:40:sna.wav
329,192,156557,128,0,156744:0:0:0:0:
36,192,156557,1,0,0:0:0:0:
109,192,156557,1,0,0:0:0:0:
475,192,156744,128,0,156932:0:0:0:0:
256,192,156744,128,0,157025:0:0:0:0:
36,192,156744,128,0,157869:0:0:0:0:
402,192,156744,1,0,0:0:0:0:
109,192,156744,1,0,0:0:0:70:cym.wav
182,192,156932,128,0,157025:0:0:0:0:
329,192,156932,128,0,157119:0:0:0:0:
256,192,157119,1,0,0:0:0:40:sna.wav
182,192,157119,1,0,0:0:0:0:
475,192,157119,128,0,157869:0:0:0:0:
329,192,157307,128,0,157775:0:0:0:0:
182,192,157307,128,0,157588:0:0:0:0:
402,192,157307,1,0,0:0:0:0:
256,192,157494,1,0,0:0:0:0:
109,192,157682,1,0,0:0:0:0:
182,192,157682,1,0,0:0:0:70:acoustic kick.wav
402,192,157869,1,0,0:0:0:0:
109,192,157869,128,0,158244:0:0:0:0:
329,192,157869,1,0,0:0:0:40:sna.wav
256,192,158057,1,0,0:0:0:70:cym.wav
329,192,158057,128,0,158244:0:0:0:0:
402,192,158150,128,0,158338:0:0:0:0:
475,192,158244,128,0,159088:0:0:0:0:
256,192,158244,128,0,158525:0:0:0:0:
36,192,158244,128,0,158432:0:0:0:0:
182,192,158244,1,0,0:0:0:0:
182,192,158432,128,0,158619:0:0:0:0:
329,192,158432,128,0,158525:0:0:0:0:
36,192,158619,128,0,159275:0:0:0:0:
329,192,158619,1,0,0:0:0:0:
256,192,158619,1,0,0:0:0:40:sna.wav
182,192,158807,1,0,0:0:0:70:acoustic kick.wav
109,192,158807,128,0,159275:0:0:0:0:
402,192,158807,128,0,159088:0:0:0:0:
256,192,158994,1,0,0:0:0:0:
402,192,159182,1,0,0:0:0:70:acoustic kick.wav
475,192,159182,1,0,0:0:0:0:
256,192,159275,1,0,0:0:0:0:
36,192,159369,1,0,0:0:0:0:
329,192,159369,128,0,159744:0:0:0:0:
109,192,159369,1,0,0:0:0:40:sna.wav
109,192,159557,128,0,159744:0:0:0:0:
402,192,159557,1,0,0:0:0:0:
182,192,159650,128,0,159838:0:0:0:0:
256,192,159744,128,0,160213:0:0:0:70:cym.wav
36,192,159744,128,0,160400:0:0:0:0:
475,192,159744,128,0,160213:0:0:0:0:
329,192,159932,1,0,0:0:0:0:
109,192,159932,128,0,160213:0:0:0:0:
402,192,160119,128,0,160213:0:0:0:40:sna.wav
329,192,160119,128,0,160213:0:0:0:0:
475,192,160307,128,0,160963:0:0:0:0:
182,192,160307,128,0,160588:0:0:0:0:
329,192,160307,128,0,160775:0:0:0:0:
256,192,160307,1,0,0:0:0:0:
36,192,160494,128,0,160588:0:0:0:0:
256,192,160682,128,0,161244:0:0:0:0:
182,192,160682,128,0,160775:0:0:0:70:acoustic kick.wav
109,192,160869,1,0,0:0:0:0:
36,192,160869,1,0,0:0:0:0:
329,192,160869,128,0,160963:0:0:0:40:sna.wav
36,192,161057,128,0,161525:0:0:0:0:
109,192,161057,128,0,161432:0:0:0:0:
402,192,161057,128,0,161994:0:0:0:0:
182,192,161057,128,0,161338:0:0:0:70:cym.wav
475,192,161057,128,0,161150:0:0:0:0:
329,192,161244,1,0,0:0:0:0:
256,192,161432,1,0,0:0:0:0:
475,192,161432,1,0,0:0:0:40:sna.wav
182,192,161525,1,0,0:0:0:0:
109,192,161619,1,0,0:0:0:0:
329,192,161619,1,0,0:0:0:70:cym.wav
36,192,161713,1,0,0:0:0:0:
256,192,161713,1,0,0:0:0:0:
182,192,161807,1,0,0:0:0:70:acoustic kick.wav
475,192,161807,1,0,0:0:0:0:
109,192,161900,1,0,0:0:0:0:
256,192,161994,1,0,0:0:0:40:dr.wav
36,192,161994,1,0,0:0:0:0:
475,192,161994,1,0,0:0:0:0:
329,192,162088,1,0,0:0:0:40:dr.wav
109,192,162088,1,0,0:0:0:0:
182,192,162182,1,0,0:0:0:0:
402,192,162182,1,0,0:0:0:40:dr.wav
256,192,162275,1,0,0:0:0:0:
475,192,162275,1,0,0:0:0:40:dr.wav
182,192,162369,1,0,0:0:0:40:dr.wav
36,192,162369,1,0,0:0:0:0:
475,192,162463,1,0,0:0:0:0:
329,192,162463,1,0,0:0:0:40:dr.wav
182,192,162557,1,0,0:0:0:40:dr.wav
36,192,162557,1,0,0:0:0:0:
329,192,162650,1,0,0:0:0:40:dr.wav
475,192,162650,1,0,0:0:0:0:
256,192,162744,128,0,163307:0:0:0:0:
36,192,162744,128,0,162932:0:0:0:0:
109,192,162744,1,0,0:0:0:0:
182,192,162744,1,0,0:0:0:0:
402,192,162744,1,0,0:0:0:70:cym.wav
475,192,162744,1,0,0:0:0:0:
475,192,162932,5,0,0:0:0:0:
182,192,162932,128,0,163307:0:0:0:0:
109,192,162932,128,0,164244:0:0:0:0:
329,192,163119,1,0,0:0:0:0:
36,192,163119,128,0,163682:0:0:0:0:
402,192,163119,1,0,0:0:0:40:sna.wav
475,192,163307,1,0,0:0:0:0:
329,192,163307,128,0,163869:0:0:0:0:
182,192,163494,1,0,0:0:0:0:
256,192,163494,1,0,0:0:0:0:
402,192,163682,1,0,0:0:0:70:acoustic kick.wav
256,192,163869,1,0,0:0:0:0:
475,192,163869,1,0,0:0:0:40:sna.wav
182,192,163869,128,0,164244:0:0:0:0:
36,192,163869,128,0,164244:0:0:0:0:
329,192,164057,1,0,0:0:0:0:
256,192,164244,128,0,164807:0:0:0:0:
329,192,164244,1,0,0:0:0:0:
475,192,164244,128,0,164432:0:0:0:0:
402,192,164244,1,0,0:0:0:70:acoustic kick.wav
329,192,164432,128,0,164807:0:0:0:0:
36,192,164432,1,0,0:0:0:0:
402,192,164432,128,0,165744:0:0:0:0:
109,192,164619,1,0,0:0:0:40:sna.wav
475,192,164619,128,0,165182:0:0:0:0:
182,192,164619,1,0,0:0:0:0:
182,192,164807,128,0,165369:0:0:0:0:
36,192,164807,1,0,0:0:0:70:acoustic kick.wav
329,192,164994,1,0,0:0:0:0:
256,192,164994,1,0,0:0:0:0:
109,192,165182,1,0,0:0:0:70:acoustic kick.wav
256,192,165369,1,0,0:0:0:0:
36,192,165369,1,0,0:0:0:40:sna.wav
329,192,165369,128,0,165744:0:0:0:0:
475,192,165369,128,0,165744:0:0:0:0:
182,192,165557,1,0,0:0:0:0:
109,192,165744,1,0,0:0:0:0:
256,192,165744,128,0,167057:0:0:0:0:
182,192,165744,1,0,0:0:0:70:acoustic kick.wav
36,192,165744,128,0,166494:0:0:0:0:
475,192,165932,1,0,0:0:0:0:
182,192,166119,1,0,0:0:0:0:
402,192,166119,128,0,166869:0:0:0:0:
329,192,166119,1,0,0:0:0:40:sna.wav
475,192,166307,1,0,0:0:0:0:
329,192,166494,1,0,0:0:0:0:
109,192,166494,128,0,167244:0:0:0:0:
182,192,166682,1,0,0:0:0:70:acoustic kick.wav
329,192,166869,1,0,0:0:0:40:sna.wav
36,192,166869,1,0,0:0:0:0:
475,192,166869,128,0,167244:0:0:0:0:
182,192,167057,1,0,0:0:0:0:
402,192,167244,1,0,0:0:0:0:
36,192,167244,128,0,167994:0:0:0:0:
256,192,167244,1,2,0:0:0:0:
329,192,167432,1,2,0:0:0:0:
109,192,167432,128,0,167994:0:0:0:0:
182,192,167619,128,0,167994:0:0:0:0:
402,192,167619,1,0,0:0:0:40:sna.wav
475,192,167807,1,2,0:0:0:0:
256,192,167807,128,0,167994:0:0:0:0:
475,192,167994,128,0,168182:0:0:0:0:
329,192,167994,1,2,0:0:0:0:
329,192,168182,128,0,168369:0:0:0:70:acoustic kick.wav
182,192,168182,1,2,0:0:0:0:
182,192,168369,128,0,168557:0:0:0:0:
36,192,168369,1,0,0:0:0:40:sna.wav
402,192,168369,128,0,168744:0:0:0:0:
36,192,168557,128,0,168744:0:0:0:0:
256,192,168557,1,2,0:0:0:0:
109,192,168650,128,0,168838:0:0:0:0:
182,192,168744,128,0,169307:0:0:0:0:
329,192,168744,1,0,0:0:0:70:cym.wav
475,192,168744,128,0,168838:0:0:0:0:
402,192,168932,128,0,169025:0:0:0:0:
256,192,169119,1,0,0:0:0:40:sna.wav
36,192,169119,1,0,0:0:0:0:
329,192,169119,128,0,169213:0:0:0:0:
109,192,169307,128,0,169869:0:0:0:0:
475,192,169307,128,0,169400:0:0:0:0:
256,192,169494,1,0,0:0:0:0:
402,192,169494,128,0,169588:0:0:0:0:
329,192,169682,128,0,169775:0:0:0:70:acoustic kick.wav
182,192,169869,1,0,0:0:0:0:
256,192,169869,1,0,0:0:0:0:
36,192,169869,128,0,170244:0:0:0:0:
475,192,169869,128,0,169963:0:0:0:40:sna.wav
109,192,170057,1,0,0:0:0:0:
256,192,170057,128,0,170244:0:0:0:0:
329,192,170150,128,0,170338:0:0:0:0:
402,192,170244,128,0,170807:0:0:0:0:
475,192,170244,1,0,0:0:0:70:acoustic kick.wav
109,192,170244,128,0,170338:0:0:0:0:
182,192,170432,128,0,170525:0:0:0:0:
256,192,170619,1,0,0:0:0:40:sna.wav
329,192,170619,1,0,0:0:0:0:
109,192,170619,128,0,170713:0:0:0:0:
329,192,170807,128,0,171369:0:0:0:70:acoustic kick.wav
36,192,170807,128,0,170900:0:0:0:0:
182,192,170994,128,0,171088:0:0:0:0:
475,192,170994,1,0,0:0:0:0:
109,192,171182,128,0,171275:0:0:0:70:acoustic kick.wav
182,192,171369,1,0,0:0:0:0:
475,192,171369,128,0,171744:0:0:0:0:
36,192,171369,128,0,171463:0:0:0:0:
256,192,171369,1,0,0:0:0:40:sna.wav
182,192,171557,128,0,171744:0:0:0:0:
329,192,171557,1,0,0:0:0:0:
109,192,171650,128,0,171838:0:0:0:0:
256,192,171744,1,0,0:0:0:0:
402,192,171744,1,0,0:0:0:70:cym.wav
36,192,171744,128,0,172119:0:0:0:0:
182,192,171932,1,0,0:0:0:0:
329,192,172119,128,0,172494:0:0:0:0:
109,192,172119,1,0,0:0:0:0:
256,192,172119,1,0,0:0:0:40:sna.wav
475,192,172119,1,0,0:0:0:0:
182,192,172307,1,0,0:0:0:0:
182,192,172494,128,0,172869:0:0:0:0:
36,192,172494,1,0,0:0:0:0:
475,192,172494,1,0,0:0:0:0:
329,192,172682,1,0,0:0:0:70:acoustic kick.wav
475,192,172869,128,0,173244:0:0:0:0:
256,192,172869,1,0,0:0:0:40:sna.wav
36,192,172869,1,0,0:0:0:0:
402,192,172869,1,0,0:0:0:0:
182,192,173057,1,0,0:0:0:0:
256,192,173057,1,0,0:0:0:0:
329,192,173057,1,0,0:0:0:70:cym.wav
36,192,173244,128,0,173713:0:0:0:0:
109,192,173244,1,0,0:0:0:40:sna.wav
402,192,173244,128,0,173619:0:0:0:0:
109,192,173432,128,0,173900:0:0:0:0:
182,192,173432,1,0,0:0:0:40:sna.wav
182,192,173619,128,0,174088:0:0:0:0:
256,192,173619,1,0,0:0:0:40:sna.wav
475,192,173619,1,0,0:0:0:0:
256,192,173807,128,0,174275:0:0:0:0:
329,192,173807,1,0,0:0:0:40:sna.wav
402,192,173994,1,0,0:0:0:40:sna.wav
475,192,173994,128,0,174369:0:0:0:0:
109,192,174182,1,0,0:0:0:40:sna.wav
36,192,174182,128,0,174557:0:0:0:0:
329,192,174369,128,0,174744:0:0:0:0:
256,192,174369,1,8,3:0:0:0:
475,192,174463,1,8,3:0:0:0:
182,192,174557,128,0,174744:0:0:0:0:
256,192,174557,1,8,3:0:0:0:
36,192,174650,1,8,3:0:0:0:
256,192,174744,128,0,174932:0:0:0:0:
402,192,174744,1,0,0:0:0:70:cym.wav
475,192,174744,128,0,175963:0:0:0:0:
109,192,174791,128,0,174978:0:0:0:0:
36,192,174838,128,0,175775:0:0:0:0:
329,192,174932,1,0,0:0:0:0:
402,192,175119,1,0,0:0:0:40:sna.wav
109,192,175119,1,0,0:0:0:0:
256,192,175119,1,0,0:0:0:0:
256,192,175307,128,0,175494:0:0:0:0:
182,192,175307,1,0,0:0:0:0:
402,192,175494,128,0,176150:0:0:0:0:
329,192,175494,1,0,0:0:0:0:
182,192,175682,1,0,0:0:0:70:acoustic kick.wav
329,192,175869,128,0,176150:0:0:0:0:
36,192,175869,1,0,0:0:0:0:
256,192,175869,1,0,0:0:0:40:sna.wav
109,192,175869,1,0,0:0:0:0:
475,192,176057,128,0,176244:0:0:0:0:
182,192,176057,128,0,176244:0:0:0:0:
109,192,176150,128,0,176338:0:0:0:0:
36,192,176244,128,0,177088:0:0:0:0:
402,192,176244,1,0,0:0:0:70:acoustic kick.wav
329,192,176244,1,0,0:0:0:0:
475,192,176432,128,0,176619:0:0:0:0:
256,192,176432,1,0,0:0:0:0:
329,192,176619,128,0,176807:0:0:0:0:
109,192,176619,1,0,0:0:0:0:
402,192,176619,1,0,0:0:0:40:sna.wav
182,192,176713,1,0,0:0:0:0:
475,192,176807,128,0,176994:0:0:0:0:
256,192,176807,1,0,0:0:0:70:acoustic kick.wav
109,192,176900,1,0,0:0:0:0:
256,192,176994,128,0,177182:0:0:0:0:
182,192,176994,1,0,0:0:0:0:
329,192,177088,128,0,177275:0:0:0:0:
402,192,177182,128,0,177557:0:0:0:0:
36,192,177182,1,0,0:0:0:0:
109,192,177182,1,0,0:0:0:70:acoustic kick.wav
182,192,177369,128,0,177650:0:0:0:0:
475,192,177369,1,0,0:0:0:40:sna.wav
36,192,177369,128,0,177463:0:0:0:0:
256,192,177463,128,0,177650:0:0:0:0:
329,192,177557,128,0,177744:0:0:0:0:
36,192,177557,128,0,177650:0:0:0:0:
109,192,177744,128,0,178119:0:0:0:0:
36,192,177744,1,0,0:0:0:0:
256,192,177744,1,0,0:0:0:70:acoustic kick.wav
475,192,177744,1,0,0:0:0:0:
182,192,177744,1,0,0:0:0:0:
402,192,177932,1,0,0:0:0:0:
329,192,177932,1,0,0:0:0:0:
182,192,178119,128,0,178494:0:0:0:0:
36,192,178119,1,0,0:0:0:40:sna.wav
475,192,178119,128,0,178307:0:0:0:0:
256,192,178119,1,0,0:0:0:0:
402,192,178119,1,0,0:0:0:0:
329,192,178213,128,0,178400:0:0:0:0:
109,192,178307,1,0,0:0:0:0:
36,192,178307,128,0,178682:0:0:0:0:
329,192,178494,128,0,178869:0:0:0:0:
256,192,178494,1,0,0:0:0:0:
475,192,178494,1,0,0:0:0:0:
109,192,178682,1,0,0:0:0:0:
402,192,178682,1,0,0:0:0:70:acoustic kick.wav
402,192,178869,128,0,179244:0:0:0:0:
475,192,178869,1,0,0:0:0:40:sna.wav
256,192,178869,1,0,0:0:0:0:
182,192,178869,128,0,179150:0:0:0:0:
109,192,178963,128,0,179150:0:0:0:0:
329,192,179057,1,2,0:0:0:0:
36,192,179057,128,0,179525:0:0:0:0:
182,192,179244,128,0,179525:0:0:0:0:
256,192,179244,1,0,0:0:0:70:acoustic kick.wav
475,192,179244,1,0,0:0:0:0:
329,192,179432,128,0,180275:0:0:0:0:
475,192,179619,128,0,179713:0:0:0:0:
402,192,179619,128,0,179713:0:0:0:0:
36,192,179619,1,0,0:0:0:0:
109,192,179619,1,0,0:0:0:0:
256,192,179619,1,0,0:0:0:40:sna.wav
402,192,179807,128,0,180275:0:0:0:0:
475,192,179807,128,0,180275:0:0:0:0:
182,192,179807,128,0,179994:0:0:0:0:
109,192,179900,128,0,180088:0:0:0:0:
256,192,179994,1,2,0:0:0:0:
36,192,179994,128,0,180275:0:0:0:0:
182,192,180182,128,2,180463:0:0:0:0:
256,192,180369,1,0,0:0:0:40:sna.wav
36,192,180369,128,0,180650:0:0:0:0:
475,192,180369,1,0,0:0:0:0:
402,192,180369,1,0,0:0:0:0:
182,192,180557,128,0,180650:0:0:0:0:
329,192,180557,1,2,0:0:0:0:
402,192,180650,1,0,0:0:0:0:
475,192,180744,128,0,181963:0:0:0:0:
256,192,180744,128,0,181025:0:0:0:0:
36,192,180744,1,0,0:0:0:70:cym.wav
182,192,180744,1,0,0:0:0:0:
109,192,180932,1,0,0:0:0:0:
329,192,180932,128,0,181400:0:0:0:0:
182,192,181119,1,0,0:0:0:0:
256,192,181119,1,0,0:0:0:40:sna.wav
402,192,181119,1,0,0:0:0:0:
36,192,181307,128,0,181869:0:0:0:0:
109,192,181307,1,0,0:0:0:0:
329,192,181494,128,0,181588:0:0:0:0:
182,192,181494,1,0,0:0:0:0:
402,192,181682,128,0,181963:0:0:0:0:
109,192,181682,1,0,0:0:0:70:acoustic kick.wav
182,192,181869,128,0,182244:0:0:0:0:
256,192,181869,1,0,0:0:0:40:sna.wav
329,192,181869,1,0,0:0:0:0:
402,192,182057,128,0,182338:0:0:0:0:
475,192,182057,1,0,0:0:0:0:
109,192,182244,1,0,0:0:0:70:acoustic kick.wav
36,192,182244,1,0,0:0:0:0:
329,192,182244,128,0,182338:0:0:0:0:
182,192,182432,1,0,0:0:0:0:
329,192,182432,128,0,182525:0:0:0:0:
329,192,182619,128,0,183088:0:0:0:0:
402,192,182619,1,0,0:0:0:0:
109,192,182619,1,0,0:0:0:0:
256,192,182619,1,0,0:0:0:40:sna.wav
475,192,182807,128,0,183369:0:0:0:70:acoustic kick.wav
182,192,182807,1,2,0:0:0:0:
256,192,182994,128,0,183182:0:0:0:0:
36,192,182994,1,2,0:0:0:0:
182,192,183088,128,0,183275:0:0:0:0:
109,192,183182,128,0,183744:0:0:0:70:acoustic kick.wav
402,192,183182,1,2,0:0:0:0:
329,192,183369,128,0,183557:0:0:0:0:
36,192,183369,1,0,0:0:0:40:sna.wav
256,192,183369,1,0,0:0:0:0:
475,192,183557,128,0,183744:0:0:0:0:
182,192,183557,1,2,0:0:0:0:
256,192,183650,1,2,0:0:0:0:
36,192,183744,128,0,184682:0:0:0:0:
402,192,183744,128,0,184119:0:0:0:70:cym.wav
329,192,183744,1,2,0:0:0:0:
109,192,183838,128,0,184682:0:0:0:0:
182,192,183932,128,0,184307:0:0:0:0:
256,192,184119,128,0,184307:0:0:0:40:sna.wav
329,192,184119,128,0,184494:0:0:0:0:
475,192,184307,128,0,184869:0:0:0:0:
402,192,184307,128,0,184494:0:0:0:0:
256,192,184494,128,0,184869:0:0:0:0:
182,192,184494,128,0,184682:0:0:0:0:
402,192,184682,128,0,184869:0:0:0:0:
329,192,184682,128,0,184869:0:0:0:70:acoustic kick.wav
109,192,184869,128,0,185057:0:0:0:40:sna.wav
182,192,184869,128,0,185432:0:0:0:0:
36,192,184869,128,0,185057:0:0:0:0:
256,192,185057,128,0,185900:0:0:0:0:
329,192,185057,128,0,185244:0:0:0:0:
402,192,185057,128,0,185244:0:0:0:70:cym.wav
475,192,185057,128,0,185244:0:0:0:0:
109,192,185244,128,0,185432:0:0:0:0:
36,192,185244,128,0,185432:0:0:0:0:
475,192,185432,128,0,185994:0:0:0:0:
402,192,185432,128,0,185619:0:0:0:0:
329,192,185432,128,0,185619:0:0:0:40:sna.wav
109,192,185619,128,0,185807:0:0:0:0:
182,192,185619,128,0,185994:0:0:0:40:sna.wav
36,192,185619,128,0,185807:0:0:0:0:
402,192,185807,128,0,185994:0:0:0:0:
329,192,185807,128,0,186182:0:0:0:40:sna.wav
36,192,185994,1,0,0:0:0:0:
109,192,185994,1,0,0:0:0:40:sna.wav
256,192,186088,1,0,0:0:0:40:dr.wav
402,192,186182,1,0,0:0:0:40:dr.wav
475,192,186182,1,0,0:0:0:0:
256,192,186275,1,0,0:0:0:40:dr.wav
36,192,186369,1,0,0:0:0:0:
182,192,186369,1,0,0:0:0:40:dr.wav
329,192,186463,1,0,0:0:0:40:dr.wav
475,192,186463,1,0,0:0:0:0:
36,192,186557,1,0,0:0:0:0:
182,192,186557,1,0,0:0:0:40:dr.wav
329,192,186650,1,0,0:0:0:0:
475,192,186650,1,0,0:0:0:40:dr.wav
36,192,186744,128,0,187213:0:0:0:0:
256,192,186744,128,0,187213:0:0:0:70:cym.wav
109,192,186744,128,0,186838:0:0:0:0:
182,192,186744,128,0,186838:0:0:0:0:
475,192,186744,128,0,187213:0:0:0:0:
402,192,186744,1,0,0:0:0:0:
109,192,186932,128,0,187025:0:0:0:0:
182,192,186932,128,0,187025:0:0:0:0:
109,192,187119,128,0,187213:0:0:0:0:
182,192,187119,128,0,187213:0:0:0:0:
329,192,187307,128,0,187400:0:0:0:0:
402,192,187307,128,0,187400:0:0:0:0:
475,192,187307,128,0,187775:0:0:0:0:
256,192,187307,128,0,187775:0:0:0:40:sna.wav
36,192,187307,128,0,187775:0:0:0:0:
109,192,187307,1,0,0:0:0:0:
329,192,187494,128,0,187588:0:0:0:0:
402,192,187494,128,0,187588:0:0:0:0:
402,192,187682,128,0,187775:0:0:0:0:
329,192,187682,128,0,187775:0:0:0:0:
36,192,187869,128,0,188994:0:0:0:0:
475,192,187869,128,0,188994:0:0:0:0:
182,192,187869,128,0,187963:0:0:0:0:
329,192,187869,128,0,187963:0:0:0:0:
182,192,188057,128,0,188994:0:0:0:0:
329,192,188057,128,0,188994:0:0:0:0:
256,192,188057,128,0,188150:0:0:0:70:cym.wav
402,192,188432,128,0,188619:0:0:0:0:
109,192,188619,128,2,188807:0:0:0:0:
402,192,188807,1,0,0:0:0:0:
256,192,188807,1,0,0:0:0:0:
109,192,188994,1,0,0:0:0:0:
256,192,188994,1,0,0:0:0:40:sna.wav
256,192,189181,128,0,189556:0:0:0:0:
475,192,189181,128,0,189556:0:0:0:0:
329,192,189181,1,0,0:0:0:0:
36,192,189181,128,0,189556:0:0:0:0:
182,192,189369,1,0,0:0:0:0:
109,192,189556,1,0,0:0:0:0:
329,192,189556,1,0,0:0:0:0:
182,192,189650,1,0,0:0:0:0:
402,192,189650,1,0,0:0:0:0:
475,192,189744,128,0,190213:0:0:0:0:
109,192,189744,128,0,189838:0:0:0:0:
329,192,189744,128,0,190213:0:0:0:70:cym.wav
36,192,189744,128,0,190213:0:0:0:0:
256,192,189744,128,0,189838:0:0:0:0:
256,192,189931,128,0,190025:0:0:0:0:
182,192,189931,128,0,190025:0:0:0:0:
402,192,190119,128,0,190213:0:0:0:0:
256,192,190119,128,0,190213:0:0:0:0:
36,192,190306,128,0,190775:0:0:0:0:
475,192,190306,128,0,190775:0:0:0:0:
402,192,190306,128,0,190400:0:0:0:70:cym.wav
256,192,190306,128,0,190400:0:0:0:0:
182,192,190306,128,0,190775:0:0:0:0:
256,192,190494,128,0,190588:0:0:0:0:
329,192,190494,128,0,190588:0:0:0:0:
256,192,190681,128,0,190775:0:0:0:0:
109,192,190681,128,0,190775:0:0:0:0:
182,192,190869,128,0,190963:0:0:0:0:
329,192,190869,128,0,190963:0:0:0:0:
36,192,190869,128,0,191994:0:0:0:0:
475,192,190869,128,0,191994:0:0:0:0:
256,192,191056,128,0,191150:0:0:0:0:
329,192,191056,128,0,191994:0:0:0:0:
182,192,191056,128,0,191994:0:0:0:0:
109,192,191431,128,0,191619:0:0:0:70:cym.wav
402,192,191619,128,0,191806:0:0:0:70:cym.wav
256,192,191806,1,0,0:0:0:0:
109,192,191806,1,0,0:0:0:0:
402,192,191994,1,0,0:0:0:40:sna.wav
256,192,191994,1,0,0:0:0:0:
109,192,192181,128,0,192463:0:0:0:0:
475,192,192181,1,0,0:0:0:40:dr.wav
256,192,192181,128,0,192463:0:0:0:0:
36,192,192181,1,0,0:0:0:0:
402,192,192275,1,0,0:0:0:40:dr.wav
329,192,192369,1,0,0:0:0:40:dr.wav
182,192,192463,1,0,0:0:0:40:dr.wav
36,192,192556,1,0,0:0:0:0:
329,192,192556,1,0,0:0:0:40:dr.wav
109,192,192650,1,0,0:0:0:0:
402,192,192650,1,0,0:0:0:40:dr.wav
182,192,192744,1,0,0:0:0:0:
475,192,192744,128,0,194056:0:0:0:70:cym.wav
256,192,192744,1,0,0:0:0:0:
256,192,192931,1,0,0:0:0:0:
402,192,192931,1,0,0:0:0:0:
256,192,193119,1,0,0:0:0:0:
109,192,193119,1,0,0:0:0:0:
329,192,193306,128,0,193869:0:0:0:0:
182,192,193306,1,0,0:0:0:0:
36,192,193306,1,0,0:0:0:0:
256,192,193306,1,0,0:0:0:70:cym.wav
182,192,193494,1,0,0:0:0:0:
402,192,193494,1,0,0:0:0:0:
256,192,193681,1,0,0:0:0:70:cym.wav
109,192,193681,1,0,0:0:0:0:
36,192,193681,1,0,0:0:0:0:
402,192,193869,128,0,194056:0:0:0:0:
109,192,193869,1,0,0:0:0:0:
329,192,194056,1,0,0:0:0:70:cym.wav
256,192,194056,128,0,195275:0:0:0:0:
36,192,194056,1,0,0:0:0:0:
182,192,194056,1,0,0:0:0:0:
109,192,194244,1,0,0:0:0:0:
402,192,194244,1,0,0:0:0:0:
182,192,194431,1,0,0:0:0:0:
475,192,194431,1,0,0:0:0:0:
36,192,194619,1,0,0:0:0:0:
329,192,194619,1,0,0:0:0:0:
182,192,194806,1,0,3:0:0:70:dr.wav
475,192,194806,1,0,0:0:0:0:
109,192,194900,1,0,3:0:0:70:dr.wav
329,192,194900,1,0,0:0:0:0:
36,192,194994,1,0,3:0:0:70:dr.wav
402,192,194994,1,8,3:0:0:0:
109,192,195088,1,0,3:0:0:70:dr.wav
475,192,195088,1,0,0:0:0:0:
182,192,195181,1,0,3:0:0:70:dr.wav
402,192,195181,1,0,0:0:0:0:
36,192,195275,1,0,3:0:0:70:dr.wav
329,192,195275,1,0,0:0:0:0:
256,192,195369,1,0,3:0:0:70:dr.wav
475,192,195369,1,8,3:0:0:0:
182,192,195463,1,0,3:0:0:70:dr.wav
402,192,195463,1,0,0:0:0:0:
109,192,195556,1,0,3:0:0:70:dr.wav
329,192,195556,1,0,0:0:0:0:
36,192,195650,1,0,3:0:0:70:dr.wav
256,192,195650,1,0,0:0:0:0:
475,192,195744,128,0,196494:0:0:0:0:
182,192,195744,1,0,0:0:0:0:
402,192,195744,1,0,0:0:0:70:cym.wav
182,192,195931,1,0,0:0:0:0:
36,192,195931,1,0,0:0:0:0:
182,192,196119,1,0,0:0:0:0:
256,192,196119,1,0,0:0:0:0:
182,192,196306,128,0,197713:0:0:0:0:
329,192,196306,1,0,0:0:0:70:cym.wav
36,192,196306,1,0,0:0:0:0:
109,192,196306,1,0,0:0:0:0:
329,192,196494,1,0,0:0:0:0:
402,192,196494,1,0,0:0:0:0:
329,192,196681,1,0,0:0:0:0:
109,192,196681,1,0,0:0:0:0:
402,192,196775,1,0,0:0:0:0:
256,192,196869,1,0,0:0:0:0:
475,192,196869,1,0,0:0:0:0:
475,192,197056,1,0,0:0:0:0:
36,192,197056,1,0,0:0:0:0:
256,192,197150,1,0,0:0:0:0:
475,192,197244,1,0,0:0:0:0:
402,192,197338,1,0,0:0:0:0:
329,192,197431,1,0,0:0:0:0:
36,192,197431,1,0,0:0:0:0:
109,192,197431,1,2,0:0:0:0:
256,192,197525,1,0,0:0:0:0:
475,192,197619,1,0,0:0:0:0:
36,192,197713,1,0,0:0:0:0:
109,192,197713,1,2,0:0:0:0:
402,192,197713,1,0,0:0:0:0:
329,192,197806,1,0,0:0:0:0:
256,192,197900,1,0,0:0:0:0:
475,192,197900,1,0,0:0:0:70:cym.wav
36,192,197994,1,0,0:0:0:0:
182,192,197994,1,0,0:0:0:40:dr.wav
329,192,198088,1,0,0:0:0:40:dr.wav
475,192,198088,1,0,0:0:0:0:
109,192,198181,1,0,0:0:0:0:
256,192,198181,1,0,0:0:0:40:dr.wav
329,192,198275,1,0,0:0:0:40:dr.wav
475,192,198275,1,0,0:0:0:0:
36,192,198369,1,0,0:0:0:0:
182,192,198369,1,0,0:0:0:40:dr.wav
256,192,198463,1,0,0:0:0:40:dr.wav
402,192,198463,1,0,0:0:0:0:
36,192,198556,1,0,0:0:0:0:
182,192,198556,1,0,0:0:0:40:dr.wav
329,192,198650,1,0,0:0:0:40:dr.wav
475,192,198650,1,0,0:0:0:0:
36,192,198744,1,0,0:0:0:70:cym.wav
109,192,198744,128,0,199775:0:0:0:0:
256,192,198744,128,0,199400:0:0:0:0:
402,192,198744,1,0,0:0:0:0:
182,192,198744,128,0,199400:0:0:0:0:
329,192,199119,1,2,0:0:0:0:
329,192,199306,1,2,0:0:0:0:
256,192,199494,1,0,0:0:0:40:sna.wav
329,192,199494,128,0,200150:0:0:0:0:
475,192,199494,1,0,0:0:0:0:
182,192,199494,1,0,0:0:0:0:
36,192,199869,1,0,0:0:0:0:
109,192,199869,1,0,0:0:0:0:
475,192,199869,1,0,0:0:0:0:
182,192,200056,128,0,200338:0:0:0:0:
36,192,200244,1,0,0:0:0:0:
329,192,200244,1,0,0:0:0:0:
402,192,200244,128,0,200900:0:0:0:0:
182,192,200431,1,0,0:0:0:0:
475,192,200431,1,0,0:0:0:0:
256,192,200431,128,0,200900:0:0:0:0:
36,192,200619,128,0,201275:0:0:0:0:
109,192,200619,1,0,0:0:0:0:
109,192,200806,1,0,0:0:0:0:
402,192,200994,1,0,0:0:0:0:
475,192,200994,128,0,201650:0:0:0:0:
256,192,200994,1,0,0:0:0:0:
182,192,200994,1,0,0:0:0:0:
329,192,201181,1,0,0:0:0:0:
256,192,201275,1,0,0:0:0:0:
36,192,201369,1,0,0:0:0:0:
182,192,201369,1,0,0:0:0:0:
256,192,201463,1,0,0:0:0:0:
109,192,201463,1,0,0:0:0:0:
329,192,201556,1,0,0:0:0:0:
182,192,201556,1,0,0:0:0:0:
402,192,201650,1,0,0:0:0:0:
256,192,201650,1,0,0:0:0:0:
329,192,201744,1,0,0:0:0:0:
475,192,201744,1,0,0:0:0:0:
36,192,201744,128,0,202119:0:0:0:0:
109,192,201744,1,0,0:0:0:70:cym.wav
182,192,201931,128,0,202306:0:0:0:0:
402,192,201931,1,0,0:0:0:0:
109,192,202119,128,0,202494:0:0:0:0:
329,192,202119,1,0,0:0:0:0:
475,192,202119,1,0,0:0:0:0:
256,192,202306,128,0,202681:0:0:0:0:
36,192,202306,1,2,0:0:0:0:
329,192,202494,128,0,202681:0:0:0:0:
475,192,202494,128,0,202681:0:0:0:70:cym.wav
402,192,202494,128,0,202681:0:0:0:0:
182,192,202494,1,0,0:0:0:0:
36,192,202681,1,2,0:0:0:0:
329,192,202775,128,0,202963:0:0:0:0:
475,192,202775,128,0,202963:0:0:0:70:cym.wav
402,192,202775,128,0,202963:0:0:0:0:
182,192,202869,1,2,0:0:0:0:
329,192,203056,128,0,203525:0:0:0:0:
402,192,203056,128,0,203525:0:0:0:0:
475,192,203056,128,0,203525:0:0:0:70:cym.wav
36,192,203056,1,0,0:0:0:0:
36,192,203244,128,0,203713:0:0:0:0:
256,192,203244,1,0,0:0:0:0:
109,192,203244,1,0,0:0:0:0:
182,192,203431,128,0,203713:0:0:0:40:sna.wav
256,192,203619,128,0,204275:0:0:0:0:
475,192,203619,128,0,203713:0:0:0:70:cym.wav
329,192,203619,128,0,203713:0:0:0:0:
36,192,203806,1,0,0:0:0:0:
475,192,203806,1,0,0:0:0:40:dr.wav
109,192,203900,1,0,0:0:0:0:
402,192,203900,1,0,0:0:0:40:dr.wav
329,192,203994,1,0,0:0:0:40:dr.wav
182,192,203994,1,0,0:0:0:0:
36,192,204088,1,0,0:0:0:0:
475,192,204088,1,0,0:0:0:40:dr.wav
182,192,204181,1,0,0:0:0:0:
329,192,204181,1,0,0:0:0:40:dr.wav
109,192,204275,1,0,0:0:0:0:
402,192,204275,1,0,0:0:0:40:dr.wav
36,192,204369,1,0,0:0:0:0:
256,192,204369,1,0,0:0:0:0:
475,192,204369,1,0,0:0:0:40:dr.wav
109,192,204463,1,0,0:0:0:0:
329,192,204463,1,0,0:0:0:40:dr.wav
182,192,204556,1,0,0:0:0:0:
402,192,204556,1,0,0:0:0:40:dr.wav
256,192,204650,1,0,0:0:0:0:
475,192,204650,1,0,0:0:0:40:dr.wav
36,192,204744,1,0,0:0:0:70:cym.wav
182,192,204744,1,0,0:0:0:0:
109,192,204744,128,0,205775:0:0:0:0:
256,192,204931,128,0,205306:0:0:0:0:
402,192,204931,128,0,205963:0:0:0:40:sna.wav
475,192,205306,1,0,0:0:0:0:
329,192,205306,1,0,0:0:0:0:
256,192,205400,1,0,0:0:0:0:
182,192,205494,128,0,205775:0:0:0:40:sna.wav
36,192,205494,128,0,205775:0:0:0:0:
256,192,205588,128,0,205681:0:0:0:0:
329,192,205681,128,0,205963:0:0:0:40:sna.wav
475,192,205681,128,0,205963:0:0:0:0:
256,192,205775,128,0,205869:0:0:0:0:
36,192,205869,1,0,0:0:0:0:
182,192,205869,128,0,206056:0:0:0:0:
256,192,205963,128,0,206150:0:0:0:0:
36,192,206056,128,0,206900:0:0:0:0:
475,192,206056,128,0,206900:0:0:0:0:
329,192,206056,128,0,206244:0:0:0:0:
256,192,206244,1,0,0:0:0:0:
109,192,206431,1,0,0:0:0:0:
402,192,206431,1,0,0:0:0:70:cym.wav
256,192,206619,128,0,206900:0:0:0:0:
182,192,206619,1,0,0:0:0:70:cym.wav
329,192,206713,1,0,0:0:0:0:
182,192,206806,1,0,0:0:0:0:
329,192,206900,1,0,0:0:0:0:
36,192,206994,1,0,0:0:0:0:
182,192,206994,1,0,0:0:0:0:
475,192,206994,1,0,0:0:0:0:
256,192,206994,1,0,0:0:0:40:sna.wav
109,192,207181,1,0,0:0:0:40:sna.wav
402,192,207181,1,0,0:0:0:0:
36,192,207369,1,0,0:0:0:0:
256,192,207369,1,0,0:0:0:40:sna.wav
475,192,207369,1,0,0:0:0:0:
329,192,207369,1,0,0:0:0:0:
109,192,207556,1,0,0:0:0:40:sna.wav
402,192,207556,1,0,0:0:0:0:
109,192,207650,1,0,0:0:0:40:sna.wav
402,192,207650,1,0,0:0:0:0:
256,192,207744,128,0,208025:0:0:0:0:
475,192,207744,128,0,208025:0:0:0:0:
36,192,207744,128,0,208400:0:0:0:0:
182,192,207744,1,0,0:0:0:0:
329,192,207931,1,0,0:0:0:0:
475,192,208119,128,0,208400:0:0:0:0:
256,192,208119,128,0,208775:0:0:0:0:
182,192,208119,1,0,0:0:0:40:sna.wav
329,192,208306,1,0,0:0:0:0:
475,192,208494,128,0,208963:0:0:0:0:
36,192,208494,128,0,208963:0:0:0:0:
182,192,208494,128,0,208588:0:0:0:40:sna.wav
109,192,208494,128,0,208588:0:0:0:0:
329,192,208681,128,0,208775:0:0:0:40:sna.wav
402,192,208681,128,0,208775:0:0:0:0:
256,192,208869,128,0,208963:0:0:0:40:sna.wav
109,192,208869,128,0,208963:0:0:0:0:
182,192,208869,128,0,208963:0:0:0:0:
329,192,209056,128,0,209994:0:0:0:0:
475,192,209056,1,0,0:0:0:70:cym.wav
36,192,209056,1,0,0:0:0:0:
182,192,209056,128,0,209994:0:0:0:0:
256,192,209431,1,0,0:0:0:40:dr.wav
475,192,209431,1,0,0:0:0:0:
36,192,209619,1,0,0:0:0:0:
256,192,209619,1,0,0:0:0:40:dr.wav
256,192,209806,1,0,0:0:0:40:dr.wav
36,192,209994,1,0,0:0:0:0:
109,192,209994,1,0,0:0:0:0:
402,192,209994,1,0,0:0:0:0:
475,192,209994,1,0,0:0:0:40:dr.wav
36,192,210181,1,0,0:0:0:0:
109,192,210181,1,0,0:0:0:0:
402,192,210181,1,0,0:0:0:0:
475,192,210181,1,0,0:0:0:40:dr.wav
36,192,210369,1,0,0:0:0:0:
109,192,210369,1,0,0:0:0:0:
402,192,210369,1,0,0:0:0:0:
475,192,210369,1,0,0:0:0:40:dr.wav
256,192,210369,1,0,0:0:0:0:
36,192,210556,1,0,0:0:0:0:
109,192,210556,1,0,0:0:0:0:
402,192,210556,1,0,0:0:0:0:
475,192,210556,1,0,0:0:0:40:dr.wav
256,192,210556,1,0,0:0:0:0:
475,192,210744,128,0,210931:0:0:0:0:
36,192,210744,1,2,0:0:0:0:
109,192,210931,1,2,0:0:0:0:
329,192,210931,128,0,211119:0:0:0:0:
402,192,211119,128,0,211494:0:0:0:0:
182,192,211119,1,2,0:0:0:0:
329,192,211306,128,0,211681:0:0:0:0:
36,192,211306,1,2,0:0:0:0:
475,192,211681,128,0,212056:0:0:0:0:
256,192,211681,1,2,0:0:0:0:
182,192,212056,1,2,0:0:0:0:
402,192,212056,1,0,0:0:0:0:
36,192,212244,128,0,212994:0:0:0:0:
256,192,212244,1,2,0:0:0:0:
329,192,212431,1,2,0:0:0:0:
475,192,212431,1,0,0:0:0:0:
256,192,212619,1,2,0:0:0:0:
109,192,212619,1,0,0:0:0:0:
475,192,212806,128,2,213369:0:0:0:0:
36,192,213181,1,2,0:0:0:0:
256,192,213369,1,2,0:0:0:0:
475,192,213556,1,2,0:0:0:0:
36,192,213744,1,2,0:0:0:0:
182,192,213744,1,0,0:0:0:0:
402,192,214119,1,2,0:0:0:0:
109,192,214306,128,2,215056:0:0:0:0:
329,192,214681,128,2,215244:0:0:0:0:
256,192,215056,1,2,0:0:0:0:
36,192,215244,128,2,215431:0:0:0:0:
182,192,215431,128,2,215619:0:0:0:0:
475,192,215619,128,2,215806:0:0:0:0:
329,192,215806,128,2,215994:0:0:0:0:
109,192,215994,128,2,216181:0:0:0:0:
402,192,216181,128,2,216369:0:0:0:0:
256,192,216181,1,0,0:0:0:0:
109,192,216369,128,2,216556:0:0:0:0:
402,192,216556,128,2,216744:0:0:0:0:
256,192,216556,1,0,0:0:0:0:
182,192,216650,1,2,0:0:0:0:
109,192,216744,1,2,0:0:0:0:
36,192,216744,128,0,217494:0:0:0:0:
475,192,216744,1,0,0:0:0:0:
329,192,216744,1,0,0:0:0:0:
182,192,216931,1,2,0:0:0:0:
109,192,216931,128,0,217494:0:0:0:0:
256,192,217119,1,2,0:0:0:0:
182,192,217119,128,0,217494:0:0:0:0:
329,192,217306,1,2,0:0:0:0:
256,192,217306,128,0,218244:0:0:0:0:
475,192,217494,128,2,217681:0:0:0:0:
109,192,217681,1,0,0:0:0:0:
182,192,217681,1,0,0:0:0:0:
329,192,217681,128,2,217869:0:0:0:0:
36,192,217681,128,0,218150:0:0:0:0:
475,192,217869,128,2,218056:0:0:0:0:
329,192,218056,128,2,218244:0:0:0:0:
475,192,218244,128,0,218994:0:0:0:0:
402,192,218244,1,2,0:0:0:0:
36,192,218244,1,0,0:0:0:0:
182,192,218244,1,0,0:0:0:0:
402,192,218431,128,0,218994:0:0:0:0:
329,192,218431,1,2,0:0:0:0:
329,192,218619,128,0,218994:0:0:0:0:
256,192,218619,1,2,0:0:0:0:
256,192,218806,128,0,219744:0:0:0:0:
182,192,218806,1,2,0:0:0:0:
36,192,218994,128,2,219181:0:0:0:0:
402,192,219181,1,0,0:0:0:0:
329,192,219181,1,0,0:0:0:0:
475,192,219181,128,0,219650:0:0:0:0:
182,192,219181,128,2,219369:0:0:0:0:
36,192,219369,128,2,219556:0:0:0:0:
182,192,219556,128,2,219744:0:0:0:0:
402,192,219744,1,2,0:0:0:0:
329,192,219744,128,0,220869:0:0:0:0:
36,192,219744,128,0,219838:0:0:0:0:
109,192,219744,128,0,219838:0:0:0:0:
475,192,219744,1,0,0:0:0:0:
109,192,219931,128,0,220025:0:0:0:0:
36,192,219931,128,0,220025:0:0:0:0:
36,192,220119,128,0,220213:0:0:0:0:
109,192,220119,128,0,220213:0:0:0:0:
109,192,220306,1,2,0:0:0:0:
182,192,220306,128,0,220869:0:0:0:0:
402,192,220306,128,0,220400:0:0:0:0:
475,192,220306,128,0,220400:0:0:0:0:
36,192,220306,1,0,0:0:0:0:
402,192,220494,128,0,220588:0:0:0:0:
475,192,220494,128,0,220588:0:0:0:0:
402,192,220681,128,0,220775:0:0:0:0:
475,192,220681,128,0,220775:0:0:0:0:
256,192,220869,1,0,0:0:0:40:sna.wav
109,192,220869,1,0,0:0:0:0:
36,192,220869,1,0,0:0:0:0:
402,192,220869,1,0,0:0:0:0:
475,192,220869,1,0,0:0:0:0:
402,192,221056,128,0,221994:0:0:0:0:
109,192,221056,128,0,221806:0:0:0:0:
182,192,221056,1,0,0:0:0:0:
329,192,221056,1,0,0:0:0:70:cym.wav
475,192,221056,128,0,221244:0:0:0:0:
36,192,221244,128,0,221431:0:0:0:0:
256,192,221244,1,0,0:0:0:0:
475,192,221431,128,0,221619:0:0:0:0:
329,192,221431,1,0,0:0:0:0:
256,192,221525,1,0,0:0:0:0:
36,192,221619,128,0,221806:0:0:0:0:
182,192,221619,128,0,221900:0:0:0:40:sna.wav
256,192,221713,128,0,221806:0:0:0:0:
475,192,221806,128,0,221994:0:0:0:0:
329,192,221806,128,0,222088:0:0:0:0:
256,192,221900,128,0,221994:0:0:0:0:
36,192,221994,1,0,0:0:0:0:
182,192,221994,1,0,0:0:0:40:dr.wav
109,192,222088,1,0,0:0:0:0:
256,192,222088,1,0,0:0:0:40:dr.wav
182,192,222181,1,0,0:0:0:0:
329,192,222181,1,0,0:0:0:40:dr.wav
256,192,222275,1,0,0:0:0:0:
402,192,222275,1,0,0:0:0:40:dr.wav
329,192,222369,1,0,0:0:0:0:
475,192,222369,1,0,0:0:0:40:dr.wav
36,192,222369,1,0,0:0:0:0:
182,192,222369,1,0,0:0:0:0:
109,192,222463,1,0,0:0:0:0:
256,192,222463,1,0,0:0:0:40:dr.wav
329,192,222556,1,0,0:0:0:40:dr.wav
475,192,222556,1,0,0:0:0:0:
109,192,222650,1,0,0:0:0:40:dr.wav
256,192,222650,1,0,0:0:0:0:
182,192,222744,128,0,223025:0:0:0:0:
402,192,222744,1,0,0:0:0:70:cym.wav
475,192,222744,128,0,223119:0:0:0:0:
36,192,222744,128,0,223025:0:0:0:0:
329,192,222744,1,0,0:0:0:0:
256,192,222838,128,0,223025:0:0:0:0:
329,192,222931,128,0,223119:0:0:0:0:
182,192,223119,1,0,0:0:0:0:
256,192,223119,1,0,0:0:0:40:sna.wav
36,192,223119,1,0,0:0:0:0:
109,192,223119,1,0,0:0:0:0:
256,192,223306,1,0,0:0:0:0:
402,192,223306,1,0,0:0:0:0:
36,192,223306,128,0,223869:0:0:0:0:
182,192,223306,128,0,223869:0:0:0:0:
475,192,223306,128,0,223775:0:0:0:0:
402,192,223494,128,0,223775:0:0:0:0:
256,192,223588,128,0,223775:0:0:0:0:
109,192,223681,128,0,223869:0:0:0:70:acoustic kick.wav
256,192,223869,1,0,0:0:0:40:sna.wav
402,192,223869,1,0,0:0:0:0:
329,192,223869,1,0,0:0:0:0:
475,192,223869,1,0,0:0:0:0:
36,192,224056,1,0,0:0:0:0:
475,192,224056,1,0,0:0:0:0:
109,192,224056,1,0,0:0:0:0:
402,192,224056,1,0,0:0:0:0:
182,192,224150,1,0,0:0:0:0:
329,192,224150,1,0,0:0:0:0:
109,192,224244,128,0,224994:0:0:0:0:
402,192,224244,128,0,224525:0:0:0:0:
36,192,224244,1,0,0:0:0:0:
256,192,224244,1,0,0:0:0:70:acoustic kick.wav
475,192,224244,1,0,0:0:0:0:
182,192,224431,1,0,0:0:0:0:
256,192,224525,1,0,0:0:0:0:
329,192,224619,1,0,0:0:0:40:sna.wav
36,192,224619,1,0,0:0:0:0:
402,192,224619,1,0,0:0:0:0:
475,192,224619,1,0,0:0:0:0:
182,192,224713,1,0,0:0:0:0:
402,192,224806,128,0,225275:0:0:0:0:
329,192,224806,1,0,0:0:0:70:acoustic kick.wav
256,192,224900,1,0,0:0:0:0:
182,192,224994,1,0,0:0:0:0:
36,192,224994,1,0,0:0:0:0:
329,192,225088,1,0,0:0:0:0:
109,192,225181,128,0,225369:0:0:0:0:
256,192,225181,1,0,0:0:0:70:acoustic kick.wav
475,192,225181,1,0,0:0:0:0:
182,192,225275,1,0,0:0:0:0:
329,192,225369,1,0,0:0:0:40:sna.wav
402,192,225369,1,0,0:0:0:0:
36,192,225369,128,0,226025:0:0:0:0:
475,192,225369,1,0,0:0:0:0:
256,192,225463,1,0,0:0:0:0:
182,192,225556,128,0,225744:0:0:0:0:
256,192,225650,128,0,225838:0:0:0:0:
329,192,225744,128,0,226025:0:0:0:0:
109,192,225744,1,0,0:0:0:70:acoustic kick.wav
402,192,225744,128,0,225931:0:0:0:0:
475,192,225744,128,0,226400:0:0:0:0:
182,192,225838,1,0,0:0:0:0:
256,192,225931,1,0,0:0:0:0:
182,192,226025,1,0,0:0:0:0:
109,192,226119,1,0,0:0:0:40:sna.wav
256,192,226119,128,0,226306:0:0:0:0:
36,192,226119,1,0,0:0:0:0:
329,192,226119,1,0,0:0:0:0:
402,192,226213,1,0,0:0:0:0:
36,192,226306,128,0,226775:0:0:0:0:
329,192,226306,1,0,0:0:0:0:
182,192,226306,128,0,226588:0:0:0:0:
109,192,226306,128,0,226494:0:0:0:0:
256,192,226400,1,0,0:0:0:0:
329,192,226494,128,0,226775:0:0:0:0:
475,192,226494,1,0,0:0:0:0:
256,192,226588,1,0,0:0:0:0:
182,192,226681,1,0,0:0:0:70:acoustic kick.wav
402,192,226681,128,0,226963:0:0:0:0:
109,192,226775,1,0,0:0:0:0:
36,192,226869,1,0,0:0:0:0:
475,192,226869,128,0,227525:0:0:0:0:
329,192,226869,1,0,0:0:0:40:sna.wav
256,192,226869,1,0,0:0:0:0:
109,192,226963,1,0,0:0:0:0:
402,192,227056,1,0,0:0:0:0:
182,192,227056,128,0,227244:0:0:0:0:
109,192,227150,128,0,227338:0:0:0:0:
329,192,227150,1,0,0:0:0:0:
256,192,227244,1,0,0:0:0:70:acoustic kick.wav
36,192,227244,128,0,227900:0:0:0:0:
329,192,227244,128,0,227713:0:0:0:0:
182,192,227431,128,0,227713:0:0:0:0:
402,192,227431,1,0,0:0:0:0:
256,192,227619,1,0,0:0:0:40:sna.wav
109,192,227619,128,0,228275:0:0:0:0:
475,192,227619,1,0,0:0:0:0:
182,192,227806,128,0,228088:0:0:0:0:
402,192,227806,128,0,228275:0:0:0:70:acoustic kick.wav
329,192,227806,1,0,0:0:0:0:
475,192,227900,128,0,228275:0:0:0:0:
36,192,227994,128,0,228275:0:0:0:0:
256,192,227994,1,0,0:0:0:0:
182,192,228181,128,0,228463:0:0:0:0:
329,192,228181,1,0,0:0:0:70:acoustic kick.wav
36,192,228369,128,0,228650:0:0:0:0:
402,192,228369,1,0,0:0:0:0:
475,192,228369,1,0,0:0:0:40:sna.wav
109,192,228369,1,0,0:0:0:0:
256,192,228369,128,0,228650:0:0:0:0:
182,192,228556,128,0,228650:0:0:0:0:
475,192,228556,1,0,0:0:0:0:
402,192,228556,1,0,0:0:0:40:dr.wav
402,192,228650,1,0,0:0:0:40:dr.wav
475,192,228650,1,0,0:0:0:0:
36,192,228744,128,0,229400:0:0:0:0:
475,192,228744,128,0,229400:0:0:0:0:
182,192,228744,1,0,0:0:0:70:cym.wav
402,192,228744,128,0,229025:0:0:0:0:
329,192,228744,1,0,0:0:0:0:
256,192,228838,128,0,229025:0:0:0:0:
109,192,228931,128,0,229025:0:0:0:0:
402,192,229119,1,0,0:0:0:40:sna.wav
256,192,229119,1,0,0:0:0:0:
109,192,229119,1,0,0:0:0:0:
182,192,229306,128,0,229775:0:0:0:0:
329,192,229306,128,0,229775:0:0:0:0:
256,192,229306,1,0,0:0:0:0:
475,192,229494,1,0,0:0:0:0:
36,192,229494,1,0,0:0:0:0:
36,192,229681,128,0,229869:0:0:0:0:
475,192,229681,128,0,229869:0:0:0:0:
256,192,229681,128,0,229775:0:0:0:70:acoustic kick.wav
329,192,229869,1,0,0:0:0:40:sna.wav
182,192,229869,1,0,0:0:0:0:
256,192,229869,1,0,0:0:0:0:
109,192,229869,1,0,0:0:0:0:
402,192,229869,1,0,0:0:0:0:
36,192,230056,128,0,230244:0:0:0:0:
182,192,230056,1,0,0:0:0:0:
475,192,230056,1,0,0:0:0:70:cym.wav
402,192,230056,1,0,0:0:0:0:
109,192,230150,128,0,230338:0:0:0:0:
256,192,230150,1,0,0:0:0:0:
475,192,230244,128,0,230525:0:0:0:0:
182,192,230244,128,0,230713:0:0:0:0:
329,192,230244,128,0,230525:0:0:0:70:acoustic kick.wav
36,192,230431,128,0,230713:0:0:0:0:
256,192,230431,1,0,0:0:0:0:
109,192,230619,1,0,0:0:0:40:sna.wav
329,192,230619,128,0,230806:0:0:0:0:
402,192,230619,1,0,0:0:0:0:
475,192,230619,128,0,230713:0:0:0:0:
256,192,230713,128,0,230900:0:0:0:0:
182,192,230806,128,0,231088:0:0:0:0:
36,192,230806,1,0,0:0:0:70:acoustic kick.wav
475,192,230806,1,0,0:0:0:0:
475,192,230994,128,0,231275:0:0:0:0:
36,192,230994,128,0,231275:0:0:0:0:
329,192,230994,128,0,231275:0:0:0:0:
182,192,231181,1,0,0:0:0:70:acoustic kick.wav
256,192,231275,1,0,0:0:0:0:
36,192,231369,1,0,0:0:0:0:
109,192,231369,1,0,0:0:0:40:sna.wav
475,192,231369,1,0,0:0:0:0:
329,192,231369,128,0,231650:0:0:0:0:
402,192,231369,1,0,0:0:0:0:
109,192,231556,128,0,231744:0:0:0:0:
256,192,231556,1,0,0:0:0:0:
182,192,231650,128,0,231838:0:0:0:0:
256,192,231744,128,0,232025:0:0:0:0:
36,192,231744,128,0,232213:0:0:0:0:
475,192,231744,128,0,232213:0:0:0:70:cym.wav
402,192,231744,1,0,0:0:0:0:
329,192,231744,1,0,0:0:0:0:
182,192,231931,1,0,0:0:0:40:sna.wav
109,192,231931,1,0,0:0:0:0:
256,192,232119,1,0,0:0:0:0:
329,192,232119,1,0,0:0:0:40:sna.wav
182,192,232306,128,0,232963:0:0:0:0:
329,192,232306,128,0,232775:0:0:0:70:cym.wav
36,192,232306,1,0,0:0:0:0:
475,192,232306,1,0,0:0:0:0:
402,192,232494,1,0,0:0:0:40:sna.wav
475,192,232494,1,0,0:0:0:0:
109,192,232681,1,0,0:0:0:0:
36,192,232681,1,0,0:0:0:0:
256,192,232681,1,0,0:0:0:40:sna.wav
329,192,232869,128,0,233150:0:0:0:0:
475,192,232869,128,0,233525:0:0:0:70:cym.wav
256,192,232963,128,0,233244:0:0:0:0:
36,192,233056,128,0,233713:0:0:0:70:cym.wav
109,192,233056,1,0,0:0:0:0:
182,192,233056,128,0,233338:0:0:0:0:
329,192,233244,128,0,233525:0:0:0:0:
256,192,233338,128,0,233431:0:0:0:0:
182,192,233431,128,0,233713:0:0:0:40:sna.wav
256,192,233525,128,0,233619:0:0:0:0:
402,192,233619,1,0,0:0:0:70:cym.wav
475,192,233619,128,0,234650:0:0:0:0:
329,192,233619,1,0,0:0:0:0:
256,192,233713,1,0,0:0:0:0:
109,192,233806,1,0,0:0:0:0:
182,192,233806,1,0,0:0:0:70:sna.wav
36,192,233806,128,0,234650:0:0:0:0:
256,192,233994,1,0,0:0:0:40:sna.wav
402,192,233994,1,0,0:0:0:0:
182,192,234088,1,0,0:0:0:40:sna.wav
329,192,234088,1,0,0:0:0:0:
109,192,234181,1,0,0:0:0:40:sna.wav
256,192,234181,1,0,0:0:0:0:
402,192,234275,1,0,0:0:0:0:
109,192,234369,1,0,0:0:0:0:
256,192,234369,1,0,0:0:0:40:sna.wav
182,192,234463,1,0,0:0:0:0:
329,192,234463,1,0,0:0:0:40:sna.wav
256,192,234556,1,0,0:0:0:0:
402,192,234556,1,0,0:0:0:40:sna.wav
109,192,234650,1,0,0:0:0:0:
475,192,234744,128,0,235025:0:0:0:70:cym.wav
182,192,234744,1,0,0:0:0:0:
256,192,234744,128,0,235400:0:0:0:0:
36,192,234744,1,0,0:0:0:0:
329,192,234744,128,0,234838:0:0:0:0:
402,192,234744,128,0,234838:0:0:0:0:
402,192,234931,128,0,235025:0:0:0:0:
329,192,234931,128,0,235213:0:0:0:0:
36,192,234931,1,0,0:0:0:0:
109,192,235119,1,0,0:0:0:40:sna.wav
475,192,235119,128,0,235775:0:0:0:0:
182,192,235119,1,0,0:0:0:0:
402,192,235119,128,0,236150:0:0:0:0:
36,192,235306,1,0,0:0:0:0:
182,192,235306,128,0,235775:0:0:0:0:
329,192,235306,128,0,235400:0:0:0:0:
329,192,235494,1,0,0:0:0:0:
256,192,235494,128,0,235775:0:0:0:0:
109,192,235681,1,0,0:0:0:70:acoustic kick.wav
329,192,235681,128,0,235775:0:0:0:0:
329,192,235869,128,0,236244:0:0:0:0:
475,192,235869,128,0,236150:0:0:0:0:
256,192,235869,1,0,0:0:0:0:
36,192,235869,128,0,236150:0:0:0:0:
182,192,235869,128,0,235963:0:0:0:40:sna.wav
182,192,236056,128,0,236150:0:0:0:0:
256,192,236244,128,0,236900:0:0:0:0:
36,192,236244,128,0,236525:0:0:0:0:
182,192,236244,128,0,236338:0:0:0:0:
109,192,236244,128,0,236338:0:0:0:0:
402,192,236244,1,0,0:0:0:0:
475,192,236244,1,0,0:0:0:70:acoustic kick.wav
109,192,236431,128,0,236525:0:0:0:0:
475,192,236431,1,0,0:0:0:0:
182,192,236431,128,0,236713:0:0:0:0:
402,192,236619,1,0,0:0:0:40:sna.wav
329,192,236619,1,0,0:0:0:0:
36,192,236619,128,0,237275:0:0:0:0:
109,192,236619,128,0,237650:0:0:0:0:
475,192,236806,1,0,0:0:0:70:acoustic kick.wav
329,192,236806,128,0,237275:0:0:0:0:
182,192,236806,128,0,236900:0:0:0:0:
182,192,236994,1,0,0:0:0:0:
256,192,236994,128,0,237275:0:0:0:0:
402,192,237181,1,0,0:0:0:70:acoustic kick.wav
182,192,237181,128,0,237275:0:0:0:0:
36,192,237369,128,0,237744:0:0:0:0:
256,192,237369,1,0,0:0:0:0:
182,192,237369,128,0,237650:0:0:0:0:
475,192,237369,128,0,237650:0:0:0:40:sna.wav
329,192,237369,128,0,237463:0:0:0:0:
329,192,237556,128,0,237650:0:0:0:0:
256,192,237744,128,0,238213:0:0:0:0:
475,192,237744,128,0,238400:0:0:0:0:
329,192,237744,1,0,0:0:0:0:
182,192,237744,1,0,0:0:0:0:
109,192,237744,1,0,0:0:0:0:
402,192,237744,1,0,0:0:0:70:acoustic kick.wav
36,192,237931,1,0,0:0:0:0:
329,192,237931,128,0,238213:0:0:0:0:
36,192,238119,128,0,238775:0:0:0:0:
182,192,238119,128,0,238213:0:0:0:40:sna.wav
109,192,238306,128,0,238775:0:0:0:0:
256,192,238306,128,0,238963:0:0:0:0:
402,192,238306,128,0,239150:0:0:0:0:
182,192,238306,1,0,0:0:0:0:
475,192,238494,128,0,239150:0:0:0:0:
329,192,238494,1,0,0:0:0:0:
182,192,238681,1,0,0:0:0:70:acoustic kick.wav
36,192,238869,128,0,239806:0:0:0:0:
109,192,238869,1,0,0:0:0:40:sna.wav
329,192,238869,128,0,239431:0:0:0:0:
256,192,239056,1,0,0:0:0:0:
109,192,239244,1,0,0:0:0:0:
182,192,239244,128,0,239806:0:0:0:0:
402,192,239244,1,0,0:0:0:70:acoustic kick.wav
475,192,239244,128,0,240181:0:0:0:0:
256,192,239431,128,0,239619:0:0:0:0:
329,192,239619,128,0,240181:0:0:0:0:
402,192,239619,1,0,0:0:0:40:sna.wav
256,192,239806,128,0,239994:0:0:0:70:acoustic kick.wav
182,192,239994,1,2,0:0:0:0:
36,192,239994,1,0,0:0:0:0:
109,192,239994,1,0,0:0:0:0:
109,192,240181,1,2,0:0:0:0:
256,192,240181,1,0,0:0:0:70:acoustic kick.wav
182,192,240181,1,0,0:0:0:0:
329,192,240369,1,0,0:0:0:0:
475,192,240369,1,0,0:0:0:0:
402,192,240369,1,0,0:0:0:40:sna.wav
256,192,240369,1,0,0:0:0:0:
475,192,240556,128,0,240744:0:0:0:0:
182,192,240556,1,2,0:0:0:0:
36,192,240556,1,0,0:0:0:0:
109,192,240556,1,0,0:0:0:0:
256,192,240556,1,0,0:0:0:0:
402,192,240650,128,0,240838:0:0:0:0:
109,192,240744,128,0,241213:0:0:0:0:
36,192,240744,128,0,241025:0:0:0:0:
182,192,240744,128,0,240838:0:0:0:0:
329,192,240744,128,0,242150:0:0:0:0:
256,192,240744,1,0,0:0:0:70:cym.wav
182,192,240931,128,0,241213:0:0:0:0:
36,192,241119,128,0,241213:0:0:0:0:
475,192,241119,1,0,0:0:0:40:sna.wav
402,192,241119,1,0,0:0:0:0:
36,192,241306,128,0,241775:0:0:0:0:
182,192,241306,128,0,241775:0:0:0:0:
109,192,241306,128,0,241400:0:0:0:0:
402,192,241306,128,0,242150:0:0:0:0:
256,192,241306,1,0,0:0:0:0:
109,192,241494,128,0,241588:0:0:0:0:
109,192,241681,128,0,241775:0:0:0:70:acoustic kick.wav
475,192,241869,128,0,242150:0:0:0:0:
182,192,241869,128,0,242150:0:0:0:40:sna.wav
256,192,241869,128,0,241963:0:0:0:0:
256,192,242056,128,0,242150:0:0:0:0:
36,192,242056,128,0,242244:0:0:0:0:
109,192,242150,128,0,242338:0:0:0:0:
182,192,242244,128,0,243650:0:0:0:0:
475,192,242244,128,0,242525:0:0:0:0:
402,192,242244,128,0,242713:0:0:0:0:
329,192,242244,128,0,242338:0:0:0:0:
256,192,242244,1,0,0:0:0:70:acoustic kick.wav
329,192,242431,128,0,242713:0:0:0:0:
36,192,242619,1,0,0:0:0:0:
475,192,242619,128,0,242713:0:0:0:0:
109,192,242619,1,0,0:0:0:40:sna.wav
109,192,242806,128,0,243650:0:0:0:0:
475,192,242806,128,0,243275:0:0:0:0:
329,192,242806,128,0,243275:0:0:0:0:
402,192,242806,128,0,242900:0:0:0:70:acoustic kick.wav
256,192,242806,1,0,0:0:0:0:
402,192,242994,128,0,243088:0:0:0:0:
402,192,243181,128,0,243275:0:0:0:70:acoustic kick.wav
256,192,243369,128,0,243463:0:0:0:0:
329,192,243369,128,0,243650:0:0:0:40:sna.wav
36,192,243369,128,0,243650:0:0:0:0:
475,192,243556,128,0,243744:0:0:0:0:
256,192,243556,128,0,243650:0:0:0:0:
402,192,243650,128,0,243838:0:0:0:0:
329,192,243744,128,0,244025:0:0:0:0:
182,192,243744,128,0,244025:0:0:0:0:
109,192,243744,128,0,244025:0:0:0:0:
36,192,243744,128,0,244681:0:0:0:0:
256,192,243744,1,0,0:0:0:70:cym.wav
402,192,243931,1,0,0:0:0:0:
475,192,243931,1,0,0:0:0:0:
109,192,244119,1,0,0:0:0:0:
182,192,244119,1,0,0:0:0:0:
329,192,244119,1,0,0:0:0:40:sna.wav
475,192,244306,1,0,0:0:0:0:
329,192,244306,128,0,244588:0:0:0:0:
109,192,244306,1,0,0:0:0:0:
402,192,244400,128,0,244681:0:0:0:0:
182,192,244400,1,0,0:0:0:0:
475,192,244494,128,0,244775:0:0:0:0:
256,192,244494,1,0,0:0:0:0:
329,192,244681,128,0,244869:0:0:0:0:
182,192,244681,1,0,0:0:0:0:
475,192,244869,128,0,245338:0:0:0:0:
402,192,244869,1,0,0:0:0:0:
36,192,244869,1,0,0:0:0:0:
109,192,244869,1,0,0:0:0:0:
256,192,244869,1,0,0:0:0:40:sna.wav
329,192,245056,128,0,245338:0:0:0:70:cym.wav
402,192,245056,128,0,245338:0:0:0:0:
36,192,245056,128,0,245994:0:0:0:0:
182,192,245056,128,0,245525:0:0:0:0:
109,192,245056,128,0,245525:0:0:0:0:
475,192,245431,128,0,246088:0:0:0:0:
329,192,245431,1,0,0:0:0:70:acoustic kick.wav
109,192,245619,1,0,0:0:0:0:
182,192,245619,1,0,0:0:0:0:
256,192,245619,1,0,0:0:0:40:sna.wav
402,192,245619,1,0,0:0:0:0:
329,192,245806,128,0,246088:0:0:0:0:
109,192,245806,1,0,0:0:0:70:acoustic kick.wav
182,192,245900,1,0,0:0:0:0:
256,192,245994,1,0,0:0:0:0:
36,192,246088,1,0,0:0:0:0:
182,192,246088,1,0,0:0:0:0:
256,192,246181,128,0,246650:0:0:0:0:
329,192,246181,1,0,0:0:0:40:dr.wav
402,192,246181,1,0,0:0:0:0:
475,192,246181,1,0,0:0:0:0:
36,192,246275,1,0,0:0:0:0:
182,192,246275,1,0,0:0:0:40:dr.wav
329,192,246369,1,0,0:0:0:40:sna.wav
475,192,246369,1,0,0:0:0:0:
36,192,246463,1,0,0:0:0:0:
109,192,246463,1,0,0:0:0:40:dr.wav
475,192,246556,1,0,0:0:0:0:
182,192,246556,1,0,0:0:0:40:dr.wav
402,192,246650,1,0,0:0:0:0:
109,192,246650,1,0,0:0:0:40:dr.wav
36,192,246744,1,0,0:0:0:0:
329,192,246744,128,0,246838:0:0:0:0:
256,192,246744,1,0,0:0:0:70:acoustic kick.wav
402,192,246791,128,0,246884:0:0:0:0:
475,192,246838,128,0,247213:0:0:0:0:
109,192,246931,1,0,0:0:0:0:
256,192,246931,1,0,0:0:0:0:
329,192,247025,1,0,0:0:0:0:
402,192,247119,128,0,247306:0:0:0:0:
36,192,247119,1,0,0:0:0:40:sna.wav
256,192,247119,1,0,0:0:0:0:
182,192,247213,1,0,0:0:0:0:
329,192,247213,128,0,247400:0:0:0:0:
256,192,247306,128,0,247775:0:0:0:0:
109,192,247306,1,0,0:0:0:0:
36,192,247400,1,0,0:0:0:0:
109,192,247494,1,0,0:0:0:0:
329,192,247494,1,0,0:0:0:0:
475,192,247494,1,0,0:0:0:0:
182,192,247588,1,0,0:0:0:0:
36,192,247681,128,0,247869:0:0:0:0:
329,192,247681,1,0,0:0:0:70:acoustic kick.wav
109,192,247775,128,0,247963:0:0:0:0:
402,192,247775,1,0,0:0:0:0:
182,192,247869,128,0,248244:0:0:0:0:
475,192,247869,1,0,0:0:0:40:sna.wav
256,192,247869,1,0,0:0:0:0:
329,192,247963,1,0,0:0:0:0:
475,192,248056,1,0,0:0:0:0:
36,192,248056,1,0,0:0:0:0:
402,192,248056,1,0,0:0:0:0:
475,192,248150,1,0,0:0:0:0:
109,192,248150,1,0,0:0:0:0:
475,192,248244,128,0,248431:0:0:0:0:
256,192,248244,1,0,0:0:0:70:acoustic kick.wav
36,192,248244,1,0,0:0:0:0:
182,192,248338,1,0,0:0:0:0:
402,192,248338,128,0,248525:0:0:0:0:
109,192,248431,1,0,0:0:0:0:
329,192,248431,128,0,249275:0:0:0:0:
36,192,248431,1,0,0:0:0:0:
182,192,248619,1,0,0:0:0:0:
475,192,248619,1,0,0:0:0:0:
36,192,248619,1,0,0:0:0:0:
256,192,248619,1,0,0:0:0:40:sna.wav
402,192,248713,1,0,0:0:0:0:
36,192,248806,128,0,249275:0:0:0:0:
475,192,248806,128,0,249275:0:0:0:0:
109,192,248806,1,0,0:0:0:70:acoustic kick.wav
182,192,248900,1,0,0:0:0:0:
256,192,248994,1,0,0:0:0:0:
109,192,249088,1,0,0:0:0:0:
402,192,249088,1,0,0:0:0:0:
256,192,249181,128,0,249275:0:0:0:70:acoustic kick.wav
182,192,249181,128,0,249275:0:0:0:0:
402,192,249369,1,0,0:0:0:40:sna.wav
182,192,249369,128,0,249463:0:0:0:0:
109,192,249369,1,0,0:0:0:0:
329,192,249369,128,0,249463:0:0:0:0:
36,192,249369,128,0,249650:0:0:0:0:
475,192,249369,128,0,249650:0:0:0:0:
182,192,249556,1,0,0:0:0:0:
329,192,249556,1,0,0:0:0:0:
109,192,249650,1,0,0:0:0:0:
256,192,249650,1,0,0:0:0:0:
329,192,249744,128,0,250213:0:0:0:0:
475,192,249744,128,2,250025:0:0:0:0:
36,192,249744,1,0,0:0:0:0:
182,192,249744,1,0,0:0:0:70:acoustic kick.wav
256,192,249931,128,0,250306:0:0:0:0:
402,192,249931,128,0,250025:0:0:0:0:
109,192,249931,1,0,0:0:0:0:
36,192,250119,128,0,250306:0:0:0:40:sna.wav
402,192,250119,128,0,250775:0:0:0:0:
475,192,250119,1,0,0:0:0:0:
109,192,250213,128,0,250400:0:0:0:0:
182,192,250306,128,0,250494:0:0:0:0:
475,192,250306,128,0,250775:0:0:0:0:
329,192,250306,1,0,0:0:0:0:
256,192,250400,128,0,250588:0:0:0:0:
329,192,250494,128,2,250775:0:0:0:0:
109,192,250681,128,0,251056:0:0:0:0:
36,192,250681,1,0,0:0:0:0:
256,192,250681,1,0,0:0:0:70:acoustic kick.wav
329,192,250869,1,0,0:0:0:0:
475,192,250869,128,0,251244:0:0:0:0:
402,192,250869,128,0,251244:0:0:0:0:
182,192,250869,1,0,0:0:0:40:sna.wav
329,192,251056,128,0,251338:0:0:0:0:
36,192,251056,1,0,0:0:0:0:
256,192,251150,128,0,251431:0:0:0:0:
36,192,251244,128,0,251525:0:0:0:0:
182,192,251244,128,0,251525:0:0:0:0:
109,192,251244,1,0,0:0:0:70:acoustic kick.wav
329,192,251431,128,0,251713:0:0:0:0:
475,192,251431,128,0,251713:0:0:0:0:
256,192,251619,1,0,0:0:0:40:sna.wav
36,192,251619,128,0,251900:0:0:0:0:
182,192,251619,128,0,252088:0:0:0:0:
109,192,251619,1,0,0:0:0:0:
329,192,251806,128,0,251900:0:0:0:0:
475,192,251806,128,0,252088:0:0:0:0:
36,192,251994,1,0,0:0:0:0:
329,192,251994,1,0,0:0:0:0:
109,192,252088,1,0,0:0:0:0:
402,192,252088,1,0,0:0:0:0:
475,192,252181,1,0,0:0:0:0:
182,192,252181,1,0,0:0:0:0:
256,192,252275,1,0,0:0:0:0:
36,192,252275,1,0,0:0:0:0:
329,192,252369,128,0,252556:0:0:0:40:sna.wav
109,192,252369,128,0,252556:0:0:0:0:
475,192,252369,128,0,252556:0:0:0:0:
182,192,252556,1,0,0:0:0:0:
402,192,252556,1,0,0:0:0:0:
329,192,252650,1,0,0:0:0:0:
109,192,252650,1,0,0:0:0:0:
36,192,252744,128,0,253213:0:0:0:0:
256,192,252744,1,0,0:0:0:70:cym.wav
475,192,252744,1,0,0:0:0:0:
402,192,252744,128,0,253025:0:0:0:0:
109,192,252931,1,0,0:0:0:0:
256,192,252931,1,0,0:0:0:0:
182,192,253119,128,0,253306:0:0:0:0:
329,192,253119,1,0,0:0:0:40:sna.wav
475,192,253119,1,0,0:0:0:0:
402,192,253119,1,0,0:0:0:0:
109,192,253306,128,0,253869:0:0:0:0:
256,192,253306,1,0,0:0:0:0:
402,192,253306,1,0,0:0:0:0:
36,192,253306,1,0,0:0:0:0:
329,192,253494,1,0,0:0:0:0:
475,192,253494,1,0,0:0:0:0:
475,192,253681,128,0,254150:0:0:0:0:
402,192,253681,1,0,0:0:0:0:
36,192,253681,1,0,0:0:0:0:
256,192,253681,1,0,0:0:0:70:acoustic kick.wav
402,192,253869,128,0,254150:0:0:0:0:
329,192,253869,1,0,0:0:0:0:
182,192,253869,1,0,0:0:0:40:sna.wav
329,192,254056,128,0,254150:0:0:0:0:
182,192,254056,128,0,254338:0:0:0:0:
36,192,254056,128,0,254338:0:0:0:0:
109,192,254056,1,0,0:0:0:70:cym.wav
256,192,254150,128,0,254431:0:0:0:0:
402,192,254244,1,0,0:0:0:70:acoustic kick.wav
329,192,254244,128,0,254525:0:0:0:0:
475,192,254244,128,0,254525:0:0:0:0:
36,192,254431,128,0,254713:0:0:0:0:
182,192,254431,128,0,254713:0:0:0:0:
402,192,254619,1,0,0:0:0:40:sna.wav
475,192,254619,128,0,254900:0:0:0:0:
256,192,254619,1,0,0:0:0:0:
329,192,254619,128,0,255088:0:0:0:0:
182,192,254806,128,0,254900:0:0:0:70:acoustic kick.wav
36,192,254806,128,0,255088:0:0:0:0:
182,192,254994,128,0,255275:0:0:0:0:
475,192,254994,128,0,255275:0:0:0:0:
109,192,255088,128,0,255275:0:0:0:0:
402,192,255088,128,0,255275:0:0:0:0:
36,192,255181,128,0,255275:0:0:0:0:
329,192,255181,128,0,255275:0:0:0:70:acoustic kick.wav
475,192,255369,128,0,255650:0:0:0:0:
36,192,255369,128,0,255650:0:0:0:0:
256,192,255369,1,0,0:0:0:40:sna.wav
329,192,255369,128,0,255650:0:0:0:0:
182,192,255369,128,0,255650:0:0:0:0:
402,192,255369,128,0,255463:0:0:0:0:
256,192,255463,128,0,255556:0:0:0:0:
109,192,255556,128,0,255650:0:0:0:0:
256,192,255650,1,0,0:0:0:0:
36,192,255744,128,0,256025:0:0:0:0:
109,192,255744,128,0,256213:0:0:0:0:
182,192,255744,128,0,255838:0:0:0:0:
329,192,255744,128,0,256025:0:0:0:70:cym.wav
402,192,255744,128,0,256213:0:0:0:0:
475,192,255744,128,0,255838:0:0:0:0:
475,192,255931,128,0,256213:0:0:0:0:
182,192,255931,128,0,256213:0:0:0:0:
329,192,256119,128,2,256588:0:0:0:0:
36,192,256119,128,0,256588:0:0:0:0:
402,192,256306,128,0,256494:0:0:0:0:
109,192,256306,128,0,256494:0:0:0:0:
182,192,256306,128,0,256400:0:0:0:0:
475,192,256306,128,0,256400:0:0:0:40:sna.wav
182,192,256494,128,0,256775:0:0:0:0:
475,192,256494,128,2,256775:0:0:0:0:
109,192,256588,128,0,256775:0:0:0:0:
402,192,256588,128,0,256775:0:0:0:0:
36,192,256681,128,0,256963:0:0:0:0:
329,192,256681,128,0,256963:0:0:0:70:acoustic kick.wav
182,192,256869,1,0,0:0:0:0:
475,192,256869,1,0,0:0:0:40:sna.wav
109,192,256869,1,0,0:0:0:0:
402,192,256869,1,0,0:0:0:0:
109,192,257056,1,0,0:0:0:70:cym.wav
402,192,257056,1,0,0:0:0:0:
256,192,257056,128,0,257900:0:0:0:0:
36,192,257056,1,0,0:0:0:0:
329,192,257056,1,0,0:0:0:0:
475,192,257431,128,0,257994:0:0:0:0:
36,192,257431,1,0,0:0:0:0:
109,192,257431,1,0,0:0:0:0:
182,192,257431,1,0,0:0:0:0:
329,192,257595,1,0,0:0:0:0:
402,192,257619,1,0,0:0:0:40:sna.wav
182,192,257783,1,0,0:0:0:40:dr.wav
36,192,257806,128,0,258369:0:0:0:0:
109,192,257806,1,0,0:0:0:40:sna.wav
329,192,257970,1,0,0:0:0:40:dr.wav
402,192,257994,1,0,0:0:0:40:sna.wav
256,192,257994,1,0,0:0:0:0:
109,192,258158,1,0,0:0:0:40:dr.wav
182,192,258181,1,0,0:0:0:0:
256,192,258181,1,0,0:0:0:40:sna.wav
475,192,258181,128,0,258744:0:0:0:0:
329,192,258369,1,0,0:0:0:0:
402,192,258369,1,0,0:0:0:0:
109,192,258533,1,0,0:0:0:40:dr.wav
182,192,258556,1,0,0:0:0:40:sna.wav
36,192,258556,1,0,0:0:0:0:
402,192,258603,1,0,0:0:0:0:
329,192,258650,1,0,0:0:0:0:
256,192,258697,1,0,0:0:0:0:
36,192,258744,128,2,266244:0:0:0:0:
109,192,258775,128,2,266244:0:0:0:0:
182,192,258806,128,2,266244:0:0:0:0:
329,192,258838,128,0,266244:0:0:0:70:cym.wav
402,192,258869,128,2,266244:0:0:0:0:
475,192,258900,128,2,266244:0:0:0:0:
