osu file format v14

[General]
AudioFilename: audio.mp3
AudioLeadIn: 0
PreviewTime:67501
Countdown: 0
SampleSet: None
StackLeniency: 0.5
Mode: 0
LetterboxInBreaks: 0
WidescreenStoryboard: 1

[Editor]
Bookmarks: 43990,68259,79045,91180,101966,112753,126236,137022,147809,158595,169382,190955,201741,212528
DistanceSpacing: 0.2
BeatDivisor: 4
GridSize: 4
TimelineZoom: 2.4

[Metadata]
Title:Find the way
TitleUnicode:Find the way
Artist:FELT
ArtistUnicode:FELT
Creator:captin1
Version:VINXLNI's Insane
Source:東方妖々夢 ~ Perfect Cherry Blossom.
Tags:舞花 maika Vivienne 東方妖々夢 ~ Ancient Temple touhou darkness brightness c94 stage 5 youyoumu NAGI☆ zun video game Eastern Ghostly Dream 東方project 魂魄 妖夢 Konpaku Youmu trust vinxis rlc xlni amateurre asagi rock pop japanese
BeatmapID:2274048
BeatmapSetID:887462

[Difficulty]
HPDrainRate:5
CircleSize:4
OverallDifficulty:8
ApproachRate:9
SliderMultiplier:1.7
SliderTickRate:1

[Events]
//Background and Video events
0,0,"find the way.jpg",0,0
//Break Periods
2,91180,98595
2,169582,176797
//Storyboard Layer 0 (Background)
//Storyboard Layer 1 (Fail)
//Storyboard Layer 2 (Pass)
//Storyboard Layer 3 (Foreground)
//Storyboard Layer 4 (Overlay)
//Storyboard Sound Samples

[TimingPoints]
844,337.078651685393,4,2,1,40,1,0
844,-133.333333333333,4,2,1,40,0,0
11630,-111.111111111111,4,2,1,60,0,0
23091,-142.857142857143,4,2,1,60,0,0
23596,-111.111111111111,4,2,1,60,0,0
25787,-142.857142857143,4,2,1,60,0,0
26293,-111.111111111111,4,2,1,60,0,0
33203,-125,4,2,1,60,0,0
41293,-111.111111111111,4,2,1,60,0,0
68259,337.078651685393,4,2,1,80,1,1
68259,-90.9090909090909,4,2,1,80,0,1
91180,337.078651685393,4,2,1,40,1,0
101966,-111.111111111111,4,2,1,60,0,0
126236,337.078651685393,4,2,1,80,1,0
126236,-90.9090909090909,4,2,1,80,0,1
147809,-111.111111111111,4,2,1,60,0,0
180168,-142.857142857143,4,2,1,60,0,0
190955,-90.9090909090909,4,2,1,80,0,1
212528,-133.333333333333,4,2,1,60,0,0
214550,-200,4,2,1,60,0,0
215224,-133.333333333333,4,2,1,60,0,0
216741,-133.333333333333,4,2,1,35,0,0
216910,-133.333333333333,4,2,1,45,0,0
217078,-133.333333333333,4,2,1,60,0,0
219943,-200,4,2,1,60,0,0
220618,-133.333333333333,4,2,1,60,0,0

[Colours]
Combo1 : 128,128,255
Combo2 : 0,128,128
Combo3 : 192,192,192
Combo4 : 255,128,192

[HitObjects]
48,342,844,6,0,P|98:352|131:352,2,63.7500024318696,2|0|0,0:0|0:0|0:0,0:0:0:0:
51,245,1349,2,0,P|106:241|181:254,1,127.500004863739,2|0,0:0|0:0,0:0:0:0:
219,322,1855,2,0,L|206:393,1,63.7500024318696,2|0,0:0|0:0,0:0:0:0:
263,234,2192,5,2,0:0:0:0:
345,296,2360,1,0,0:0:0:0:
447,290,2529,1,0,0:0:0:0:
508,208,2697,1,2,0:0:0:0:
508,208,3203,2,0,L|505:136,1,63.7500024318696,2|0,0:0|0:0,0:0:0:0:
471,51,3540,6,0,P|438:82|282:104,1,191.250007295609,2|0,0:0|0:0,0:0:0:0:
118,95,4214,2,0,P|210:75|298:108,1,191.250007295609,2|0,0:0|0:0,0:0:0:0:
315,203,4888,2,0,P|282:234|126:256,1,191.250007295609,2|0,0:0|0:0,0:0:0:0:
90,187,5563,2,0,L|86:124,1,63.7500024318696,2|0,0:0|0:0,0:0:0:0:
4,133,5900,2,0,L|9:205,1,63.7500024318696,2|0,0:0|0:0,0:0:0:0:
105,94,6237,6,0,P|133:107|164:116,2,63.7500024318696,2|0|0,0:0|0:0|0:0,0:0:0:0:
123,2,6742,2,0,P|178:11|246:45,1,127.500004863739,2|0,0:0|0:0,0:0:0:0:
252,127,7248,2,0,L|260:212,1,63.7500024318696,2|0,0:0|0:0,0:0:0:0:
206,256,7585,5,2,0:0:0:0:
322,250,7754,1,0,0:0:0:0:
430,209,7922,1,0,0:0:0:0:
512,126,8091,1,2,0:0:0:0:
512,126,8596,2,0,L|507:53,1,63.7500024318696,2|0,0:0|0:0,0:0:0:0:
441,15,8933,6,0,P|394:26|369:41,1,63.7500024318696,2|0,0:0|0:0,0:0:0:0:
283,144,9270,1,0,0:0:0:0:
283,144,9439,2,0,P|312:156|414:161,1,127.500004863739,2|0,0:0|0:0,0:0:0:0:
455,101,9945,1,0,0:0:0:0:
451,262,10113,1,0,0:0:0:0:
451,262,10197,1,0,0:0:0:0:
451,262,10282,6,0,L|461:337,1,63.7500024318696,2|0,0:0|0:0,0:0:0:0:
349,285,10619,2,0,L|359:360,1,63.7500024318696,2|0,0:0|0:0,0:0:0:0:
247,308,10956,2,0,L|257:383,1,63.7500024318696,2|0,0:0|0:0,0:0:0:0:
176,100,11461,2,0,L|181:46,1,31.8750012159348
195,35,11630,6,2,B|162:71|162:71|111:81|54:63,1,152.999995330811,6|0,1:2|1:0,0:1:0:0:
0,15,12136,1,0,0:0:0:0:
68,163,12304,1,0,1:0:0:0:
68,163,12473,1,0,0:0:0:0:
124,0,12641,1,0,1:0:0:0:
259,99,12810,1,0,0:0:0:0:
259,99,12894,1,0,0:0:0:0:
259,99,12978,6,0,P|303:84|343:79,1,76.4999976654053,0|0,1:0|0:0,0:0:0:0:
436,167,13315,2,0,P|426:212|411:249,1,76.4999976654053,0|0,1:0|0:0,0:0:0:0:
454,327,13652,1,0,1:0:0:0:
454,327,13737,1,0,0:0:0:0:
454,327,13821,1,0,0:0:0:0:
331,231,13990,1,0,1:0:0:0:
320,366,14158,1,0,0:0:0:0:
212,298,14327,6,2,P|139:303|61:339,1,152.999995330811,2|0,1:3|0:0,0:1:0:0:
15,265,14832,2,0,P|38:201|43:180,1,76.4999976654053,2|0,0:3|1:0,0:0:0:0:
7,120,15169,1,0,0:0:0:0:
200,130,15338,1,0,1:0:0:0:
200,130,15422,1,0,0:0:0:0:
200,130,15506,1,0,0:0:0:0:
144,31,15675,6,0,P|117:79|111:116,1,76.4999976654053,0|0,1:0|0:0,0:0:0:0:
255,229,16012,2,0,P|276:197|287:160,1,76.4999976654053,0|0,1:0|0:0,0:0:0:0:
271,82,16349,1,0,1:0:0:0:
456,135,16518,2,0,L|461:214,1,76.4999976654053,2|0,0:0|0:0,0:0:0:0:
335,298,16855,2,0,B|349:254,1,38.2499988327027,2|0,0:0|0:0,0:0:0:0:
356,229,17023,6,2,L|364:402,1,152.999995330811,6|0,1:2|1:0,0:1:0:0:
446,322,17529,1,0,0:0:0:0:
246,307,17697,2,0,L|248:384,1,76.4999976654053,0|0,1:0|0:0,0:0:0:0:
457,295,18035,2,0,P|453:220|450:200,1,76.4999976654053,0|0,1:0|0:0,0:0:0:0:
453,218,18287,1,0,0:0:0:0:
453,218,18372,5,0,1:0:0:0:
34,362,18709,2,0,L|44:260,1,76.4999976654053,0|0,1:0|0:0,0:0:0:0:
164,227,19046,1,0,1:0:0:0:
48,166,19214,1,0,1:0:0:0:
178,31,19383,2,0,L|168:133,1,76.4999976654053,0|0,1:0|0:0,0:0:0:0:
28,139,19720,5,2,1:1:0:0:
195,127,19888,1,2,1:1:0:0:
293,264,20057,2,0,L|273:360,1,76.4999976654053,0|0,1:0|1:0,0:0:0:0:
213,158,20394,5,0,1:0:0:0:
287,364,20563,1,0,1:0:0:0:
473,242,20731,1,0,1:0:0:0:
473,242,20815,1,0,1:0:0:0:
473,242,20900,1,0,1:0:0:0:
473,242,20984,1,0,1:0:0:0:
473,242,21068,6,0,L|464:308,1,38.2499988327027,0|0,1:0|0:0,0:0:0:0:
400,331,21237,1,0,1:0:0:0:
325,254,21405,2,0,L|316:320,1,38.2499988327027,0|0,1:0|0:0,0:0:0:0:
252,343,21574,1,0,1:0:0:0:
177,266,21742,2,0,L|168:332,1,38.2499988327027,0|0,1:0|0:0,0:0:0:0:
73,339,21911,2,0,L|82:273,1,38.2499988327027,0|0,1:0|0:0,0:0:0:0:
437,129,22248,6,0,L|446:63,2,38.2499988327027,0|0|2,1:0|0:0|0:3,0:0:0:0:
374,188,22585,1,0,1:0:0:0:
389,23,22754,1,0,1:0:0:0:
389,23,22922,1,0,1:0:0:0:
387,208,23091,6,2,B|401:250|401:250|383:328,1,118.999996368408,2|0,1:1|0:0,0:1:0:0:
12,328,23596,6,0,P|61:300|96:290,1,76.4999976654053,0|0,1:0|0:0,0:0:0:0:
214,326,23933,2,0,P|263:354|298:364,1,76.4999976654053,0|0,1:0|0:0,0:0:0:0:
500,323,24270,1,0,1:0:0:0:
500,323,24355,1,0,1:0:0:0:
500,323,24439,6,2,B|446:164|522:263|477:88,1,229.499992996216,2|0,1:1|0:0,0:1:0:0:
331,10,25113,5,0,1:0:0:0:
331,10,25282,1,0,1:0:0:0:
315,168,25450,1,0,1:0:0:0:
315,168,25619,1,0,1:0:0:0:
316,31,25787,6,2,L|326:149,1,118.999996368408,2|0,1:1|0:0,0:1:0:0:
227,237,26293,6,0,P|182:256|150:258,1,76.4999976654053,0|0,1:0|0:0,0:0:0:0:
9,125,26630,2,0,P|46:129|81:146,1,76.4999976654053,0|0,1:0|0:0,0:0:0:0:
62,284,26967,1,0,1:0:0:0:
62,284,27051,1,0,1:0:0:0:
62,284,27136,1,2,1:1:0:0:
173,88,27304,1,0,1:0:0:0:
173,88,27388,1,0,1:0:0:0:
173,88,27473,2,2,L|169:175,1,76.4999976654053,2|0,1:1|0:0,0:1:0:0:
60,258,27810,6,0,P|63:198|69:174,2,76.4999976654053,8|0|0,0:2|1:0|1:0,0:0:0:0:
239,229,28315,2,0,P|271:178|288:160,2,76.4999976654053,8|0|0,0:2|1:0|1:0,0:0:0:0:
408,293,28821,2,0,P|461:265|485:258,2,76.4999976654053,8|0|0,0:2|1:0|1:0,0:0:0:0:
356,378,29327,5,8,0:0:0:0:
334,55,29664,1,0,1:0:0:0:
334,55,29748,1,0,1:0:0:0:
334,55,29833,1,8,0:0:0:0:
194,118,30001,1,8,0:3:0:0:
334,55,30169,2,0,P|351:115|344:217,1,152.999995330811,0|4,0:0|1:1,0:0:0:0:
256,192,30591,12,2,31855,0:0:0:0:
75,256,32192,6,0,L|78:337,1,76.4999976654053,2|0,0:0|0:0,0:0:0:0:
174,247,32529,2,0,L|177:328,1,76.4999976654053,2|0,0:0|0:0,0:0:0:0:
273,238,32866,2,0,L|276:319,1,76.4999976654053,2|0,0:0|0:0,0:0:0:0:
343,367,33203,6,0,P|407:374|486:345,1,136,2|0,1:2|1:0,0:0:0:0:
430,264,33709,1,0,0:0:0:0:
492,121,33877,2,0,L|497:189,1,68,0|0,1:0|0:0,0:0:0:0:
314,85,34214,1,0,1:0:0:0:
314,85,34383,2,0,L|309:152,2,68,0|0|0,0:0|1:0|0:0,0:0:0:0:
206,188,34888,6,0,P|190:230|186:263,1,68,0|0,1:0|0:0,0:0:0:0:
332,365,35226,2,0,P|325:331|312:300,1,68,0|0,1:0|0:0,0:0:0:0:
353,233,35563,1,0,1:0:0:0:
353,233,35731,1,0,0:0:0:0:
204,370,35900,6,0,P|161:372|67:355,1,136,2|0,1:2|1:0,0:0:0:0:
69,355,36405,1,0,0:0:0:0:
5,289,36574,2,0,L|17:211,1,68,0|0,1:0|0:0,0:0:0:0:
82,175,36911,1,0,1:0:0:0:
82,175,37079,1,0,0:0:0:0:
26,78,37248,6,0,L|108:74,1,68,0|0,1:0|0:0,0:0:0:0:
252,154,37585,2,0,L|170:158,1,68,2|0,1:2|0:0,0:0:0:0:
273,253,37922,2,0,L|191:257,1,68,2|0,1:2|0:0,0:0:0:0:
294,352,38259,2,0,L|212:356,1,68,2|0,1:2|0:0,0:0:0:0:
398,287,38596,6,0,B|417:197|380:239|400:147,1,136,2|0,1:2|1:0,0:0:0:0:
398,153,39102,1,0,0:0:0:0:
512,55,39270,2,0,P|472:78|438:87,1,68,0|0,1:0|0:0,0:0:0:0:
352,73,39608,1,0,1:0:0:0:
274,17,39776,2,0,P|240:13|206:13,2,68,0|0|0,0:0|1:0|0:0,0:0:0:0:
184,107,40282,6,0,P|180:152|180:187,1,68,0|0,1:0|0:0,0:0:0:0:
62,227,40619,2,0,P|66:182|66:147,1,68,0|0,1:0|0:0,0:0:0:0:
161,273,40956,2,0,L|228:271,1,68,0|0,1:0|0:0,0:0:0:0:
331,315,41293,6,0,P|401:302|416:298,1,76.4999976654053,2|0,1:2|0:0,0:0:0:0:
498,317,41630,1,0,1:0:0:0:
454,152,41799,1,0,0:0:0:0:
454,152,41883,1,0,0:0:0:0:
454,152,41967,2,0,L|458:236,1,76.4999976654053,0|0,1:0|0:0,0:0:0:0:
457,228,42220,1,0,0:0:0:0:
457,228,42304,1,0,1:0:0:0:
356,196,42473,1,0,0:0:0:0:
261,200,42641,5,0,1:0:0:0:
232,201,42725,1,0,0:0:0:0:
203,202,42809,1,0,0:0:0:0:
175,204,42893,1,0,0:0:0:0:
146,205,42978,2,0,L|140:257,1,38.2499988327027,0|8,1:0|0:3,0:0:0:0:
73,140,43147,2,8,L|66:88,1,38.2499988327027,8|8,0:3|0:3,0:3:0:0:
16,210,43315,1,0,1:0:0:0:
18,238,43399,1,0,0:0:0:0:
20,267,43483,1,0,0:0:0:0:
22,295,43567,1,0,0:0:0:0:
25,324,43652,5,0,1:0:0:0:
486,324,43990,5,6,1:2:0:0:
396,309,44158,1,0,0:0:0:0:
396,309,44242,1,0,0:0:0:0:
396,309,44327,2,0,P|400:268|410:215,1,76.4999976654053,0|0,1:0|0:0,0:0:0:0:
166,148,44664,1,0,1:0:0:0:
237,230,44832,1,2,0:2:0:0:
317,160,45001,1,0,1:0:0:0:
249,76,45169,2,0,L|240:24,2,38.2499988327027,2|0|0,0:2|0:0|1:0,0:0:0:0:
176,196,45506,1,0,0:0:0:0:
41,134,45675,5,0,1:0:0:0:
41,134,45843,2,0,P|83:129|129:120,1,76.4999976654053,0|0,0:0|1:0,0:0:0:0:
74,308,46181,2,0,L|88:219,1,76.4999976654053,2|0,0:2|1:0,0:0:0:0:
328,230,46518,6,0,P|276:226|157:248,1,152.999995330811,2|0,0:2|0:0,0:0:0:0:
176,241,46939,1,0,0:0:0:0:
176,241,47023,1,0,1:0:0:0:
284,147,47192,2,0,L|303:99,2,38.2499988327027,0|0|0,0:0|0:0|1:0,0:0:0:0:
263,313,47529,1,2,0:2:0:0:
200,124,47697,2,0,L|184:25,1,76.4999976654053,0|2,1:0|0:2,0:0:0:0:
254,333,48035,5,0,1:0:0:0:
334,261,48203,1,0,0:0:0:0:
334,261,48287,1,0,0:0:0:0:
334,261,48372,2,0,P|382:271|415:278,1,76.4999976654053,0|0,1:0|0:0,0:0:0:0:
178,210,48709,1,0,1:0:0:0:
82,233,48877,1,2,0:2:0:0:
171,310,49046,1,0,1:0:0:0:
72,334,49214,1,2,0:2:0:0:
193,199,49383,6,0,L|186:112,1,76.4999976654053,0|0,1:0|0:0,0:0:0:0:
186,122,49636,1,0,0:0:0:0:
186,122,49720,2,0,P|143:136|100:151,1,76.4999976654053,0|0,1:0|0:0,0:0:0:0:
271,77,50057,2,0,P|291:38|310:2,1,76.4999976654053,0|2,1:0|0:2,0:0:0:0:
193,199,50394,1,0,1:0:0:0:
198,32,50563,1,2,0:2:0:0:
288,169,50731,6,0,P|347:173|466:184,1,152.999995330811,0|0,1:0|1:0,0:0:0:0:
438,330,51237,1,0,1:0:0:0:
438,330,51321,1,0,1:0:0:0:
438,330,51405,2,0,P|413:310|401:296,1,38.2499988327027,0|0,1:0|1:0,1:0:0:0:
329,312,51574,2,0,P|331:277|334:257,1,38.2499988327027,0|0,1:0|1:0,1:0:0:0:
259,241,51742,2,0,P|275:215|287:198,1,38.2499988327027,0|0,1:0|1:0,1:0:0:0:
365,199,51911,1,0,1:0:0:0:
345,330,52079,6,0,B|207:298|262:365|101:332,1,229.499992996216,4|0,1:3|0:0,0:0:0:0:
112,331,52754,1,2,0:2:0:0:
119,328,52922,1,2,0:2:0:0:
124,333,53091,1,2,0:2:0:0:
119,339,53259,1,2,0:2:0:0:
207,249,53428,6,0,L|222:196,2,50.9999984436036,0|0|0,1:0|1:0|1:0,1:0:0:0:
207,249,53765,2,0,L|111:244,1,76.4999976654053,8|0,1:2|0:0,0:0:0:0:
26,258,54102,1,0,0:3:0:0:
132,261,54270,2,0,B|191:265|191:265|221:284|221:284|293:287,1,152.999995330811,8|0,0:2|0:0,0:0:0:0:
419,300,54776,5,4,1:0:0:0:
301,51,55113,1,2,0:0:0:0:
422,66,55282,1,0,1:0:0:0:
90,333,55619,1,4,1:3:0:0:
248,306,55787,1,4,1:3:0:0:
150,191,55956,6,0,B|93:131|75:178|1:82,1,152.999995330811,4|0,1:0|0:0,0:0:0:0:
305,245,56461,2,0,P|341:226|377:194,1,76.4999976654053,2|0,0:0|0:0,0:0:0:0:
144,223,56799,2,0,L|127:324,1,76.4999976654053,2|0,0:0|0:0,0:0:0:0:
374,175,57136,2,0,L|387:86,1,76.4999976654053,4|0,0:0|0:0,0:0:0:0:
288,59,57473,5,4,1:0:0:0:
204,96,57641,2,0,P|207:148|217:177,1,76.4999976654053,0|0,1:0|0:0,0:0:0:0:
300,373,57978,1,0,1:0:0:0:
191,74,58315,5,4,1:3:0:0:
291,178,58484,1,4,1:3:0:0:
364,57,58652,2,0,P|411:51|490:127,1,152.999995330811,4|0,1:0|0:0,0:0:0:0:
251,103,59158,6,0,P|210:128|180:141,1,76.4999976654053,4|0,1:2|0:0,0:0:0:0:
200,332,59495,2,0,P|204:286|212:242,1,76.4999976654053,0|0,1:0|1:0,1:0:0:0:
215,246,59748,1,0,1:0:0:0:
224,239,59832,1,0,1:0:0:0:
235,236,59917,1,0,1:0:0:0:
246,237,60001,1,0,1:0:0:0:
256,240,60085,1,0,1:0:0:0:
265,246,60169,5,4,1:0:0:0:
363,197,60338,1,0,1:0:0:0:
201,151,60506,1,0,1:0:0:0:
201,151,60675,1,0,1:0:0:0:
347,76,60843,2,0,P|407:85|490:97,1,114.749996498108,0|0,1:0|0:0,0:0:0:0:
460,92,61181,1,0,1:0:0:0:
284,150,61349,1,0,1:0:0:0:
260,57,61518,5,0,1:0:0:0:
207,200,61686,2,0,L|39:217,1,152.999995330811,0|0,1:0|1:0,0:0:0:0:
47,211,62108,1,0,1:0:0:0:
40,207,62192,2,0,P|30:262|54:324,1,114.749996498108,0|0,1:0|0:0,0:0:0:0:
111,364,62529,2,0,P|123:326|118:282,1,76.4999976654053
68,111,62866,5,4,1:2:0:0:
68,111,63203,1,0,1:0:0:0:
167,120,63372,1,0,1:0:0:0:
262,126,63540,1,2,1:2:0:0:
184,210,63709,5,0,1:0:0:0:
184,210,63793,1,0,1:0:0:0:
184,210,63877,1,2,1:2:0:0:
252,42,64046,1,0,1:0:0:0:
394,144,64214,1,2,1:2:0:0:
288,138,64383,2,0,L|282:194,2,38.2499988327027,4|0|8,1:3|1:0|1:3,1:0:0:0:
346,302,64720,5,0,1:0:0:0:
394,144,64888,2,0,L|399:209,1,38.2499988327027,8|0,1:3|0:0,0:0:0:0:
457,269,65057,2,0,L|462:334,1,38.2499988327027,4|0,1:3|0:0,0:0:0:0:
253,264,65226,1,0,1:0:0:0:
215,270,65310,1,0,1:0:0:0:
177,276,65394,1,0,1:0:0:0:
139,282,65478,1,0,1:0:0:0:
100,288,65563,5,0,0:0:0:0:
256,192,66911,12,4,67922,1:3:0:0:
87,49,68259,6,0,P|87:101|76:147,1,93.5000028533936,6|0,1:2|0:0,0:0:0:0:
137,207,68596,1,8,1:0:0:0:
60,292,68764,1,0,0:0:0:0:
155,384,68933,2,0,L|149:284,1,93.5000028533936,0|0,1:0|0:0,0:0:0:0:
26,205,69270,1,8,1:0:0:0:
168,25,69438,6,0,P|188:76|193:123,1,93.5000028533936,2|0,0:0|1:0,0:0:0:0:
300,208,69775,2,0,P|320:157|325:110,1,93.5000028533936,2|8,0:0|1:0,0:0:0:0:
432,25,70112,2,0,P|452:76|457:123,1,93.5000028533936,2|0,0:0|1:0,0:0:0:0:
510,205,70450,2,0,P|501:259|482:302,1,93.5000028533936,2|8,0:0|1:0,0:0:0:0:
401,369,70787,1,0,0:0:0:0:
401,369,70871,1,0,0:0:0:0:
401,369,70955,6,0,B|322:361|322:361|296:377|296:377|215:367,1,187.000005706787,2|8,1:2|1:0,0:0:0:0:
147,273,71461,1,0,0:0:0:0:
147,273,71545,1,0,0:0:0:0:
147,273,71629,1,0,1:0:0:0:
47,374,71798,1,0,0:0:0:0:
4,240,71966,1,8,1:0:0:0:
47,374,72135,1,0,0:0:0:0:
74,174,72303,6,0,P|71:120|79:72,1,93.5000028533936,2|0,1:2|0:0,0:0:0:0:
76,81,72556,1,0,0:0:0:0:
76,81,72641,1,8,1:0:0:0:
259,250,72809,1,0,0:0:0:0:
259,250,72893,1,0,0:0:0:0:
259,250,72978,2,0,L|163:249,1,93.5000028533936,0|0,1:0|0:0,0:0:0:0:
47,374,73315,2,0,P|127:357|209:368,1,140.25000428009,8|0,1:0|0:0,0:0:0:0:
184,361,73652,5,6,1:2:0:0:
327,22,73989,1,8,1:0:0:0:
210,83,74157,1,0,0:0:0:0:
210,83,74242,1,0,0:0:0:0:
210,83,74326,1,0,1:0:0:0:
298,182,74494,1,0,0:0:0:0:
416,122,74663,2,0,P|440:191|444:265,1,140.25000428009,8|0,1:0|0:0,0:0:0:0:
444,257,75000,5,6,1:2:0:0:
377,349,75169,1,0,0:0:0:0:
216,245,75337,1,8,1:0:0:0:
156,344,75506,1,0,0:0:0:0:
156,344,75590,1,0,0:0:0:0:
156,344,75674,1,0,1:0:0:0:
268,344,75843,1,0,0:0:0:0:
127,246,76011,2,0,P|132:176|170:118,1,140.25000428009,8|0,1:0|0:0,0:0:0:0:
169,39,76348,5,2,1:2:0:0:
203,41,76432,1,0,1:0:0:0:
238,44,76516,1,0,1:0:0:0:
273,47,76600,1,0,1:0:0:0:
308,50,76685,1,4,1:2:0:0:
387,132,76854,1,0,1:0:0:0:
387,132,76938,1,0,1:0:0:0:
387,132,77023,2,0,L|404:14,1,93.5000028533936,0|0,1:0|0:0,0:0:0:0:
479,3,77360,1,8,1:0:0:0:
463,257,77528,5,6,1:2:0:0:
471,265,77865,1,0,1:0:0:0:
471,265,77950,1,0,0:0:0:0:
471,265,78034,2,0,L|479:194,1,46.7500014266968,0|0,1:0|0:0,0:0:0:0:
372,308,78202,2,0,L|380:379,1,46.7500014266968
287,243,78371,1,0,1:0:0:0:
188,286,78539,1,0,1:0:0:0:
145,187,78708,1,0,1:0:0:0:
244,144,78876,1,0,1:0:0:0:
276,42,79045,6,0,P|339:33|412:103,1,140.25000428009,0|0,1:0|0:0,0:0:0:0:
399,74,79382,2,0,P|425:123|445:159,1,93.5000028533936,8|0,1:0|0:0,0:0:0:0:
303,281,79719,1,2,1:2:0:0:
512,274,79888,2,0,P|469:252|399:245,1,93.5000028533936,2|8,0:2|1:0,0:0:0:0:
132,93,80225,5,0,1:0:0:0:
132,93,80309,1,0,1:0:0:0:
132,93,80393,1,0,1:0:0:0:
240,217,80562,2,0,L|252:116,1,93.5000028533936,0|8,0:0|1:0,0:0:0:0:
132,233,80899,2,0,L|77:249,2,46.7500014266968,2|0|0,0:2|0:0|1:0,0:0:0:0:
328,183,81236,1,2,0:2:0:0:
276,44,81405,1,8,1:0:0:0:
162,144,81573,1,0,1:0:0:0:
162,144,81657,1,0,1:0:0:0:
162,144,81742,6,0,L|143:292,1,140.25000428009,0|0,1:0|0:0,0:0:0:0:
144,283,82079,1,8,1:0:0:0:
220,340,82247,1,2,0:2:0:0:
248,338,82332,1,2,0:2:0:0:
275,337,82416,2,0,L|324:334,1,46.7500014266968,0|0,1:0|0:0,0:0:0:0:
366,259,82584,1,2,0:2:0:0:
441,368,82753,1,8,1:0:0:0:
388,164,82921,6,0,P|434:147|479:124,1,93.5000028533936,0|0,0:0|1:0,0:0:0:0:
155,278,83258,2,0,P|109:295|64:318,1,93.5000028533936,0|8,0:0|1:0,0:0:0:0:
245,157,83596,1,4,1:3:0:0:
245,157,83680,1,4,1:3:0:0:
245,157,83764,1,0,1:0:0:0:
292,309,83933,1,8,1:3:0:0:
328,145,84101,1,8,1:0:0:0:
169,205,84270,1,4,1:3:0:0:
298,223,84438,5,4,1:2:0:0:
164,118,84607,1,4,1:3:0:0:
325,60,84775,2,0,P|382:53|444:37,1,93.5000028533936,8|0,1:1|1:0,0:0:0:0:
417,45,85028,1,0,1:0:0:0:
417,45,85112,2,0,P|423:105|425:140,1,93.5000028533936,2|2,1:2|0:2,0:0:0:0:
297,322,85450,1,8,1:0:0:0:
443,321,85618,1,2,1:2:0:0:
299,177,85787,5,4,1:3:0:0:
370,273,85955,1,4,1:3:0:0:
210,326,86124,1,8,1:0:0:0:
274,98,86292,2,0,L|289:32,1,46.7500014266968,0|0,1:0|1:0,0:0:0:0:
299,177,86461,5,2,1:2:0:0:
144,115,86629,1,2,1:2:0:0:
69,259,86798,2,0,P|115:233|142:198,1,93.5000028533936,8|2,1:0|0:2,0:0:0:0:
210,26,87135,5,0,1:0:0:0:
326,344,87472,1,2,1:2:0:0:
468,315,87641,2,0,B|494:268|504:229|504:229|489:186|460:142,1,187.000005706787,4|0,1:2|1:0,0:0:0:0:
326,344,88146,1,2,1:2:0:0:
90,333,88315,1,4,1:2:0:0:
158,251,88483,5,0,1:0:0:0:
165,214,88567,1,0,1:0:0:0:
173,177,88652,1,0,1:0:0:0:
181,140,88736,1,0,1:0:0:0:
190,104,88820,2,0,L|235:113,1,46.7500014266968,0|0,1:0|1:0,1:0:0:0:
264,199,88989,2,0,L|302:165,1,46.7500014266968,0|0,1:0|1:0,1:0:0:0:
375,216,89157,2,0,L|386:160,1,46.7500014266968,0|0,1:0|1:0,1:0:0:0:
346,69,89326,5,0,1:0:0:0:
346,69,89410,1,0,1:0:0:0:
346,69,89494,1,0,1:0:0:0:
346,69,89579,1,0,1:0:0:0:
346,69,89663,2,0,B|337:136|337:136|355:178|355:178|341:269,1,187.000005706787,0|0,1:2|0:0,0:0:0:0:
256,192,99269,12,0,101629,0:0:0:0:
75,102,101966,6,0,L|80:64,3,38.2499988327027,2|0|0|0,0:0|0:0|0:0|0:0,0:0:0:0:
133,165,102303,2,0,L|217:175,1,76.4999976654053
286,127,102640,1,0,0:0:0:0:
286,127,102809,1,0,0:0:0:0:
326,249,102977,1,0,0:0:0:0:
326,249,103146,1,0,0:0:0:0:
400,175,103314,6,0,L|453:169,4,38.2499988327027,2|0|0|0|0,0:0|0:0|0:0|0:0|0:0,0:0:0:0:
290,224,103820,2,0,L|299:148,1,76.4999976654053
378,82,104157,1,0,0:0:0:0:
307,19,104326,1,0,0:0:0:0:
278,14,104410,1,0,0:0:0:0:
250,9,104494,1,0,0:0:0:0:
222,4,104578,1,0,0:0:0:0:
193,0,104663,6,0,L|206:93,1,76.4999976654053,2|0,0:0|0:0,0:0:0:0:
176,172,105000,1,0,0:0:0:0:
317,273,105168,2,0,L|229:237,1,76.4999976654053,2|0,0:0|0:0,0:0:0:0:
19,244,105505,2,0,L|93:186,1,76.4999976654053,2|0,0:0|0:0,0:0:0:0:
184,180,105842,1,0,0:0:0:0:
184,180,105926,1,0,0:0:0:0:
184,180,106011,5,2,0:0:0:0:
148,294,106179,1,0,0:0:0:0:
263,319,106348,1,0,0:0:0:0:
299,205,106517,1,0,0:0:0:0:
405,198,106685,1,2,0:0:0:0:
405,198,106854,1,0,0:0:0:0:
346,122,107022,1,2,0:0:0:0:
374,30,107191,1,0,0:0:0:0:
280,58,107359,6,0,L|197:42,2,76.4999976654053,2|0|0,0:0|0:0|0:0,0:0:0:0:
374,30,107865,1,0,0:0:0:0:
346,122,108033,1,2,0:0:0:0:
405,198,108202,1,0,0:0:0:0:
381,294,108370,1,2,0:0:0:0:
381,294,108539,1,0,0:0:0:0:
466,332,108708,6,0,L|487:245,1,76.4999976654053,2|0,0:0|0:0,0:0:0:0:
279,274,109045,2,0,L|296:348,1,76.4999976654053,0|0,0:0|3:0,0:0:0:0:
296,348,109297,1,0,3:0:0:0:
296,348,109382,6,0,L|342:361,1,38.2499988327027,0|0,3:0|3:0,3:0:0:0:
187,301,109550,2,0,L|141:313,1,38.2499988327027,0|0,3:0|3:0,3:0:0:0:
299,184,109719,2,0,L|344:196,1,38.2499988327027,0|0,3:0|3:0,3:0:0:0:
189,136,109887,2,0,L|143:148,1,38.2499988327027,0|0,3:0|3:0,3:0:0:0:
254,30,110056,5,2,0:0:0:0:
254,30,110393,1,0,0:0:0:0:
352,8,110562,2,0,L|336:103,1,76.4999976654053,2|0,0:0|0:0,0:0:0:0:
400,147,110899,2,0,L|495:163,1,76.4999976654053,2|0,0:0|0:0,0:0:0:0:
475,159,111151,1,0,0:0:0:0:
475,159,111236,1,0,0:0:0:0:
464,298,111404,5,2,0:0:0:0:
55,93,111741,1,2,0:0:0:0:
55,93,111826,1,8,0:3:0:0:
55,93,111910,1,8,0:3:0:0:
124,153,112078,2,0,L|111:239,1,76.4999976654053,2|0,0:0|1:0,0:0:0:0:
281,262,112415,1,8,0:0:0:0:
281,262,112753,5,4,1:0:0:0:
194,27,113090,1,2,0:0:0:0:
60,91,113258,1,0,1:0:0:0:
362,321,113595,1,4,1:3:0:0:
282,178,113764,1,4,1:3:0:0:
425,106,113932,6,0,P|473:148|447:250,1,152.999995330811,4|0,1:0|0:0,0:0:0:0:
465,231,114438,2,0,P|410:224|370:225,1,76.4999976654053,2|0,0:2|0:0,0:0:0:0:
293,284,114775,2,0,P|286:339|287:379,1,76.4999976654053,2|0,0:2|0:0,0:0:0:0:
229,151,115112,2,0,P|236:96|235:56,1,76.4999976654053,4|0,0:2|0:0,0:0:0:0:
158,19,115449,5,4,1:0:0:0:
73,131,115618,2,0,L|164:113,1,76.4999976654053,0|0,1:0|0:0,0:0:0:0:
438,63,115955,1,0,1:0:0:0:
259,355,116292,1,4,1:3:0:0:
149,342,116460,1,4,1:3:0:0:
38,358,116629,6,0,P|31:313|45:192,1,152.999995330811,4|0,1:0|0:0,0:0:0:0:
188,67,117135,2,0,L|111:91,1,76.4999976654053,4|0,1:2|0:0,0:0:0:0:
202,165,117472,2,0,L|182:256,1,76.4999976654053,0|0,1:0|1:0,1:0:0:0:
186,251,117724,1,0,1:0:0:0:
188,262,117809,1,0,1:0:0:0:
192,272,117893,1,0,1:0:0:0:
198,281,117977,1,0,1:0:0:0:
207,288,118062,1,0,1:0:0:0:
216,293,118146,5,0,1:0:0:0:
301,223,118314,1,0,1:0:0:0:
374,308,118483,1,0,1:0:0:0:
286,380,118651,1,0,1:0:0:0:
314,212,118820,2,0,L|442:203,1,114.749996498108,0|0,1:0|0:0,0:0:0:0:
428,203,119157,1,0,1:0:0:0:
241,152,119326,1,0,1:0:0:0:
224,245,119494,5,0,1:0:0:0:
259,63,119663,2,0,L|87:50,1,152.999995330811,0|0,1:0|1:0,0:0:0:0:
95,47,120084,1,0,1:0:0:0:
84,42,120168,2,0,P|74:110|41:156,1,114.749996498108,0|0,1:0|0:0,0:0:0:0:
40,228,120505,2,0,P|75:218|126:186,1,76.4999976654053
259,63,120842,5,0,1:0:0:0:
259,63,121179,1,0,1:0:0:0:
252,170,121348,1,0,1:0:0:0:
245,277,121517,1,2,1:2:0:0:
173,215,121685,2,0,L|86:235,1,76.4999976654053,0|2,1:0|1:2,1:0:0:0:
113,124,122022,2,0,L|25:104,1,76.4999976654053,0|2,1:0|1:2,1:0:0:0:
333,126,122359,1,4,1:3:0:0:
252,59,122528,5,8,1:3:0:0:
294,253,122696,1,0,1:0:0:0:
357,120,122865,2,0,L|414:109,1,38.2499988327027,8|0,1:3|1:0,1:0:0:0:
469,176,123033,2,0,L|412:187,1,38.2499988327027,4|0,1:3|1:0,1:0:0:0:
298,226,123202,1,0,1:0:0:0:
304,188,123286,1,0,1:0:0:0:
310,150,123370,1,0,1:0:0:0:
316,112,123454,1,0,1:0:0:0:
322,73,123539,5,0,0:0:0:0:
256,192,124887,12,4,125898,1:3:0:0:
373,304,126236,5,6,1:2:0:0:
285,195,126404,1,0,0:0:0:0:
169,272,126573,2,0,P|165:328|172:378,1,93.5000028533936,8|0,1:0|0:0,0:0:0:0:
28,192,126910,1,0,1:0:0:0:
151,109,127078,1,0,0:0:0:0:
18,42,127247,1,8,1:0:0:0:
176,105,127415,6,0,P|177:55|167:-17,1,93.5000028533936,2|0,0:0|1:0,0:0:0:0:
169,272,127752,2,0,P|119:271|47:281,1,93.5000028533936,2|8,0:0|1:0,0:0:0:0:
336,279,128089,2,0,P|335:329|345:401,1,93.5000028533936,2|0,0:0|1:0,0:0:0:0:
343,112,128427,2,0,P|393:113|465:103,1,93.5000028533936,2|8,0:0|1:0,0:0:0:0:
509,166,128764,1,0,0:0:0:0:
509,166,128848,1,0,0:0:0:0:
509,166,128932,6,0,P|507:252|485:352,1,187.000005706787,2|8,1:2|1:0,0:0:0:0:
258,365,129438,1,0,0:0:0:0:
258,365,129523,1,0,0:0:0:0:
258,365,129607,1,0,1:0:0:0:
452,342,129775,1,0,0:0:0:0:
391,266,129943,2,0,L|292:278,1,93.5000028533936,8|0,1:0|0:0,0:0:0:0:
121,118,130280,6,0,L|220:106,1,93.5000028533936,2|0,1:2|0:0,0:0:0:0:
351,41,130618,1,8,1:0:0:0:
294,182,130786,1,0,0:0:0:0:
294,182,130870,1,0,0:0:0:0:
294,182,130955,1,0,1:0:0:0:
261,24,131123,1,0,0:0:0:0:
427,5,131292,2,0,B|433:53|433:53|415:108,1,93.5000028533936,8|0,1:0|0:0,0:0:0:0:
385,299,131629,5,2,1:2:0:0:
127,85,131966,1,8,1:0:0:0:
92,236,132134,1,0,0:0:0:0:
92,236,132219,1,0,0:0:0:0:
92,236,132303,1,0,1:0:0:0:
243,271,132471,1,0,0:0:0:0:
278,120,132640,2,0,B|290:74|290:74|269:0,1,93.5000028533936,8|0,1:0|0:0,0:0:0:0:
47,26,132977,5,2,1:2:0:0:
465,26,133314,1,8,1:0:0:0:
398,137,133483,1,0,0:0:0:0:
398,137,133567,1,0,0:0:0:0:
398,137,133651,1,0,1:0:0:0:
512,159,133820,1,0,0:0:0:0:
348,50,133988,2,0,P|271:48|196:88,1,140.25000428009,8|0,1:0|0:0,0:0:0:0:
132,61,134325,5,0,1:0:0:0:
109,88,134409,1,0,1:0:0:0:
94,119,134493,1,0,1:0:0:0:
85,153,134577,1,0,1:0:0:0:
85,188,134662,1,4,1:2:0:0:
254,221,134831,1,0,1:0:0:0:
254,221,134915,1,0,1:0:0:0:
254,221,135000,2,0,L|259:328,1,93.5000028533936,0|0,1:0|0:0,0:0:0:0:
338,356,135337,1,8,1:0:0:0:
16,323,135505,5,6,1:2:0:0:
16,323,135842,2,0,L|89:329,1,46.7500014266968,0|0,1:0|0:0,0:0:0:0:
169,264,136011,2,0,L|96:258,1,46.7500014266968,0|0,1:0|0:0,0:0:0:0:
55,206,136179,2,0,L|61:133,1,46.7500014266968
144,28,136348,6,0,L|147:74,1,46.7500014266968,2|0,1:2|0:0,0:0:0:0:
233,206,136516,2,0,L|236:159,1,46.7500014266968,0|0,1:0|0:0,0:0:0:0:
322,28,136685,2,0,L|325:74,1,46.7500014266968,0|0,1:0|0:0,0:0:0:0:
411,206,136853,2,0,L|414:159,1,46.7500014266968,0|0,1:0|0:0,0:0:0:0:
500,28,137022,6,0,P|505:77|490:180,1,140.25000428009,0|0,1:0|0:0,0:0:0:0:
500,249,137359,2,0,P|494:312|491:355,1,93.5000028533936,8|0,1:0|1:0,0:0:0:0:
491,342,137612,1,0,1:0:0:0:
491,342,137696,1,0,1:0:0:0:
359,337,137865,1,2,0:2:0:0:
376,196,138033,1,8,1:0:0:0:
354,350,138202,6,0,P|301:357|242:367,1,93.5000028533936,2|0,0:2|1:0,0:0:0:0:
54,323,138539,2,0,P|107:316|166:306,1,93.5000028533936,0|8,0:0|1:0,0:0:0:0:
224,100,138876,1,0,1:0:0:0:
224,100,138960,1,0,1:0:0:0:
224,100,139044,1,0,1:0:0:0:
202,227,139213,1,2,0:2:0:0:
332,178,139382,2,0,P|326:228|324:272,1,93.5000028533936,8|2,1:0|1:2,0:0:0:0:
324,271,139634,1,0,1:0:0:0:
324,271,139719,6,0,P|388:292|474:219,1,187.000005706787,0|8,1:0|1:0,0:0:0:0:
277,89,140224,2,0,L|244:48,1,46.7500014266968,0|0,1:0|1:0,1:0:0:0:
266,180,140393,1,0,1:0:0:0:
436,51,140561,1,2,1:2:0:0:
380,158,140730,1,8,1:0:0:0:
223,38,140898,6,0,P|162:28|119:18,1,93.5000028533936,2|0,0:2|1:0,0:0:0:0:
169,197,141236,2,0,P|152:251|138:301,1,93.5000028533936,0|8,0:0|1:0,0:0:0:0:
77,138,141573,2,0,L|19:166,2,46.7500014266968,4|4|0,1:3|1:3|1:0,1:0:0:0:
271,133,141910,1,8,1:3:0:0:
164,103,142078,1,8,1:0:0:0:
290,238,142247,1,4,1:3:0:0:
335,58,142415,5,4,1:2:0:0:
239,154,142584,1,4,1:3:0:0:
368,221,142752,2,0,P|421:226|462:230,1,93.5000028533936,8|2,1:0|1:2,1:0:0:0:
461,229,143005,1,2,1:2:0:0:
461,229,143089,1,0,1:0:0:0:
456,333,143258,1,2,1:2:0:0:
358,319,143427,1,8,1:0:0:0:
385,131,143595,1,2,1:2:0:0:
212,209,143764,5,4,1:3:0:0:
279,338,143932,1,4,1:3:0:0:
168,226,144101,1,8,1:0:0:0:
241,98,144269,1,2,1:2:0:0:
241,98,144353,1,2,1:2:0:0:
241,98,144438,1,0,1:0:0:0:
205,251,144606,1,2,1:2:0:0:
56,251,144775,2,0,P|37:189|72:123,1,140.25000428009,8|0,1:0|0:0,0:0:0:0:
69,124,145112,6,0,P|125:139|168:145,1,93.5000028533936,0|0,1:0|0:0,0:0:0:0:
469,180,145449,1,2,1:2:0:0:
415,272,145618,2,0,P|353:294|272:207,1,187.000005706787,4|0,1:2|1:0,0:0:0:0:
353,153,146123,5,2,1:2:0:0:
243,23,146292,1,4,1:2:0:0:
178,107,146460,1,0,1:0:0:0:
173,144,146544,1,0,1:0:0:0:
168,181,146629,1,0,1:0:0:0:
164,218,146713,1,0,1:0:0:0:
160,255,146797,6,0,L|124:294,1,46.7500014266968,0|0,1:0|1:0,1:0:0:0:
211,330,146966,2,0,L|199:382,1,46.7500014266968,0|0,1:0|1:0,1:0:0:0:
331,142,147134,6,0,L|367:181,1,46.7500014266968,0|0,1:0|1:0,1:0:0:0:
303,233,147303,2,0,L|315:285,1,46.7500014266968,0|0,1:0|1:0,1:0:0:0:
401,258,147471,1,0,1:0:0:0:
405,256,147556,1,0,1:0:0:0:
409,254,147640,1,0,1:0:0:0:
413,252,147724,1,0,1:0:0:0:
417,250,147809,5,6,1:2:0:0:
195,57,148146,1,0,0:0:0:0:
95,134,148314,1,4,1:2:0:0:
95,134,148651,2,8,L|103:212,1,76.4999976654053,8|4,0:3|0:3,0:3:0:0:
417,134,148988,5,4,1:2:0:0:
317,57,149157,1,0,0:0:0:0:
417,134,149325,2,8,L|409:212,1,76.4999976654053,0|8,0:0|0:0,0:3:0:0:
321,335,149662,1,0,3:0:0:0:
318,306,149746,1,0,3:0:0:0:
316,277,149830,1,0,3:0:0:0:
314,249,149914,1,0,3:0:0:0:
311,220,149999,1,8,3:0:0:0:
508,116,150168,1,8,0:0:0:0:
79,308,150505,5,6,1:2:0:0:
409,210,150842,1,0,0:0:0:0:
433,308,151011,1,6,1:2:0:0:
335,332,151179,1,0,0:0:0:0:
311,234,151348,1,8,0:3:0:0:
218,203,151516,1,2,0:3:0:0:
473,136,151685,1,4,1:2:0:0:
473,136,152022,5,0,1:0:0:0:
387,11,152191,2,0,L|394:88,1,76.4999976654053,12|0,0:0|0:0,0:0:0:0:
420,212,152528,1,0,1:0:0:0:
322,154,152696,1,0,1:0:0:0:
293,150,152780,1,0,1:0:0:0:
265,153,152864,1,0,1:0:0:0:
237,163,152948,1,0,1:0:0:0:
213,177,153033,2,0,L|217:222,1,38.2499988327027,0|0,1:0|0:0,0:0:0:0:
131,90,153202,5,6,1:2:0:0:
298,375,153539,1,0,0:0:0:0:
413,328,153707,1,6,1:2:0:0:
265,252,153876,1,0,0:0:0:0:
437,223,154044,1,8,0:3:0:0:
352,265,154213,1,2,0:3:0:0:
494,300,154382,5,4,1:2:0:0:
167,307,154719,1,0,0:0:0:0:
236,156,154887,2,0,L|241:232,1,76.4999976654053,8|0,0:0|0:0,0:0:0:0:
241,232,155140,1,0,0:0:0:0:
241,232,155224,1,8,0:3:0:0:
216,384,155393,1,8,0:3:0:0:
69,311,155561,1,4,0:3:0:0:
167,307,155730,1,4,0:3:0:0:
20,217,155898,6,0,L|31:108,1,76.4999976654053,4|0,1:2|0:0,0:0:0:0:
91,73,156235,1,8,1:0:0:0:
219,149,156404,2,0,L|208:40,1,76.4999976654053,4|0,1:2|0:0,0:0:0:0:
148,5,156741,1,8,0:3:0:0:
285,10,156910,1,4,0:3:0:0:
422,15,157078,6,0,B|430:74|430:74|419:100|419:100|429:170,1,152.999995330811,4|0,1:2|1:0,0:0:0:0:
502,220,157584,1,8,0:0:0:0:
443,285,157752,1,0,3:0:0:0:
414,282,157836,1,0,3:0:0:0:
385,280,157920,1,0,3:0:0:0:
357,277,158004,1,0,3:0:0:0:
328,275,158089,2,0,L|322:220,1,38.2499988327027
258,337,158258,1,0,1:0:0:0:
258,337,158342,1,0,1:0:0:0:
258,337,158427,1,0,1:0:0:0:
258,337,158511,1,0,1:0:0:0:
258,337,158595,5,2,1:1:0:0:
27,229,158932,2,0,P|68:205|99:181,1,76.4999976654053,0|2,1:0|1:1,1:0:0:0:
91,187,159185,1,0,1:0:0:0:
91,187,159269,1,0,1:0:0:0:
179,120,159438,1,0,0:0:0:0:
84,72,159606,1,0,1:2:0:0:
194,227,159775,6,0,P|237:231|360:247,1,152.999995330811,2|0,1:1|1:0,0:0:0:0:
403,40,160280,1,8,1:2:0:0:
486,106,160449,1,2,1:2:0:0:
486,106,160533,1,2,1:2:0:0:
486,106,160618,2,0,L|475:198,1,76.4999976654053,0|2,1:3|0:2,0:0:0:0:
341,362,160955,2,0,P|351:317|331:228,1,114.749996498108,8|0,1:2|0:0,0:0:0:0:
342,250,161292,6,0,P|396:257|515:272,1,152.999995330811,2|0,1:1|1:0,0:0:0:0:
236,282,161797,1,2,1:1:0:0:
236,282,161882,1,0,1:0:0:0:
236,282,161966,1,0,1:0:0:0:
221,171,162134,1,0,1:0:0:0:
116,181,162303,1,0,1:0:0:0:
124,291,162471,2,0,P|81:299|40:303,1,76.4999976654053,2|0,1:1|0:0,0:0:0:0:
178,71,162809,5,0,1:0:0:0:
254,111,162977,1,8,1:2:0:0:
182,161,163146,1,2,1:2:0:0:
182,161,163230,1,2,1:2:0:0:
182,161,163314,1,0,1:0:0:0:
250,26,163483,1,2,1:2:0:0:
250,26,163651,1,8,1:2:0:0:
506,86,163988,6,0,L|364:72,1,114.749996498108,4|0,1:2|0:0,0:0:0:0:
391,74,164325,1,0,1:0:0:0:
269,191,164494,2,0,P|321:199|437:158,1,152.999995330811,4|0,1:2|1:0,0:0:0:0:
232,72,165000,2,0,P|189:74|155:84,1,76.4999976654053,0|4,1:0|1:3,1:0:0:0:
157,83,165252,1,4,1:3:0:0:
157,83,165337,1,4,1:3:0:0:
125,221,165505,1,4,1:3:0:0:
7,150,165674,1,4,1:3:0:0:
99,25,165842,5,4,1:2:0:0:
331,249,166179,1,8,1:3:0:0:
306,131,166348,1,4,1:3:0:0:
242,283,166516,1,4,1:3:0:0:
384,319,166685,6,0,P|427:303|470:294,1,76.4999976654053,0|0,1:0|0:0,0:0:0:0:
488,209,167022,1,8,0:2:0:0:
488,209,167191,1,4,0:3:0:0:
436,133,167359,1,4,0:3:0:0:
436,133,167528,1,4,0:3:0:0:
347,154,167696,2,0,P|336:197|320:240,1,76.4999976654053,8|0,0:2|0:0,0:0:0:0:
165,351,168033,5,0,1:0:0:0:
348,312,168202,1,0,1:0:0:0:
132,320,168370,1,0,1:0:0:0:
385,341,168539,1,0,1:0:0:0:
260,200,169382,5,2,0:0:0:0:
256,192,177471,12,0,179831,0:0:0:0:
256,192,180168,5,2,0:0:0:0:
256,192,180674,1,0,0:0:0:0:
188,128,180842,2,0,P|192:80|197:52,2,59.4999981842042,2|0|0,0:0|0:0|0:0,0:0:0:0:
114,164,181348,6,0,P|125:205|113:296,1,118.999996368408,2|0,0:0|0:0,0:0:0:0:
398,220,182022,2,0,P|387:179|399:88,1,118.999996368408,2|0,0:0|0:0,0:0:0:0:
319,32,182528,2,0,L|312:95,1,59.4999981842042
246,145,182865,5,2,3:2:0:0:
246,145,183202,1,0,3:0:0:0:
312,91,183370,2,0,L|371:87,1,59.4999981842042,2|0,0:0|3:0,0:0:0:0:
180,91,183707,2,0,L|120:87,1,59.4999981842042,0|0,0:0|3:0,0:0:0:0:
52,147,184044,6,0,L|48:206,1,59.4999981842042,2|0,0:0|3:0,0:0:0:0:
152,257,184382,2,0,L|148:197,1,59.4999981842042,2|0,0:0|3:0,0:0:0:0:
148,197,184719,1,0,0:0:0:0:
245,210,184887,2,0,P|238:294|241:342,1,118.999996368408,2|2,3:2|3:2,0:0:0:0:
239,328,185561,6,0,L|299:346,1,59.4999981842042,2|0,3:2|0:0,0:0:0:0:
447,264,185898,2,0,L|387:282,1,59.4999981842042,2|0,3:2|0:0,0:0:0:0:
245,210,186235,2,0,L|305:228,1,59.4999981842042,2|0,3:2|0:0,0:0:0:0:
453,146,186572,2,0,L|393:164,1,59.4999981842042,2|0,3:2|0:0,0:0:0:0:
229,102,186910,6,0,L|240:24,1,59.4999981842042,2|0,3:2|0:0,0:0:0:0:
132,89,187247,2,0,L|143:11,1,59.4999981842042,2|0,3:2|0:0,0:0:0:0:
35,76,187584,2,0,L|46:-2,1,59.4999981842042,2|0,3:2|0:0,0:0:0:0:
159,168,187921,2,0,L|150:226,1,59.4999981842042,2|0,3:2|0:0,0:0:0:0:
30,313,188258,6,0,L|-14:317,3,29.7499990921021,0|0|0|0,1:0|1:0|1:0|1:0,1:0:0:0:
123,303,188595,1,0,1:0:0:0:
150,315,188679,1,0,1:0:0:0:
178,323,188763,1,0,1:0:0:0:
208,326,188847,1,0,1:0:0:0:
237,326,188932,2,0,L|278:325,3,29.7499990921021,0|0|0|0,1:0|1:0|1:0|1:0,1:0:0:0:
359,315,189269,1,0,1:0:0:0:
386,327,189353,1,0,1:0:0:0:
414,335,189437,1,0,1:0:0:0:
444,338,189521,1,0,1:0:0:0:
473,338,189606,6,0,L|514:337,3,29.7499990921021,2|0|0|0,3:2|3:0|3:0|3:0,3:0:0:0:
438,237,189943,2,0,L|397:236,3,29.7499990921021,2|0|0|0,3:2|3:0|3:0|3:0,3:0:0:0:
326,322,190280,1,8,0:0:0:0:
355,158,190449,1,8,0:0:0:0:
512,168,190618,1,4,0:3:0:0:
87,354,190955,6,0,P|45:331|68:203,1,187.000005706787,4|8,1:2|1:0,0:0:0:0:
211,222,191460,1,2,1:2:0:0:
211,222,191544,1,0,1:0:0:0:
211,222,191629,1,0,1:0:0:0:
280,112,191797,1,2,0:2:0:0:
139,151,191966,1,8,1:0:0:0:
186,303,192134,2,0,P|240:315|291:332,1,93.5000028533936,2|0,0:2|1:0,0:0:0:0:
489,164,192471,5,0,0:0:0:0:
401,242,192640,2,0,P|347:230|296:213,1,93.5000028533936,8|0,1:1|1:0,0:0:0:0:
310,218,192893,1,0,1:0:0:0:
310,218,192977,2,0,P|291:167|352:49,1,187.000005706787,0|8,1:0|1:0,0:0:0:0:
417,101,193483,1,0,0:0:0:0:
243,33,193651,6,0,P|182:43|81:57,1,140.25000428009,0|0,1:0|0:0,0:0:0:0:
104,54,193988,1,8,1:0:0:0:
14,78,194157,1,0,1:0:0:0:
14,78,194241,1,0,1:0:0:0:
14,78,194325,1,0,1:0:0:0:
81,156,194494,2,0,P|89:212|83:260,1,93.5000028533936,0|8,0:0|1:0,0:0:0:0:
390,220,194831,5,2,0:2:0:0:
262,155,195000,1,0,1:0:0:0:
221,294,195168,1,2,0:2:0:0:
355,356,195337,1,8,1:0:0:0:
311,268,195505,5,2,1:2:0:0:
311,268,195589,1,2,1:2:0:0:
311,268,195674,1,0,1:0:0:0:
501,194,195842,1,2,1:2:0:0:
501,194,196011,2,0,L|493:92,1,93.5000028533936,8|0,1:0|0:0,0:0:0:0:
388,17,196348,5,4,1:2:0:0:
123,161,196685,1,8,1:0:0:0:
228,194,196853,1,4,1:3:0:0:
228,194,196938,1,4,1:3:0:0:
228,194,197022,1,0,1:0:0:0:
19,323,197191,1,4,1:3:0:0:
117,342,197359,2,0,P|117:295|112:249,1,93.5000028533936,8|2,1:0|0:2,0:0:0:0:
284,101,197696,5,4,1:3:0:0:
114,141,197865,1,4,1:3:0:0:
284,101,198033,1,8,1:0:0:0:
213,163,198202,1,2,1:2:0:0:
213,163,198286,1,2,1:2:0:0:
213,163,198370,1,0,1:0:0:0:
301,201,198539,1,2,1:2:0:0:
194,59,198707,1,8,1:0:0:0:
411,280,199044,5,0,1:0:0:0:
411,280,199129,1,0,1:0:0:0:
411,280,199213,1,0,1:0:0:0:
411,280,199297,1,0,1:0:0:0:
411,280,199382,1,4,1:2:0:0:
304,321,199550,2,0,L|294:377,2,46.7500014266968,0|0|0,1:0|1:0|1:0,1:0:0:0:
376,137,199887,1,0,1:0:0:0:
440,287,200056,1,8,1:0:0:0:
295,165,200224,5,0,1:0:0:0:
295,165,200309,1,0,1:0:0:0:
295,165,200393,2,0,L|236:187,1,46.7500014266968,0|0,1:0|1:0,1:0:0:0:
168,244,200561,2,0,L|178:181,1,46.7500014266968,0|0,1:0|1:0,1:0:0:0:
161,93,200730,2,0,L|209:133,1,46.7500014266968,0|0,1:0|1:0,1:0:0:0:
260,268,200898,5,0,1:0:0:0:
260,268,200983,1,0,1:0:0:0:
260,268,201067,2,0,L|255:315,1,46.7500014266968,0|0,1:0|1:0,1:0:0:0:
337,369,201235,2,0,L|342:322,1,46.7500014266968,0|0,1:0|1:0,1:0:0:0:
357,173,201404,2,0,L|352:220,1,46.7500014266968,0|0,1:0|1:0,1:0:0:0:
434,274,201572,2,0,L|439:227,1,46.7500014266968,0|0,1:0|1:0,1:0:0:0:
426,78,201741,6,0,B|290:46|290:46|236:77,1,187.000005706787,4|8,1:2|1:0,0:0:0:0:
157,18,202246,1,2,1:2:0:0:
157,18,202330,1,0,1:0:0:0:
157,18,202415,1,0,1:0:0:0:
70,162,202583,1,2,0:2:0:0:
195,216,202752,1,8,1:0:0:0:
138,337,202920,2,0,P|84:325|33:308,1,93.5000028533936,2|0,0:2|1:0,0:0:0:0:
58,50,203257,5,0,0:0:0:0:
148,111,203426,2,0,P|202:123|253:140,1,93.5000028533936,8|0,1:1|1:0,0:0:0:0:
238,134,203679,1,0,1:0:0:0:
238,134,203764,1,0,1:0:0:0:
302,321,203932,1,0,0:0:0:0:
353,129,204101,1,8,1:0:0:0:
217,248,204269,1,0,0:0:0:0:
328,226,204437,6,0,P|412:225|524:249,1,187.000005706787,0|8,1:0|1:0,0:0:0:0:
512,334,204943,1,0,1:0:0:0:
512,334,205027,1,0,1:0:0:0:
512,334,205111,1,0,1:0:0:0:
388,319,205280,1,0,0:0:0:0:
406,111,205449,1,8,1:0:0:0:
512,133,205618,6,0,P|511:68|502:27,1,93.5000028533936,2|0,0:0|1:0,0:0:0:0:
305,72,205955,2,0,P|306:137|315:178,1,93.5000028533936,2|0,0:0|1:0,0:0:0:0:
268,245,206291,1,2,1:2:0:0:
268,245,206375,1,2,1:2:0:0:
268,245,206460,1,0,1:0:0:0:
353,337,206628,1,2,1:2:0:0:
173,337,206797,2,0,L|165:243,1,93.5000028533936,8|0,1:0|0:0,0:0:0:0:
397,209,207134,5,4,1:2:0:0:
201,48,207471,1,8,1:0:0:0:
82,130,207639,1,4,1:3:0:0:
82,130,207724,1,4,1:3:0:0:
82,130,207808,1,0,1:0:0:0:
212,172,207977,1,4,1:3:0:0:
329,134,208145,2,0,P|329:87|324:41,1,93.5000028533936,8|2,1:0|0:2,0:0:0:0:
405,0,208482,5,4,1:3:0:0:
434,139,208651,1,4,1:3:0:0:
501,49,208819,1,8,1:0:0:0:
512,220,208988,1,2,1:2:0:0:
512,220,209072,1,2,1:2:0:0:
512,220,209157,2,0,L|499:315,1,93.5000028533936,0|2,1:0|1:2,0:0:0:0:
237,233,209494,2,0,L|250:138,1,93.5000028533936,8|2,1:0|1:2,0:0:0:0:
205,61,209831,5,0,1:0:0:0:
160,46,209915,1,0,1:0:0:0:
114,41,209999,1,0,1:0:0:0:
68,48,210083,1,0,1:0:0:0:
24,65,210168,1,4,1:2:0:0:
126,181,210336,2,0,L|116:125,2,46.7500014266968,0|0|0,1:0|1:0|1:0,1:0:0:0:
25,244,210673,1,0,1:0:0:0:
247,269,210842,1,8,1:0:0:0:
107,341,211010,5,0,1:0:0:0:
205,370,211179,2,0,L|266:358,3,46.7500014266968,0|0|0|0,1:0|1:0|1:0|1:0,1:0:0:0:
375,325,211516,2,0,L|329:316,3,46.7500014266968,0|0|0|0,1:0|1:0|1:0|1:0,1:0:0:0:
247,269,211853,1,8,0:3:0:0:
253,234,211937,1,8,0:3:0:0:
256,199,212021,1,8,0:3:0:0:
253,164,212105,1,8,0:3:0:0:
237,133,212190,1,4,0:3:0:0:
222,102,212274,1,4,0:3:0:0:
221,67,212358,1,4,0:3:0:0:
226,32,212442,1,4,0:3:0:0:
234,0,212527,5,6,1:2:0:0:
449,260,212865,2,0,P|467:216|471:175,1,63.7500024318696
402,76,213202,2,0,P|386:112|397:226,1,127.500004863739,4|0,0:2|0:0,0:0:0:0:
449,260,213707,2,0,P|413:247|309:268,1,127.500004863739,2|0,0:2|0:0,0:0:0:0:
215,200,214213,1,2,0:2:0:0:
215,200,214382,1,0,0:2:0:0:
136,240,214550,6,0,B|131:293|131:293|140:311|140:311|134:375,1,127.5,4|0,1:3|0:0,0:0:0:0:
134,364,215224,1,0,1:0:0:0:
290,299,215561,2,0,L|334:294,3,31.8750012159348
336,304,215898,6,0,L|415:294,1,63.7500024318696,4|0,0:2|0:0,0:0:0:0:
296,209,216235,2,0,L|286:130,1,63.7500024318696
415,204,216573,2,0,L|494:194,1,63.7500024318696,0|2,0:0|0:2,0:0:0:0:
375,109,216910,2,0,L|365:30,1,63.7500024318696,2|2,0:2|0:2,0:0:0:0:
468,98,217247,1,2,1:2:0:0:
468,98,217921,5,0,1:0:0:0:
167,78,218258,2,0,P|122:69|96:61,1,63.7500024318696
195,102,218595,2,0,P|235:94|333:92,1,127.500004863739,4|0,0:2|0:0,0:0:0:0:
158,193,219101,2,0,P|118:201|20:203,1,127.500004863739,2|0,0:2|0:0,0:0:0:0:
250,240,219606,1,2,0:2:0:0:
250,240,219775,1,0,0:0:0:0:
333,201,219943,6,0,B|386:212|386:212|398:227|398:227|460:241,1,127.5,4|0,1:3|0:0,0:0:0:0:
450,238,220618,1,4,1:3:0:0:
203,307,220955,2,0,L|160:312,3,31.8750012159348
142,326,221292,6,0,P|127:272|153:193,1,127.500004863739,4|0,0:2|0:0,0:0:0:0:
235,74,221797,1,4,1:3:0:0:
