osu file format v14

[General]
AudioFilename: audio.mp3
AudioLeadIn: 0
PreviewTime: 67501
Countdown: 0
SampleSet: Soft
StackLeniency: 0.5
Mode: 0
LetterboxInBreaks: 0
WidescreenStoryboard: 0

[Editor]
Bookmarks: 31855,43990,53765,60169,67585,89832,101966,111741,118146,125562,147809,153202,158595,163988,180168,212528
DistanceSpacing: 0.7
BeatDivisor: 4
GridSize: 4
TimelineZoom: 2.3

[Metadata]
Title:Find the way
TitleUnicode:Find the way
Artist:FELT
ArtistUnicode:FELT
Creator:captin1
Version:Lunatic
Source:東方妖々夢 ~ Perfect Cherry Blossom.
Tags:舞花 maika Vivienne 東方妖々夢 ~ Ancient Temple touhou darkness brightness c94 stage 5 youyoumu NAGI☆ zun video game Eastern Ghostly Dream 東方project 魂魄 妖夢 Konpaku Youmu trust vinxis rlc xlni amateurre asagi rock pop japanese
BeatmapID:1855207
BeatmapSetID:887462

[Difficulty]
HPDrainRate:6
CircleSize:4.2
OverallDifficulty:8.5
ApproachRate:9
SliderMultiplier:1.8
SliderTickRate:1

[Events]
//Background and Video events
0,0,"find the way.jpg",0,0
//Break Periods
2,91180,98669
//Storyboard Layer 0 (Background)
//Storyboard Layer 1 (Fail)
//Storyboard Layer 2 (Pass)
//Storyboard Layer 3 (Foreground)
//Storyboard Layer 4 (Overlay)
//Storyboard Sound Samples

[TimingPoints]
844,337.078651685393,4,2,1,40,1,0
844,-166.666666666667,4,2,1,40,0,0
10113,-111.111111111111,4,2,1,40,0,0
11630,-111.111111111111,4,2,1,50,0,0
22585,-90.9090909090909,4,2,2,60,0,0
24439,-125,4,2,2,60,0,0
25113,-90.9090909090909,4,2,2,60,0,0
30169,-83.3333333333333,4,2,2,60,0,0
31855,-83.3333333333333,4,2,1,5,0,0
33203,-133.333333333333,4,1,1,40,0,0
42641,-133.333333333333,4,2,1,45,0,0
42978,-111.111111111111,4,2,1,50,0,0
43315,-76.9230769230769,4,2,1,55,0,0
43990,-100,4,2,1,60,0,0
53428,-76.9230769230769,4,2,1,60,0,0
53933,-133.333333333333,4,2,1,60,0,0
54776,-111.111111111111,4,2,1,60,0,0
60169,-133.333333333333,4,2,2,60,0,0
62866,-111.111111111111,4,2,1,60,0,0
68259,337.078651685393,4,2,2,70,1,1
68259,-100,4,2,2,70,0,1
78708,-76.9230769230769,4,2,2,70,0,1
79045,-100,4,2,2,70,0,1
89832,-100,4,2,1,70,0,0
91180,337.078651685393,4,2,1,40,1,0
101966,-100,4,2,1,50,0,0
110056,-133.333333333333,4,2,1,60,0,0
110562,-100,4,2,1,60,0,0
112415,-166.666666666667,4,2,1,60,0,0
112753,-111.111111111111,4,2,1,60,0,0
118146,-133.333333333333,4,2,1,60,0,0
120842,-111.111111111111,4,2,1,60,0,0
126236,337.078651685393,4,2,2,70,1,1
126236,-100,4,2,2,70,0,1
136685,-76.9230769230769,4,2,2,70,0,1
137022,-100,4,2,2,70,0,1
147809,-90.9090909090909,4,2,1,60,0,0
149494,-125,4,2,1,50,0,0
150505,-90.9090909090909,4,2,1,60,0,0
154887,-125,4,2,1,50,0,0
155898,-90.9090909090909,4,2,1,60,0,0
158595,-90.9090909090909,4,2,2,60,0,0
163988,-111.111111111111,4,2,2,60,0,0
169382,-166.666666666666,4,2,2,40,0,0
180168,-133.333333333333,4,2,1,40,0,0
185561,-133.333333333333,4,2,1,50,0,0
186910,-133.333333333333,4,2,1,60,0,0
190955,-90.9090909090909,4,2,2,70,0,1
201404,-71.4285714285714,4,2,2,70,0,1
201741,-90.9090909090909,4,2,2,70,0,1
212528,-100,4,2,1,70,0,0
213202,-133.333333333333,4,2,1,40,0,0
221966,-133.333333333333,4,2,1,30,0,0
222303,-133.333333333333,4,2,1,20,0,0

[Colours]
Combo1 : 128,128,255
Combo2 : 0,128,128
Combo3 : 192,192,192
Combo4 : 255,128,192

[HitObjects]
103,184,844,6,0,P|67:172|32:164,1,53.9999983520508,2|0,0:0|0:0,0:0:0:0:
156,251,1181,1,0,0:0:0:0:
233,212,1349,2,0,P|245:174|258:90,1,107.999996704102,2|0,0:0|0:0,0:0:0:0:
398,103,1855,2,0,P|367:115|340:131,1,53.9999983520508,2|0,0:0|0:0,0:0:0:0:
331,215,2192,1,2,0:0:0:0:
186,138,2360,2,0,L|244:131,1,53.9999983520508
303,286,2697,2,0,L|173:304,1,107.999996704102,2|0,0:0|0:0,0:0:0:0:
50,317,3203,2,0,P|80:328|120:347,1,53.9999983520508,2|0,0:0|0:0,0:0:0:0:
153,209,3540,6,0,B|95:178|95:178|74:95|147:36,2,215.999993408203,2|2|2,0:0|0:0|0:0,0:0:0:0:
402,148,5226,2,0,P|361:138|335:128,1,53.9999983520508
303,72,5563,2,0,L|326:237,1,161.999995056153,2|0,0:0|0:0,0:0:0:0:
282,313,6237,6,0,P|311:323|337:327,1,53.9999983520508,2|0,0:0|0:0,0:0:0:0:
414,300,6574,1,0,0:0:0:0:
228,246,6742,2,0,L|119:274,1,107.999996704102,2|0,0:0|0:0,0:0:0:0:
55,314,7248,2,0,P|36:342|27:364,1,53.9999983520508,2|0,0:0|0:0,0:0:0:0:
112,231,7585,1,2,0:0:0:0:
77,143,7754,2,0,P|41:128|19:122,1,53.9999983520508
190,262,8091,2,0,L|304:280,1,107.999996704102,2|0,0:0|0:0,0:0:0:0:
424,268,8596,2,0,P|393:258|365:241,1,53.9999983520508,2|0,0:0|0:0,0:0:0:0:
326,89,8933,5,2,0:0:0:0:
429,147,9102,2,0,L|366:164,1,53.9999983520508
301,208,9439,2,0,P|290:241|328:320,1,107.999996704102,2|0,0:0|0:0,0:0:0:0:
392,335,9945,1,2,0:0:0:0:
260,124,10113,5,2,0:0:0:0:
260,124,10197,1,2,0:0:0:0:
260,124,10282,1,2,0:0:0:0:
168,296,10450,1,2,0:0:0:0:
306,216,10619,1,2,0:0:0:0:
172,209,10787,1,2,0:0:0:0:
234,357,10956,1,2,0:0:0:0:
234,357,11124,2,0,B|326:318|308:369|404:330,1,161.999995056153,2|0,0:0|0:0,0:0:0:0:
481,340,11630,6,0,P|462:298|449:245,1,80.9999975280763,4|0,1:0|0:0,0:0:0:0:
478,49,11967,1,0,1:0:0:0:
498,179,12136,1,8,0:0:0:0:
347,92,12304,2,0,L|357:6,1,80.9999975280763,0|0,1:0|0:0,0:0:0:0:
394,184,12641,1,0,1:0:0:0:
387,207,12726,1,0,0:0:0:0:
380,230,12810,1,0,0:0:0:0:
373,253,12894,1,0,0:0:0:0:
367,276,12978,6,0,L|380:367,1,80.9999975280763,0|0,1:0|0:0,0:0:0:0:
181,211,13315,2,0,P|164:165|157:125,1,80.9999975280763,0|0,1:0|0:0,0:0:0:0:
289,174,13652,1,0,1:0:0:0:
240,321,13821,2,0,L|157:338,1,80.9999975280763,8|0,0:0|1:0,0:0:0:0:
270,140,14158,1,8,0:0:0:0:
418,172,14327,6,0,B|440:222|440:222|420:352,1,161.999995056153,0|0,1:0|1:0,0:0:0:0:
493,105,14832,1,8,0:0:0:0:
348,245,15001,2,0,P|304:258|256:264,1,80.9999975280763,0|0,1:0|0:0,0:0:0:0:
25,217,15338,1,0,1:0:0:0:
45,203,15422,1,0,0:0:0:0:
68,197,15506,1,0,0:0:0:0:
92,197,15591,1,0,0:0:0:0:
115,201,15675,6,0,P|130:247|136:288,1,80.9999975280763,0|8,1:0|0:0,0:0:0:0:
286,147,16012,2,0,L|299:57,1,80.9999975280763,0|0,1:0|0:0,0:0:0:0:
297,66,16265,1,0,0:0:0:0:
297,66,16349,1,0,1:0:0:0:
172,112,16518,1,0,0:0:0:0:
406,179,16686,1,0,1:0:0:0:
280,280,16855,1,0,0:0:0:0:
247,175,17023,6,0,P|292:160|343:153,1,80.9999975280763,8|0,1:2|0:0,0:0:0:0:
178,244,17360,1,0,1:0:0:0:
215,90,17529,1,8,0:0:0:0:
68,158,17697,2,0,L|82:255,1,80.9999975280763,0|0,1:0|0:0,0:0:0:0:
261,291,18035,1,0,1:0:0:0:
261,291,18119,1,0,0:0:0:0:
261,291,18203,2,0,L|253:347,1,40.4999987640381
189,376,18372,6,0,P|230:363|271:359,1,80.9999975280763,0|8,1:0|0:0,0:0:0:0:
467,224,18709,2,0,P|426:219|388:207,1,80.9999975280763,0|0,1:0|0:0,0:0:0:0:
248,103,19046,1,0,1:0:0:0:
243,79,19130,1,0,0:0:0:0:
238,55,19214,1,0,0:0:0:0:
386,117,19383,1,0,1:0:0:0:
329,278,19551,1,0,0:0:0:0:
434,192,19720,5,0,1:0:0:0:
312,172,19888,1,0,1:0:0:0:
365,351,20057,1,8,1:2:0:0:
284,144,20226,1,0,1:0:0:0:
224,308,20394,1,0,1:0:0:0:
345,202,20563,1,0,1:0:0:0:
218,75,20731,1,8,1:2:0:0:
218,75,20815,1,0,1:0:0:0:
218,75,20900,1,0,1:0:0:0:
218,75,20984,1,0,1:0:0:0:
218,75,21068,1,0,1:0:0:0:
56,244,21237,6,0,L|112:227,1,40.4999987640381,0|0,1:0|1:0,0:0:0:0:
213,191,21405,1,8,1:2:0:0:
362,353,21574,1,0,1:0:0:0:
181,280,21742,1,0,1:0:0:0:
291,54,21911,2,0,P|322:82|318:181,1,121.499996292114,0|0,1:0|0:0,0:0:0:0:
310,156,22248,2,0,L|325:247,1,80.9999975280763,0|0,1:0|0:0,0:0:0:0:
227,137,22585,5,0,1:0:0:0:
465,204,22754,1,0,1:0:0:0:
203,171,22922,1,0,1:0:0:0:
470,102,23091,2,0,B|508:148|508:148|476:295,1,198.000006042481,12|0,1:2|0:0,0:0:0:0:
503,360,23596,6,0,P|462:332|399:315,1,99.0000030212403,0|0,1:0|0:0,0:0:0:0:
254,120,23933,2,0,P|250:169|267:232,1,99.0000030212403,0|0,1:0|0:0,0:0:0:0:
111,328,24270,1,0,1:0:0:0:
111,328,24355,1,0,1:0:0:0:
111,328,24439,6,0,B|180:305|180:305|250:321|250:321|332:291,1,216,12|0,1:2|0:0,0:0:0:0:
394,130,25113,5,0,1:0:0:0:
352,367,25282,1,0,1:0:0:0:
200,186,25450,1,0,1:0:0:0:
398,230,25619,1,0,1:0:0:0:
172,207,25787,2,0,B|28:229|28:229|68:170,1,198.000006042481,12|0,1:2|0:0,0:0:0:0:
110,40,26293,6,0,B|128:88|128:88|113:160,1,99.0000030212403,0|0,1:0|0:0,0:0:0:0:
129,347,26630,2,0,L|103:240,1,99.0000030212403,0|0,1:0|0:0,0:0:0:0:
240,90,26967,1,0,1:0:0:0:
240,90,27051,1,0,1:0:0:0:
240,90,27136,2,0,L|357:108,1,99.0000030212403,12|0,1:2|0:0,0:0:0:0:
457,182,27388,1,0,1:0:0:0:
457,182,27473,2,0,P|395:203|350:228,1,99.0000030212403,12|0,1:2|0:0,0:0:0:0:
327,331,27810,5,12,0:0:0:0:
203,170,27978,1,0,1:0:0:0:
207,370,28147,1,0,1:0:0:0:
293,243,28315,5,8,0:2:0:0:
113,199,28483,1,0,1:0:0:0:
113,199,28652,1,0,1:0:0:0:
212,80,28821,5,12,0:2:0:0:
196,272,28990,1,0,1:0:0:0:
363,188,29158,1,0,1:0:0:0:
124,158,29327,6,0,L|106:49,1,99.0000030212403,8|0,0:2|0:0,0:0:0:0:
280,223,29664,1,0,1:0:0:0:
280,223,29748,1,0,1:0:0:0:
280,223,29832,2,0,L|298:332,1,99.0000030212403,12|0,0:2|0:0,0:0:0:0:
503,140,30169,6,0,B|478:141|450:162|450:162|409:121|353:115|353:115|377:167,1,215.999993408203,0|4,0:0|1:2,0:0:0:0:
256,192,30591,12,0,31855,0:0:0:0:
149,268,33203,6,0,P|81:258|9:233,1,135.000005149842
301,323,33877,2,0,P|233:333|161:358,1,135.000005149842
193,192,34383,1,0,2:0:0:0:
193,192,34551,2,0,P|204:120|208:49,1,135.000005149842
294,82,35057,1,0,2:0:0:0:
294,82,35226,2,0,P|337:71|366:58,1,67.5000025749208,0|0,0:0|2:0,0:0:0:0:
173,206,35563,2,0,P|141:193|108:185,1,67.5000025749208,0|0,0:0|2:0,0:0:0:0:
294,317,35900,6,0,P|362:310|447:326,1,135.000005149842
457,340,36574,2,0,P|443:270|435:192,1,135.000005149842
486,46,37079,1,0,2:0:0:0:
486,46,37248,2,0,P|483:80|476:125,1,67.5000025749208,0|0,0:0|2:0,0:0:0:0:
330,108,37585,2,0,P|331:141|338:174,1,67.5000025749208,0|0,0:0|2:0,0:0:0:0:
202,322,37922,2,0,P|199:286|192:243,1,67.5000025749208,0|0,0:0|2:0,0:0:0:0:
46,260,38259,2,0,P|47:224|54:193,1,67.5000025749208,0|0,0:0|2:0,0:0:0:0:
121,35,38596,6,0,P|162:93|140:169,1,135.000005149842
321,347,39270,2,0,P|300:286|304:204,1,135.000005149842
375,184,39776,1,0,2:0:0:0:
375,184,39945,2,0,P|420:220|506:218,1,135.000005149842
306,132,40619,1,0,0:0:0:0:
405,309,40956,1,0,0:0:0:0:
220,253,41293,6,0,P|153:260|82:271,1,135.000005149842
20,169,41799,1,0,2:0:0:0:
20,169,41883,1,0,2:0:0:0:
20,169,41967,2,0,P|54:173|90:181,1,67.5000025749208,0|0,0:0|2:0,0:0:0:0:
171,147,42220,1,0,2:0:0:0:
171,147,42304,2,0,P|203:155|241:159,1,67.5000025749208,0|0,0:0|2:0,0:0:0:0:
434,47,42641,6,0,P|431:63|428:81,3,33.7500012874604,0|0|0|0,1:0|0:0|0:0|0:0,0:0:0:0:
322,221,42978,2,0,P|318:201|312:182,3,40.4999987640381,0|0|0|0,1:0|0:0|0:0|0:0,0:0:0:0:
440,347,43315,1,12,1:2:0:0:
254,280,43484,2,0,P|222:282|187:296,1,58.4999973220826
129,322,43652,2,0,B|146:346|170:349|170:349|190:289|150:216,1,175.499991966248,12|0,1:2|0:0,0:0:0:0:
77,191,43990,6,0,L|60:96,1,90,4|0,1:0|0:0,0:0:0:0:
276,16,44327,1,8,1:2:0:0:
164,144,44495,1,0,0:0:0:0:
319,295,44664,1,0,1:0:0:0:
266,128,44832,1,0,0:0:0:0:
229,343,45001,1,8,1:2:0:0:
408,244,45169,1,0,0:0:0:0:
408,244,45254,1,0,0:0:0:0:
408,244,45338,6,0,B|427:206|427:206|430:143,1,90,0|0,1:0|0:0,0:0:0:0:
360,85,45591,1,0,0:0:0:0:
360,85,45675,2,0,L|350:31,1,45,8|0,1:2|0:0,0:0:0:0:
310,186,45843,2,0,L|298:277,1,90,0|0,0:0|1:0,0:0:0:0:
52,275,46181,1,0,0:0:0:0:
73,259,46265,1,0,0:0:0:0:
97,248,46349,1,8,1:2:0:0:
123,244,46433,1,0,0:0:0:0:
149,247,46518,2,0,L|165:296,1,45
249,341,46686,6,0,B|118:321|118:321|164:386,1,180,0|8,1:0|1:2,0:0:0:0:
61,178,47192,1,0,0:0:0:0:
61,178,47276,1,0,0:0:0:0:
61,178,47360,2,0,B|45:140|45:140|53:78,1,90,0|0,1:0|0:0,0:0:0:0:
243,142,47697,2,0,L|139:116,1,90,8|0,1:2|0:0,0:0:0:0:
275,326,48035,6,0,B|360:299,1,90,0|0,1:0|0:0,0:0:0:0:
361,299,48287,1,0,0:0:0:0:
361,299,48372,1,8,1:2:0:0:
464,173,48540,1,0,0:0:0:0:
453,359,48709,1,0,1:0:0:0:
305,213,48877,1,0,0:0:0:0:
253,340,49046,1,8,1:2:0:0:
407,238,49214,1,0,0:0:0:0:
280,91,49383,6,0,L|189:107,1,90,0|0,1:0|0:0,0:0:0:0:
148,166,49636,1,0,0:0:0:0:
148,166,49720,1,8,1:2:0:0:
18,64,49888,1,0,0:0:0:0:
15,50,49973,1,0,0:0:0:0:
12,36,50057,1,0,1:0:0:0:
226,180,50226,1,0,0:0:0:0:
32,247,50394,1,8,1:2:0:0:
111,66,50563,1,0,0:0:0:0:
59,151,50731,6,0,L|165:168,1,90,0|0,1:0|0:0,0:0:0:0:
158,185,50984,1,0,0:0:0:0:
168,204,51068,1,8,1:2:0:0:
178,223,51152,1,0,0:0:0:0:
188,242,51237,1,0,0:0:0:0:
261,356,51405,2,0,L|271:292,1,45,0|0,1:0|0:0,0:0:0:0:
354,270,51574,2,0,L|344:206,1,45
173,330,51742,2,0,L|109:320,1,45,8|0,1:2|0:0,0:0:0:0:
355,363,51911,2,0,L|419:353,1,45
413,172,52079,6,0,B|374:131|374:131|249:149,1,180,0|0,1:0|0:0,0:0:0:0:
78,179,52585,2,0,L|180:198,1,90
310,262,52922,2,0,L|220:275,1,90
146,343,53259,1,0,0:0:0:0:
414,280,53428,6,0,L|399:191,1,77.9999964294435,0|0,1:0|1:0,0:0:0:0:
402,102,53652,2,0,L|417:191,1,77.9999964294435,0|0,1:0|1:0,0:0:0:0:
324,214,53933,1,0,0:0:0:0:
60,130,54102,1,0,0:0:0:0:
114,203,54270,2,0,P|182:193|259:168,1,135.000005149842,8|0,0:0|0:0,0:0:0:0:
262,148,54776,6,0,B|297:182|297:182|316:238|248:304,1,161.999995056153,4|0,1:0|0:0,0:0:0:0:
382,140,55282,2,0,B|347:106|347:106|328:50|396:-16,1,161.999995056153,0|8,1:0|0:3,0:0:0:0:
432,67,55787,1,0,0:0:0:0:
212,221,55956,6,0,B|180:229|156:252|156:252|120:205|73:189|73:189|39:211|19:255,1,242.999992584229,4|2,1:0|0:0,0:0:0:0:
182,112,56630,1,0,0:0:0:0:
182,112,56714,1,0,0:0:0:0:
182,112,56799,2,0,P|196:69|205:31,1,80.9999975280763,2|0,0:0|0:0,0:0:0:0:
334,260,57136,2,0,P|343:299|356:337,1,80.9999975280763,6|0,0:0|0:0,0:0:0:0:
422,91,57473,6,0,B|355:85|309:119|309:119|360:150,1,161.999995056153,4|0,1:0|0:0,0:0:0:0:
155,237,57978,2,0,B|222:243|268:209|268:209|217:178,1,161.999995056153,0|8,1:0|0:3,0:0:0:0:
374,261,58484,1,0,0:0:0:0:
227,66,58652,6,0,B|184:71|159:107|159:107|117:93|90:67|90:67|52:96|5:101,1,242.999992584229,4|12,1:0|0:0,0:0:0:0:
100,180,59327,1,0,0:0:0:0:
100,180,59495,2,0,P|109:234|110:264,1,80.9999975280763,2|0,0:0|0:0,0:0:0:0:
350,258,59832,1,2,1:2:0:0:
345,277,59916,1,0,0:0:0:0:
342,297,60000,1,0,1:0:0:0:
340,317,60084,1,0,0:0:0:0:
339,338,60169,5,4,1:0:0:0:
411,199,60338,1,0,1:0:0:0:
236,327,60506,1,0,1:0:0:0:
307,187,60675,1,0,1:0:0:0:
88,247,60843,2,0,B|137:248|137:248|165:232|165:232|238:234,1,135.000005149842,12|0,1:2|0:0,0:0:0:0:
307,187,61349,6,0,L|323:109,1,67.5000025749208,0|0,1:0|0:0,0:0:0:0:
163,33,61686,2,0,L|177:102,1,67.5000025749208,0|0,1:0|0:0,0:0:0:0:
302,283,62023,1,0,1:0:0:0:
302,283,62108,1,0,1:0:0:0:
302,283,62192,2,0,L|446:268,1,135.000005149842,12|0,1:2|0:0,0:0:0:0:
436,269,62866,6,0,B|399:229|399:229|384:111,1,161.999995056153,0|0,1:0|1:0,0:0:0:0:
282,22,63372,1,0,0:0:0:0:
282,22,63456,1,0,0:0:0:0:
282,22,63540,2,0,L|295:121,1,80.9999975280763,0|0,1:0|0:0,0:0:0:0:
200,229,63793,1,0,0:0:0:0:
200,229,63877,2,0,L|213:130,1,80.9999975280763,0|0,1:0|0:0,0:0:0:0:
71,48,64214,5,0,1:0:0:0:
286,205,64383,1,0,0:0:0:0:
108,221,64551,1,8,1:2:0:0:
108,221,64720,1,0,0:0:0:0:
305,106,64888,1,0,1:0:0:0:
272,336,65057,1,0,0:0:0:0:
199,146,65226,1,8,1:2:0:0:
200,125,65310,1,0,1:0:0:0:
201,104,65394,1,0,1:0:0:0:
202,83,65478,1,0,1:0:0:0:
203,62,65563,1,0,0:0:0:0:
48,218,67585,6,0,P|95:192|175:199,1,121.499996292114
261,193,67922,2,0,P|214:219|134:212,1,121.499996292114,0|0,1:0|0:0,0:0:0:0:
183,107,68259,6,0,L|380:131,1,180,4|8,1:0|1:2,0:0:0:0:
484,358,68764,1,0,0:0:0:0:
271,257,68933,2,0,L|365:244,1,90,0|0,1:0|0:0,0:0:0:0:
378,257,69185,1,0,0:0:0:0:
396,269,69270,1,8,1:2:0:0:
512,146,69438,6,0,P|465:162|417:193,1,90,0|0,0:0|1:0,0:0:0:0:
250,366,69775,2,0,P|259:317|256:260,1,90,0|8,0:0|1:2,0:0:0:0:
159,66,70112,1,2,0:0:0:0:
169,96,70197,1,2,0:0:0:0:
179,125,70281,1,0,1:0:0:0:
145,315,70450,1,0,0:0:0:0:
335,256,70618,2,0,L|242:237,1,90,8|0,1:2|0:0,0:0:0:0:
10,114,70955,6,0,P|43:69|172:77,1,180,0|8,1:0|1:2,0:0:0:0:
234,256,71461,1,2,0:0:0:0:
234,256,71545,1,2,0:0:0:0:
234,256,71629,2,0,P|224:303|211:344,1,90,0|0,1:0|0:0,0:0:0:0:
341,131,71966,2,0,P|326:85|316:43,1,90,8|0,0:0|0:0,0:0:0:0:
419,200,72303,5,0,1:0:0:0:
238,140,72472,1,0,0:0:0:0:
333,353,72641,2,0,L|344:257,1,90,8|0,1:2|0:0,0:0:0:0:
399,211,72893,1,8,0:0:0:0:
399,210,72978,2,0,L|452:222,1,45,0|0,1:0|0:0,0:0:0:0:
263,259,73146,1,0,0:0:0:0:
95,166,73315,2,0,P|56:124|79:41,1,135,8|0,1:2|0:0,0:0:0:0:
125,98,73652,6,0,L|103:284,1,180,4|8,1:0|1:2,0:0:0:0:
323,329,74157,1,2,0:0:0:0:
307,338,74242,1,2,0:0:0:0:
291,347,74326,2,0,L|280:254,1,90,0|0,1:0|0:0,0:0:0:0:
203,45,74663,2,0,L|192:138,1,90,8|0,1:2|0:0,0:0:0:0:
402,269,75000,5,0,1:0:0:0:
275,154,75169,1,0,0:0:0:0:
198,309,75337,1,12,1:2:0:0:
339,217,75506,1,0,0:0:0:0:
339,217,75590,1,8,0:0:0:0:
339,217,75674,2,0,L|350:124,1,90,0|0,1:0|0:0,0:0:0:0:
481,10,76011,2,0,B|505:49|505:49|499:97,1,90,8|0,1:2|0:0,0:0:0:0:
402,269,76348,5,0,1:0:0:0:
360,50,76517,2,0,L|353:104,1,45
288,182,76685,1,8,0:0:0:0:
468,215,76854,1,0,1:0:0:0:
485,218,76938,1,0,1:0:0:0:
502,222,77022,1,0,1:0:0:0:
316,267,77191,1,8,0:3:0:0:
427,139,77360,1,8,1:2:0:0:
257,187,77528,6,0,B|197:199|197:199|161:246|161:246|86:262,1,180,4|0,1:2|1:0,0:0:0:0:
76,251,77950,1,0,0:0:0:0:
58,230,78034,1,0,1:0:0:0:
51,203,78118,1,0,0:0:0:0:
59,177,78202,1,0,1:0:0:0:
77,156,78287,1,0,0:0:0:0:
102,146,78371,2,0,L|151:153,1,45,0|0,1:0|0:0,0:0:0:0:
258,286,78539,2,0,L|307:279,1,45,0|0,1:0|0:0,0:0:0:0:
427,117,78708,6,0,P|398:118|370:125,1,58.4999973220826,0|0,1:0|0:0,0:0:0:0:
132,232,78876,6,0,P|161:232|193:240,1,58.4999973220826,0|0,1:0|0:0,0:0:0:0:
374,337,79045,6,0,P|429:299|390:184,1,180,4|8,1:0|1:2,0:0:0:0:
223,149,79551,1,0,0:0:0:0:
329,32,79719,2,0,L|318:123,1,90,0|0,1:0|0:0,0:0:0:0:
325,137,79972,1,2,0:0:0:0:
332,153,80056,1,8,1:2:0:0:
236,337,80225,6,0,P|215:288|206:239,1,90,0|0,0:0|1:0,0:0:0:0:
25,107,80562,2,0,P|77:113|124:130,1,90,0|8,0:0|1:2,0:0:0:0:
300,34,80899,1,2,0:0:0:0:
292,69,80983,1,2,0:0:0:0:
285,104,81067,1,0,1:0:0:0:
124,209,81236,1,0,0:0:0:0:
294,270,81405,2,0,L|402:280,1,90,8|0,1:2|0:0,0:0:0:0:
483,121,81742,6,0,B|425:147|425:147|291:135,1,180,0|8,1:0|1:2,0:0:0:0:
176,20,82247,1,2,0:0:0:0:
176,20,82332,1,2,0:0:0:0:
176,20,82416,2,0,P|173:71|187:111,1,90,0|0,1:0|0:0,0:0:0:0:
82,285,82753,2,0,L|105:170,1,90,8|0,0:0|0:0,0:0:0:0:
66,86,83090,5,0,1:0:0:0:
180,260,83258,1,0,0:0:0:0:
376,208,83427,2,0,L|280:194,1,90,8|0,1:2|0:0,0:0:0:0:
234,140,83680,1,8,0:0:0:0:
234,140,83764,2,0,L|224:88,1,45,0|0,1:0|0:0,0:0:0:0:
262,267,83933,1,0,0:0:0:0:
444,155,84101,2,0,P|481:109|464:34,1,135,8|0,1:2|0:0,0:0:0:0:
405,86,84438,6,0,B|432:131|432:131|436:203|391:261,1,180,4|8,1:0|1:2,0:0:0:0:
153,197,84944,1,0,0:0:0:0:
153,197,85028,1,8,0:0:0:0:
153,197,85112,2,0,P|209:182|246:161,1,90,0|0,1:0|0:0,0:0:0:0:
414,346,85450,2,0,P|373:326|329:316,1,90,8|0,1:2|0:0,0:0:0:0:
214,330,85787,5,0,1:0:0:0:
323,207,85955,1,0,0:0:0:0:
201,75,86124,1,12,1:2:0:0:
229,216,86292,1,0,0:0:0:0:
229,216,86376,1,8,0:0:0:0:
229,216,86461,2,0,L|241:312,1,90,0|0,1:0|0:0,0:0:0:0:
61,151,86798,2,0,B|41:109|41:109|41:59,1,90,8|0,1:2|0:0,0:0:0:0:
282,68,87135,5,0,1:0:0:0:
157,276,87303,1,0,0:0:0:0:
282,160,87472,1,8,1:2:0:0:
81,222,87641,2,0,P|68:308|132:367,1,180,0|0,1:0|0:0,0:0:0:0:
367,226,88146,2,0,L|311:237,1,45,8|0,1:2|0:0,0:0:0:0:
242,261,88315,6,0,P|282:264|334:285,1,90,4|0,1:2|0:0,0:0:0:0:
391,328,88567,1,0,0:0:0:0:
420,303,88651,1,0,1:0:0:0:
436,268,88735,1,0,0:0:0:0:
435,230,88819,1,0,1:0:0:0:
417,196,88904,1,0,0:0:0:0:
386,173,88988,1,0,1:0:0:0:
349,166,89072,1,0,0:0:0:0:
312,176,89157,6,0,L|243:192,1,45,0|0,1:0|0:0,0:0:0:0:
131,242,89326,2,0,L|200:226,1,45,8|0,1:3|0:0,0:0:0:0:
240,313,89494,2,0,L|255:243,1,45,8|0,1:3|0:0,0:0:0:0:
187,140,89663,1,0,1:0:0:0:
187,140,89747,1,0,1:0:0:0:
187,140,89832,5,0,1:0:0:0:
256,192,99269,12,0,101882,0:0:0:0:
319,149,101966,6,0,P|338:104|348:54,1,90,2|0,0:0|0:0,0:0:0:0:
294,18,102219,1,0,0:0:0:0:
294,18,102303,1,2,0:0:0:0:
422,155,102472,1,0,0:0:0:0:
255,229,102640,2,0,P|258:275|267:334,1,90,2|0,0:0|0:0,0:0:0:0:
109,177,102977,1,2,0:0:0:0:
77,275,103146,1,2,0:0:0:0:
273,179,103314,6,0,B|319:154|319:154|346:81|283:25,1,180,2|0,0:0|0:0,0:0:0:0:
193,131,103820,1,2,0:0:0:0:
193,131,103904,1,0,0:0:0:0:
193,131,103988,1,0,0:0:0:0:
310,271,104157,2,0,P|335:269|359:261,1,45,2|0,0:0|0:0,0:0:0:0:
408,215,104326,1,2,0:0:0:0:
434,239,104410,1,0,0:0:0:0:
443,273,104494,1,0,0:0:0:0:
433,307,104578,1,0,0:0:0:0:
410,335,104663,6,0,P|363:341|300:360,1,90,2|0,0:0|0:0,0:0:0:0:
141,201,105000,1,2,0:0:0:0:
81,307,105168,1,2,0:0:0:0:
81,307,105253,1,0,0:0:0:0:
81,307,105337,2,0,P|127:300|191:282,1,90,0|2,0:0|0:0,0:0:0:0:
321,131,105674,2,0,P|321:155|314:185,1,45
277,242,105842,2,0,P|283:215|284:188,1,45,2|0,0:0|0:0,0:0:0:0:
246,109,106011,6,0,P|181:125|114:134,1,135
110,142,106348,1,2,0:0:0:0:
105,149,106432,1,0,0:0:0:0:
100,157,106517,1,2,0:0:0:0:
96,165,106601,1,0,0:0:0:0:
92,173,106685,1,0,0:0:0:0:
171,237,106854,2,0,P|174:261|184:295,1,45,2|0,0:0|0:0,0:0:0:0:
253,324,107022,2,0,P|261:294|266:266,1,45,2|0,0:0|0:0,0:0:0:0:
335,237,107191,2,0,P|338:262|348:295,1,45
385,348,107359,6,0,P|445:348|480:323,1,90,2|0,0:0|0:0,0:0:0:0:
487,305,107612,1,0,0:0:0:0:
487,305,107696,1,2,0:0:0:0:
456,144,107865,1,0,0:0:0:0:
451,165,107949,1,0,0:0:0:0:
446,186,108033,1,2,0:0:0:0:
385,348,108202,1,2,0:0:0:0:
282,145,108371,1,0,0:0:0:0:
372,229,108539,1,2,0:0:0:0:
260,348,108708,6,0,P|217:339|146:335,1,90,2|0,0:0|0:0,0:0:0:0:
87,311,108960,1,0,0:0:0:0:
87,311,109045,2,0,P|91:331|100:357,1,45,2|0,0:0|0:0,0:0:0:0:
176,242,109213,2,0,P|184:215|188:198,1,45
70,196,109382,1,2,0:0:0:0:
53,181,109466,1,0,0:0:0:0:
42,161,109550,1,0,0:0:0:0:
38,138,109635,1,0,0:0:0:0:
41,115,109719,1,2,0:0:0:0:
50,94,109803,1,0,0:0:0:0:
66,79,109887,1,2,0:0:0:0:
85,68,109972,1,0,0:0:0:0:
106,63,110056,6,0,P|171:78|263:89,1,135.000005149842,2|0,0:0|0:0,0:0:0:0:
407,204,110562,1,2,0:0:0:0:
407,204,110646,1,0,0:0:0:0:
407,204,110730,2,0,P|433:156|442:111,1,90
311,164,111067,5,2,0:0:0:0:
300,184,111151,1,0,0:0:0:0:
297,206,111235,1,0,0:0:0:0:
302,228,111319,1,0,0:0:0:0:
311,248,111404,1,2,0:0:0:0:
320,269,111488,1,0,0:0:0:0:
323,291,111572,1,0,0:0:0:0:
319,313,111656,1,0,0:0:0:0:
310,334,111741,1,0,0:0:0:0:
184,268,111910,6,0,L|174:239,4,22.5,0|0|0|0|2,0:0|0:0|0:0|0:0|0:0,0:0:0:0:
401,346,112247,1,8,0:1:0:0:
297,84,112415,2,0,L|311:170,1,80.9999975280763,12|0,0:0|0:0,0:0:0:0:
333,188,112753,6,0,B|287:169|287:169|177:209,1,161.999995056153,4|0,1:0|0:0,0:0:0:0:
0,123,113258,2,0,B|45:141|45:141|155:101,1,161.999995056153,0|8,1:0|0:3,0:0:0:0:
277,261,113764,1,0,0:0:0:0:
376,86,113932,6,0,B|360:181|360:181|384:229|384:229|364:336,1,242.999992584229,4|2,1:0|0:0,0:0:0:0:
451,166,114606,2,0,L|498:155,2,40.4999987640381,0|0|2,0:0|0:0|0:0,0:0:0:0:
278,286,114944,1,0,0:0:0:0:
278,286,115028,1,0,0:0:0:0:
278,286,115112,2,0,L|184:267,1,80.9999975280763,6|0,0:0|0:0,0:0:0:0:
96,349,115449,6,0,B|45:285|45:285|70:198,1,161.999995056153,4|0,1:0|0:0,0:0:0:0:
232,19,115955,2,0,B|283:83|283:83|258:170,1,161.999995056153,0|8,1:0|0:3,0:0:0:0:
270,176,116629,6,0,L|511:151,1,242.999992584229,4|12,1:0|0:0,0:0:0:0:
406,263,117303,1,0,0:0:0:0:
406,263,117472,2,0,L|391:348,1,80.9999975280763,2|0,0:0|0:0,0:0:0:0:
368,320,117724,1,0,0:0:0:0:
335,326,117809,1,2,1:2:0:0:
303,332,117893,1,0,0:0:0:0:
271,338,117977,1,0,1:0:0:0:
239,344,118062,1,0,0:0:0:0:
207,351,118146,5,0,1:0:0:0:
260,116,118314,1,0,1:0:0:0:
277,247,118483,1,0,1:0:0:0:
115,274,118651,1,0,1:0:0:0:
211,45,118820,2,0,P|274:33|347:92,1,135.000005149842,12|0,1:2|0:0,0:0:0:0:
137,164,119326,6,0,P|100:153|64:131,1,67.5000025749208,0|0,1:0|0:0,0:0:0:0:
277,247,119663,2,0,P|293:301|295:336,1,67.5000025749208,0|0,1:0|0:0,0:0:0:0:
408,149,120000,1,0,1:0:0:0:
408,149,120084,1,0,1:0:0:0:
408,149,120168,2,0,B|366:173|366:173|324:176|265:133,1,135.000005149842,12|0,1:2|0:0,0:0:0:0:
285,147,120842,6,0,P|261:185|230:303,1,161.999995056153,0|0,1:0|1:0,0:0:0:0:
75,202,121348,1,0,0:0:0:0:
136,59,121517,2,0,P|159:104|168:141,1,80.9999975280763,0|0,1:0|0:0,0:0:0:0:
308,291,121854,2,0,P|319:252|338:216,1,80.9999975280763,0|0,1:0|0:0,0:0:0:0:
442,69,122191,5,0,1:0:0:0:
464,168,122359,1,0,0:0:0:0:
283,271,122528,1,8,1:2:0:0:
321,129,122696,1,0,0:0:0:0:
478,202,122865,5,0,1:0:0:0:
241,183,123033,1,0,0:0:0:0:
414,355,123202,1,8,1:2:0:0:
409,331,123286,1,0,1:0:0:0:
404,306,123371,1,0,1:0:0:0:
399,282,123455,1,0,1:0:0:0:
394,258,123539,1,0,0:0:0:0:
172,241,125562,6,0,B|113:256|113:256|76:310,1,121.499996292114
31,245,125899,2,0,B|90:230|90:230|127:176,1,121.499996292114,0|0,1:0|0:0,0:0:0:0:
214,114,126236,6,0,L|13:168,1,180,4|8,1:0|1:2,0:0:0:0:
262,16,126741,1,0,0:0:0:0:
347,224,126910,2,0,P|312:187|287:144,1,90,0|0,1:0|0:0,0:0:0:0:
295,127,127162,1,2,0:0:0:0:
298,100,127247,1,8,1:2:0:0:
195,231,127415,6,0,L|176:330,1,90,0|0,0:0|1:0,0:0:0:0:
388,128,127752,2,0,L|369:29,1,90,0|8,0:0|1:2,0:0:0:0:
333,253,128089,1,2,0:0:0:0:
338,279,128174,1,2,0:0:0:0:
344,305,128258,1,0,1:0:0:0:
267,131,128427,1,0,0:0:0:0:
163,232,128595,2,0,P|122:250|71:262,1,90,8|0,1:2|0:0,0:0:0:0:
255,339,128932,6,0,B|362:303|326:354|454:320,1,180,0|8,1:0|1:2,0:0:0:0:
438,139,129438,1,2,0:0:0:0:
438,139,129522,1,2,0:0:0:0:
438,139,129606,2,0,P|406:188|396:224,1,90,0|0,1:0|0:0,0:0:0:0:
216,280,129943,2,0,P|268:290|323:287,1,90,8|0,0:0|0:0,0:0:0:0:
277,160,130280,5,0,1:0:0:0:
127,303,130449,1,0,0:0:0:0:
149,68,130618,2,0,L|168:174,1,90,8|0,1:2|0:0,0:0:0:0:
108,211,130870,1,8,0:0:0:0:
108,211,130955,2,0,L|54:199,1,45,0|0,1:0|0:0,0:0:0:0:
216,280,131123,1,0,0:0:0:0:
425,214,131292,2,0,B|379:177|379:177|287:171,1,135,8|0,1:2|0:0,0:0:0:0:
292,144,131629,6,0,P|260:198|348:279,1,180,4|8,1:0|1:2,0:0:0:0:
357,93,132134,1,2,0:0:0:0:
357,93,132219,1,2,0:0:0:0:
357,93,132303,2,0,L|372:-4,1,90,0|0,1:0|0:0,0:0:0:0:
467,285,132640,2,0,P|426:258|386:219,1,90,8|0,1:2|0:0,0:0:0:0:
260,43,132977,5,0,1:0:0:0:
226,256,133146,1,0,0:0:0:0:
305,164,133314,1,12,1:2:0:0:
282,361,133483,1,0,0:0:0:0:
282,361,133567,1,8,0:0:0:0:
282,361,133651,2,0,L|176:375,1,90,0|0,1:0|0:0,0:0:0:0:
24,166,133988,2,0,B|69:165|69:165|119:197,1,90,8|0,1:2|0:0,0:0:0:0:
246,44,134325,5,0,1:0:0:0:
227,262,134494,2,0,L|217:212,1,45
139,116,134662,1,8,0:0:0:0:
349,190,134831,1,0,1:0:0:0:
357,220,134915,1,0,1:0:0:0:
365,250,135000,1,0,1:0:0:0:
413,104,135168,1,8,0:3:0:0:
229,196,135337,1,8,1:2:0:0:
92,31,135505,6,0,B|56:81|56:81|86:201,1,180,4|0,1:2|1:0,0:0:0:0:
106,177,135927,1,0,0:0:0:0:
103,208,136011,1,0,1:0:0:0:
100,239,136095,1,0,0:0:0:0:
97,270,136179,1,0,1:0:0:0:
94,301,136264,1,0,0:0:0:0:
91,332,136348,2,0,L|86:380,1,45,0|0,1:0|0:0,0:0:0:0:
192,225,136516,2,0,L|197:273,1,45,0|0,1:0|0:0,0:0:0:0:
310,357,136685,6,0,P|316:323|317:290,1,58.4999973220826,0|0,1:0|0:0,0:0:0:0:
388,121,136853,6,0,P|388:148|395:188,1,58.4999973220826,0|0,1:0|0:0,0:0:0:0:
480,337,137022,6,0,B|444:373|444:373|389:334|392:238,1,180,4|8,1:0|1:2,0:0:0:0:
420,43,137528,1,0,0:0:0:0:
262,137,137696,2,0,P|309:162|358:171,1,90,0|0,1:0|0:0,0:0:0:0:
363,157,137949,1,2,0:0:0:0:
381,144,138033,1,8,1:2:0:0:
404,23,138202,6,0,P|365:45|334:78,1,90,0|0,0:0|1:0,0:0:0:0:
284,320,138539,2,0,P|283:275|271:231,1,90,0|8,0:0|1:2,0:0:0:0:
127,77,138876,1,2,0:0:0:0:
135,107,138960,1,2,0:0:0:0:
143,137,139044,1,0,1:0:0:0:
116,293,139213,1,0,0:0:0:0:
261,217,139382,2,0,L|364:227,1,90,8|0,1:2|0:0,0:0:0:0:
512,280,139719,6,0,P|484:327|349:320,1,180,0|8,1:0|1:2,0:0:0:0:
308,140,140224,1,2,0:0:0:0:
308,140,140309,1,2,0:0:0:0:
308,140,140393,2,0,L|299:38,1,90,0|0,1:0|0:0,0:0:0:0:
471,176,140730,2,0,L|480:278,1,90,8|0,1:2|0:0,0:0:0:0:
405,83,141067,5,0,1:0:0:0:
239,187,141236,1,0,0:0:0:0:
375,256,141404,2,0,L|384:358,1,90,8|0,1:2|0:0,0:0:0:0:
383,346,141657,1,8,0:0:0:0:
383,346,141741,1,0,1:0:0:0:
320,133,141910,1,0,0:0:0:0:
185,259,142078,2,0,L|43:277,1,135,8|0,1:2|0:0,0:0:0:0:
51,318,142415,6,0,P|13:283|48:152,1,180,4|8,1:0|1:2,0:0:0:0:
230,28,142921,1,2,0:0:0:0:
230,28,143005,1,2,0:0:0:0:
230,28,143089,2,0,P|216:84|202:121,1,90,0|0,1:0|0:0,0:0:0:0:
356,293,143427,2,0,P|341:250|330:206,1,90,8|0,1:2|0:0,0:0:0:0:
410,74,143764,5,0,1:0:0:0:
247,196,143932,1,0,0:0:0:0:
423,222,144101,1,12,1:2:0:0:
310,124,144269,1,0,0:0:0:0:
310,124,144353,1,8,0:0:0:0:
310,124,144438,1,0,1:0:0:0:
277,311,144606,1,0,0:0:0:0:
85,232,144775,2,0,B|122:209|122:209|184:211,1,90,8|0,1:2|0:0,0:0:0:0:
477,266,145112,5,0,1:0:0:0:
247,196,145280,1,0,0:0:0:0:
381,305,145449,1,8,0:0:0:0:
234,111,145618,2,0,B|182:128|182:128|154:119|154:119|50:143,1,180,0|0,1:0|0:0,0:0:0:0:
281,38,146123,1,8,1:2:0:0:
247,196,146292,6,0,L|258:262,1,45,4|0,1:2|0:0,0:0:0:0:
228,328,146460,1,0,0:0:0:0:
228,328,146544,1,0,0:0:0:0:
228,328,146629,1,0,1:0:0:0:
228,328,146713,1,0,0:0:0:0:
228,328,146797,2,0,L|280:316,1,45,0|0,1:0|0:0,0:0:0:0:
373,214,146966,2,0,L|321:202,1,45,0|0,1:0|0:0,0:0:0:0:
201,84,147134,5,0,1:0:0:0:
170,93,147219,1,0,0:0:0:0:
151,118,147303,1,8,1:3:0:0:
142,148,147387,1,0,0:0:0:0:
148,178,147471,1,8,1:3:0:0:
166,179,147556,1,0,0:0:0:0:
183,181,147640,1,0,1:0:0:0:
200,183,147724,1,0,1:0:0:0:
218,185,147809,6,0,B|265:172|265:172|314:184|314:184|361:152|416:166,1,198.000006042481,4|0,1:0|0:0,0:0:0:0:
124,264,148314,2,0,P|78:238|71:96,1,198.000006042481,4|8,1:2|0:3,0:0:0:0:
142,44,148820,1,0,1:0:0:0:
442,87,148988,6,0,P|414:177|408:289,1,198.000006042481,4|0,1:0|0:0,0:0:0:0:
252,340,149494,2,0,P|230:300|237:253,1,72,8|0,0:0|0:0,0:0:0:0:
238,262,149747,1,8,0:0:0:0:
246,250,149831,1,0,1:0:0:0:
254,238,149915,1,8,0:0:0:0:
263,226,150000,1,0,1:0:0:0:
215,39,150168,1,8,0:0:0:0:
184,152,150337,1,0,0:0:0:0:
184,152,150421,1,0,0:0:0:0:
184,152,150505,6,0,B|254:124|321:133|321:133|314:155|285:188,1,198.000006042481,4|0,1:0|0:0,0:0:0:0:
434,350,151011,2,0,B|382:313|382:313|363:243|410:174,1,198.000006042481,0|8,1:0|0:3,0:0:0:0:
475,104,151516,1,0,0:0:0:0:
263,287,151685,6,0,B|178:243|159:316|70:278,1,198.000006042481,4|0,1:0|0:0,0:0:0:0:
111,33,152191,2,0,P|130:79|133:142,1,99.0000030212403,12|0,1:2|0:0,0:0:0:0:
209,356,152528,1,0,1:0:0:0:
322,260,152696,1,0,1:0:0:0:
319,240,152780,1,0,1:0:0:0:
316,220,152865,1,0,1:0:0:0:
314,200,152949,1,0,1:0:0:0:
312,180,153033,1,0,1:0:0:0:
310,160,153118,1,0,1:0:0:0:
308,140,153202,6,0,L|504:171,1,198.000006042481,4|0,1:0|0:0,0:0:0:0:
211,56,153707,2,0,B|172:76|172:76|117:63|117:63|33:123,1,198.000006042481,0|8,1:0|0:3,0:0:0:0:
3,210,154213,1,0,1:0:0:0:
253,198,154382,6,0,B|293:160|293:160|313:16,1,198.000006042481,4|0,1:0|0:0,0:0:0:0:
391,216,154887,2,0,L|403:296,1,72,8|0,0:0|0:0,0:0:0:0:
333,322,155140,1,8,0:0:0:0:
333,322,155224,2,0,L|326:367,1,36,0|8,1:0|0:0,0:0:0:0:
253,373,155393,1,8,1:3:0:0:
112,342,155561,2,0,L|198:329,1,72,8|0,0:0|0:0,0:0:0:0:
399,190,155898,6,0,B|318:133|318:133|211:161,1,198.000006042481,4|0,1:0|0:0,0:0:0:0:
62,72,156404,2,0,B|111:98|111:98|265:60,1,198.000006042481,0|8,1:0|0:3,0:0:0:0:
333,117,156910,1,0,0:0:0:0:
177,349,157078,6,0,L|206:125,1,198.000006042481,4|0,1:0|0:0,0:0:0:0:
420,51,157584,1,8,0:0:0:0:
345,244,157752,1,0,0:0:0:0:
280,85,157921,1,0,1:0:0:0:
473,155,158089,1,0,1:0:0:0:
391,339,158258,1,0,1:0:0:0:
361,334,158342,1,0,1:0:0:0:
331,330,158427,1,0,1:0:0:0:
301,326,158511,1,0,1:0:0:0:
271,322,158595,6,0,P|222:331|165:355,1,99.0000030212403,4|0,1:0|0:0,0:0:0:0:
71,190,158932,1,8,1:2:0:0:
61,290,159101,1,0,0:0:0:0:
61,290,159185,1,0,0:0:0:0:
61,290,159269,1,0,1:0:0:0:
200,206,159438,1,0,0:0:0:0:
51,320,159606,1,8,1:2:0:0:
135,121,159775,6,0,P|183:107|234:104,1,99.0000030212403,0|0,0:0|1:0,0:0:0:0:
481,226,160112,1,0,0:0:0:0:
452,103,160280,1,8,1:2:0:0:
407,308,160449,1,0,0:0:0:0:
407,308,160533,1,8,0:0:0:0:
407,308,160618,2,0,L|355:295,1,49.5000015106202,0|0,1:0|0:0,0:0:0:0:
260,346,160786,1,0,0:0:0:0:
361,187,160955,1,8,1:2:0:0:
226,225,161123,1,0,0:0:0:0:
285,33,161292,6,0,B|309:77|309:77|299:132,1,99.0000030212403,0|0,1:0|0:0,0:0:0:0:
78,178,161629,1,8,1:2:0:0:
219,91,161797,1,0,0:0:0:0:
219,91,161882,1,0,0:0:0:0:
219,91,161966,2,0,L|115:77,1,99.0000030212403,0|0,1:0|0:0,0:0:0:0:
19,290,162303,1,8,1:2:0:0:
175,179,162471,2,0,L|163:233,1,49.5000015106202
133,333,162640,5,0,1:0:0:0:
306,157,162809,1,0,0:0:0:0:
439,255,162977,2,0,P|405:280|347:283,1,99.0000030212403,8|0,1:2|0:0,0:0:0:0:
287,238,163230,1,8,0:0:0:0:
287,238,163314,1,0,1:0:0:0:
374,106,163483,1,8,1:3:0:0:
160,147,163651,2,0,L|271:129,1,99.0000030212403,8|0,1:2|0:0,0:0:0:0:
413,327,163988,6,0,P|328:357|271:285,1,161.999995056153,4|8,1:0|0:2,0:0:0:0:
239,61,164494,2,0,B|282:72|282:72|318:121|295:201,1,161.999995056153,4|8,0:0|0:3,0:0:0:0:
188,235,165000,2,0,P|144:251|87:258,1,80.9999975280763,2|0,0:0|1:0,0:0:0:0:
81,256,165252,1,0,1:0:0:0:
81,256,165337,5,0,1:0:0:0:
116,149,165505,1,0,1:0:0:0:
162,348,165674,1,2,0:0:0:0:
316,213,165842,2,0,P|335:160|347:43,1,161.999995056153,4|8,1:2|0:3,0:0:0:0:
506,138,166348,2,0,P|455:146|418:163,1,80.9999975280763,2|0,0:0|0:0,0:0:0:0:
116,149,166685,6,0,P|177:139|252:123,1,121.499996292114,0|0,1:0|0:0,0:0:0:0:
259,152,167022,2,0,P|263:201|242:242,1,80.9999975280763,8|0,0:2|0:0,0:0:0:0:
172,277,167359,1,0,0:0:0:0:
230,349,167528,1,2,0:0:0:0:
91,318,167696,1,2,0:0:0:0:
188,187,167865,1,0,1:0:0:0:
53,235,168033,5,0,1:0:0:0:
281,191,168202,1,0,1:0:0:0:
22,205,168370,1,0,1:0:0:0:
325,273,168539,1,0,1:0:0:0:
325,273,169382,5,2,0:0:0:0:
325,273,169887,1,0,0:0:0:0:
257,204,170056,2,0,P|273:166|279:130,1,71.9999978027344,2|2,0:0|0:0,0:0:0:0:
359,13,170561,2,0,P|370:57|401:130,1,107.999996704102,2|0,0:0|0:0,0:0:0:0:
219,336,171235,2,0,P|203:264|156:182,1,161.999995056153,2|0,0:0|0:0,0:0:0:0:
27,96,171910,1,0,0:0:0:0:
72,169,172078,6,0,P|113:175|175:122,1,107.999996704102,2|0,0:0|0:0,0:0:0:0:
314,80,172584,2,0,P|270:62|199:60,2,107.999996704102,2|2|2,0:0|0:0|0:0,0:0:0:0:
314,80,173595,1,0,0:0:0:0:
393,144,173764,2,0,P|380:178|372:209,1,53.9999983520508
415,352,174101,2,0,P|438:311|454:243,1,107.999996704102,2|0,0:0|0:0,0:0:0:0:
282,191,174606,1,0,0:0:0:0:
234,263,174775,6,0,P|193:250|106:239,1,107.999996704102,2|0,0:0|0:0,0:0:0:0:
345,123,175449,1,2,0:0:0:0:
96,77,175786,1,0,0:0:0:0:
128,239,175955,1,2,0:0:0:0:
153,155,176123,2,0,P|194:142|281:131,1,107.999996704102
440,38,176797,1,2,0:0:0:0:
402,260,177134,1,0,0:0:0:0:
408,111,177471,6,0,P|435:148|462:225,1,107.999996704102,2|0,0:0|0:0,0:0:0:0:
357,334,177977,2,0,P|304:320|238:307,1,107.999996704102,2|0,0:0|0:0,0:0:0:0:
118,337,178483,1,2,0:0:0:0:
177,273,178651,2,0,P|190:228|199:151,1,107.999996704102,2|0,0:0|0:0,0:0:0:0:
297,214,179157,1,0,0:0:0:0:
297,214,179325,2,0,P|284:169|275:92,1,107.999996704102,2|0,0:0|0:0,0:0:0:0:
106,238,179831,1,0,0:0:0:0:
106,238,180168,6,0,P|72:177|79:91,1,135.000005149842,2|0,0:0|0:0,0:0:0:0:
143,60,180674,1,0,0:0:0:0:
143,60,180842,2,0,P|184:49|212:38,1,67.5000025749208,2|2,0:0|0:0,0:0:0:0:
480,160,181348,2,0,P|435:146|344:133,1,135.000005149842,2|2,0:0|0:0,0:0:0:0:
47,294,182022,2,0,P|113:285|178:267,1,135.000005149842,2|2,0:0|0:0,0:0:0:0:
241,187,182528,1,2,0:0:0:0:
241,187,182696,1,0,0:0:0:0:
339,202,182865,6,0,B|369:234|369:234|390:332,1,135.000005149842,2|0,0:0|0:0,0:0:0:0:
450,215,183370,2,0,P|458:171|468:141,1,67.5000025749208,2|0,0:0|0:0,0:0:0:0:
279,267,183707,2,0,P|288:299|293:332,1,67.5000025749208,2|0,0:0|0:0,0:0:0:0:
169,139,184044,2,0,P|159:106|154:73,1,67.5000025749208,2|0,0:0|0:0,0:0:0:0:
224,18,184382,1,2,0:0:0:0:
133,226,184550,2,0,P|92:246|51:256,1,67.5000025749208
262,155,184887,2,0,L|398:175,1,135.000005149842,2|2,0:0|0:0,0:0:0:0:
469,123,185393,1,0,0:0:0:0:
469,123,185477,1,0,0:0:0:0:
469,123,185561,6,0,P|483:74|486:51,1,67.5000025749208,2|0,0:0|0:0,0:0:0:0:
369,19,185898,2,0,P|374:52|385:84,1,67.5000025749208
479,219,186235,1,2,0:0:0:0:
306,189,186404,1,0,0:0:0:0:
418,157,186573,1,2,0:0:0:0:
400,277,186741,1,0,0:0:0:0:
246,127,186910,6,0,L|155:116,1,67.5000025749208,2|0,0:0|0:0,0:0:0:0:
76,276,187247,1,0,0:0:0:0:
36,92,187415,1,0,0:0:0:0:
129,194,187584,1,2,0:0:0:0:
12,206,187752,1,0,0:0:0:0:
125,355,187921,2,0,L|207:333,1,67.5000025749208,2|0,0:0|0:0,0:0:0:0:
395,271,188258,5,2,0:0:0:0:
392,284,188342,1,0,0:0:0:0:
389,297,188427,1,0,0:0:0:0:
386,310,188511,1,0,0:0:0:0:
383,323,188595,1,0,0:0:0:0:
353,306,188679,1,0,0:0:0:0:
339,274,188764,1,2,0:0:0:0:
343,240,188848,1,0,0:0:0:0:
365,214,188932,5,0,0:0:0:0:
396,201,189016,1,0,0:0:0:0:
422,179,189101,1,0,0:0:0:0:
437,148,189185,1,0,0:0:0:0:
438,114,189269,1,2,0:0:0:0:
423,83,189353,1,0,0:0:0:0:
394,64,189438,1,2,0:0:0:0:
360,65,189522,1,0,0:0:0:0:
332,84,189606,6,0,L|319:131,3,33.7500012874604
244,168,189943,2,0,L|257:215,3,33.7500012874604
154,106,190280,6,0,B|139:75|139:75|151:3,1,101.250003862381
136,120,190618,2,0,B|151:151|151:151|139:223,1,101.250003862381,0|0,1:0|0:0,0:0:0:0:
200,284,190955,6,0,P|107:301|50:226,1,198.000006042481,4|8,1:0|1:2,0:0:0:0:
266,210,191460,1,0,0:0:0:0:
358,258,191629,2,0,L|375:363,1,99.0000030212403,0|0,1:0|0:0,0:0:0:0:
373,355,191882,1,2,0:0:0:0:
373,355,191966,1,8,1:2:0:0:
280,170,192134,6,0,P|290:118|314:65,1,99.0000030212403,0|0,0:0|1:0,0:0:0:0:
477,210,192471,2,0,P|467:262|443:315,1,99.0000030212403,0|8,0:0|1:2,0:0:0:0:
201,212,192809,1,2,0:0:0:0:
195,177,192893,1,2,0:0:0:0:
190,142,192977,1,0,1:0:0:0:
392,100,193146,1,0,0:0:0:0:
236,291,193314,2,0,B|188:302|188:302|122:272,1,99.0000030212403,8|0,1:2|0:0,0:0:0:0:
138,9,193651,6,0,B|192:24|192:24|241:94|200:157,1,198.000006042481,0|8,1:0|1:2,0:0:0:0:
92,200,194157,1,2,0:0:0:0:
92,200,194241,1,2,0:0:0:0:
92,200,194325,1,0,1:0:0:0:
268,301,194494,1,0,0:0:0:0:
245,78,194662,1,8,0:0:0:0:
184,198,194831,1,0,0:0:0:0:
457,163,195000,6,0,L|354:149,1,99.0000030212403,0|0,1:0|0:0,0:0:0:0:
157,282,195337,1,8,1:2:0:0:
335,227,195505,1,0,0:0:0:0:
335,227,195589,1,8,0:0:0:0:
335,227,195674,2,0,L|389:235,1,49.5000015106202,0|0,1:0|0:0,0:0:0:0:
257,148,195842,1,0,0:0:0:0:
208,352,196011,2,0,B|155:361|155:361|63:336,1,148.50000453186,8|0,1:2|0:0,0:0:0:0:
22,361,196348,6,0,P|66:309|34:174,1,198.000006042481,4|8,1:0|1:2,0:0:0:0:
173,52,196853,1,0,0:0:0:0:
23,92,197022,1,0,1:0:0:0:
203,191,197191,1,0,0:0:0:0:
145,30,197359,2,0,L|124:143,1,99.0000030212403,8|0,1:2|0:0,0:0:0:0:
360,339,197696,5,0,1:0:0:0:
279,137,197865,1,0,0:0:0:0:
476,334,198033,1,12,1:2:0:0:
270,244,198202,1,0,0:0:0:0:
303,236,198286,1,8,0:0:0:0:
336,228,198370,1,0,1:0:0:0:
498,359,198539,1,0,0:0:0:0:
368,138,198707,2,0,B|353:88|353:88|363:35,1,99.0000030212403,8|0,1:2|0:0,0:0:0:0:
476,183,199044,5,0,1:0:0:0:
259,84,199213,2,0,L|244:155,1,49.5000015106202
119,325,199382,1,8,0:0:0:0:
268,232,199550,1,0,1:0:0:0:
268,232,199634,1,0,1:0:0:0:
268,232,199719,1,0,1:0:0:0:
160,91,199887,1,8,0:3:0:0:
256,328,200056,1,8,1:2:0:0:
0,164,200224,6,0,B|62:173|62:173|94:163|94:163|196:175,1,198.000006042481,4|0,1:2|0:0,0:0:0:0:
213,210,200646,1,0,0:0:0:0:
249,225,200730,1,0,1:0:0:0:
288,218,200814,1,0,0:0:0:0:
319,194,200898,1,0,1:0:0:0:
328,155,200983,1,0,0:0:0:0:
312,118,201067,2,0,L|256:108,1,49.5000015106202,0|0,1:0|0:0,0:0:0:0:
105,277,201235,2,0,L|161:267,1,49.5000015106202,0|0,1:0|0:0,0:0:0:0:
342,343,201404,6,0,P|353:306|352:271,1,62.9999980773926,0|0,1:0|0:0,0:0:0:0:
252,48,201573,2,0,P|253:79|263:109,1,62.9999980773926,0|0,1:0|0:0,0:0:0:0:
419,341,201741,6,0,L|385:135,1,198.000006042481,4|8,1:0|1:2,0:0:0:0:
465,41,202247,1,0,0:0:0:0:
281,294,202415,2,0,B|244:307|244:307|166:292,1,99.0000030212403,0|0,1:0|0:0,0:0:0:0:
180,276,202668,1,2,0:0:0:0:
175,256,202752,1,8,1:2:0:0:
225,19,202921,6,0,P|203:68|194:122,1,99.0000030212403,0|0,0:0|1:0,0:0:0:0:
281,294,203258,2,0,P|271:245|250:200,1,99.0000030212403,0|8,0:0|1:2,0:0:0:0:
102,117,203595,1,0,0:0:0:0:
73,123,203679,1,0,0:0:0:0:
43,130,203764,2,0,L|-14:143,1,49.5000015106202,0|0,1:0|0:0,0:0:0:0:
219,201,203932,1,0,0:0:0:0:
113,347,204101,2,0,B|86:305|86:305|89:249,1,99.0000030212403,8|0,1:2|0:0,0:0:0:0:
321,31,204438,6,0,P|372:75|349:203,1,198.000006042481,0|8,1:0|1:2,0:0:0:0:
174,279,204943,1,2,0:0:0:0:
174,279,205028,1,2,0:0:0:0:
174,279,205112,1,0,1:0:0:0:
295,305,205280,1,0,0:0:0:0:
133,170,205449,2,0,L|28:155,1,99.0000030212403,8|0,0:0|0:0,0:0:0:0:
222,345,205786,5,0,1:0:0:0:
194,111,205955,1,0,0:0:0:0:
67,284,206123,1,8,1:2:0:0:
283,136,206292,1,0,0:0:0:0:
283,136,206376,1,8,0:0:0:0:
283,136,206460,2,0,L|271:80,1,49.5000015106202,0|0,1:0|0:0,0:0:0:0:
159,29,206629,1,0,0:0:0:0:
234,207,206797,2,0,P|301:223|362:168,1,148.50000453186,8|0,1:2|0:0,0:0:0:0:
373,139,207134,6,0,B|349:204|349:204|378:348,1,198.000006042481,4|12,1:0|1:2,0:0:0:0:
474,112,207640,1,2,0:0:0:0:
474,112,207724,1,2,0:0:0:0:
474,112,207809,2,0,L|486:8,1,99.0000030212403,0|0,1:0|0:0,0:0:0:0:
289,266,208146,1,8,1:2:0:0:
445,205,208314,1,0,0:0:0:0:
351,60,208483,5,0,1:0:0:0:
383,277,208651,1,0,0:0:0:0:
140,142,208820,2,0,B|185:119|185:119|235:124,1,99.0000030212403,12|0,1:2|0:0,0:0:0:0:
239,142,209073,1,8,0:0:0:0:
245,160,209157,1,0,1:0:0:0:
194,327,209325,1,0,0:0:0:0:
353,176,209494,2,0,L|363:63,1,99.0000030212403,8|0,1:2|0:0,0:0:0:0:
167,231,209831,5,0,1:0:0:0:
386,335,210000,1,0,0:0:0:0:
245,160,210168,1,8,0:0:0:0:
142,347,210337,2,0,B|91:307|91:307|70:161,1,198.000006042481,0|0,1:0|0:0,0:0:0:0:
242,36,210842,1,8,1:2:0:0:
167,231,211011,1,4,1:2:0:0:
70,86,211179,5,0,0:0:0:0:
103,76,211264,1,0,0:0:0:0:
137,80,211348,1,0,0:0:0:0:
165,99,211432,1,0,0:0:0:0:
187,125,211516,1,0,1:0:0:0:
212,148,211601,1,0,0:0:0:0:
243,161,211685,1,0,1:0:0:0:
277,162,211769,1,0,0:0:0:0:
309,149,211853,6,0,L|319:86,1,49.5000015106202,0|0,1:0|0:0,0:0:0:0:
447,224,212022,2,0,L|387:246,1,49.5000015106202,8|0,1:3|0:0,0:0:0:0:
443,67,212191,2,0,L|492:107,1,49.5000015106202,8|0,1:3|0:0,0:0:0:0:
393,158,212359,1,0,1:0:0:0:
393,158,212443,1,0,0:0:0:0:
393,158,212528,1,0,1:0:0:0:
393,158,213202,6,0,L|406:297,1,135.000005149842,6|0,0:2|0:0,0:0:0:0:
106,346,213876,1,2,0:0:0:0:
165,302,214044,1,0,0:0:0:0:
239,290,214213,1,0,0:0:0:0:
310,316,214382,1,0,0:0:0:0:
146,227,214550,2,0,P|102:254|5:264,1,135.000005149842,2|0,0:0|0:0,0:0:0:0:
249,269,215056,1,0,0:0:0:0:
249,269,215224,6,0,B|280:224|280:224|289:125,1,135.000005149842,2|0,0:0|0:0,0:0:0:0:
182,21,215730,1,0,0:0:0:0:
115,84,215898,1,2,0:0:0:0:
115,84,216067,1,0,0:0:0:0:
204,117,216235,1,2,0:0:0:0:
204,117,216404,1,0,0:0:0:0:
270,50,216573,6,0,L|353:63,1,67.5000025749208,2|0,0:0|0:0,0:0:0:0:
130,174,216910,2,0,L|47:187,1,67.5000025749208,2|0,0:0|0:0,0:0:0:0:
222,210,217247,2,0,L|368:244,1,135.000005149842,2|0,0:0|0:0,0:0:0:0:
324,358,217921,5,2,0:0:0:0:
324,358,218595,2,0,P|359:318|348:233,1,135.000005149842,6|0,0:2|0:0,0:0:0:0:
443,6,219269,1,2,0:0:0:0:
399,67,219438,1,0,0:0:0:0:
413,139,219606,1,0,0:0:0:0:
429,212,219775,1,0,0:0:0:0:
322,92,219943,2,0,P|282:86|189:52,1,135.000005149842,2|0,0:0|0:0,0:0:0:0:
14,174,220449,1,0,0:0:0:0:
14,174,220618,6,0,B|65:133|65:133|153:126,1,135.000005149842,2|0,0:0|0:0,0:0:0:0:
214,290,221123,1,0,0:0:0:0:
178,211,221292,1,2,0:0:0:0:
178,211,221460,1,0,0:0:0:0:
270,216,221629,1,2,0:0:0:0:
270,216,221797,1,0,0:0:0:0:
123,280,221966,6,0,L|37:268,1,67.5000025749208,2|0,0:0|0:0,0:0:0:0:
255,372,222303,2,0,L|341:360,1,67.5000025749208,2|0,0:0|0:0,0:0:0:0:
154,374,222640,1,2,0:0:0:0:
