osu file format v14

[General]
AudioFilename: audio.mp3
AudioLeadIn: 0
PreviewTime: 620
Countdown: 1
SampleSet: Soft
StackLeniency: 0.5
Mode: 0
LetterboxInBreaks: 0
WidescreenStoryboard: 0

[Editor]
DistanceSpacing: 1.2
BeatDivisor: 4
GridSize: 32
TimelineZoom: 1.5

[Metadata]
Title:Find the way
TitleUnicode:Find the way
Artist:FELT
ArtistUnicode:FELT
Creator:MokouSmoke
Version:Lunatic
Source:東方妖々夢 ~ Perfect Cherry Blossom.
Tags:touhou darkness brightness 舞花 Maika Vivienne NAGI☆ Youmu Konpaku Eastern Mystical Dream Ancient Temple
BeatmapID:1741872
BeatmapSetID:831438

[Difficulty]
HPDrainRate:5
CircleSize:4
OverallDifficulty:5
ApproachRate:9
SliderMultiplier:1.8
SliderTickRate:1

[Events]
//Background and Video events
0,0,"maxresdefault.jpg",0,0
//Break Periods
//Storyboard Layer 0 (Background)
//Storyboard Layer 1 (Fail)
//Storyboard Layer 2 (Pass)
//Storyboard Layer 3 (Foreground)
//Storyboard Sound Samples

[TimingPoints]
-559,337.078651685393,4,1,0,100,1,0
789,-133.333333333333,4,2,2,35,0,0
11575,-111.111111111111,4,2,1,70,0,0
30452,-133.333333333333,4,2,1,55,0,0
32137,-133.333333333333,4,2,1,40,0,0
33148,-133.333333333333,4,2,1,35,0,0
34328,-133.333333333333,4,2,2,35,0,0
34497,-133.333333333333,4,2,1,35,0,0
37025,-133.333333333333,4,2,2,35,0,0
37193,-133.333333333333,4,2,1,35,0,0
39721,-133.333333333333,4,2,2,35,0,0
39890,-133.333333333333,4,2,1,35,0,0
42587,-133.333333333333,4,2,2,80,0,0
42924,-133.333333333333,4,2,1,50,0,0
43598,-111.111111111111,4,2,1,90,0,0
43935,-111.111111111111,4,2,1,65,0,0
48654,-111.111111111111,4,2,2,65,0,0
51014,-111.111111111111,4,2,1,35,0,0
51182,-111.111111111111,4,2,1,40,0,0
51351,-111.111111111111,4,2,1,45,0,0
51519,-111.111111111111,4,2,1,50,0,0
51688,-111.111111111111,4,2,1,55,0,0
51856,-111.111111111111,4,2,1,60,0,0
54384,-111.111111111111,4,2,0,60,0,0
54721,-111.111111111111,4,2,1,70,0,0
56575,-111.111111111111,4,2,2,70,0,0
57418,-111.111111111111,4,2,1,70,0,0
62474,-111.111111111111,4,2,2,70,0,0
62811,-111.111111111111,4,2,1,70,0,0
63317,-111.111111111111,4,2,2,70,0,0
64497,-111.111111111111,4,2,1,70,0,0
65508,-111.111111111111,4,2,2,70,0,0
66856,-100,4,2,1,70,0,0
67867,-142.857142857143,4,2,1,70,0,0
68205,-83.3333333333333,4,2,1,90,0,1
68542,-83.3333333333333,4,2,2,90,0,1
89778,-133.333333333333,4,2,2,35,0,0
126182,-100,4,2,1,80,0,1
147755,-100,4,2,1,80,0,0
190901,-100,4,2,1,80,0,1
212474,-100,4,2,1,80,0,0

[Colours]
Combo1 : 222,147,236
Combo2 : 135,205,200
Combo3 : 236,147,183
Combo4 : 168,215,188

[HitObjects]
69,81,789,6,0,P|136:87|200:106,1,135.000005149842,2|0,0:0|0:0,0:0:0:0:
249,172,1294,2,0,P|348:178|435:129,1,202.500007724762,2|0,0:0|0:0,0:0:0:0:
435,129,2137,6,0,P|405:189|386:254,1,135.000005149842,2|0,0:0|0:0,0:0:0:0:
377,335,2643,2,0,P|285:375|187:358,1,202.500007724762,2|0,0:0|0:0,0:0:0:0:
187,358,3485,6,0,P|186:290|172:224,1,135.000005149842,2|0,0:0|0:0,0:0:0:0:
92,211,3991,2,0,P|36:127|35:28,1,202.500007724762,2|0,0:0|0:0,0:0:0:0:
153,139,4834,2,0,P|252:137|335:82,1,202.500007724762,2|0,0:0|0:0,0:0:0:0:
410,36,5508,2,0,B|433:135|386:135|410:235,1,202.500007724762,2|0,0:0|0:0,0:0:0:0:
492,320,6182,6,0,P|493:252|482:186,1,135.000005149842,2|0,0:0|0:0,0:0:0:0:
410,236,6688,2,0,P|310:241|223:192,1,202.500007724762,2|0,0:0|0:0,0:0:0:0:
223,191,7530,6,0,P|206:125|179:64,1,135.000005149842,2|0,0:0|0:0,0:0:0:0:
281,96,8036,2,0,P|381:84|475:48,1,202.500007724762,2|0,0:0|0:0,0:0:0:0:
475,48,8879,6,0,P|470:115|454:180,1,135.000005149842,2|0,0:0|0:0,0:0:0:0:
435,259,9384,2,0,P|360:325|261:340,1,202.500007724762,2|0,0:0|0:0,0:0:0:0:
164,250,10058,5,2,0:0:0:0:
164,250,10143,1,2,0:0:0:0:
164,250,10227,2,0,L|262:256,1,67.5000025749208,2|0,0:0|0:0,0:0:0:0:
144,334,10564,2,0,L|76:330,1,67.5000025749208,2|0,0:0|0:0,0:0:0:0:
0,239,10901,2,0,L|98:245,1,67.5000025749208,2|0,0:0|0:0,0:0:0:0:
261,184,11575,6,0,P|269:137|274:102,1,80.9999975280763,2|0,0:0|0:0,0:0:0:0:
92,19,11912,2,0,P|93:59|93:99,1,80.9999975280763,2|0,0:0|0:0,0:0:0:0:
91,276,12249,2,0,P|118:246|147:217,1,80.9999975280763,2|0,0:0|0:0,0:0:0:0:
295,328,12586,5,2,0:0:0:0:
317,327,12670,1,2,0:0:0:0:
339,325,12754,1,2,0:0:0:0:
361,322,12838,1,2,0:0:0:0:
383,319,12924,2,0,P|426:312|470:301,1,80.9999975280763,2|0,0:0|0:0,0:0:0:0:
427,117,13261,2,0,P|418:161|406:204,1,80.9999975280763,2|0,0:0|0:0,0:0:0:0:
193,111,13598,1,2,0:0:0:0:
300,153,13766,1,0,1:0:0:0:
103,266,13935,1,2,0:0:0:0:
210,224,14103,1,0,1:0:0:0:
401,296,14272,6,0,P|408:256|413:216,1,80.9999975280763,6|0,0:0|0:0,0:0:0:0:
312,41,14609,2,0,P|316:81|323:121,1,80.9999975280763,2|0,0:0|0:0,0:0:0:0:
189,205,14946,2,0,P|153:184|117:166,1,80.9999975280763,2|0,0:0|0:0,0:0:0:0:
214,332,15283,2,0,P|254:330|294:327,1,80.9999975280763,2|0,0:0|0:0,0:0:0:0:
413,216,15620,6,0,P|372:217|332:220,1,80.9999975280763,2|0,0:0|0:0,0:0:0:0:
117,166,15957,2,0,P|153:148|191:134,1,80.9999975280763,2|0,0:0|0:0,0:0:0:0:
278,20,16294,1,2,0:0:0:0:
332,220,16463,1,0,1:0:0:0:
401,116,16632,1,2,0:0:0:0:
387,321,16800,1,0,1:0:0:0:
481,119,16969,6,0,P|440:116|396:115,1,80.9999975280763,6|0,0:0|0:0,0:0:0:0:
258,33,17306,2,0,P|269:72|282:111,1,80.9999975280763,2|0,0:0|0:0,0:0:0:0:
409,243,17643,2,0,P|370:230|331:219,1,80.9999975280763,2|0,0:0|0:0,0:0:0:0:
129,95,17980,5,2,0:0:0:0:
131,116,18064,1,2,0:0:0:0:
135,137,18148,1,2,0:0:0:0:
140,159,18232,1,2,0:0:0:0:
145,181,18318,2,0,P|155:223|169:266,1,80.9999975280763,2|0,0:0|0:0,0:0:0:0:
269,91,18654,2,0,P|284:53|297:15,1,80.9999975280763,2|0,0:0|0:0,0:0:0:0:
438,91,18991,2,0,P|446:130|451:170,1,80.9999975280763,2|0,0:0|0:0,0:0:0:0:
403,316,19328,1,2,0:0:0:0:
354,220,19497,1,0,1:0:0:0:
247,326,19665,6,0,B|165:338|168:300|88:312,1,161.999995056153,2|2,0:0|0:0,0:0:0:0:
25,197,20171,1,2,0:0:0:0:
25,197,20255,1,2,0:0:0:0:
25,197,20339,1,2,0:0:0:0:
106,297,20508,1,2,0:0:0:0:
222,218,20676,5,2,0:0:0:0:
249,223,20760,1,2,0:0:0:0:
277,226,20844,1,2,0:0:0:0:
305,230,20928,1,2,0:0:0:0:
334,234,21013,1,0,1:2:0:0:
475,151,21182,1,2,0:0:0:0:
264,110,21351,1,0,1:0:0:0:
405,193,21520,1,2,0:0:0:0:
475,69,21688,5,0,1:2:0:0:
474,291,21856,1,2,1:2:0:0:
474,318,22193,5,0,1:0:0:0:
473,346,22530,5,2,0:0:0:0:
405,193,22699,2,0,L|409:97,1,80.9999975280763,2|2,0:0|0:0,0:0:0:0:
212,272,23036,2,0,B|112:287|112:287|38:275,1,161.999995056153,4|0,1:2|0:0,0:0:0:0:
0,69,23542,1,2,0:0:0:0:
6,96,23879,5,2,0:0:0:0:
83,198,24047,2,0,B|113:202|113:202|163:195,1,80.9999975280763,2|2,0:0|0:0,0:0:0:0:
424,258,24384,2,0,B|324:243|324:243|250:255,1,161.999995056153,4|0,1:2|0:0,0:0:0:0:
263,252,25058,5,2,0:0:0:0:
151,304,25227,1,2,0:0:0:0:
39,258,25395,1,2,0:0:0:0:
0,144,25564,1,2,0:0:0:0:
205,166,25733,2,0,B|383:155,1,161.999995056153,4|0,1:2|0:0,0:0:0:0:
263,252,26238,1,2,0:0:0:0:
266,225,26575,5,2,0:0:0:0:
269,197,26912,5,2,0:0:0:0:
297,194,26997,1,2,0:0:0:0:
325,191,27081,2,0,L|337:82,1,80.9999975280763,4|0,1:2|0:0,0:0:0:0:
95,46,27418,2,0,L|104:126,1,80.9999975280763,4|0,1:2|0:0,0:0:0:0:
61,368,27755,6,0,P|79:332|95:294,1,80.9999975280763,0|2,1:0|0:0,0:0:0:0:
108,149,28092,1,2,0:0:0:0:
228,362,28261,2,0,P|233:321|235:281,1,80.9999975280763,0|2,1:0|0:0,0:0:0:0:
197,140,28598,1,2,0:0:0:0:
383,299,28766,2,0,P|374:259|362:220,1,80.9999975280763,0|2,1:0|0:0,0:0:0:0:
277,101,29103,1,2,0:0:0:0:
507,186,29272,2,0,P|485:151|460:119,1,80.9999975280763,0|2,1:0|0:0,0:0:0:0:
339,36,29609,5,2,0:0:0:0:
339,36,29693,1,2,0:0:0:0:
339,36,29778,1,0,1:0:0:0:
197,139,29946,1,8,0:3:0:0:
64,20,30115,1,4,0:3:0:0:
64,20,30452,6,0,B|130:9|171:59|171:59|82:98|83:188|137:251|228:263|298:216|313:119|237:67,1,540.000020599366,6|0,0:0|0:0,0:0:0:0:
197,139,32137,6,0,P|194:173|196:207,1,67.5000025749208
228,282,32474,2,0,P|250:306|276:328,1,67.5000025749208
350,362,32811,2,0,P|383:363|417:359,1,67.5000025749208
479,307,33148,6,0,B|500:241|469:238|490:174,1,135.000005149842,2|2,0:0|0:0,0:0:0:0:
304,46,33823,2,0,B|282:109|314:112|292:178,1,135.000005149842,2|2,0:0|0:0,0:0:0:0:
213,205,34328,1,0,0:0:0:0:
213,205,34497,1,2,0:0:0:0:
304,46,34834,2,0,P|338:50|399:54,1,67.5000025749208,2|0,0:0|0:0,0:0:0:0:
438,98,35171,2,0,P|471:104|507:108,1,67.5000025749208,2|0,0:0|0:0,0:0:0:0:
501,193,35508,2,0,P|467:186|431:182,1,67.5000025749208,2|0,0:0|0:0,0:0:0:0:
355,206,35845,6,0,B|287:218|288:186|222:199,1,135.000005149842,2|2,0:0|0:0,0:0:0:0:
0,119,36519,2,0,P|4:186|25:251,1,135.000005149842,2|2,0:0|0:0,0:0:0:0:
43,337,37025,1,0,0:0:0:0:
43,337,37193,1,2,0:0:0:0:
177,209,37530,6,0,P|207:223|240:233,1,67.5000025749208,2|0,0:0|0:0,0:0:0:0:
312,194,37867,2,0,P|344:185|378:181,1,67.5000025749208,2|0,0:0|0:0,0:0:0:0:
456,199,38205,2,0,P|485:218|511:239,1,67.5000025749208,2|0,0:0|0:0,0:0:0:0:
459,309,38542,6,0,P|371:295|323:276,1,135.000005149842,2|2,0:0|0:0,0:0:0:0:
183,115,39216,2,0,P|119:93|53:85,1,135.000005149842,2|2,0:0|0:0,0:0:0:0:
69,172,39721,1,0,0:0:0:0:
69,172,39890,1,2,0:0:0:0:
256,43,40227,1,2,0:0:0:0:
271,231,40564,1,2,0:0:0:0:
455,273,40901,1,2,0:0:0:0:
294,374,41238,6,0,L|198:382,1,67.5000025749208,2|0,0:0|3:0,0:0:0:0:
94,321,41575,2,0,L|162:327,1,67.5000025749208,2|0,0:0|3:0,0:0:0:0:
294,283,41912,1,2,0:0:0:0:
216,258,42081,1,0,3:0:0:0:
167,193,42249,1,2,0:0:0:0:
156,112,42418,1,0,3:0:0:0:
271,34,42587,6,0,P|292:98|283:165,1,135.000005149842,10|2,2:0|0:0,0:0:0:0:
223,265,43092,1,8,1:3:0:0:
223,265,43176,1,8,1:3:0:0:
223,265,43261,1,4,1:2:0:0:
134,182,43429,1,2,0:0:0:0:
329,294,43598,2,0,L|414:298,1,80.9999975280763,2|0,0:3|0:0,0:0:0:0:
223,265,43935,6,0,L|121:260,1,80.9999975280763,2|0,0:0|3:0,0:0:0:0:
4,178,44272,2,0,P|44:189|88:193,1,80.9999975280763,2|0,0:0|3:0,0:0:0:0:
241,107,44609,1,2,0:0:0:0:
193,207,44778,1,0,3:0:0:0:
160,30,44946,1,2,0:0:0:0:
330,88,45115,5,0,3:0:0:0:
349,93,45199,1,0,3:0:0:0:
368,97,45283,2,0,P|407:95|461:90,1,80.9999975280763,2|0,0:0|3:0,0:0:0:0:
494,195,45620,1,2,0:0:0:0:
411,273,45789,2,0,P|370:278|330:278,1,80.9999975280763,0|2,3:0|0:0,0:0:0:0:
142,208,46126,2,0,P|181:200|222:199,1,80.9999975280763,0|2,3:0|0:0,0:0:0:0:
273,13,46463,5,0,3:0:0:0:
273,13,46547,1,0,3:0:0:0:
274,15,46632,2,0,P|285:53|290:93,1,80.9999975280763,2|0,0:0|3:0,0:0:0:0:
222,250,46969,1,2,0:0:0:0:
174,144,47137,2,0,P|158:108|128:62,1,80.9999975280763,0|2,3:0|0:0,0:0:0:0:
68,192,47474,2,0,P|43:161|3:124,1,80.9999975280763,0|2,3:0|0:0,0:0:0:0:
80,324,47811,1,0,3:0:0:0:
193,281,47980,6,0,P|232:273|273:270,1,80.9999975280763,2|0,0:0|3:0,0:0:0:0:
269,110,48317,2,0,P|229:116|188:120,1,80.9999975280763,2|0,0:0|3:0,0:0:0:0:
10,30,48654,5,10,0:2:0:0:
12,139,48822,1,2,0:0:0:0:
95,212,48991,1,10,0:2:0:0:
204,199,49160,1,2,0:0:0:0:
269,110,49328,2,0,P|326:92|378:96,1,80.9999975280763,10|0,0:0|0:0,0:0:0:0:
475,224,49665,5,10,0:0:0:0:
428,322,49834,1,2,0:0:0:0:
324,358,50002,1,10,0:0:0:0:
229,304,50171,1,2,0:0:0:0:
204,199,50339,1,10,0:0:0:0:
269,110,50508,1,2,0:0:0:0:
378,96,50676,2,0,P|432:120|468:158,1,80.9999975280763,10|0,0:0|0:0,0:0:0:0:
427,328,51014,5,2,1:2:0:0:
395,348,51098,1,0,1:0:0:0:
358,359,51182,1,0,1:0:0:0:
321,360,51266,1,0,1:0:0:0:
284,351,51351,1,0,1:0:0:0:
253,331,51435,1,0,1:0:0:0:
226,305,51519,1,0,1:0:0:0:
208,269,51603,1,0,1:0:0:0:
201,233,51687,1,0,1:0:0:0:
203,197,51771,1,0,1:0:0:0:
218,160,51856,1,0,1:0:0:0:
241,132,51940,1,0,1:0:0:0:
269,110,52024,1,0,1:0:0:0:
269,110,53373,6,0,L|277:14,2,53.9999983520508,8|8|8,0:3|0:3|0:3,0:0:0:0:
235,188,53710,2,0,B|214:268|251:269|229:347,1,161.999995056153,2|2,0:0|0:0,0:0:0:0:
312,234,54216,1,0,1:0:0:0:
185,120,54384,1,2,3:0:0:0:
184,120,54721,6,0,P|104:127|23:128,1,161.999995056153,6|0,0:0|0:0,0:0:0:0:
110,216,55227,2,0,L|190:219,1,80.9999975280763,2|0,0:0|0:0,0:0:0:0:
304,304,55564,2,0,L|224:301,1,80.9999975280763,8|4,0:3|0:3,0:0:0:0:
22,127,55901,2,0,B|183:134,1,161.999995056153,4|0,0:0|0:0,0:0:0:0:
183,134,56575,5,2,0:0:0:0:
286,190,56744,2,0,L|366:193,1,80.9999975280763,2|2,0:0|0:0,0:0:0:0:
426,293,57081,2,0,L|346:290,1,80.9999975280763,4|2,0:0|0:0,0:0:0:0:
123,257,57418,6,0,L|203:254,1,80.9999975280763,6|2,0:0|0:0,0:0:0:0:
380,204,57755,1,0,0:0:0:0:
380,204,57924,2,0,L|371:299,1,80.9999975280763,2|0,0:0|0:0,0:0:0:0:
266,343,58261,2,0,L|274:247,1,80.9999975280763,8|4,0:3|0:3,0:0:0:0:
394,42,58598,2,0,L|377:233,1,161.999995056153,6|0,0:0|0:0,0:0:0:0:
372,284,59103,1,0,1:0:0:0:
372,284,59440,5,0,1:0:0:0:
246,159,59609,1,0,1:0:0:0:
246,159,59693,1,0,1:0:0:0:
246,159,59778,2,0,L|240:95,1,40.4999987640381,0|0,1:0|1:0,0:0:0:0:
179,27,59946,2,0,L|175:67,1,40.4999987640381,0|0,1:0|1:0,0:0:0:0:
101,106,60115,5,6,0:0:0:0:
59,206,60283,1,2,0:0:0:0:
117,299,60452,1,2,0:0:0:0:
226,304,60620,1,2,0:0:0:0:
294,218,60789,1,0,1:2:0:0:
294,218,61126,2,0,L|302:122,1,80.9999975280763,4|2,0:3|0:0,0:0:0:0:
227,304,61463,5,0,1:0:0:0:
117,299,61632,1,2,0:0:0:0:
59,206,61800,1,2,0:0:0:0:
101,106,61968,1,2,0:0:0:0:
101,106,62052,1,2,0:0:0:0:
101,106,62137,2,0,L|109:10,1,80.9999975280763,4|0,1:2|0:0,0:0:0:0:
220,127,62474,2,0,P|260:133|300:137,1,80.9999975280763,2|2,0:0|0:0,0:0:0:0:
84,235,62811,6,0,L|2:238,1,80.9999975280763,6|0,0:0|0:0,0:0:0:0:
3,237,63148,1,2,0:0:0:0:
89,359,63317,2,0,P|128:348|168:334,1,80.9999975280763,2|8,0:0|0:0,0:0:0:0:
290,202,63654,2,0,P|282:241|278:284,1,80.9999975280763,2|8,0:0|0:0,0:0:0:0:
446,349,63991,6,0,P|453:309|457:266,1,80.9999975280763,2|8,0:0|0:0,2:0:0:0:
470,122,64328,1,2,0:0:0:0:
290,202,64497,5,6,0:0:0:0:
263,91,64665,1,2,0:0:0:0:
154,281,64834,1,0,1:0:0:0:
181,170,65002,1,8,0:3:0:0:
399,234,65172,1,0,1:0:0:0:
422,236,65256,1,0,1:0:0:0:
444,238,65340,1,0,1:0:0:0:
466,240,65424,1,0,1:0:0:0:
488,242,65508,5,2,0:0:0:0:
466,240,66856,6,0,L|498:242,4,22.5,2|2|2|2|2,0:0|0:0|0:0|0:0|0:0,0:0:0:0:
301,173,67193,1,2,1:3:0:0:
490,160,67362,6,0,L|522:162,4,22.5,2|2|2|2|2,0:0|0:0|0:0|0:0|0:0,0:0:0:0:
325,93,67699,1,0,1:0:0:0:
181,190,67867,2,0,P|129:186|71:179,1,94.499997116089,8|0,0:3|0:0,0:0:0:0:
253,248,68205,6,0,B|363:268|356:210|476:241,1,215.999993408203,6|8,0:0|0:0,0:0:0:0:
258,140,68710,1,2,3:2:0:0:
23,261,68878,2,0,P|29:207|50:155,1,107.999996704102,10|0,0:2|3:0,0:0:0:0:
128,77,69132,2,0,L|125:130,1,53.9999983520508,2|8,0:0|0:0,0:0:0:0:
342,113,69384,6,0,P|338:59|329:5,1,107.999996704102,2|8,3:2|0:0,0:0:0:0:
234,253,69721,2,0,P|224:306|220:359,1,107.999996704102,2|8,3:2|0:0,0:0:0:0:
438,211,70058,1,2,3:2:0:0:
438,211,70143,1,2,0:0:0:0:
438,211,70227,1,8,0:0:0:0:
258,140,70396,1,2,3:2:0:0:
234,253,70564,1,8,0:0:0:0:
343,113,70733,1,2,3:2:0:0:
222,341,70901,6,0,B|117:365|117:315|10:341,1,215.999993408203,8|10,0:0|0:0,0:0:0:0:
170,181,71406,1,2,3:2:0:0:
170,181,71491,1,2,0:0:0:0:
170,181,71575,1,8,0:0:0:0:
307,280,71744,1,2,3:2:0:0:
274,181,71912,1,8,0:0:0:0:
222,341,72081,1,2,3:2:0:0:
405,302,72249,6,0,P|434:193|450:82,1,215.999993408203,8|10,0:0|0:0,0:0:0:0:
290,66,72755,1,8,0:3:0:0:
290,66,72839,1,4,0:3:0:0:
290,66,72924,1,10,0:0:0:0:
217,157,73092,1,0,3:0:0:0:
34,135,73261,2,0,L|21:26,1,107.999996704102,10|0,0:0|3:0,0:0:0:0:
142,269,73598,6,0,P|242:289|374:299,1,215.999993408203,12|8,0:0|0:0,0:0:0:0:
224,164,74103,1,8,0:3:0:0:
224,164,74188,1,4,0:3:0:0:
224,164,74272,1,10,0:0:0:0:
142,269,74440,1,0,3:0:0:0:
34,135,74609,2,0,L|21:26,1,107.999996704102,10|0,0:0|3:0,0:0:0:0:
142,269,74946,5,10,0:0:0:0:
217,157,75115,1,0,3:0:0:0:
309,344,75283,2,0,P|357:346|435:342,1,107.999996704102,12|0,0:0|0:0,0:0:0:0:
436,339,75536,1,4,0:3:0:0:
457,334,75620,1,10,0:0:0:0:
327,191,75789,1,0,3:0:0:0:
174,277,75957,2,0,P|120:284|66:288,1,107.999996704102,8|0,0:0|0:0,0:0:0:0:
327,191,76294,6,0,P|376:188|453:175,1,107.999996704102,8|0,0:0|0:0,0:0:0:0:
146,100,76631,1,12,0:0:0:0:
118,295,76800,1,0,1:0:0:0:
118,295,76884,1,0,1:0:0:0:
118,295,76969,1,2,1:2:0:0:
8,241,77137,1,8,0:3:0:0:
27,121,77306,1,2,1:2:0:0:
211,215,77474,5,4,1:2:0:0:
211,215,77558,1,0,1:0:0:0:
211,215,77643,2,0,L|278:219,1,53.9999983520508,0|0,1:0|1:0,0:0:0:0:
386,187,77811,2,0,L|332:183,1,53.9999983520508,8|0,1:2|1:0,1:0:0:0:
163,125,77979,1,8,1:2:0:0:
190,128,78064,1,0,1:0:0:0:
217,131,78148,1,0,1:0:0:0:
243,133,78232,1,0,1:0:0:0:
270,135,78317,5,0,1:0:0:0:
293,100,78401,1,0,1:0:0:0:
328,74,78486,1,8,0:3:0:0:
369,61,78570,1,8,0:3:0:0:
412,63,78654,1,4,0:3:0:0:
452,79,78739,1,4,0:3:0:0:
484,108,78823,1,8,0:0:0:0:
505,145,78907,1,8,0:0:0:0:
512,188,78991,6,0,P|451:296|343:307,1,215.999993408203,12|8,0:0|0:0,0:0:0:0:
255,247,79497,1,2,3:2:0:0:
48,288,79665,2,0,P|33:222|24:159,1,107.999996704102,8|0,0:0|3:0,0:0:0:0:
100,131,79918,2,0,L|114:207,1,53.9999983520508,2|8,0:0|0:0,0:0:0:0:
238,377,80171,6,0,P|291:372|339:347,1,107.999996704102,2|8,3:2|0:0,0:0:0:0:
360,73,80508,2,0,P|355:126|362:192,1,107.999996704102,2|8,3:2|0:0,0:3:0:0:
492,313,80845,1,2,3:2:0:0:
492,313,80930,1,2,0:0:0:0:
492,313,81014,1,8,0:0:0:0:
374,194,81182,5,2,3:2:0:0:
255,247,81351,1,8,0:0:0:0:
268,117,81519,1,2,3:2:0:0:
361,324,81688,6,0,P|460:291|502:178,1,215.999993408203,8|10,0:0|0:0,0:0:0:0:
387,64,82193,1,2,3:2:0:0:
387,64,82278,1,2,0:0:0:0:
387,64,82362,1,8,0:0:0:0:
268,117,82530,1,2,3:2:0:0:
163,40,82699,1,8,0:0:0:0:
192,219,82867,6,0,P|183:278|168:337,1,107.999996704102
84,151,83205,1,2,3:2:0:0:
286,272,83373,1,8,1:2:0:0:
413,211,83542,1,8,0:3:0:0:
413,211,83626,1,4,0:3:0:0:
413,211,83711,1,10,0:0:0:0:
310,289,83879,1,0,3:0:0:0:
163,181,84048,2,0,P|105:159|39:143,1,107.999996704102,10|0,0:0|3:0,0:0:0:0:
303,80,84384,6,0,P|409:65|512:33,1,215.999993408203,12|8,0:0|0:0,0:0:0:0:
413,211,84890,1,8,0:3:0:0:
413,211,84974,1,4,0:3:0:0:
413,211,85059,1,10,0:0:0:0:
310,289,85227,1,0,3:0:0:0:
163,181,85396,2,0,P|112:162|60:147,1,107.999996704102,10|0,0:0|3:0,0:0:0:0:
57,275,85733,5,10,0:0:0:0:
38,146,85901,1,0,3:0:0:0:
184,309,86070,2,0,P|237:313|291:312,1,107.999996704102,12|0,0:0|3:0,0:0:0:0:
311,305,86323,1,4,0:3:0:0:
331,297,86407,1,10,0:0:0:0:
393,182,86576,1,0,3:0:0:0:
496,259,86744,2,0,P|491:312|482:365,1,107.999996704102,10|0,0:0|3:0,0:0:0:0:
246,228,87081,6,0,P|250:121|278:17,1,215.999993408203,8|8,0:0|0:3,0:0:0:0:
393,182,87587,2,0,P|383:298|317:368,1,215.999993408203,8|8,0:0|0:0,0:0:0:0:
206,301,88092,1,2,3:2:0:0:
29,361,88261,1,12,0:0:0:0:
1,234,88429,5,0,1:0:0:0:
33,218,88513,1,0,1:0:0:0:
70,206,88597,1,0,1:0:0:0:
108,199,88681,1,0,1:0:0:0:
144,198,88766,1,0,1:0:0:0:
181,204,88850,1,0,1:0:0:0:
217,216,88934,1,0,1:0:0:0:
250,234,89018,1,0,1:0:0:0:
282,257,89103,5,0,1:0:0:0:
307,264,89187,1,0,1:0:0:0:
334,264,89271,1,8,0:3:0:0:
358,257,89355,1,8,0:3:0:0:
381,241,89440,1,4,0:3:0:0:
398,218,89524,1,4,0:3:0:0:
406,193,89608,1,8,0:0:0:0:
406,168,89692,1,8,0:0:0:0:
400,142,89778,1,8,0:0:0:0:
267,26,90115,6,0,P|266:60|269:94,1,67.5000025749208
294,170,90452,2,0,P|316:196|340:220,1,67.5000025749208
407,262,90789,2,0,P|440:267|473:270,1,67.5000025749208
417,347,91126,6,0,P|342:364|256:359,1,135.000005149842,2|2,0:0|0:0,0:0:0:0:
162,201,91800,2,0,P|87:183|1:189,1,135.000005149842,2|2,0:0|0:0,0:0:0:0:
4,264,92306,1,0,0:0:0:0:
4,264,92475,1,2,0:0:0:0:
