osu file format v14

[General]
AudioFilename: audio.mp3
AudioLeadIn: 0
PreviewTime: 67583
Countdown: 1
SampleSet: Soft
StackLeniency: 0.7
Mode: 3
LetterboxInBreaks: 0
SpecialStyle: 0
WidescreenStoryboard: 0

[Editor]
DistanceSpacing: 0.8
BeatDivisor: 8
GridSize: 32
TimelineZoom: 2.899999

[Metadata]
Title:Find The Way
TitleUnicode:Find The Way
Artist:FELT
ArtistUnicode:FELT
Creator:Slowless
Version:Endless
Source:東方ボーカル
Tags:felt j pop japanese ln noodle
BeatmapID:2077016
BeatmapSetID:993250

[Difficulty]
HPDrainRate:9
CircleSize:4
OverallDifficulty:2
ApproachRate:5
SliderMultiplier:1.4
SliderTickRate:1

[Events]
//Background and Video events
0,0,"27912-touhou-wallpaper.jpg",0,0
//Break Periods
2,168822,178967
//Storyboard Layer 0 (Background)
//Storyboard Layer 1 (Fail)
//Storyboard Layer 2 (Pass)
//Storyboard Layer 3 (Foreground)
//Storyboard Sound Samples

[TimingPoints]
842,337.078651685393,4,2,0,10,1,0
68257,-100,4,2,0,10,0,1
77527,-100,4,2,0,10,0,0
126235,-100,4,2,0,10,0,1
135504,-100,4,2,0,10,0,0
190954,-100,4,2,0,10,0,1
199044,-100,4,2,0,10,0,0

[HitObjects]
448,192,842,128,0,2190:0:0:0:0:
64,192,842,128,0,1010:0:0:0:0:
320,192,1010,128,0,1179:0:0:0:0:
192,192,1179,128,0,1347:0:0:0:0:
64,192,1347,128,0,1684:0:0:0:0:
320,192,1347,1,0,0:0:0:0:
192,192,1684,128,0,1853:0:0:0:0:
64,192,1853,128,0,2021:0:0:0:0:
320,192,2021,128,0,2190:0:0:0:0:
64,192,2190,128,0,3538:0:0:0:0:
192,192,2190,128,0,2358:0:0:0:0:
448,192,2358,128,0,2527:0:0:0:0:
320,192,2527,128,0,2695:0:0:0:0:
192,192,2695,128,0,3033:0:0:0:0:
448,192,2695,1,0,0:0:0:0:
320,192,3033,128,0,3201:0:0:0:0:
192,192,3201,128,0,3370:0:0:0:0:
448,192,3370,128,0,3538:0:0:0:0:
320,192,3538,128,0,4886:0:0:0:0:
192,192,3538,128,0,3707:0:0:0:0:
64,192,3707,128,0,3875:0:0:0:0:
448,192,3875,128,0,4044:0:0:0:0:
192,192,4044,128,0,4381:0:0:0:0:
64,192,4044,1,0,0:0:0:0:
448,192,4381,128,0,4549:0:0:0:0:
192,192,4549,128,0,4718:0:0:0:0:
64,192,4718,128,0,4886:0:0:0:0:
192,192,4886,128,0,6235:0:0:0:0:
448,192,4886,128,0,5055:0:0:0:0:
64,192,5055,128,0,5224:0:0:0:0:
320,192,5224,128,0,5392:0:0:0:0:
448,192,5392,128,0,5561:0:0:0:0:
64,192,5561,128,0,5729:0:0:0:0:
448,192,5729,128,0,5898:0:0:0:0:
320,192,5898,128,0,6066:0:0:0:0:
64,192,6066,128,0,6235:0:0:0:0:
448,192,6235,128,0,7583:0:0:0:0:
320,192,6235,128,0,6403:0:0:0:0:
64,192,6403,128,0,6572:0:0:0:0:
192,192,6572,128,0,6740:0:0:0:0:
320,192,6740,128,0,7077:0:0:0:0:
64,192,6740,1,0,0:0:0:0:
64,192,7077,128,0,7246:0:0:0:0:
320,192,7246,128,0,7415:0:0:0:0:
192,192,7415,128,0,7583:0:0:0:0:
64,192,7583,128,0,8931:0:0:0:0:
320,192,7583,128,0,7752:0:0:0:0:
448,192,7752,128,0,7920:0:0:0:0:
320,192,7920,128,0,8089:0:0:0:0:
192,192,8089,128,0,8426:0:0:0:0:
448,192,8089,1,0,0:0:0:0:
448,192,8426,128,0,8594:0:0:0:0:
320,192,8594,128,0,8763:0:0:0:0:
192,192,8763,128,0,8931:0:0:0:0:
320,192,8931,128,0,10448:0:0:0:0:
448,192,8931,128,0,9100:0:0:0:0:
192,192,9100,128,0,9268:0:0:0:0:
448,192,9268,128,0,9437:0:0:0:0:
64,192,9437,128,0,9774:0:0:0:0:
192,192,9437,1,0,0:0:0:0:
448,192,9774,128,0,9943:0:0:0:0:
192,192,9943,128,0,10111:0:0:0:0:
64,192,10111,128,0,10280:0:0:0:0:
448,192,10195,128,0,10448:0:0:0:0:
192,192,10280,128,0,10785:0:0:0:0:
64,192,10448,128,0,10954:0:0:0:0:
448,192,10617,128,0,10785:0:0:0:0:
320,192,10785,128,0,10954:0:0:0:0:
192,192,10954,128,0,11122:0:0:0:0:
64,192,11122,128,0,11628:0:0:0:0:
192,192,11628,128,0,11712:0:0:0:0:
320,192,11628,128,0,11712:0:0:0:0:
448,192,11628,128,0,11712:0:0:0:0:
64,192,11712,128,0,11797:0:0:0:0:
192,192,11797,128,0,11881:0:0:0:0:
448,192,11797,128,0,11881:0:0:0:0:
320,192,11881,128,0,11965:0:0:0:0:
192,192,11965,128,0,12049:0:0:0:0:
64,192,11965,128,0,12049:0:0:0:0:
448,192,11965,128,0,12049:0:0:0:0:
320,192,12049,128,0,12134:0:0:0:0:
448,192,12134,128,0,12218:0:0:0:0:
64,192,12134,128,0,12218:0:0:0:0:
192,192,12218,128,0,12302:0:0:0:0:
320,192,12302,128,0,12386:0:0:0:0:
448,192,12302,128,0,12386:0:0:0:0:
64,192,12302,128,0,12386:0:0:0:0:
192,192,12386,128,0,12471:0:0:0:0:
64,192,12471,128,0,12555:0:0:0:0:
320,192,12471,128,0,12555:0:0:0:0:
448,192,12555,128,0,12639:0:0:0:0:
192,192,12639,128,0,12724:0:0:0:0:
64,192,12639,128,0,12724:0:0:0:0:
320,192,12639,128,0,12724:0:0:0:0:
448,192,12724,128,0,12808:0:0:0:0:
64,192,12808,128,0,12892:0:0:0:0:
320,192,12808,128,0,12892:0:0:0:0:
192,192,12892,128,0,12976:0:0:0:0:
64,192,12976,128,0,13061:0:0:0:0:
320,192,12976,128,0,13061:0:0:0:0:
448,192,12976,128,0,13061:0:0:0:0:
192,192,13061,128,0,13145:0:0:0:0:
64,192,13145,128,0,13229:0:0:0:0:
448,192,13145,128,0,13229:0:0:0:0:
320,192,13229,128,0,13313:0:0:0:0:
192,192,13313,128,0,13398:0:0:0:0:
64,192,13313,128,0,13398:0:0:0:0:
448,192,13313,128,0,13398:0:0:0:0:
320,192,13398,128,0,13482:0:0:0:0:
448,192,13482,128,0,13566:0:0:0:0:
64,192,13482,128,0,13566:0:0:0:0:
192,192,13566,128,0,13650:0:0:0:0:
320,192,13650,128,0,13735:0:0:0:0:
448,192,13650,128,0,13735:0:0:0:0:
64,192,13650,128,0,13735:0:0:0:0:
192,192,13735,128,0,13819:0:0:0:0:
448,192,13819,128,0,13903:0:0:0:0:
64,192,13819,128,0,13903:0:0:0:0:
320,192,13903,128,0,13988:0:0:0:0:
64,192,13988,128,0,14072:0:0:0:0:
192,192,13988,128,0,14072:0:0:0:0:
448,192,13988,128,0,14072:0:0:0:0:
320,192,14072,128,0,14240:0:0:0:0:
448,192,14156,128,0,14240:0:0:0:0:
64,192,14156,128,0,14240:0:0:0:0:
192,192,14240,128,0,14325:0:0:0:0:
320,192,14325,128,0,14409:0:0:0:0:
448,192,14325,128,0,14409:0:0:0:0:
64,192,14325,128,0,14409:0:0:0:0:
192,192,14409,128,0,14493:0:0:0:0:
448,192,14493,128,0,14577:0:0:0:0:
320,192,14493,128,0,14577:0:0:0:0:
64,192,14577,128,0,14662:0:0:0:0:
192,192,14662,128,0,14746:0:0:0:0:
320,192,14662,128,0,14746:0:0:0:0:
448,192,14662,128,0,14746:0:0:0:0:
64,192,14746,128,0,14830:0:0:0:0:
448,192,14830,128,0,14915:0:0:0:0:
192,192,14830,128,0,14915:0:0:0:0:
320,192,14915,128,0,14999:0:0:0:0:
64,192,14999,128,0,15083:0:0:0:0:
192,192,14999,128,0,15083:0:0:0:0:
448,192,14999,128,0,15083:0:0:0:0:
320,192,15083,128,0,15167:0:0:0:0:
64,192,15167,128,0,15252:0:0:0:0:
192,192,15167,128,0,15252:0:0:0:0:
448,192,15252,128,0,15336:0:0:0:0:
320,192,15336,128,0,15420:0:0:0:0:
192,192,15336,128,0,15420:0:0:0:0:
64,192,15336,128,0,15420:0:0:0:0:
448,192,15420,128,0,15504:0:0:0:0:
64,192,15504,128,0,15589:0:0:0:0:
320,192,15504,128,0,15589:0:0:0:0:
192,192,15589,128,0,15673:0:0:0:0:
448,192,15673,128,0,15757:0:0:0:0:
320,192,15673,128,0,15757:0:0:0:0:
64,192,15673,128,0,15757:0:0:0:0:
192,192,15757,128,0,15841:0:0:0:0:
448,192,15841,128,0,15926:0:0:0:0:
64,192,15841,128,0,15926:0:0:0:0:
320,192,15926,128,0,16010:0:0:0:0:
192,192,16010,128,0,16094:0:0:0:0:
64,192,16010,128,0,16094:0:0:0:0:
448,192,16010,128,0,16094:0:0:0:0:
320,192,16094,128,0,16179:0:0:0:0:
64,192,16179,128,0,16263:0:0:0:0:
448,192,16179,128,0,16263:0:0:0:0:
192,192,16263,128,0,16347:0:0:0:0:
320,192,16347,128,0,16431:0:0:0:0:
448,192,16347,128,0,16431:0:0:0:0:
64,192,16347,128,0,16431:0:0:0:0:
192,192,16431,128,0,16600:0:0:0:0:
448,192,16516,128,0,16600:0:0:0:0:
320,192,16516,128,0,16600:0:0:0:0:
64,192,16600,128,0,16684:0:0:0:0:
192,192,16684,128,0,16768:0:0:0:0:
320,192,16684,128,0,16768:0:0:0:0:
448,192,16684,128,0,16768:0:0:0:0:
64,192,16768,128,0,16937:0:0:0:0:
192,192,16853,128,0,16937:0:0:0:0:
448,192,16853,128,0,16937:0:0:0:0:
320,192,16937,128,0,17021:0:0:0:0:
64,192,17021,128,0,17106:0:0:0:0:
192,192,17021,128,0,17106:0:0:0:0:
448,192,17021,128,0,17106:0:0:0:0:
320,192,17106,128,0,17190:0:0:0:0:
192,192,17190,128,0,17274:0:0:0:0:
448,192,17190,128,0,17274:0:0:0:0:
64,192,17274,128,0,17358:0:0:0:0:
320,192,17358,128,0,17443:0:0:0:0:
448,192,17358,128,0,17443:0:0:0:0:
192,192,17358,128,0,17443:0:0:0:0:
64,192,17443,128,0,17527:0:0:0:0:
192,192,17527,128,0,17611:0:0:0:0:
448,192,17527,128,0,17611:0:0:0:0:
320,192,17611,128,0,17695:0:0:0:0:
64,192,17695,128,0,17780:0:0:0:0:
192,192,17695,128,0,17780:0:0:0:0:
448,192,17695,128,0,17780:0:0:0:0:
320,192,17780,128,0,17864:0:0:0:0:
448,192,17864,128,0,17948:0:0:0:0:
64,192,17864,128,0,17948:0:0:0:0:
192,192,17948,128,0,18033:0:0:0:0:
448,192,18033,128,0,18117:0:0:0:0:
320,192,18033,128,0,18117:0:0:0:0:
64,192,18033,128,0,18117:0:0:0:0:
192,192,18117,128,0,18201:0:0:0:0:
448,192,18201,128,0,18285:0:0:0:0:
320,192,18201,128,0,18285:0:0:0:0:
64,192,18285,128,0,18370:0:0:0:0:
192,192,18370,128,0,18454:0:0:0:0:
320,192,18370,128,0,18454:0:0:0:0:
448,192,18370,128,0,18454:0:0:0:0:
64,192,18454,128,0,18538:0:0:0:0:
448,192,18538,128,0,18622:0:0:0:0:
192,192,18538,128,0,18622:0:0:0:0:
320,192,18622,128,0,18707:0:0:0:0:
192,192,18707,128,0,18791:0:0:0:0:
64,192,18707,128,0,18791:0:0:0:0:
448,192,18707,128,0,18791:0:0:0:0:
320,192,18791,128,0,18875:0:0:0:0:
448,192,18875,128,0,18959:0:0:0:0:
192,192,18875,128,0,18959:0:0:0:0:
64,192,18959,128,0,19044:0:0:0:0:
192,192,19044,128,0,19128:0:0:0:0:
320,192,19044,128,0,19128:0:0:0:0:
448,192,19044,128,0,19128:0:0:0:0:
64,192,19128,128,0,19212:0:0:0:0:
192,192,19212,128,0,19297:0:0:0:0:
320,192,19212,128,0,19297:0:0:0:0:
448,192,19297,128,0,19381:0:0:0:0:
320,192,19381,128,0,19465:0:0:0:0:
192,192,19381,128,0,19465:0:0:0:0:
64,192,19381,128,0,19465:0:0:0:0:
448,192,19465,128,0,19634:0:0:0:0:
320,192,19549,128,0,19634:0:0:0:0:
64,192,19549,128,0,19634:0:0:0:0:
192,192,19634,128,0,19718:0:0:0:0:
320,192,19718,128,0,19802:0:0:0:0:
448,192,19718,128,0,19802:0:0:0:0:
64,192,19718,128,0,19802:0:0:0:0:
192,192,19802,128,0,19886:0:0:0:0:
320,192,19886,128,0,19971:0:0:0:0:
448,192,19886,128,0,19971:0:0:0:0:
64,192,19971,128,0,20055:0:0:0:0:
192,192,20055,128,0,20139:0:0:0:0:
320,192,20055,128,0,20139:0:0:0:0:
448,192,20055,128,0,20139:0:0:0:0:
64,192,20139,128,0,20224:0:0:0:0:
192,192,20224,128,0,20308:0:0:0:0:
448,192,20224,128,0,20308:0:0:0:0:
320,192,20308,128,0,20392:0:0:0:0:
64,192,20392,128,0,20476:0:0:0:0:
192,192,20392,128,0,20476:0:0:0:0:
448,192,20392,128,0,20476:0:0:0:0:
320,192,20476,128,0,20561:0:0:0:0:
448,192,20561,128,0,20645:0:0:0:0:
64,192,20561,128,0,20729:0:0:0:0:
192,192,20645,128,0,20729:0:0:0:0:
448,192,20729,128,0,20813:0:0:0:0:
320,192,20729,1,0,0:0:0:0:
64,192,20813,128,0,20898:0:0:0:0:
192,192,20813,1,0,0:0:0:0:
320,192,20898,128,0,20982:0:0:0:0:
448,192,20898,1,0,0:0:0:0:
192,192,20982,128,0,21066:0:0:0:0:
64,192,20982,1,0,0:0:0:0:
448,192,21066,128,0,21235:0:0:0:0:
320,192,21066,1,0,0:0:0:0:
192,192,21235,1,0,0:0:0:0:
64,192,21235,1,0,0:0:0:0:
320,192,21319,1,0,0:0:0:0:
448,192,21403,1,0,0:0:0:0:
192,192,21403,1,0,0:0:0:0:
64,192,21403,1,0,0:0:0:0:
64,192,21572,1,0,0:0:0:0:
320,192,21572,1,0,0:0:0:0:
448,192,21572,1,0,0:0:0:0:
448,192,21740,1,0,0:0:0:0:
192,192,21740,1,0,0:0:0:0:
64,192,21740,1,0,0:0:0:0:
192,192,21909,128,0,21993:0:0:0:0:
320,192,21909,128,0,21993:0:0:0:0:
448,192,21909,128,0,21993:0:0:0:0:
192,192,22246,128,0,22330:0:0:0:0:
320,192,22246,128,0,22330:0:0:0:0:
448,192,22246,128,0,22330:0:0:0:0:
448,192,22415,1,0,0:0:0:0:
64,192,22415,1,0,0:0:0:0:
320,192,22583,1,0,0:0:0:0:
192,192,22583,1,0,0:0:0:0:
64,192,22583,1,0,0:0:0:0:
448,192,22752,1,0,0:0:0:0:
320,192,22752,1,0,0:0:0:0:
192,192,22752,1,0,0:0:0:0:
64,192,22920,1,0,0:0:0:0:
192,192,22920,1,0,0:0:0:0:
448,192,22920,1,0,0:0:0:0:
64,192,23089,1,0,0:0:0:0:
448,192,23089,128,0,23594:0:0:0:0:
320,192,23089,1,0,0:0:0:0:
64,192,23594,1,0,0:0:0:0:
192,192,23594,1,0,0:0:0:0:
320,192,23594,1,0,0:0:0:0:
320,192,23763,1,0,0:0:0:0:
64,192,23931,1,0,0:0:0:0:
192,192,23931,1,0,0:0:0:0:
448,192,23931,1,0,0:0:0:0:
192,192,24100,1,0,0:0:0:0:
320,192,24268,1,0,0:0:0:0:
64,192,24268,1,0,0:0:0:0:
448,192,24268,1,0,0:0:0:0:
192,192,24437,1,0,0:0:0:0:
448,192,24437,1,0,0:0:0:0:
64,192,24437,128,0,24943:0:0:0:0:
448,192,25111,1,0,0:0:0:0:
192,192,25111,1,0,0:0:0:0:
320,192,25111,1,0,0:0:0:0:
64,192,25280,1,0,0:0:0:0:
320,192,25280,1,0,0:0:0:0:
448,192,25280,1,0,0:0:0:0:
64,192,25448,1,0,0:0:0:0:
192,192,25448,1,0,0:0:0:0:
448,192,25448,1,0,0:0:0:0:
64,192,25617,1,0,0:0:0:0:
192,192,25617,1,0,0:0:0:0:
320,192,25617,1,0,0:0:0:0:
320,192,25785,1,0,0:0:0:0:
64,192,25785,1,0,0:0:0:0:
448,192,25785,128,0,26291:0:0:0:0:
64,192,26291,1,0,0:0:0:0:
192,192,26291,1,0,0:0:0:0:
320,192,26291,1,0,0:0:0:0:
320,192,26459,1,0,0:0:0:0:
64,192,26628,1,0,0:0:0:0:
192,192,26628,1,0,0:0:0:0:
448,192,26628,1,0,0:0:0:0:
64,192,26797,1,0,0:0:0:0:
448,192,26965,1,0,0:0:0:0:
192,192,26965,1,0,0:0:0:0:
320,192,26965,1,0,0:0:0:0:
448,192,27134,1,0,0:0:0:0:
64,192,27134,128,0,27639:0:0:0:0:
192,192,27134,1,0,0:0:0:0:
320,192,27471,1,0,0:0:0:0:
448,192,27471,1,0,0:0:0:0:
64,192,27808,1,0,0:0:0:0:
192,192,27808,1,0,0:0:0:0:
320,192,27808,1,0,0:0:0:0:
448,192,27808,1,0,0:0:0:0:
320,192,27976,1,0,0:0:0:0:
448,192,27976,1,0,0:0:0:0:
192,192,28145,1,0,0:0:0:0:
64,192,28145,1,0,0:0:0:0:
320,192,28313,1,0,0:0:0:0:
448,192,28313,1,0,0:0:0:0:
192,192,28313,1,0,0:0:0:0:
64,192,28313,1,0,0:0:0:0:
448,192,28482,1,0,0:0:0:0:
192,192,28482,1,0,0:0:0:0:
64,192,28650,1,0,0:0:0:0:
320,192,28650,1,0,0:0:0:0:
192,192,28819,1,0,0:0:0:0:
64,192,28819,1,0,0:0:0:0:
320,192,28819,1,0,0:0:0:0:
448,192,28819,1,0,0:0:0:0:
64,192,28988,1,0,0:0:0:0:
320,192,28988,1,0,0:0:0:0:
192,192,29156,1,0,0:0:0:0:
448,192,29156,1,0,0:0:0:0:
64,192,29325,1,0,0:0:0:0:
192,192,29325,1,0,0:0:0:0:
320,192,29325,1,0,0:0:0:0:
448,192,29325,1,0,0:0:0:0:
64,192,29493,1,0,0:0:0:0:
192,192,29493,1,0,0:0:0:0:
448,192,29662,1,0,0:0:0:0:
320,192,29662,1,0,0:0:0:0:
64,192,29830,1,0,0:0:0:0:
192,192,29830,1,0,0:0:0:0:
320,192,29830,1,0,0:0:0:0:
448,192,29830,1,0,0:0:0:0:
192,192,29999,1,0,0:0:0:0:
64,192,29999,1,0,0:0:0:0:
64,192,30167,1,0,0:0:0:0:
192,192,30167,1,0,0:0:0:0:
320,192,30167,1,0,0:0:0:0:
448,192,30167,1,0,0:0:0:0:
192,192,30504,128,0,31853:0:0:0:0:
320,192,30504,128,0,31853:0:0:0:0:
448,192,30504,128,0,31853:0:0:0:0:
64,192,30504,128,0,31853:0:0:0:0:
448,192,33201,128,0,33285:0:0:0:0:
192,192,33201,1,0,0:0:0:0:
64,192,33201,1,0,0:0:0:0:
448,192,33370,128,0,33454:0:0:0:0:
448,192,33538,128,0,33622:0:0:0:0:
320,192,33538,1,0,0:0:0:0:
64,192,33538,1,0,0:0:0:0:
448,192,33707,128,0,33791:0:0:0:0:
448,192,33875,128,0,33959:0:0:0:0:
192,192,33875,1,0,0:0:0:0:
320,192,33875,1,0,0:0:0:0:
448,192,34044,128,0,34128:0:0:0:0:
448,192,34212,128,0,34297:0:0:0:0:
64,192,34212,1,0,0:0:0:0:
320,192,34212,1,0,0:0:0:0:
448,192,34381,128,0,34465:0:0:0:0:
448,192,34549,128,0,34634:0:0:0:0:
64,192,34549,1,0,0:0:0:0:
192,192,34549,1,0,0:0:0:0:
448,192,34718,128,0,34802:0:0:0:0:
448,192,34886,128,0,34971:0:0:0:0:
320,192,34886,1,0,0:0:0:0:
64,192,34886,1,0,0:0:0:0:
448,192,35055,128,0,35139:0:0:0:0:
448,192,35224,128,0,35308:0:0:0:0:
192,192,35224,1,0,0:0:0:0:
320,192,35224,1,0,0:0:0:0:
448,192,35392,128,0,35476:0:0:0:0:
448,192,35561,128,0,35645:0:0:0:0:
64,192,35561,1,0,0:0:0:0:
192,192,35561,1,0,0:0:0:0:
448,192,35729,128,0,35813:0:0:0:0:
64,192,35898,1,0,0:0:0:0:
448,192,35898,128,0,35982:0:0:0:0:
320,192,35898,1,0,0:0:0:0:
64,192,36066,128,0,36150:0:0:0:0:
64,192,36235,128,0,36319:0:0:0:0:
448,192,36235,1,0,0:0:0:0:
192,192,36235,1,0,0:0:0:0:
64,192,36403,128,0,36488:0:0:0:0:
64,192,36572,128,0,36656:0:0:0:0:
448,192,36572,1,0,0:0:0:0:
320,192,36572,1,0,0:0:0:0:
64,192,36740,128,0,36825:0:0:0:0:
64,192,36909,128,0,36993:0:0:0:0:
448,192,36909,1,0,0:0:0:0:
192,192,36909,1,0,0:0:0:0:
64,192,37077,128,0,37162:0:0:0:0:
64,192,37246,128,0,37330:0:0:0:0:
320,192,37246,1,0,0:0:0:0:
448,192,37246,1,0,0:0:0:0:
64,192,37415,128,0,37499:0:0:0:0:
64,192,37583,128,0,37667:0:0:0:0:
448,192,37583,1,0,0:0:0:0:
192,192,37583,1,0,0:0:0:0:
64,192,37752,128,0,37836:0:0:0:0:
64,192,37920,128,0,38004:0:0:0:0:
448,192,37920,1,0,0:0:0:0:
320,192,37920,1,0,0:0:0:0:
64,192,38089,128,0,38173:0:0:0:0:
64,192,38257,128,0,38341:0:0:0:0:
320,192,38257,1,0,0:0:0:0:
192,192,38257,1,0,0:0:0:0:
64,192,38426,128,0,38510:0:0:0:0:
320,192,38594,128,0,38679:0:0:0:0:
192,192,38594,1,0,0:0:0:0:
448,192,38594,1,0,0:0:0:0:
320,192,38763,128,0,38847:0:0:0:0:
320,192,38931,128,0,39016:0:0:0:0:
448,192,38931,1,0,0:0:0:0:
64,192,38931,1,0,0:0:0:0:
320,192,39100,128,0,39184:0:0:0:0:
320,192,39268,128,0,39353:0:0:0:0:
192,192,39268,1,0,0:0:0:0:
448,192,39268,1,0,0:0:0:0:
320,192,39437,128,0,39521:0:0:0:0:
320,192,39606,128,0,39690:0:0:0:0:
64,192,39606,1,0,0:0:0:0:
192,192,39606,1,0,0:0:0:0:
320,192,39774,128,0,39858:0:0:0:0:
320,192,39943,128,0,40027:0:0:0:0:
448,192,39943,1,0,0:0:0:0:
64,192,39943,1,0,0:0:0:0:
320,192,40111,128,0,40195:0:0:0:0:
320,192,40280,128,0,40364:0:0:0:0:
192,192,40280,1,0,0:0:0:0:
448,192,40280,1,0,0:0:0:0:
320,192,40448,128,0,40533:0:0:0:0:
320,192,40617,128,0,40701:0:0:0:0:
64,192,40617,1,0,0:0:0:0:
192,192,40617,1,0,0:0:0:0:
320,192,40785,128,0,40870:0:0:0:0:
320,192,40954,128,0,41038:0:0:0:0:
448,192,40954,1,0,0:0:0:0:
64,192,40954,1,0,0:0:0:0:
320,192,41122,128,0,41207:0:0:0:0:
320,192,41291,128,0,41375:0:0:0:0:
64,192,41291,1,0,0:0:0:0:
192,192,41291,1,0,0:0:0:0:
320,192,41459,128,0,41544:0:0:0:0:
320,192,41628,128,0,41712:0:0:0:0:
192,192,41628,1,0,0:0:0:0:
64,192,41628,128,0,41712:0:0:0:0:
448,192,41797,128,0,41881:0:0:0:0:
320,192,41797,128,0,41881:0:0:0:0:
320,192,41965,128,0,42049:0:0:0:0:
64,192,41965,1,0,0:0:0:0:
192,192,41965,128,0,42049:0:0:0:0:
320,192,42134,128,0,42218:0:0:0:0:
64,192,42134,128,0,42218:0:0:0:0:
64,192,42302,128,0,42386:0:0:0:0:
320,192,42302,1,0,0:0:0:0:
448,192,42302,128,0,42386:0:0:0:0:
64,192,42471,128,0,42555:0:0:0:0:
320,192,42471,128,0,42555:0:0:0:0:
192,192,42639,128,0,42724:0:0:0:0:
320,192,42639,1,0,0:0:0:0:
448,192,42639,128,0,42724:0:0:0:0:
192,192,42808,128,0,42892:0:0:0:0:
64,192,42808,128,0,42892:0:0:0:0:
320,192,42976,1,0,0:0:0:0:
448,192,42976,128,0,43061:0:0:0:0:
64,192,42976,128,0,43061:0:0:0:0:
448,192,43145,128,0,43229:0:0:0:0:
320,192,43145,128,0,43229:0:0:0:0:
320,192,43313,128,0,43398:0:0:0:0:
64,192,43313,128,0,43398:0:0:0:0:
192,192,43313,128,0,43398:0:0:0:0:
192,192,43482,128,0,43566:0:0:0:0:
448,192,43482,128,0,43566:0:0:0:0:
448,192,43650,128,0,43735:0:0:0:0:
64,192,43650,128,0,43735:0:0:0:0:
320,192,43650,128,0,43735:0:0:0:0:
192,192,43819,1,0,0:0:0:0:
448,192,43819,128,0,43903:0:0:0:0:
320,192,43819,128,0,43903:0:0:0:0:
192,192,43988,1,0,0:0:0:0:
64,192,43988,128,0,44156:0:0:0:0:
320,192,44072,128,0,44156:0:0:0:0:
448,192,44156,1,0,0:0:0:0:
192,192,44240,1,0,0:0:0:0:
320,192,44325,128,0,44493:0:0:0:0:
448,192,44325,1,0,0:0:0:0:
64,192,44325,128,0,44409:0:0:0:0:
192,192,44409,1,0,0:0:0:0:
448,192,44493,1,0,0:0:0:0:
64,192,44577,1,0,0:0:0:0:
320,192,44662,1,0,0:0:0:0:
448,192,44662,128,0,44830:0:0:0:0:
64,192,44746,128,0,44830:0:0:0:0:
192,192,44830,1,0,0:0:0:0:
320,192,44915,1,0,0:0:0:0:
64,192,44999,128,0,45167:0:0:0:0:
448,192,44999,128,0,45083:0:0:0:0:
192,192,45083,1,0,0:0:0:0:
320,192,45167,1,0,0:0:0:0:
192,192,45252,1,0,0:0:0:0:
448,192,45336,128,0,45504:0:0:0:0:
64,192,45336,1,0,0:0:0:0:
320,192,45420,128,0,45504:0:0:0:0:
192,192,45504,1,0,0:0:0:0:
320,192,45589,1,0,0:0:0:0:
64,192,45673,128,0,45841:0:0:0:0:
192,192,45673,128,0,45757:0:0:0:0:
320,192,45757,1,0,0:0:0:0:
448,192,45841,1,0,0:0:0:0:
320,192,45926,1,0,0:0:0:0:
448,192,46010,128,0,46179:0:0:0:0:
64,192,46010,1,0,0:0:0:0:
192,192,46094,128,0,46179:0:0:0:0:
320,192,46179,1,0,0:0:0:0:
192,192,46263,1,0,0:0:0:0:
320,192,46347,1,0,0:0:0:0:
448,192,46347,128,0,46516:0:0:0:0:
64,192,46347,128,0,46431:0:0:0:0:
192,192,46516,1,0,0:0:0:0:
320,192,46600,1,0,0:0:0:0:
448,192,46684,1,0,0:0:0:0:
64,192,46684,128,0,46853:0:0:0:0:
192,192,46768,128,0,46853:0:0:0:0:
320,192,46853,1,0,0:0:0:0:
448,192,46937,1,0,0:0:0:0:
64,192,47021,128,0,47190:0:0:0:0:
320,192,47021,128,0,47106:0:0:0:0:
192,192,47106,1,0,0:0:0:0:
448,192,47190,1,0,0:0:0:0:
192,192,47274,1,0,0:0:0:0:
320,192,47358,128,0,47527:0:0:0:0:
448,192,47358,1,0,0:0:0:0:
64,192,47443,128,0,47527:0:0:0:0:
192,192,47527,1,0,0:0:0:0:
448,192,47611,1,0,0:0:0:0:
64,192,47695,128,0,47864:0:0:0:0:
192,192,47695,128,0,47780:0:0:0:0:
320,192,47780,1,0,0:0:0:0:
448,192,47864,1,0,0:0:0:0:
192,192,47948,1,0,0:0:0:0:
320,192,48033,128,0,48201:0:0:0:0:
64,192,48033,1,0,0:0:0:0:
448,192,48117,128,0,48201:0:0:0:0:
192,192,48201,1,0,0:0:0:0:
64,192,48285,1,0,0:0:0:0:
448,192,48370,128,0,48538:0:0:0:0:
320,192,48370,128,0,48454:0:0:0:0:
64,192,48454,1,0,0:0:0:0:
192,192,48538,1,0,0:0:0:0:
320,192,48622,1,0,0:0:0:0:
448,192,48707,128,0,48875:0:0:0:0:
192,192,48707,1,0,0:0:0:0:
64,192,48791,128,0,48875:0:0:0:0:
320,192,48875,1,0,0:0:0:0:
192,192,48959,1,0,0:0:0:0:
448,192,49044,128,0,49212:0:0:0:0:
64,192,49044,128,0,49128:0:0:0:0:
192,192,49128,1,0,0:0:0:0:
320,192,49212,1,0,0:0:0:0:
64,192,49297,1,0,0:0:0:0:
448,192,49381,128,0,49465:0:0:0:0:
192,192,49381,1,0,0:0:0:0:
320,192,49465,128,0,49549:0:0:0:0:
192,192,49549,128,0,49634:0:0:0:0:
448,192,49549,1,0,0:0:0:0:
320,192,49634,1,0,0:0:0:0:
64,192,49634,128,0,49718:0:0:0:0:
192,192,49718,1,0,0:0:0:0:
448,192,49718,128,0,49886:0:0:0:0:
320,192,49802,128,0,49886:0:0:0:0:
64,192,49886,1,0,0:0:0:0:
192,192,49971,1,0,0:0:0:0:
320,192,50055,128,0,50224:0:0:0:0:
64,192,50055,1,0,0:0:0:0:
448,192,50139,128,0,50224:0:0:0:0:
192,192,50224,1,0,0:0:0:0:
64,192,50308,1,0,0:0:0:0:
448,192,50392,128,0,50561:0:0:0:0:
320,192,50392,1,0,0:0:0:0:
64,192,50476,128,0,50561:0:0:0:0:
192,192,50476,1,0,0:0:0:0:
320,192,50561,1,0,0:0:0:0:
192,192,50645,1,0,0:0:0:0:
64,192,50729,128,0,50813:0:0:0:0:
320,192,50729,1,0,0:0:0:0:
192,192,50813,128,0,50898:0:0:0:0:
320,192,50898,128,0,50982:0:0:0:0:
64,192,50898,1,0,0:0:0:0:
192,192,50982,1,0,0:0:0:0:
448,192,50982,128,0,51066:0:0:0:0:
320,192,51066,1,0,0:0:0:0:
64,192,51150,1,0,0:0:0:0:
192,192,51150,128,0,51235:0:0:0:0:
320,192,51235,1,0,0:0:0:0:
448,192,51235,128,0,51319:0:0:0:0:
192,192,51319,1,0,0:0:0:0:
64,192,51319,128,0,51403:0:0:0:0:
320,192,51403,128,0,51488:0:0:0:0:
448,192,51403,128,0,51488:0:0:0:0:
64,192,51488,1,0,0:0:0:0:
192,192,51488,128,0,51572:0:0:0:0:
320,192,51572,1,0,0:0:0:0:
448,192,51572,128,0,51656:0:0:0:0:
192,192,51656,1,0,0:0:0:0:
64,192,51656,128,0,51740:0:0:0:0:
320,192,51740,128,0,51825:0:0:0:0:
448,192,51740,128,0,51825:0:0:0:0:
64,192,51825,1,0,0:0:0:0:
192,192,51825,128,0,51909:0:0:0:0:
448,192,51909,1,0,0:0:0:0:
320,192,51909,128,0,52014:0:0:0:0:
192,192,51993,1,0,0:0:0:0:
64,192,51993,128,0,52077:0:0:0:0:
320,192,52077,1,0,0:0:0:0:
448,192,52077,128,0,53426:0:0:0:0:
192,192,52246,128,0,52330:0:0:0:0:
320,192,52415,128,0,52499:0:0:0:0:
64,192,52583,128,0,52667:0:0:0:0:
192,192,52752,128,0,52836:0:0:0:0:
64,192,52920,128,0,53004:0:0:0:0:
192,192,53089,128,0,53173:0:0:0:0:
320,192,53257,128,0,53341:0:0:0:0:
64,192,53426,1,0,0:0:0:0:
192,192,53426,1,0,0:0:0:0:
448,192,53510,1,0,0:0:0:0:
320,192,53510,1,0,0:0:0:0:
192,192,53594,1,0,0:0:0:0:
64,192,53594,1,0,0:0:0:0:
448,192,53679,1,0,0:0:0:0:
192,192,53763,1,0,0:0:0:0:
64,192,53763,1,0,0:0:0:0:
320,192,53847,128,0,54184:0:0:0:0:
192,192,53931,128,0,54690:0:0:0:0:
448,192,54016,128,0,54521:0:0:0:0:
64,192,54100,1,0,0:0:0:0:
320,192,54268,128,0,54690:0:0:0:0:
64,192,54437,1,0,0:0:0:0:
448,192,54606,128,0,54690:0:0:0:0:
192,192,54774,1,0,0:0:0:0:
448,192,54774,1,0,0:0:0:0:
320,192,54774,1,0,0:0:0:0:
64,192,54774,1,0,0:0:0:0:
64,192,55280,128,0,55364:0:0:0:0:
192,192,55280,128,0,55364:0:0:0:0:
320,192,55280,128,0,55364:0:0:0:0:
448,192,55280,128,0,55364:0:0:0:0:
64,192,55448,1,0,0:0:0:0:
448,192,55448,128,0,55533:0:0:0:0:
320,192,55448,128,0,55533:0:0:0:0:
448,192,55617,1,0,0:0:0:0:
192,192,55617,128,0,55701:0:0:0:0:
64,192,55617,128,0,55701:0:0:0:0:
64,192,55785,1,0,0:0:0:0:
448,192,55785,128,0,55870:0:0:0:0:
320,192,55785,128,0,55870:0:0:0:0:
448,192,55954,128,0,56038:0:0:0:0:
320,192,55996,128,0,56080:0:0:0:0:
192,192,56038,128,0,56122:0:0:0:0:
64,192,56080,128,0,56165:0:0:0:0:
320,192,56122,128,0,56207:0:0:0:0:
448,192,56165,128,0,56249:0:0:0:0:
192,192,56207,128,0,56291:0:0:0:0:
64,192,56249,128,0,56333:0:0:0:0:
448,192,56291,128,0,56375:0:0:0:0:
320,192,56333,128,0,56417:0:0:0:0:
192,192,56375,128,0,56459:0:0:0:0:
64,192,56417,128,0,56502:0:0:0:0:
320,192,56459,128,0,56544:0:0:0:0:
448,192,56502,128,0,56586:0:0:0:0:
64,192,56544,128,0,56628:0:0:0:0:
192,192,56586,128,0,56670:0:0:0:0:
448,192,56628,128,0,56712:0:0:0:0:
320,192,56670,128,0,56754:0:0:0:0:
64,192,56712,128,0,56797:0:0:0:0:
192,192,56754,128,0,56839:0:0:0:0:
320,192,56797,128,0,56881:0:0:0:0:
448,192,56839,128,0,56923:0:0:0:0:
64,192,56881,128,0,56965:0:0:0:0:
192,192,56923,128,0,57007:0:0:0:0:
448,192,56965,128,0,57049:0:0:0:0:
320,192,57007,128,0,57091:0:0:0:0:
192,192,57049,128,0,57134:0:0:0:0:
64,192,57091,128,0,57176:0:0:0:0:
448,192,57134,128,0,57218:0:0:0:0:
320,192,57176,128,0,57260:0:0:0:0:
64,192,57218,128,0,57302:0:0:0:0:
192,192,57260,128,0,57344:0:0:0:0:
448,192,57302,128,0,57386:0:0:0:0:
320,192,57344,128,0,57429:0:0:0:0:
192,192,57386,128,0,57471:0:0:0:0:
320,192,57471,128,0,57555:0:0:0:0:
448,192,57471,128,0,57555:0:0:0:0:
64,192,57471,128,0,57555:0:0:0:0:
64,192,57976,128,0,58061:0:0:0:0:
320,192,57976,128,0,58061:0:0:0:0:
192,192,57976,128,0,58061:0:0:0:0:
448,192,57976,128,0,58061:0:0:0:0:
448,192,58145,1,0,0:0:0:0:
64,192,58145,128,0,58229:0:0:0:0:
320,192,58145,128,0,58229:0:0:0:0:
64,192,58313,1,0,0:0:0:0:
448,192,58313,128,0,58398:0:0:0:0:
192,192,58313,128,0,58398:0:0:0:0:
448,192,58482,1,0,0:0:0:0:
64,192,58482,128,0,58566:0:0:0:0:
320,192,58482,128,0,58566:0:0:0:0:
64,192,58650,128,0,58735:0:0:0:0:
192,192,58693,128,0,58777:0:0:0:0:
320,192,58735,128,0,58819:0:0:0:0:
448,192,58777,128,0,58861:0:0:0:0:
192,192,58819,128,0,58903:0:0:0:0:
64,192,58861,128,0,58945:0:0:0:0:
320,192,58903,128,0,58988:0:0:0:0:
448,192,58945,128,0,59030:0:0:0:0:
64,192,58988,128,0,59072:0:0:0:0:
192,192,59030,128,0,59114:0:0:0:0:
320,192,59072,128,0,59156:0:0:0:0:
448,192,59114,128,0,59198:0:0:0:0:
192,192,59156,128,0,59240:0:0:0:0:
64,192,59198,128,0,59283:0:0:0:0:
448,192,59240,128,0,59325:0:0:0:0:
320,192,59283,128,0,59367:0:0:0:0:
64,192,59325,128,0,59409:0:0:0:0:
192,192,59367,128,0,59451:0:0:0:0:
448,192,59409,128,0,59493:0:0:0:0:
320,192,59451,128,0,59535:0:0:0:0:
192,192,59493,128,0,59577:0:0:0:0:
64,192,59535,128,0,59620:0:0:0:0:
448,192,59577,128,0,59662:0:0:0:0:
320,192,59620,128,0,59704:0:0:0:0:
64,192,59662,128,0,59746:0:0:0:0:
192,192,59704,128,0,59788:0:0:0:0:
320,192,59746,128,0,59830:0:0:0:0:
448,192,59788,128,0,59872:0:0:0:0:
64,192,59830,128,0,59915:0:0:0:0:
192,192,59872,128,0,59957:0:0:0:0:
448,192,59915,128,0,59999:0:0:0:0:
320,192,59957,128,0,60041:0:0:0:0:
64,192,59999,128,0,60083:0:0:0:0:
192,192,60041,128,0,60125:0:0:0:0:
320,192,60083,128,0,60167:0:0:0:0:
192,192,60167,128,0,60252:0:0:0:0:
64,192,60167,128,0,60252:0:0:0:0:
448,192,60167,128,0,60252:0:0:0:0:
448,192,60336,1,0,0:0:0:0:
192,192,60336,1,0,0:0:0:0:
64,192,60336,1,0,0:0:0:0:
64,192,60504,1,0,0:0:0:0:
320,192,60504,1,0,0:0:0:0:
448,192,60504,1,0,0:0:0:0:
64,192,60673,1,0,0:0:0:0:
192,192,60673,1,0,0:0:0:0:
320,192,60673,1,0,0:0:0:0:
192,192,60841,1,0,0:0:0:0:
64,192,60841,1,0,0:0:0:0:
320,192,60841,128,0,61347:0:0:0:0:
448,192,60841,128,0,61347:0:0:0:0:
64,192,61347,1,0,0:0:0:0:
192,192,61347,1,0,0:0:0:0:
320,192,61516,1,0,0:0:0:0:
448,192,61516,1,0,0:0:0:0:
64,192,61516,1,0,0:0:0:0:
192,192,61684,1,0,0:0:0:0:
320,192,61684,1,0,0:0:0:0:
448,192,61684,1,0,0:0:0:0:
64,192,61853,1,0,0:0:0:0:
192,192,61853,1,0,0:0:0:0:
448,192,61853,1,0,0:0:0:0:
64,192,62021,1,0,0:0:0:0:
320,192,62021,1,0,0:0:0:0:
448,192,62021,1,0,0:0:0:0:
448,192,62190,1,0,0:0:0:0:
320,192,62190,1,0,0:0:0:0:
64,192,62190,128,0,62864:0:0:0:0:
192,192,62190,128,0,62864:0:0:0:0:
320,192,62864,1,0,0:0:0:0:
448,192,62864,1,0,0:0:0:0:
320,192,63033,1,0,0:0:0:0:
64,192,63033,1,0,0:0:0:0:
64,192,63201,1,0,0:0:0:0:
192,192,63201,1,0,0:0:0:0:
448,192,63201,1,0,0:0:0:0:
192,192,63370,1,0,0:0:0:0:
320,192,63370,1,0,0:0:0:0:
64,192,63538,1,0,0:0:0:0:
320,192,63538,1,0,0:0:0:0:
448,192,63538,1,0,0:0:0:0:
448,192,63707,1,0,0:0:0:0:
192,192,63707,1,0,0:0:0:0:
64,192,63875,1,0,0:0:0:0:
192,192,63875,1,0,0:0:0:0:
320,192,63875,1,0,0:0:0:0:
64,192,64044,1,0,0:0:0:0:
448,192,64044,1,0,0:0:0:0:
448,192,64212,1,0,0:0:0:0:
192,192,64212,1,0,0:0:0:0:
320,192,64212,1,0,0:0:0:0:
64,192,64381,1,0,0:0:0:0:
192,192,64381,1,0,0:0:0:0:
320,192,64549,1,0,0:0:0:0:
448,192,64549,1,0,0:0:0:0:
64,192,64549,1,0,0:0:0:0:
192,192,64718,1,0,0:0:0:0:
448,192,64718,1,0,0:0:0:0:
320,192,64718,1,0,0:0:0:0:
320,192,64886,1,0,0:0:0:0:
192,192,64886,1,0,0:0:0:0:
64,192,64886,1,0,0:0:0:0:
448,192,65055,1,0,0:0:0:0:
320,192,65055,1,0,0:0:0:0:
192,192,65055,1,0,0:0:0:0:
64,192,65224,1,0,0:0:0:0:
192,192,65224,1,0,0:0:0:0:
320,192,65308,1,0,0:0:0:0:
448,192,65308,1,0,0:0:0:0:
64,192,65392,1,0,0:0:0:0:
192,192,65392,1,0,0:0:0:0:
320,192,65476,1,0,0:0:0:0:
448,192,65476,1,0,0:0:0:0:
64,192,65476,1,0,0:0:0:0:
448,192,66909,5,0,0:0:0:0:
320,192,66951,5,0,0:0:0:0:
192,192,66993,1,0,0:0:0:0:
64,192,67035,1,0,0:0:0:0:
320,192,67077,1,0,0:0:0:0:
448,192,67077,1,0,0:0:0:0:
64,192,67120,1,0,0:0:0:0:
192,192,67162,1,0,0:0:0:0:
320,192,67204,1,0,0:0:0:0:
448,192,67246,1,0,0:0:0:0:
64,192,67246,1,0,0:0:0:0:
192,192,67246,1,0,0:0:0:0:
64,192,67415,1,0,0:0:0:0:
192,192,67415,1,0,0:0:0:0:
448,192,67457,1,0,0:0:0:0:
320,192,67499,1,0,0:0:0:0:
192,192,67541,1,0,0:0:0:0:
64,192,67583,1,0,0:0:0:0:
320,192,67583,1,0,0:0:0:0:
448,192,67583,1,0,0:0:0:0:
64,192,67752,1,0,0:0:0:0:
192,192,67752,1,0,0:0:0:0:
320,192,67920,5,0,0:0:0:0:
64,192,67920,1,0,0:0:0:0:
448,192,67920,1,0,0:0:0:0:
320,192,68257,128,0,68510:0:0:0:0:
448,192,68257,1,0,0:0:0:0:
192,192,68341,1,0,0:0:0:0:
64,192,68426,128,0,68510:0:0:0:0:
448,192,68426,1,0,0:0:0:0:
192,192,68510,1,0,0:0:0:0:
448,192,68594,128,0,68847:0:0:0:0:
64,192,68594,1,0,0:0:0:0:
320,192,68679,1,0,0:0:0:0:
192,192,68763,128,0,68847:0:0:0:0:
64,192,68763,1,0,0:0:0:0:
320,192,68847,1,0,0:0:0:0:
192,192,68931,128,0,69184:0:0:0:0:
64,192,68931,1,0,0:0:0:0:
320,192,69016,1,0,0:0:0:0:
64,192,69100,128,0,69184:0:0:0:0:
448,192,69100,1,0,0:0:0:0:
320,192,69184,1,0,0:0:0:0:
64,192,69268,1,0,0:0:0:0:
448,192,69268,128,0,69521:0:0:0:0:
192,192,69353,1,0,0:0:0:0:
64,192,69437,128,0,69521:0:0:0:0:
320,192,69437,1,0,0:0:0:0:
192,192,69521,1,0,0:0:0:0:
448,192,69606,1,0,0:0:0:0:
320,192,69606,128,0,69858:0:0:0:0:
64,192,69690,1,0,0:0:0:0:
192,192,69774,128,0,69858:0:0:0:0:
448,192,69774,1,0,0:0:0:0:
64,192,69858,1,0,0:0:0:0:
192,192,69943,1,0,0:0:0:0:
448,192,69943,128,0,70195:0:0:0:0:
320,192,70027,1,0,0:0:0:0:
64,192,70111,128,0,70195:0:0:0:0:
192,192,70111,1,0,0:0:0:0:
320,192,70195,1,0,0:0:0:0:
64,192,70280,128,0,70533:0:0:0:0:
192,192,70280,1,0,0:0:0:0:
320,192,70364,1,0,0:0:0:0:
192,192,70448,128,0,70533:0:0:0:0:
448,192,70448,1,0,0:0:0:0:
320,192,70533,1,0,0:0:0:0:
192,192,70617,128,0,70870:0:0:0:0:
64,192,70617,1,0,0:0:0:0:
320,192,70701,1,0,0:0:0:0:
448,192,70785,128,0,70870:0:0:0:0:
64,192,70785,1,0,0:0:0:0:
320,192,70870,1,0,0:0:0:0:
64,192,70954,128,0,71207:0:0:0:0:
448,192,70954,1,0,0:0:0:0:
192,192,71038,1,0,0:0:0:0:
320,192,71122,128,0,71207:0:0:0:0:
448,192,71122,1,0,0:0:0:0:
192,192,71207,1,0,0:0:0:0:
320,192,71291,128,0,71544:0:0:0:0:
448,192,71291,1,0,0:0:0:0:
192,192,71375,1,0,0:0:0:0:
448,192,71459,128,0,71544:0:0:0:0:
64,192,71459,1,0,0:0:0:0:
192,192,71544,1,0,0:0:0:0:
448,192,71628,1,0,0:0:0:0:
64,192,71628,128,0,71881:0:0:0:0:
320,192,71712,1,0,0:0:0:0:
448,192,71797,128,0,71881:0:0:0:0:
192,192,71797,1,0,0:0:0:0:
320,192,71881,1,0,0:0:0:0:
64,192,71965,1,0,0:0:0:0:
192,192,71965,128,0,72218:0:0:0:0:
448,192,72049,1,0,0:0:0:0:
320,192,72134,128,0,72218:0:0:0:0:
64,192,72134,1,0,0:0:0:0:
448,192,72218,1,0,0:0:0:0:
320,192,72302,1,0,0:0:0:0:
64,192,72302,128,0,72555:0:0:0:0:
192,192,72386,1,0,0:0:0:0:
448,192,72471,128,0,72555:0:0:0:0:
320,192,72471,1,0,0:0:0:0:
192,192,72555,1,0,0:0:0:0:
448,192,72639,128,0,72892:0:0:0:0:
320,192,72639,1,0,0:0:0:0:
192,192,72724,1,0,0:0:0:0:
320,192,72808,128,0,72892:0:0:0:0:
64,192,72808,1,0,0:0:0:0:
192,192,72892,1,0,0:0:0:0:
448,192,72976,128,0,73061:0:0:0:0:
64,192,72976,1,0,0:0:0:0:
320,192,73061,128,0,73145:0:0:0:0:
448,192,73145,1,0,0:0:0:0:
192,192,73145,128,0,73229:0:0:0:0:
64,192,73229,128,0,73313:0:0:0:0:
320,192,73229,1,0,0:0:0:0:
448,192,73313,128,0,73398:0:0:0:0:
192,192,73313,1,0,0:0:0:0:
320,192,73398,128,0,73482:0:0:0:0:
448,192,73482,1,0,0:0:0:0:
64,192,73482,128,0,73566:0:0:0:0:
192,192,73566,128,0,73650:0:0:0:0:
64,192,73650,1,0,0:0:0:0:
320,192,73650,128,0,73735:0:0:0:0:
448,192,73650,128,0,73735:0:0:0:0:
192,192,73735,1,0,0:0:0:0:
448,192,73819,1,0,0:0:0:0:
64,192,73819,128,0,73903:0:0:0:0:
320,192,73903,1,0,0:0:0:0:
448,192,73988,128,0,74240:0:0:0:0:
64,192,73988,1,0,0:0:0:0:
192,192,74072,1,0,0:0:0:0:
320,192,74156,1,0,0:0:0:0:
64,192,74156,128,0,74240:0:0:0:0:
192,192,74240,1,0,0:0:0:0:
448,192,74325,128,0,74409:0:0:0:0:
64,192,74325,1,0,0:0:0:0:
320,192,74409,128,0,74493:0:0:0:0:
448,192,74493,1,0,0:0:0:0:
192,192,74493,128,0,74577:0:0:0:0:
64,192,74577,128,0,74662:0:0:0:0:
320,192,74577,1,0,0:0:0:0:
448,192,74662,128,0,74746:0:0:0:0:
192,192,74662,1,0,0:0:0:0:
320,192,74746,128,0,74830:0:0:0:0:
64,192,74830,128,0,74915:0:0:0:0:
448,192,74830,1,0,0:0:0:0:
192,192,74915,128,0,74999:0:0:0:0:
320,192,74999,128,0,75083:0:0:0:0:
64,192,74999,1,0,0:0:0:0:
448,192,74999,128,0,75083:0:0:0:0:
192,192,75083,1,0,0:0:0:0:
448,192,75167,1,0,0:0:0:0:
64,192,75167,128,0,75252:0:0:0:0:
320,192,75252,1,0,0:0:0:0:
192,192,75336,128,0,75589:0:0:0:0:
64,192,75336,1,0,0:0:0:0:
320,192,75420,1,0,0:0:0:0:
448,192,75504,128,0,75589:0:0:0:0:
64,192,75504,1,0,0:0:0:0:
320,192,75589,1,0,0:0:0:0:
64,192,75673,128,0,75757:0:0:0:0:
448,192,75673,1,0,0:0:0:0:
192,192,75757,128,0,75841:0:0:0:0:
64,192,75841,1,0,0:0:0:0:
320,192,75841,128,0,75926:0:0:0:0:
448,192,75926,128,0,76010:0:0:0:0:
192,192,75926,1,0,0:0:0:0:
64,192,76010,128,0,76094:0:0:0:0:
320,192,76010,1,0,0:0:0:0:
192,192,76094,128,0,76179:0:0:0:0:
448,192,76179,128,0,76263:0:0:0:0:
64,192,76179,1,0,0:0:0:0:
320,192,76263,128,0,76347:0:0:0:0:
448,192,76347,1,0,0:0:0:0:
64,192,76347,128,0,76431:0:0:0:0:
192,192,76347,128,0,76431:0:0:0:0:
320,192,76431,1,0,0:0:0:0:
448,192,76516,128,0,76600:0:0:0:0:
192,192,76516,1,0,0:0:0:0:
64,192,76684,1,0,0:0:0:0:
192,192,76684,128,0,76853:0:0:0:0:
320,192,76684,1,0,0:0:0:0:
448,192,76768,1,0,0:0:0:0:
320,192,76853,128,0,76937:0:0:0:0:
64,192,76853,1,0,0:0:0:0:
448,192,76937,1,0,0:0:0:0:
320,192,77021,1,0,0:0:0:0:
64,192,77021,128,0,77190:0:0:0:0:
192,192,77106,1,0,0:0:0:0:
320,192,77190,128,0,77274:0:0:0:0:
448,192,77190,1,0,0:0:0:0:
64,192,77274,1,0,0:0:0:0:
448,192,77358,128,0,77611:0:0:0:0:
320,192,77358,1,0,0:0:0:0:
192,192,77443,1,0,0:0:0:0:
320,192,77527,128,0,77611:0:0:0:0:
64,192,77527,1,0,0:0:0:0:
192,192,77611,1,0,0:0:0:0:
448,192,77695,128,0,77780:0:0:0:0:
320,192,77695,1,0,0:0:0:0:
64,192,77780,1,0,0:0:0:0:
192,192,77780,128,0,77864:0:0:0:0:
448,192,77864,1,0,0:0:0:0:
320,192,77864,128,0,77948:0:0:0:0:
64,192,77948,1,0,0:0:0:0:
192,192,77948,128,0,78033:0:0:0:0:
448,192,78033,1,0,0:0:0:0:
320,192,78033,128,0,78117:0:0:0:0:
64,192,78117,1,0,0:0:0:0:
192,192,78117,128,0,78201:0:0:0:0:
448,192,78201,1,0,0:0:0:0:
320,192,78201,128,0,78285:0:0:0:0:
64,192,78285,1,0,0:0:0:0:
192,192,78285,128,0,78370:0:0:0:0:
448,192,78370,1,0,0:0:0:0:
320,192,78370,128,0,78454:0:0:0:0:
192,192,78454,1,0,0:0:0:0:
448,192,78538,1,0,0:0:0:0:
64,192,78538,128,0,78622:0:0:0:0:
320,192,78622,1,0,0:0:0:0:
64,192,78707,1,0,0:0:0:0:
192,192,78707,128,0,78791:0:0:0:0:
320,192,78791,1,0,0:0:0:0:
64,192,78875,1,0,0:0:0:0:
448,192,78875,128,0,78959:0:0:0:0:
192,192,78959,1,0,0:0:0:0:
320,192,79044,128,0,79297:0:0:0:0:
448,192,79044,1,0,0:0:0:0:
192,192,79128,1,0,0:0:0:0:
64,192,79212,128,0,79297:0:0:0:0:
448,192,79212,1,0,0:0:0:0:
192,192,79297,1,0,0:0:0:0:
448,192,79381,128,0,79634:0:0:0:0:
64,192,79381,1,0,0:0:0:0:
320,192,79465,1,0,0:0:0:0:
192,192,79549,128,0,79634:0:0:0:0:
64,192,79549,1,0,0:0:0:0:
320,192,79634,1,0,0:0:0:0:
192,192,79718,128,0,79971:0:0:0:0:
64,192,79718,1,0,0:0:0:0:
320,192,79802,1,0,0:0:0:0:
64,192,79886,128,0,79971:0:0:0:0:
448,192,79886,1,0,0:0:0:0:
320,192,79971,1,0,0:0:0:0:
64,192,80055,1,0,0:0:0:0:
448,192,80055,128,0,80308:0:0:0:0:
192,192,80139,1,0,0:0:0:0:
64,192,80224,128,0,80308:0:0:0:0:
320,192,80224,1,0,0:0:0:0:
192,192,80308,1,0,0:0:0:0:
448,192,80392,1,0,0:0:0:0:
320,192,80392,128,0,80645:0:0:0:0:
64,192,80476,1,0,0:0:0:0:
192,192,80561,128,0,80645:0:0:0:0:
448,192,80561,1,0,0:0:0:0:
64,192,80645,1,0,0:0:0:0:
192,192,80729,1,0,0:0:0:0:
448,192,80729,128,0,80982:0:0:0:0:
320,192,80813,1,0,0:0:0:0:
64,192,80898,128,0,80982:0:0:0:0:
192,192,80898,1,0,0:0:0:0:
320,192,80982,1,0,0:0:0:0:
64,192,81066,128,0,81319:0:0:0:0:
192,192,81066,1,0,0:0:0:0:
320,192,81150,1,0,0:0:0:0:
192,192,81235,128,0,81319:0:0:0:0:
448,192,81235,1,0,0:0:0:0:
320,192,81319,1,0,0:0:0:0:
192,192,81403,128,0,81656:0:0:0:0:
64,192,81403,1,0,0:0:0:0:
320,192,81488,1,0,0:0:0:0:
448,192,81572,128,0,81656:0:0:0:0:
64,192,81572,1,0,0:0:0:0:
320,192,81656,1,0,0:0:0:0:
64,192,81740,128,0,81993:0:0:0:0:
448,192,81740,1,0,0:0:0:0:
192,192,81825,1,0,0:0:0:0:
320,192,81909,128,0,81993:0:0:0:0:
448,192,81909,1,0,0:0:0:0:
192,192,81993,1,0,0:0:0:0:
320,192,82077,128,0,82330:0:0:0:0:
448,192,82077,1,0,0:0:0:0:
192,192,82162,1,0,0:0:0:0:
448,192,82246,128,0,82330:0:0:0:0:
64,192,82246,1,0,0:0:0:0:
192,192,82330,1,0,0:0:0:0:
448,192,82415,1,0,0:0:0:0:
64,192,82415,128,0,82667:0:0:0:0:
320,192,82499,1,0,0:0:0:0:
448,192,82583,128,0,82667:0:0:0:0:
192,192,82583,1,0,0:0:0:0:
320,192,82667,1,0,0:0:0:0:
64,192,82752,1,0,0:0:0:0:
192,192,82752,128,0,83004:0:0:0:0:
448,192,82836,1,0,0:0:0:0:
320,192,82920,128,0,83004:0:0:0:0:
64,192,82920,1,0,0:0:0:0:
448,192,83004,1,0,0:0:0:0:
320,192,83089,1,0,0:0:0:0:
64,192,83089,128,0,83341:0:0:0:0:
192,192,83173,1,0,0:0:0:0:
448,192,83257,128,0,83341:0:0:0:0:
320,192,83257,1,0,0:0:0:0:
192,192,83341,1,0,0:0:0:0:
448,192,83426,128,0,83679:0:0:0:0:
320,192,83426,1,0,0:0:0:0:
192,192,83510,1,0,0:0:0:0:
320,192,83594,128,0,83679:0:0:0:0:
64,192,83594,1,0,0:0:0:0:
192,192,83679,1,0,0:0:0:0:
448,192,83763,128,0,83847:0:0:0:0:
64,192,83763,1,0,0:0:0:0:
320,192,83847,128,0,83931:0:0:0:0:
448,192,83931,1,0,0:0:0:0:
192,192,83931,128,0,84016:0:0:0:0:
64,192,84016,128,0,84100:0:0:0:0:
320,192,84016,1,0,0:0:0:0:
448,192,84100,128,0,84184:0:0:0:0:
192,192,84100,1,0,0:0:0:0:
320,192,84184,128,0,84268:0:0:0:0:
448,192,84268,1,0,0:0:0:0:
64,192,84268,128,0,84353:0:0:0:0:
192,192,84353,128,0,84437:0:0:0:0:
64,192,84437,1,0,0:0:0:0:
320,192,84437,128,0,84521:0:0:0:0:
448,192,84437,128,0,84521:0:0:0:0:
192,192,84521,1,0,0:0:0:0:
448,192,84606,1,0,0:0:0:0:
64,192,84606,128,0,84690:0:0:0:0:
320,192,84690,1,0,0:0:0:0:
448,192,84774,128,0,85027:0:0:0:0:
64,192,84774,1,0,0:0:0:0:
192,192,84858,1,0,0:0:0:0:
320,192,84943,1,0,0:0:0:0:
64,192,84943,128,0,85027:0:0:0:0:
192,192,85027,1,0,0:0:0:0:
448,192,85111,1,0,0:0:0:0:
64,192,85111,128,0,85195:0:0:0:0:
192,192,85195,128,0,85280:0:0:0:0:
320,192,85280,128,0,85364:0:0:0:0:
64,192,85280,1,0,0:0:0:0:
192,192,85364,1,0,0:0:0:0:
448,192,85364,128,0,85448:0:0:0:0:
320,192,85448,1,0,0:0:0:0:
64,192,85448,128,0,85533:0:0:0:0:
192,192,85533,128,0,85617:0:0:0:0:
448,192,85617,128,0,85701:0:0:0:0:
64,192,85617,1,0,0:0:0:0:
320,192,85701,128,0,85785:0:0:0:0:
64,192,85785,128,0,85870:0:0:0:0:
192,192,85785,128,0,85870:0:0:0:0:
448,192,85785,1,0,0:0:0:0:
320,192,85870,1,0,0:0:0:0:
64,192,85954,128,0,86038:0:0:0:0:
448,192,85954,1,0,0:0:0:0:
320,192,86038,1,0,0:0:0:0:
64,192,86122,1,0,0:0:0:0:
448,192,86122,128,0,86375:0:0:0:0:
192,192,86207,1,0,0:0:0:0:
64,192,86291,128,0,86375:0:0:0:0:
320,192,86291,1,0,0:0:0:0:
192,192,86375,1,0,0:0:0:0:
448,192,86459,128,0,86544:0:0:0:0:
64,192,86459,1,0,0:0:0:0:
320,192,86544,128,0,86628:0:0:0:0:
448,192,86628,1,0,0:0:0:0:
192,192,86628,128,0,86712:0:0:0:0:
64,192,86712,128,0,86797:0:0:0:0:
320,192,86712,1,0,0:0:0:0:
448,192,86797,128,0,86881:0:0:0:0:
192,192,86797,1,0,0:0:0:0:
320,192,86881,128,0,86965:0:0:0:0:
448,192,86965,1,0,0:0:0:0:
64,192,86965,128,0,87049:0:0:0:0:
192,192,87049,128,0,87134:0:0:0:0:
64,192,87134,1,0,0:0:0:0:
320,192,87134,128,0,87218:0:0:0:0:
448,192,87134,128,0,87218:0:0:0:0:
192,192,87218,1,0,0:0:0:0:
448,192,87302,128,0,87386:0:0:0:0:
64,192,87302,1,0,0:0:0:0:
320,192,87386,128,0,87471:0:0:0:0:
192,192,87471,128,0,87555:0:0:0:0:
448,192,87471,1,0,0:0:0:0:
64,192,87555,128,0,87639:0:0:0:0:
448,192,87639,128,0,87976:0:0:0:0:
320,192,87639,128,0,87892:0:0:0:0:
192,192,87639,128,0,87808:0:0:0:0:
192,192,87976,1,0,0:0:0:0:
64,192,87976,1,0,0:0:0:0:
320,192,88145,128,0,88229:0:0:0:0:
448,192,88145,128,0,88271:0:0:0:0:
64,192,88145,128,0,88187:0:0:0:0:
192,192,88313,1,0,0:0:0:0:
64,192,88313,128,0,88398:0:0:0:0:
320,192,88398,1,0,0:0:0:0:
448,192,88398,128,0,88482:0:0:0:0:
192,192,88482,1,0,0:0:0:0:
64,192,88482,128,0,88566:0:0:0:0:
320,192,88566,1,0,0:0:0:0:
448,192,88566,128,0,88650:0:0:0:0:
192,192,88650,1,0,0:0:0:0:
64,192,88650,128,0,88735:0:0:0:0:
320,192,88735,1,0,0:0:0:0:
448,192,88735,128,0,88819:0:0:0:0:
192,192,88819,1,0,0:0:0:0:
64,192,88819,128,0,88903:0:0:0:0:
320,192,88903,1,0,0:0:0:0:
448,192,88903,128,0,88988:0:0:0:0:
192,192,88988,1,0,0:0:0:0:
64,192,88988,128,0,89072:0:0:0:0:
320,192,89072,1,0,0:0:0:0:
448,192,89072,128,0,89156:0:0:0:0:
192,192,89156,1,0,0:0:0:0:
64,192,89156,128,0,89240:0:0:0:0:
320,192,89240,1,0,0:0:0:0:
448,192,89240,128,0,89325:0:0:0:0:
64,192,89325,1,0,0:0:0:0:
192,192,89325,128,0,89409:0:0:0:0:
320,192,89409,128,0,89493:0:0:0:0:
64,192,89493,128,0,89746:0:0:0:0:
448,192,89493,128,0,89577:0:0:0:0:
192,192,89577,1,0,0:0:0:0:
320,192,89662,128,0,89746:0:0:0:0:
448,192,89662,128,0,89746:0:0:0:0:
192,192,89746,1,0,0:0:0:0:
64,192,89830,1,0,0:0:0:0:
448,192,89830,1,0,0:0:0:0:
192,192,90167,1,0,0:0:0:0:
64,192,90336,1,0,0:0:0:0:
320,192,90504,1,0,0:0:0:0:
448,192,90673,1,0,0:0:0:0:
192,192,90841,1,0,0:0:0:0:
320,192,91010,1,0,0:0:0:0:
448,192,91179,128,0,91263:0:0:0:0:
192,192,91179,1,0,0:0:0:0:
64,192,91179,1,0,0:0:0:0:
448,192,91347,128,0,91431:0:0:0:0:
448,192,91516,128,0,91600:0:0:0:0:
320,192,91516,1,0,0:0:0:0:
192,192,91516,1,0,0:0:0:0:
448,192,91684,128,0,91768:0:0:0:0:
448,192,91853,128,0,91937:0:0:0:0:
320,192,91853,1,0,0:0:0:0:
64,192,91853,1,0,0:0:0:0:
448,192,92021,128,0,92106:0:0:0:0:
448,192,92190,128,0,92274:0:0:0:0:
320,192,92190,1,0,0:0:0:0:
192,192,92190,1,0,0:0:0:0:
448,192,92358,128,0,92443:0:0:0:0:
448,192,92527,128,0,92611:0:0:0:0:
64,192,92527,1,0,0:0:0:0:
192,192,92527,1,0,0:0:0:0:
448,192,92695,128,0,92780:0:0:0:0:
448,192,92864,128,0,92948:0:0:0:0:
320,192,92864,1,0,0:0:0:0:
64,192,92864,1,0,0:0:0:0:
448,192,93033,128,0,93117:0:0:0:0:
448,192,93201,128,0,93285:0:0:0:0:
192,192,93201,1,0,0:0:0:0:
320,192,93201,1,0,0:0:0:0:
448,192,93370,128,0,93454:0:0:0:0:
448,192,93538,128,0,93622:0:0:0:0:
64,192,93538,1,0,0:0:0:0:
192,192,93538,1,0,0:0:0:0:
448,192,93707,128,0,93791:0:0:0:0:
448,192,93875,128,0,93959:0:0:0:0:
320,192,93875,1,0,0:0:0:0:
64,192,93875,128,0,93959:0:0:0:0:
64,192,94044,128,0,94128:0:0:0:0:
64,192,94212,128,0,94297:0:0:0:0:
448,192,94212,1,0,0:0:0:0:
192,192,94212,1,0,0:0:0:0:
64,192,94381,128,0,94465:0:0:0:0:
64,192,94549,128,0,94634:0:0:0:0:
448,192,94549,1,0,0:0:0:0:
320,192,94549,1,0,0:0:0:0:
64,192,94718,128,0,94802:0:0:0:0:
64,192,94886,128,0,94971:0:0:0:0:
448,192,94886,1,0,0:0:0:0:
192,192,94886,1,0,0:0:0:0:
64,192,95055,128,0,95139:0:0:0:0:
64,192,95224,128,0,95308:0:0:0:0:
320,192,95224,1,0,0:0:0:0:
448,192,95224,1,0,0:0:0:0:
64,192,95392,128,0,95476:0:0:0:0:
64,192,95561,128,0,95645:0:0:0:0:
448,192,95561,1,0,0:0:0:0:
192,192,95561,1,0,0:0:0:0:
64,192,95729,128,0,95813:0:0:0:0:
64,192,95898,128,0,95982:0:0:0:0:
448,192,95898,1,0,0:0:0:0:
320,192,95898,1,0,0:0:0:0:
64,192,96066,128,0,96150:0:0:0:0:
64,192,96235,128,0,96319:0:0:0:0:
320,192,96235,1,0,0:0:0:0:
192,192,96235,1,0,0:0:0:0:
64,192,96403,128,0,96488:0:0:0:0:
320,192,96572,128,0,96656:0:0:0:0:
448,192,96572,1,0,0:0:0:0:
64,192,96572,128,0,96656:0:0:0:0:
320,192,96740,128,0,96825:0:0:0:0:
320,192,96909,128,0,96993:0:0:0:0:
448,192,96909,1,0,0:0:0:0:
64,192,96909,1,0,0:0:0:0:
320,192,97077,128,0,97162:0:0:0:0:
320,192,97246,128,0,97330:0:0:0:0:
192,192,97246,1,0,0:0:0:0:
448,192,97246,1,0,0:0:0:0:
320,192,97415,128,0,97499:0:0:0:0:
320,192,97583,128,0,97667:0:0:0:0:
64,192,97583,1,0,0:0:0:0:
192,192,97583,1,0,0:0:0:0:
320,192,97752,128,0,97836:0:0:0:0:
320,192,97920,128,0,98004:0:0:0:0:
448,192,97920,1,0,0:0:0:0:
64,192,97920,1,0,0:0:0:0:
320,192,98089,128,0,98173:0:0:0:0:
320,192,98257,128,0,98341:0:0:0:0:
192,192,98257,1,0,0:0:0:0:
448,192,98257,1,0,0:0:0:0:
320,192,98426,128,0,98510:0:0:0:0:
320,192,98594,128,0,98679:0:0:0:0:
64,192,98594,1,0,0:0:0:0:
192,192,98594,1,0,0:0:0:0:
320,192,98763,128,0,98847:0:0:0:0:
320,192,98931,128,0,99016:0:0:0:0:
448,192,98931,1,0,0:0:0:0:
64,192,98931,1,0,0:0:0:0:
320,192,99100,128,0,99184:0:0:0:0:
320,192,99268,128,0,99353:0:0:0:0:
64,192,99268,1,0,0:0:0:0:
448,192,99268,128,0,99353:0:0:0:0:
320,192,99437,128,0,99521:0:0:0:0:
192,192,99437,128,0,99521:0:0:0:0:
448,192,99606,128,0,99690:0:0:0:0:
192,192,99606,1,0,0:0:0:0:
64,192,99606,128,0,99690:0:0:0:0:
448,192,99774,128,0,99858:0:0:0:0:
320,192,99774,128,0,99858:0:0:0:0:
320,192,99943,128,0,100027:0:0:0:0:
64,192,99943,1,0,0:0:0:0:
192,192,99943,128,0,100027:0:0:0:0:
320,192,100111,128,0,100195:0:0:0:0:
64,192,100111,128,0,100195:0:0:0:0:
64,192,100280,128,0,100364:0:0:0:0:
320,192,100280,1,0,0:0:0:0:
448,192,100280,128,0,100364:0:0:0:0:
64,192,100448,128,0,100533:0:0:0:0:
320,192,100448,128,0,100533:0:0:0:0:
192,192,100617,128,0,100701:0:0:0:0:
320,192,100617,1,0,0:0:0:0:
448,192,100617,128,0,100701:0:0:0:0:
192,192,100785,128,0,100870:0:0:0:0:
64,192,100785,128,0,100870:0:0:0:0:
320,192,100954,1,0,0:0:0:0:
448,192,100954,128,0,101038:0:0:0:0:
64,192,100954,128,0,101038:0:0:0:0:
448,192,101122,128,0,101207:0:0:0:0:
320,192,101122,128,0,101207:0:0:0:0:
320,192,101291,128,0,101375:0:0:0:0:
64,192,101291,128,0,101375:0:0:0:0:
192,192,101291,128,0,101375:0:0:0:0:
192,192,101459,128,0,101544:0:0:0:0:
448,192,101459,128,0,101544:0:0:0:0:
448,192,101628,128,0,101712:0:0:0:0:
64,192,101628,128,0,101712:0:0:0:0:
320,192,101628,128,0,101712:0:0:0:0:
192,192,101797,1,0,0:0:0:0:
448,192,101797,128,0,101881:0:0:0:0:
320,192,101797,128,0,101881:0:0:0:0:
320,192,101965,1,0,0:0:0:0:
448,192,101965,128,0,102134:0:0:0:0:
192,192,102049,128,0,102134:0:0:0:0:
64,192,102134,1,0,0:0:0:0:
320,192,102218,1,0,0:0:0:0:
192,192,102302,128,0,102471:0:0:0:0:
64,192,102302,1,0,0:0:0:0:
448,192,102302,128,0,102386:0:0:0:0:
320,192,102386,1,0,0:0:0:0:
64,192,102471,1,0,0:0:0:0:
448,192,102555,1,0,0:0:0:0:
192,192,102639,1,0,0:0:0:0:
64,192,102639,128,0,102808:0:0:0:0:
448,192,102724,128,0,102808:0:0:0:0:
320,192,102808,1,0,0:0:0:0:
192,192,102892,1,0,0:0:0:0:
448,192,102976,128,0,103145:0:0:0:0:
64,192,102976,128,0,103061:0:0:0:0:
320,192,103061,1,0,0:0:0:0:
192,192,103145,1,0,0:0:0:0:
320,192,103229,1,0,0:0:0:0:
64,192,103313,128,0,103482:0:0:0:0:
448,192,103313,1,0,0:0:0:0:
192,192,103398,128,0,103482:0:0:0:0:
320,192,103482,1,0,0:0:0:0:
192,192,103566,1,0,0:0:0:0:
448,192,103650,128,0,103819:0:0:0:0:
320,192,103650,128,0,103735:0:0:0:0:
192,192,103735,1,0,0:0:0:0:
64,192,103819,1,0,0:0:0:0:
192,192,103903,1,0,0:0:0:0:
64,192,103988,128,0,104156:0:0:0:0:
448,192,103988,1,0,0:0:0:0:
320,192,104072,128,0,104156:0:0:0:0:
192,192,104156,1,0,0:0:0:0:
320,192,104240,1,0,0:0:0:0:
192,192,104325,1,0,0:0:0:0:
64,192,104325,128,0,104493:0:0:0:0:
448,192,104325,128,0,104409:0:0:0:0:
320,192,104493,1,0,0:0:0:0:
192,192,104577,1,0,0:0:0:0:
64,192,104662,1,0,0:0:0:0:
448,192,104662,128,0,104830:0:0:0:0:
320,192,104746,128,0,104830:0:0:0:0:
192,192,104830,1,0,0:0:0:0:
64,192,104915,1,0,0:0:0:0:
448,192,104999,128,0,105167:0:0:0:0:
192,192,104999,128,0,105083:0:0:0:0:
320,192,105083,1,0,0:0:0:0:
64,192,105167,1,0,0:0:0:0:
320,192,105252,1,0,0:0:0:0:
192,192,105336,128,0,105504:0:0:0:0:
64,192,105336,1,0,0:0:0:0:
448,192,105420,128,0,105504:0:0:0:0:
320,192,105504,1,0,0:0:0:0:
64,192,105589,1,0,0:0:0:0:
448,192,105673,128,0,105841:0:0:0:0:
320,192,105673,128,0,105757:0:0:0:0:
192,192,105757,1,0,0:0:0:0:
64,192,105841,1,0,0:0:0:0:
320,192,105926,1,0,0:0:0:0:
192,192,106010,128,0,106179:0:0:0:0:
448,192,106010,1,0,0:0:0:0:
64,192,106094,128,0,106179:0:0:0:0:
320,192,106179,1,0,0:0:0:0:
448,192,106263,1,0,0:0:0:0:
64,192,106347,128,0,106516:0:0:0:0:
192,192,106347,128,0,106431:0:0:0:0:
448,192,106431,1,0,0:0:0:0:
320,192,106516,1,0,0:0:0:0:
192,192,106600,1,0,0:0:0:0:
64,192,106684,128,0,106853:0:0:0:0:
320,192,106684,1,0,0:0:0:0:
448,192,106768,128,0,106853:0:0:0:0:
192,192,106853,1,0,0:0:0:0:
320,192,106937,1,0,0:0:0:0:
64,192,107021,128,0,107190:0:0:0:0:
448,192,107021,128,0,107106:0:0:0:0:
320,192,107106,1,0,0:0:0:0:
192,192,107190,1,0,0:0:0:0:
448,192,107274,1,0,0:0:0:0:
64,192,107358,128,0,107443:0:0:0:0:
320,192,107358,1,0,0:0:0:0:
192,192,107443,128,0,107527:0:0:0:0:
320,192,107527,128,0,107611:0:0:0:0:
64,192,107527,1,0,0:0:0:0:
192,192,107611,1,0,0:0:0:0:
448,192,107611,128,0,107695:0:0:0:0:
320,192,107695,1,0,0:0:0:0:
64,192,107695,128,0,107864:0:0:0:0:
192,192,107780,128,0,107864:0:0:0:0:
448,192,107864,1,0,0:0:0:0:
320,192,107948,1,0,0:0:0:0:
192,192,108033,128,0,108201:0:0:0:0:
448,192,108033,1,0,0:0:0:0:
64,192,108117,128,0,108201:0:0:0:0:
320,192,108201,1,0,0:0:0:0:
448,192,108285,1,0,0:0:0:0:
64,192,108370,128,0,108538:0:0:0:0:
192,192,108370,1,0,0:0:0:0:
448,192,108454,128,0,108538:0:0:0:0:
320,192,108454,1,0,0:0:0:0:
192,192,108538,1,0,0:0:0:0:
320,192,108622,1,0,0:0:0:0:
448,192,108707,128,0,108791:0:0:0:0:
64,192,108707,1,0,0:0:0:0:
320,192,108791,128,0,108875:0:0:0:0:
448,192,108875,1,0,0:0:0:0:
192,192,108875,128,0,108959:0:0:0:0:
64,192,108959,128,0,109044:0:0:0:0:
320,192,108959,1,0,0:0:0:0:
448,192,109044,1,0,0:0:0:0:
192,192,109128,1,0,0:0:0:0:
64,192,109128,128,0,109212:0:0:0:0:
448,192,109212,1,0,0:0:0:0:
320,192,109212,128,0,109297:0:0:0:0:
64,192,109297,1,0,0:0:0:0:
192,192,109297,128,0,109381:0:0:0:0:
320,192,109381,128,0,109465:0:0:0:0:
448,192,109381,128,0,109465:0:0:0:0:
192,192,109465,1,0,0:0:0:0:
64,192,109465,128,0,109549:0:0:0:0:
448,192,109549,1,0,0:0:0:0:
320,192,109549,128,0,109634:0:0:0:0:
64,192,109634,1,0,0:0:0:0:
192,192,109634,128,0,109718:0:0:0:0:
320,192,109718,128,0,109802:0:0:0:0:
448,192,109718,128,0,109802:0:0:0:0:
192,192,109802,1,0,0:0:0:0:
64,192,109802,128,0,109886:0:0:0:0:
448,192,109886,1,0,0:0:0:0:
320,192,109886,128,0,109971:0:0:0:0:
64,192,109971,1,0,0:0:0:0:
192,192,109971,128,0,110055:0:0:0:0:
448,192,110055,128,0,111403:0:0:0:0:
320,192,110055,128,0,110139:0:0:0:0:
192,192,110224,128,0,110308:0:0:0:0:
320,192,110392,128,0,110476:0:0:0:0:
64,192,110561,128,0,110645:0:0:0:0:
192,192,110729,128,0,110813:0:0:0:0:
64,192,110898,128,0,110982:0:0:0:0:
192,192,111066,128,0,111150:0:0:0:0:
320,192,111235,128,0,111319:0:0:0:0:
64,192,111403,128,0,111825:0:0:0:0:
448,192,111572,128,0,111909:0:0:0:0:
320,192,111572,128,0,111740:0:0:0:0:
192,192,111740,1,0,0:0:0:0:
320,192,111825,128,0,112162:0:0:0:0:
64,192,111909,128,0,112667:0:0:0:0:
448,192,111993,128,0,112499:0:0:0:0:
192,192,112077,1,0,0:0:0:0:
320,192,112246,128,0,112667:0:0:0:0:
192,192,112415,1,0,0:0:0:0:
448,192,112583,128,0,112667:0:0:0:0:
64,192,112752,1,0,0:0:0:0:
192,192,112752,1,0,0:0:0:0:
448,192,112752,1,0,0:0:0:0:
320,192,112752,1,0,0:0:0:0:
64,192,113257,128,0,113341:0:0:0:0:
192,192,113257,128,0,113341:0:0:0:0:
320,192,113257,128,0,113341:0:0:0:0:
448,192,113257,128,0,113341:0:0:0:0:
64,192,113426,128,0,113510:0:0:0:0:
320,192,113426,128,0,113510:0:0:0:0:
448,192,113426,1,0,0:0:0:0:
64,192,113594,1,0,0:0:0:0:
192,192,113594,128,0,113679:0:0:0:0:
448,192,113594,128,0,113679:0:0:0:0:
448,192,113763,1,0,0:0:0:0:
320,192,113763,128,0,113847:0:0:0:0:
64,192,113763,128,0,113847:0:0:0:0:
64,192,113931,128,0,114016:0:0:0:0:
192,192,113974,128,0,114058:0:0:0:0:
448,192,114016,128,0,114100:0:0:0:0:
320,192,114058,128,0,114142:0:0:0:0:
192,192,114100,128,0,114184:0:0:0:0:
64,192,114142,128,0,114226:0:0:0:0:
320,192,114184,128,0,114268:0:0:0:0:
448,192,114226,128,0,114311:0:0:0:0:
64,192,114268,128,0,114353:0:0:0:0:
192,192,114311,128,0,114395:0:0:0:0:
448,192,114353,128,0,114437:0:0:0:0:
320,192,114395,128,0,114479:0:0:0:0:
64,192,114437,128,0,114521:0:0:0:0:
192,192,114479,128,0,114563:0:0:0:0:
320,192,114521,128,0,114606:0:0:0:0:
448,192,114563,128,0,114648:0:0:0:0:
192,192,114606,128,0,114690:0:0:0:0:
64,192,114648,128,0,114732:0:0:0:0:
448,192,114690,128,0,114774:0:0:0:0:
320,192,114732,128,0,114816:0:0:0:0:
192,192,114774,128,0,114858:0:0:0:0:
64,192,114816,128,0,114900:0:0:0:0:
320,192,114858,128,0,114943:0:0:0:0:
448,192,114900,128,0,114985:0:0:0:0:
192,192,114943,128,0,115027:0:0:0:0:
64,192,114985,128,0,115069:0:0:0:0:
320,192,115027,128,0,115111:0:0:0:0:
448,192,115069,128,0,115153:0:0:0:0:
64,192,115111,128,0,115195:0:0:0:0:
192,192,115153,128,0,115238:0:0:0:0:
448,192,115195,128,0,115280:0:0:0:0:
320,192,115238,128,0,115322:0:0:0:0:
64,192,115280,128,0,115364:0:0:0:0:
192,192,115322,128,0,115406:0:0:0:0:
320,192,115364,128,0,115448:0:0:0:0:
448,192,115448,128,0,115533:0:0:0:0:
192,192,115448,128,0,115533:0:0:0:0:
64,192,115448,128,0,115533:0:0:0:0:
64,192,115954,128,0,116038:0:0:0:0:
192,192,115954,128,0,116038:0:0:0:0:
320,192,115954,128,0,116038:0:0:0:0:
448,192,115954,128,0,116038:0:0:0:0:
448,192,116122,128,0,116207:0:0:0:0:
320,192,116122,128,0,116207:0:0:0:0:
64,192,116122,1,0,0:0:0:0:
192,192,116291,128,0,116375:0:0:0:0:
64,192,116291,128,0,116375:0:0:0:0:
320,192,116291,1,0,0:0:0:0:
64,192,116459,1,0,0:0:0:0:
320,192,116459,128,0,116544:0:0:0:0:
448,192,116459,128,0,116544:0:0:0:0:
448,192,116628,128,0,116712:0:0:0:0:
320,192,116670,128,0,116754:0:0:0:0:
64,192,116712,128,0,116797:0:0:0:0:
192,192,116754,128,0,116839:0:0:0:0:
320,192,116797,128,0,116881:0:0:0:0:
448,192,116839,128,0,116923:0:0:0:0:
192,192,116881,128,0,116965:0:0:0:0:
64,192,116923,128,0,117007:0:0:0:0:
448,192,116965,128,0,117049:0:0:0:0:
320,192,117007,128,0,117091:0:0:0:0:
64,192,117049,128,0,117134:0:0:0:0:
192,192,117091,128,0,117176:0:0:0:0:
448,192,117134,128,0,117218:0:0:0:0:
320,192,117176,128,0,117260:0:0:0:0:
192,192,117218,128,0,117302:0:0:0:0:
64,192,117260,128,0,117344:0:0:0:0:
320,192,117302,128,0,117386:0:0:0:0:
448,192,117344,128,0,117429:0:0:0:0:
64,192,117386,128,0,117471:0:0:0:0:
192,192,117429,128,0,117513:0:0:0:0:
320,192,117471,128,0,117555:0:0:0:0:
448,192,117513,128,0,117597:0:0:0:0:
192,192,117555,128,0,117639:0:0:0:0:
64,192,117597,128,0,117681:0:0:0:0:
320,192,117639,128,0,117724:0:0:0:0:
448,192,117681,128,0,117766:0:0:0:0:
192,192,117724,128,0,117808:0:0:0:0:
64,192,117766,128,0,117850:0:0:0:0:
448,192,117808,128,0,117892:0:0:0:0:
320,192,117850,128,0,117934:0:0:0:0:
64,192,117892,128,0,117976:0:0:0:0:
192,192,117934,128,0,118018:0:0:0:0:
448,192,117976,128,0,118061:0:0:0:0:
320,192,118018,128,0,118103:0:0:0:0:
192,192,118061,128,0,118145:0:0:0:0:
64,192,118145,128,0,118229:0:0:0:0:
320,192,118145,128,0,118229:0:0:0:0:
448,192,118145,128,0,118229:0:0:0:0:
64,192,118313,1,0,0:0:0:0:
320,192,118313,1,0,0:0:0:0:
448,192,118313,1,0,0:0:0:0:
448,192,118482,1,0,0:0:0:0:
192,192,118482,1,0,0:0:0:0:
64,192,118482,1,0,0:0:0:0:
448,192,118650,1,0,0:0:0:0:
320,192,118650,1,0,0:0:0:0:
192,192,118650,1,0,0:0:0:0:
320,192,118819,1,0,0:0:0:0:
448,192,118819,1,0,0:0:0:0:
192,192,118819,128,0,119325:0:0:0:0:
64,192,118819,128,0,119325:0:0:0:0:
448,192,119325,1,0,0:0:0:0:
320,192,119325,1,0,0:0:0:0:
192,192,119493,1,0,0:0:0:0:
64,192,119493,1,0,0:0:0:0:
448,192,119493,1,0,0:0:0:0:
320,192,119662,1,0,0:0:0:0:
192,192,119662,1,0,0:0:0:0:
64,192,119662,1,0,0:0:0:0:
448,192,119830,1,0,0:0:0:0:
320,192,119830,1,0,0:0:0:0:
64,192,119830,1,0,0:0:0:0:
448,192,119999,1,0,0:0:0:0:
192,192,119999,1,0,0:0:0:0:
64,192,119999,1,0,0:0:0:0:
64,192,120167,1,0,0:0:0:0:
192,192,120167,1,0,0:0:0:0:
448,192,120167,128,0,120841:0:0:0:0:
320,192,120167,128,0,120841:0:0:0:0:
192,192,120841,1,0,0:0:0:0:
64,192,120841,1,0,0:0:0:0:
192,192,121010,1,0,0:0:0:0:
448,192,121010,1,0,0:0:0:0:
448,192,121179,1,0,0:0:0:0:
320,192,121179,1,0,0:0:0:0:
64,192,121179,1,0,0:0:0:0:
320,192,121347,1,0,0:0:0:0:
192,192,121347,1,0,0:0:0:0:
448,192,121516,1,0,0:0:0:0:
192,192,121516,1,0,0:0:0:0:
64,192,121516,1,0,0:0:0:0:
64,192,121684,1,0,0:0:0:0:
320,192,121684,1,0,0:0:0:0:
448,192,121853,1,0,0:0:0:0:
320,192,121853,1,0,0:0:0:0:
192,192,121853,1,0,0:0:0:0:
448,192,122021,1,0,0:0:0:0:
64,192,122021,1,0,0:0:0:0:
64,192,122190,1,0,0:0:0:0:
320,192,122190,1,0,0:0:0:0:
192,192,122190,1,0,0:0:0:0:
448,192,122358,1,0,0:0:0:0:
320,192,122358,1,0,0:0:0:0:
192,192,122527,1,0,0:0:0:0:
64,192,122527,1,0,0:0:0:0:
448,192,122527,1,0,0:0:0:0:
320,192,122695,1,0,0:0:0:0:
64,192,122695,1,0,0:0:0:0:
192,192,122695,1,0,0:0:0:0:
192,192,122864,1,0,0:0:0:0:
320,192,122864,1,0,0:0:0:0:
448,192,122864,1,0,0:0:0:0:
320,192,123033,1,0,0:0:0:0:
448,192,123033,1,0,0:0:0:0:
64,192,123033,1,0,0:0:0:0:
64,192,123201,1,0,0:0:0:0:
192,192,123201,1,0,0:0:0:0:
320,192,123285,1,0,0:0:0:0:
448,192,123285,1,0,0:0:0:0:
64,192,123370,1,0,0:0:0:0:
192,192,123370,1,0,0:0:0:0:
320,192,123454,1,0,0:0:0:0:
448,192,123454,1,0,0:0:0:0:
64,192,123454,1,0,0:0:0:0:
448,192,124886,5,0,0:0:0:0:
320,192,124929,5,0,0:0:0:0:
192,192,124971,1,0,0:0:0:0:
64,192,125013,1,0,0:0:0:0:
320,192,125055,1,0,0:0:0:0:
448,192,125055,1,0,0:0:0:0:
64,192,125097,1,0,0:0:0:0:
192,192,125139,1,0,0:0:0:0:
320,192,125181,1,0,0:0:0:0:
448,192,125224,1,0,0:0:0:0:
64,192,125224,1,0,0:0:0:0:
192,192,125224,1,0,0:0:0:0:
64,192,125392,1,0,0:0:0:0:
192,192,125392,1,0,0:0:0:0:
448,192,125434,1,0,0:0:0:0:
320,192,125476,1,0,0:0:0:0:
192,192,125518,1,0,0:0:0:0:
64,192,125561,1,0,0:0:0:0:
320,192,125561,1,0,0:0:0:0:
448,192,125561,1,0,0:0:0:0:
64,192,125729,1,0,0:0:0:0:
192,192,125729,1,0,0:0:0:0:
320,192,125898,5,0,0:0:0:0:
64,192,125898,1,0,0:0:0:0:
448,192,125898,1,0,0:0:0:0:
320,192,126235,128,0,126488:0:0:0:0:
448,192,126235,128,0,126319:0:0:0:0:
192,192,126319,1,0,0:0:0:0:
64,192,126403,128,0,126488:0:0:0:0:
448,192,126403,1,0,0:0:0:0:
192,192,126488,1,0,0:0:0:0:
320,192,126572,128,0,126656:0:0:0:0:
448,192,126572,128,0,126825:0:0:0:0:
64,192,126656,1,0,0:0:0:0:
192,192,126740,128,0,126825:0:0:0:0:
320,192,126740,1,0,0:0:0:0:
64,192,126825,1,0,0:0:0:0:
192,192,126909,128,0,127162:0:0:0:0:
320,192,126909,128,0,126993:0:0:0:0:
64,192,126993,1,0,0:0:0:0:
448,192,127077,128,0,127162:0:0:0:0:
320,192,127077,1,0,0:0:0:0:
64,192,127162,1,0,0:0:0:0:
448,192,127246,128,0,127499:0:0:0:0:
320,192,127246,128,0,127330:0:0:0:0:
192,192,127330,1,0,0:0:0:0:
64,192,127415,128,0,127499:0:0:0:0:
320,192,127415,1,0,0:0:0:0:
192,192,127499,1,0,0:0:0:0:
320,192,127583,128,0,127836:0:0:0:0:
448,192,127583,128,0,127667:0:0:0:0:
64,192,127667,1,0,0:0:0:0:
192,192,127752,128,0,127836:0:0:0:0:
448,192,127752,1,0,0:0:0:0:
64,192,127836,1,0,0:0:0:0:
448,192,127920,128,0,128173:0:0:0:0:
192,192,127920,128,0,128004:0:0:0:0:
320,192,128004,1,0,0:0:0:0:
64,192,128089,128,0,128173:0:0:0:0:
192,192,128089,1,0,0:0:0:0:
320,192,128173,1,0,0:0:0:0:
64,192,128257,128,0,128510:0:0:0:0:
448,192,128257,128,0,128341:0:0:0:0:
320,192,128341,1,0,0:0:0:0:
192,192,128426,128,0,128510:0:0:0:0:
448,192,128426,1,0,0:0:0:0:
320,192,128510,1,0,0:0:0:0:
192,192,128594,128,0,128847:0:0:0:0:
64,192,128594,128,0,128679:0:0:0:0:
320,192,128679,1,0,0:0:0:0:
448,192,128763,128,0,128847:0:0:0:0:
64,192,128763,1,0,0:0:0:0:
320,192,128847,1,0,0:0:0:0:
64,192,128931,128,0,129184:0:0:0:0:
448,192,128931,128,0,129016:0:0:0:0:
192,192,129016,1,0,0:0:0:0:
320,192,129100,128,0,129184:0:0:0:0:
448,192,129100,1,0,0:0:0:0:
192,192,129184,1,0,0:0:0:0:
320,192,129268,128,0,129521:0:0:0:0:
64,192,129268,128,0,129353:0:0:0:0:
192,192,129353,1,0,0:0:0:0:
448,192,129437,128,0,129521:0:0:0:0:
64,192,129437,1,0,0:0:0:0:
192,192,129521,1,0,0:0:0:0:
64,192,129606,128,0,129858:0:0:0:0:
320,192,129606,128,0,129690:0:0:0:0:
448,192,129690,1,0,0:0:0:0:
320,192,129774,1,0,0:0:0:0:
192,192,129774,128,0,129858:0:0:0:0:
448,192,129858,1,0,0:0:0:0:
192,192,129943,128,0,130195:0:0:0:0:
320,192,129943,128,0,130027:0:0:0:0:
448,192,130027,1,0,0:0:0:0:
64,192,130111,128,0,130195:0:0:0:0:
320,192,130111,1,0,0:0:0:0:
64,192,130280,128,0,130533:0:0:0:0:
192,192,130280,128,0,130364:0:0:0:0:
320,192,130364,1,0,0:0:0:0:
448,192,130448,128,0,130533:0:0:0:0:
192,192,130448,1,0,0:0:0:0:
320,192,130533,1,0,0:0:0:0:
448,192,130617,128,0,130870:0:0:0:0:
64,192,130617,128,0,130701:0:0:0:0:
192,192,130701,1,0,0:0:0:0:
320,192,130785,128,0,130870:0:0:0:0:
64,192,130785,1,0,0:0:0:0:
192,192,130870,1,0,0:0:0:0:
448,192,130954,128,0,131038:0:0:0:0:
64,192,130954,128,0,131038:0:0:0:0:
320,192,131038,128,0,131122:0:0:0:0:
448,192,131122,1,0,0:0:0:0:
192,192,131122,128,0,131207:0:0:0:0:
64,192,131207,128,0,131291:0:0:0:0:
320,192,131207,1,0,0:0:0:0:
448,192,131291,128,0,131375:0:0:0:0:
192,192,131291,1,0,0:0:0:0:
320,192,131375,128,0,131459:0:0:0:0:
448,192,131459,1,0,0:0:0:0:
64,192,131459,128,0,131544:0:0:0:0:
192,192,131544,128,0,131628:0:0:0:0:
64,192,131628,1,0,0:0:0:0:
448,192,131628,128,0,131712:0:0:0:0:
320,192,131628,128,0,131712:0:0:0:0:
192,192,131712,1,0,0:0:0:0:
64,192,131797,128,0,131881:0:0:0:0:
448,192,131797,128,0,131881:0:0:0:0:
320,192,131881,128,0,131965:0:0:0:0:
448,192,131965,128,0,132218:0:0:0:0:
64,192,131965,1,0,0:0:0:0:
192,192,132049,1,0,0:0:0:0:
320,192,132134,1,0,0:0:0:0:
64,192,132134,128,0,132218:0:0:0:0:
192,192,132218,1,0,0:0:0:0:
448,192,132302,128,0,132386:0:0:0:0:
64,192,132302,128,0,132386:0:0:0:0:
320,192,132386,128,0,132471:0:0:0:0:
448,192,132471,1,0,0:0:0:0:
192,192,132471,128,0,132555:0:0:0:0:
64,192,132555,128,0,132639:0:0:0:0:
320,192,132555,1,0,0:0:0:0:
448,192,132639,128,0,132724:0:0:0:0:
192,192,132639,1,0,0:0:0:0:
320,192,132724,128,0,132808:0:0:0:0:
64,192,132808,128,0,132892:0:0:0:0:
448,192,132808,1,0,0:0:0:0:
192,192,132892,128,0,132976:0:0:0:0:
320,192,132976,128,0,133061:0:0:0:0:
64,192,132976,1,0,0:0:0:0:
448,192,132976,128,0,133061:0:0:0:0:
192,192,133061,1,0,0:0:0:0:
64,192,133145,128,0,133229:0:0:0:0:
448,192,133145,128,0,133229:0:0:0:0:
320,192,133229,128,0,133313:0:0:0:0:
192,192,133313,128,0,133566:0:0:0:0:
64,192,133313,1,0,0:0:0:0:
320,192,133398,1,0,0:0:0:0:
448,192,133482,128,0,133566:0:0:0:0:
64,192,133482,1,0,0:0:0:0:
320,192,133566,1,0,0:0:0:0:
64,192,133650,128,0,133735:0:0:0:0:
448,192,133650,128,0,133735:0:0:0:0:
192,192,133735,128,0,133819:0:0:0:0:
64,192,133819,1,0,0:0:0:0:
320,192,133819,128,0,133903:0:0:0:0:
448,192,133903,128,0,133988:0:0:0:0:
192,192,133903,1,0,0:0:0:0:
64,192,133988,128,0,134072:0:0:0:0:
320,192,133988,1,0,0:0:0:0:
192,192,134072,128,0,134156:0:0:0:0:
448,192,134156,128,0,134240:0:0:0:0:
64,192,134156,1,0,0:0:0:0:
320,192,134240,128,0,134325:0:0:0:0:
448,192,134325,1,0,0:0:0:0:
64,192,134325,128,0,134409:0:0:0:0:
192,192,134325,128,0,134409:0:0:0:0:
320,192,134409,1,0,0:0:0:0:
448,192,134493,128,0,134577:0:0:0:0:
192,192,134493,1,0,0:0:0:0:
320,192,134577,1,0,0:0:0:0:
64,192,134662,1,0,0:0:0:0:
192,192,134662,128,0,134830:0:0:0:0:
448,192,134662,1,0,0:0:0:0:
320,192,134746,1,0,0:0:0:0:
64,192,134830,1,0,0:0:0:0:
448,192,134830,128,0,134915:0:0:0:0:
192,192,134915,1,0,0:0:0:0:
320,192,134999,1,0,0:0:0:0:
64,192,134999,128,0,135167:0:0:0:0:
192,192,135083,1,0,0:0:0:0:
320,192,135167,128,0,135252:0:0:0:0:
448,192,135167,1,0,0:0:0:0:
64,192,135252,1,0,0:0:0:0:
448,192,135336,128,0,135589:0:0:0:0:
320,192,135336,1,0,0:0:0:0:
192,192,135420,1,0,0:0:0:0:
320,192,135504,128,0,135589:0:0:0:0:
64,192,135504,1,0,0:0:0:0:
192,192,135589,1,0,0:0:0:0:
448,192,135673,128,0,135757:0:0:0:0:
320,192,135673,1,0,0:0:0:0:
64,192,135757,1,0,0:0:0:0:
192,192,135757,128,0,135841:0:0:0:0:
448,192,135841,1,0,0:0:0:0:
320,192,135841,128,0,135926:0:0:0:0:
64,192,135926,1,0,0:0:0:0:
192,192,135926,128,0,136010:0:0:0:0:
448,192,136010,1,0,0:0:0:0:
320,192,136010,128,0,136094:0:0:0:0:
64,192,136094,1,0,0:0:0:0:
192,192,136094,128,0,136179:0:0:0:0:
448,192,136179,1,0,0:0:0:0:
320,192,136179,128,0,136263:0:0:0:0:
64,192,136263,1,0,0:0:0:0:
192,192,136263,128,0,136347:0:0:0:0:
448,192,136347,1,0,0:0:0:0:
320,192,136347,128,0,136431:0:0:0:0:
192,192,136431,1,0,0:0:0:0:
448,192,136516,1,0,0:0:0:0:
64,192,136516,128,0,136600:0:0:0:0:
320,192,136600,1,0,0:0:0:0:
64,192,136684,1,0,0:0:0:0:
192,192,136684,128,0,136768:0:0:0:0:
320,192,136768,1,0,0:0:0:0:
64,192,136853,1,0,0:0:0:0:
448,192,136853,128,0,136937:0:0:0:0:
192,192,136937,1,0,0:0:0:0:
320,192,137021,128,0,137274:0:0:0:0:
448,192,137021,128,0,137106:0:0:0:0:
192,192,137106,1,0,0:0:0:0:
64,192,137190,128,0,137274:0:0:0:0:
448,192,137190,1,0,0:0:0:0:
192,192,137274,1,0,0:0:0:0:
448,192,137358,128,0,137611:0:0:0:0:
64,192,137358,128,0,137443:0:0:0:0:
320,192,137443,1,0,0:0:0:0:
192,192,137527,128,0,137611:0:0:0:0:
64,192,137527,1,0,0:0:0:0:
320,192,137611,1,0,0:0:0:0:
192,192,137695,128,0,137948:0:0:0:0:
448,192,137695,128,0,137780:0:0:0:0:
320,192,137780,1,0,0:0:0:0:
64,192,137864,128,0,137948:0:0:0:0:
448,192,137864,1,0,0:0:0:0:
320,192,137948,1,0,0:0:0:0:
448,192,138033,128,0,138285:0:0:0:0:
192,192,138033,128,0,138117:0:0:0:0:
64,192,138117,1,0,0:0:0:0:
320,192,138201,1,0,0:0:0:0:
192,192,138201,128,0,138285:0:0:0:0:
64,192,138285,1,0,0:0:0:0:
320,192,138370,128,0,138622:0:0:0:0:
448,192,138370,128,0,138454:0:0:0:0:
64,192,138454,1,0,0:0:0:0:
192,192,138538,128,0,138622:0:0:0:0:
448,192,138538,1,0,0:0:0:0:
64,192,138622,1,0,0:0:0:0:
448,192,138707,128,0,138959:0:0:0:0:
192,192,138707,128,0,138791:0:0:0:0:
320,192,138791,1,0,0:0:0:0:
64,192,138875,128,0,138959:0:0:0:0:
192,192,138875,1,0,0:0:0:0:
320,192,138959,1,0,0:0:0:0:
64,192,139044,128,0,139297:0:0:0:0:
448,192,139044,128,0,139128:0:0:0:0:
320,192,139128,1,0,0:0:0:0:
192,192,139212,128,0,139297:0:0:0:0:
448,192,139212,1,0,0:0:0:0:
320,192,139297,1,0,0:0:0:0:
192,192,139381,128,0,139634:0:0:0:0:
64,192,139381,128,0,139465:0:0:0:0:
320,192,139465,1,0,0:0:0:0:
448,192,139549,128,0,139634:0:0:0:0:
64,192,139549,1,0,0:0:0:0:
320,192,139634,1,0,0:0:0:0:
64,192,139718,128,0,139971:0:0:0:0:
448,192,139718,128,0,139802:0:0:0:0:
192,192,139802,1,0,0:0:0:0:
320,192,139886,128,0,139971:0:0:0:0:
448,192,139886,1,0,0:0:0:0:
192,192,139971,1,0,0:0:0:0:
320,192,140055,128,0,140308:0:0:0:0:
64,192,140055,128,0,140139:0:0:0:0:
192,192,140139,1,0,0:0:0:0:
448,192,140224,128,0,140308:0:0:0:0:
64,192,140224,1,0,0:0:0:0:
192,192,140308,1,0,0:0:0:0:
64,192,140392,128,0,140645:0:0:0:0:
448,192,140392,128,0,140476:0:0:0:0:
320,192,140392,1,0,0:0:0:0:
320,192,140561,128,0,140645:0:0:0:0:
192,192,140561,1,0,0:0:0:0:
448,192,140645,1,0,0:0:0:0:
192,192,140729,128,0,140982:0:0:0:0:
320,192,140729,128,0,140813:0:0:0:0:
448,192,140813,1,0,0:0:0:0:
64,192,140898,128,0,140982:0:0:0:0:
320,192,140898,1,0,0:0:0:0:
64,192,141066,128,0,141319:0:0:0:0:
192,192,141066,128,0,141150:0:0:0:0:
320,192,141150,1,0,0:0:0:0:
448,192,141235,128,0,141319:0:0:0:0:
192,192,141235,1,0,0:0:0:0:
320,192,141319,1,0,0:0:0:0:
448,192,141403,128,0,141656:0:0:0:0:
64,192,141403,128,0,141488:0:0:0:0:
192,192,141488,1,0,0:0:0:0:
320,192,141572,128,0,141656:0:0:0:0:
64,192,141572,1,0,0:0:0:0:
192,192,141656,1,0,0:0:0:0:
448,192,141740,128,0,141825:0:0:0:0:
64,192,141740,128,0,141825:0:0:0:0:
320,192,141825,128,0,141909:0:0:0:0:
448,192,141909,1,0,0:0:0:0:
192,192,141909,128,0,141993:0:0:0:0:
64,192,141993,128,0,142077:0:0:0:0:
320,192,141993,1,0,0:0:0:0:
448,192,142077,128,0,142162:0:0:0:0:
192,192,142077,1,0,0:0:0:0:
320,192,142162,128,0,142246:0:0:0:0:
448,192,142246,1,0,0:0:0:0:
64,192,142246,128,0,142330:0:0:0:0:
192,192,142330,128,0,142415:0:0:0:0:
64,192,142415,1,0,0:0:0:0:
448,192,142415,128,0,142499:0:0:0:0:
320,192,142415,128,0,142499:0:0:0:0:
192,192,142499,1,0,0:0:0:0:
64,192,142583,128,0,142667:0:0:0:0:
448,192,142583,128,0,142667:0:0:0:0:
320,192,142667,128,0,142752:0:0:0:0:
448,192,142752,128,0,143004:0:0:0:0:
64,192,142752,1,0,0:0:0:0:
192,192,142836,1,0,0:0:0:0:
320,192,142920,1,0,0:0:0:0:
64,192,142920,128,0,143004:0:0:0:0:
192,192,143004,1,0,0:0:0:0:
448,192,143089,128,0,143173:0:0:0:0:
64,192,143089,128,0,143173:0:0:0:0:
320,192,143173,128,0,143257:0:0:0:0:
448,192,143257,1,0,0:0:0:0:
192,192,143257,128,0,143341:0:0:0:0:
64,192,143341,128,0,143426:0:0:0:0:
320,192,143341,1,0,0:0:0:0:
448,192,143426,128,0,143510:0:0:0:0:
192,192,143426,1,0,0:0:0:0:
320,192,143510,128,0,143594:0:0:0:0:
64,192,143594,128,0,143679:0:0:0:0:
448,192,143594,1,0,0:0:0:0:
192,192,143679,128,0,143763:0:0:0:0:
320,192,143763,128,0,143847:0:0:0:0:
64,192,143763,1,0,0:0:0:0:
448,192,143763,128,0,143847:0:0:0:0:
192,192,143847,1,0,0:0:0:0:
64,192,143931,128,0,144016:0:0:0:0:
448,192,143931,128,0,144016:0:0:0:0:
320,192,144016,128,0,144100:0:0:0:0:
192,192,144100,128,0,144353:0:0:0:0:
64,192,144100,1,0,0:0:0:0:
320,192,144184,1,0,0:0:0:0:
448,192,144268,128,0,144353:0:0:0:0:
64,192,144268,1,0,0:0:0:0:
320,192,144353,1,0,0:0:0:0:
64,192,144437,128,0,144521:0:0:0:0:
448,192,144437,128,0,144521:0:0:0:0:
192,192,144521,128,0,144606:0:0:0:0:
64,192,144606,1,0,0:0:0:0:
320,192,144606,128,0,144690:0:0:0:0:
448,192,144690,128,0,144774:0:0:0:0:
192,192,144690,1,0,0:0:0:0:
64,192,144774,128,0,144858:0:0:0:0:
320,192,144774,1,0,0:0:0:0:
192,192,144858,128,0,144943:0:0:0:0:
448,192,144943,128,0,145027:0:0:0:0:
64,192,144943,1,0,0:0:0:0:
320,192,145027,128,0,145111:0:0:0:0:
448,192,145111,1,0,0:0:0:0:
64,192,145111,128,0,145195:0:0:0:0:
192,192,145111,128,0,145195:0:0:0:0:
320,192,145195,1,0,0:0:0:0:
448,192,145280,128,0,145364:0:0:0:0:
192,192,145280,1,0,0:0:0:0:
320,192,145364,1,0,0:0:0:0:
64,192,145448,1,0,0:0:0:0:
192,192,145448,128,0,145617:0:0:0:0:
448,192,145448,1,0,0:0:0:0:
320,192,145533,1,0,0:0:0:0:
64,192,145617,1,0,0:0:0:0:
448,192,145617,128,0,145701:0:0:0:0:
192,192,145701,1,0,0:0:0:0:
320,192,145785,1,0,0:0:0:0:
64,192,145785,128,0,145954:0:0:0:0:
192,192,145870,1,0,0:0:0:0:
320,192,145954,128,0,146038:0:0:0:0:
448,192,145954,1,0,0:0:0:0:
64,192,146038,1,0,0:0:0:0:
448,192,146122,128,0,146375:0:0:0:0:
320,192,146122,1,0,0:0:0:0:
192,192,146207,1,0,0:0:0:0:
320,192,146291,128,0,146375:0:0:0:0:
64,192,146291,1,0,0:0:0:0:
192,192,146375,1,0,0:0:0:0:
448,192,146459,128,0,146544:0:0:0:0:
320,192,146459,1,0,0:0:0:0:
64,192,146544,1,0,0:0:0:0:
192,192,146544,128,0,146628:0:0:0:0:
448,192,146628,1,0,0:0:0:0:
320,192,146628,128,0,146712:0:0:0:0:
64,192,146712,1,0,0:0:0:0:
192,192,146712,128,0,146797:0:0:0:0:
448,192,146797,1,0,0:0:0:0:
320,192,146797,128,0,146881:0:0:0:0:
64,192,146881,1,0,0:0:0:0:
192,192,146881,128,0,146965:0:0:0:0:
448,192,146965,1,0,0:0:0:0:
320,192,146965,128,0,147049:0:0:0:0:
64,192,147049,1,0,0:0:0:0:
192,192,147049,128,0,147134:0:0:0:0:
448,192,147134,1,0,0:0:0:0:
320,192,147134,128,0,147218:0:0:0:0:
192,192,147218,1,0,0:0:0:0:
64,192,147218,128,0,147302:0:0:0:0:
448,192,147302,1,0,0:0:0:0:
320,192,147302,128,0,147386:0:0:0:0:
192,192,147386,128,0,147471:0:0:0:0:
448,192,147471,1,0,0:0:0:0:
64,192,147471,128,0,147555:0:0:0:0:
320,192,147555,128,0,147639:0:0:0:0:
64,192,147639,1,0,0:0:0:0:
192,192,147639,128,0,147724:0:0:0:0:
320,192,147724,128,0,147808:0:0:0:0:
64,192,147808,128,0,147892:0:0:0:0:
192,192,147808,128,0,147892:0:0:0:0:
448,192,147808,128,0,147892:0:0:0:0:
448,192,147976,128,0,148313:0:0:0:0:
192,192,148145,128,0,148313:0:0:0:0:
64,192,148313,1,0,0:0:0:0:
320,192,148313,128,0,148650:0:0:0:0:
64,192,148482,128,0,148650:0:0:0:0:
448,192,148650,128,0,148988:0:0:0:0:
192,192,148650,1,0,0:0:0:0:
192,192,148819,128,0,148988:0:0:0:0:
64,192,148988,128,0,149156:0:0:0:0:
192,192,149156,1,0,0:0:0:0:
320,192,149156,128,0,149325:0:0:0:0:
448,192,149325,1,0,0:0:0:0:
192,192,149325,128,0,149493:0:0:0:0:
448,192,149493,1,0,0:0:0:0:
320,192,149493,128,0,149662:0:0:0:0:
64,192,149662,1,0,0:0:0:0:
192,192,149662,128,0,149830:0:0:0:0:
320,192,149746,1,0,0:0:0:0:
64,192,149830,1,0,0:0:0:0:
448,192,149830,128,0,149999:0:0:0:0:
192,192,149915,1,0,0:0:0:0:
320,192,149999,128,0,150167:0:0:0:0:
64,192,149999,1,0,0:0:0:0:
192,192,150167,1,0,0:0:0:0:
64,192,150167,128,0,150504:0:0:0:0:
448,192,150336,1,0,0:0:0:0:
320,192,150336,1,0,0:0:0:0:
320,192,150504,128,0,150673:0:0:0:0:
192,192,150504,1,0,0:0:0:0:
192,192,150673,128,0,151010:0:0:0:0:
448,192,150673,1,0,0:0:0:0:
448,192,150841,128,0,151010:0:0:0:0:
64,192,151010,128,0,151347:0:0:0:0:
320,192,151010,1,0,0:0:0:0:
448,192,151179,128,0,151347:0:0:0:0:
192,192,151347,1,0,0:0:0:0:
320,192,151347,128,0,151684:0:0:0:0:
64,192,151516,1,0,0:0:0:0:
448,192,151516,128,0,151684:0:0:0:0:
192,192,151684,1,0,0:0:0:0:
64,192,151684,128,0,151853:0:0:0:0:
448,192,151853,1,0,0:0:0:0:
320,192,151853,128,0,152021:0:0:0:0:
192,192,152021,128,0,152190:0:0:0:0:
64,192,152021,1,0,0:0:0:0:
320,192,152190,1,0,0:0:0:0:
448,192,152190,128,0,152358:0:0:0:0:
64,192,152358,1,0,0:0:0:0:
192,192,152358,128,0,152527:0:0:0:0:
448,192,152527,128,0,152611:0:0:0:0:
320,192,152527,1,0,0:0:0:0:
192,192,152695,128,0,152780:0:0:0:0:
64,192,152695,1,0,0:0:0:0:
320,192,152780,1,0,0:0:0:0:
448,192,152780,128,0,152864:0:0:0:0:
64,192,152864,1,0,0:0:0:0:
192,192,152864,128,0,152948:0:0:0:0:
448,192,152948,1,0,0:0:0:0:
320,192,152948,128,0,153033:0:0:0:0:
64,192,153033,1,0,0:0:0:0:
192,192,153033,128,0,153117:0:0:0:0:
320,192,153117,1,0,0:0:0:0:
448,192,153117,128,0,153201:0:0:0:0:
192,192,153201,1,0,0:0:0:0:
64,192,153201,128,0,153370:0:0:0:0:
192,192,153370,128,0,153707:0:0:0:0:
448,192,153370,1,0,0:0:0:0:
448,192,153538,128,0,153707:0:0:0:0:
64,192,153707,128,0,154044:0:0:0:0:
320,192,153707,1,0,0:0:0:0:
320,192,153875,128,0,154044:0:0:0:0:
192,192,154044,1,0,0:0:0:0:
448,192,154044,128,0,154381:0:0:0:0:
192,192,154212,128,0,154381:0:0:0:0:
64,192,154381,128,0,154718:0:0:0:0:
320,192,154381,1,0,0:0:0:0:
448,192,154549,128,0,154718:0:0:0:0:
320,192,154718,128,0,154886:0:0:0:0:
64,192,154886,1,0,0:0:0:0:
448,192,154886,128,0,155055:0:0:0:0:
192,192,155055,128,0,155224:0:0:0:0:
64,192,155055,1,0,0:0:0:0:
448,192,155139,1,0,0:0:0:0:
320,192,155224,128,0,155392:0:0:0:0:
64,192,155224,1,0,0:0:0:0:
448,192,155308,1,0,0:0:0:0:
192,192,155392,1,0,0:0:0:0:
64,192,155392,128,0,155561:0:0:0:0:
448,192,155561,128,0,155729:0:0:0:0:
192,192,155729,128,0,155898:0:0:0:0:
64,192,155898,128,0,156066:0:0:0:0:
448,192,155898,1,0,0:0:0:0:
320,192,156066,128,0,156403:0:0:0:0:
192,192,156066,1,0,0:0:0:0:
448,192,156066,1,0,0:0:0:0:
192,192,156235,128,0,156403:0:0:0:0:
64,192,156403,128,0,156740:0:0:0:0:
448,192,156403,1,0,0:0:0:0:
448,192,156572,128,0,156740:0:0:0:0:
320,192,156572,1,0,0:0:0:0:
320,192,156740,128,0,157077:0:0:0:0:
192,192,156909,128,0,157077:0:0:0:0:
64,192,157077,128,0,157162:0:0:0:0:
192,192,157162,128,0,157246:0:0:0:0:
320,192,157246,128,0,157330:0:0:0:0:
448,192,157246,128,0,157330:0:0:0:0:
192,192,157330,128,0,157415:0:0:0:0:
448,192,157415,128,0,157499:0:0:0:0:
64,192,157415,128,0,157499:0:0:0:0:
320,192,157499,128,0,157583:0:0:0:0:
192,192,157583,128,0,157667:0:0:0:0:
64,192,157583,128,0,157667:0:0:0:0:
320,192,157667,128,0,157752:0:0:0:0:
448,192,157752,128,0,157836:0:0:0:0:
64,192,157752,128,0,157836:0:0:0:0:
320,192,157836,128,0,157920:0:0:0:0:
64,192,157920,128,0,158510:0:0:0:0:
448,192,157920,128,0,158510:0:0:0:0:
192,192,157920,128,0,158004:0:0:0:0:
320,192,158004,128,0,158089:0:0:0:0:
192,192,158089,128,0,158173:0:0:0:0:
320,192,158173,128,0,158257:0:0:0:0:
192,192,158257,128,0,158341:0:0:0:0:
320,192,158341,128,0,158426:0:0:0:0:
192,192,158426,128,0,158510:0:0:0:0:
320,192,158510,128,0,158594:0:0:0:0:
192,192,158594,128,0,158679:0:0:0:0:
64,192,158594,128,0,158679:0:0:0:0:
448,192,158594,128,0,158679:0:0:0:0:
320,192,158679,128,0,158763:0:0:0:0:
448,192,158763,128,0,158847:0:0:0:0:
64,192,158763,128,0,158847:0:0:0:0:
192,192,158847,128,0,158931:0:0:0:0:
320,192,158931,128,0,159016:0:0:0:0:
448,192,158931,128,0,159016:0:0:0:0:
192,192,159016,128,0,159100:0:0:0:0:
64,192,159016,128,0,159100:0:0:0:0:
448,192,159100,128,0,159184:0:0:0:0:
320,192,159100,128,0,159184:0:0:0:0:
192,192,159184,128,0,159268:0:0:0:0:
64,192,159268,128,0,159353:0:0:0:0:
320,192,159268,128,0,159353:0:0:0:0:
448,192,159353,128,0,159437:0:0:0:0:
320,192,159437,128,0,159521:0:0:0:0:
192,192,159437,128,0,159521:0:0:0:0:
64,192,159521,128,0,159606:0:0:0:0:
448,192,159606,128,0,159690:0:0:0:0:
192,192,159606,128,0,159690:0:0:0:0:
64,192,159690,128,0,159774:0:0:0:0:
320,192,159690,128,0,159774:0:0:0:0:
448,192,159774,128,0,159858:0:0:0:0:
192,192,159774,128,0,159858:0:0:0:0:
64,192,159858,128,0,159943:0:0:0:0:
320,192,159943,128,0,160027:0:0:0:0:
448,192,159943,128,0,160027:0:0:0:0:
192,192,160027,128,0,160111:0:0:0:0:
64,192,160111,128,0,160195:0:0:0:0:
448,192,160111,128,0,160195:0:0:0:0:
320,192,160195,128,0,160280:0:0:0:0:
192,192,160280,128,0,160364:0:0:0:0:
64,192,160280,128,0,160364:0:0:0:0:
320,192,160364,128,0,160448:0:0:0:0:
448,192,160364,128,0,160448:0:0:0:0:
64,192,160448,128,0,160533:0:0:0:0:
192,192,160448,128,0,160533:0:0:0:0:
320,192,160533,128,0,160617:0:0:0:0:
448,192,160617,128,0,160701:0:0:0:0:
64,192,160617,128,0,160701:0:0:0:0:
320,192,160701,128,0,160785:0:0:0:0:
192,192,160785,128,0,160870:0:0:0:0:
64,192,160785,128,0,160870:0:0:0:0:
320,192,160870,128,0,160954:0:0:0:0:
64,192,160954,128,0,161038:0:0:0:0:
448,192,160954,128,0,161038:0:0:0:0:
192,192,161038,128,0,161122:0:0:0:0:
320,192,161038,128,0,161122:0:0:0:0:
64,192,161122,128,0,161207:0:0:0:0:
448,192,161122,128,0,161207:0:0:0:0:
192,192,161207,128,0,161291:0:0:0:0:
320,192,161291,128,0,161375:0:0:0:0:
448,192,161291,128,0,161375:0:0:0:0:
64,192,161375,128,0,161459:0:0:0:0:
192,192,161459,128,0,161544:0:0:0:0:
448,192,161459,128,0,161544:0:0:0:0:
320,192,161544,128,0,161628:0:0:0:0:
192,192,161628,128,0,161712:0:0:0:0:
64,192,161628,128,0,161712:0:0:0:0:
320,192,161712,128,0,161797:0:0:0:0:
448,192,161712,128,0,161797:0:0:0:0:
64,192,161797,128,0,161881:0:0:0:0:
192,192,161797,128,0,161881:0:0:0:0:
320,192,161881,128,0,161965:0:0:0:0:
448,192,161965,128,0,162049:0:0:0:0:
64,192,161965,128,0,162049:0:0:0:0:
192,192,162049,128,0,162134:0:0:0:0:
64,192,162134,128,0,162218:0:0:0:0:
448,192,162134,128,0,162218:0:0:0:0:
320,192,162218,128,0,162302:0:0:0:0:
192,192,162302,128,0,162386:0:0:0:0:
64,192,162302,128,0,162386:0:0:0:0:
448,192,162386,128,0,162471:0:0:0:0:
320,192,162386,128,0,162471:0:0:0:0:
64,192,162471,128,0,162555:0:0:0:0:
192,192,162471,128,0,162555:0:0:0:0:
320,192,162555,128,0,162639:0:0:0:0:
448,192,162639,128,0,162724:0:0:0:0:
64,192,162639,128,0,162724:0:0:0:0:
192,192,162724,128,0,162808:0:0:0:0:
64,192,162808,128,0,162892:0:0:0:0:
448,192,162808,128,0,162892:0:0:0:0:
320,192,162892,128,0,162976:0:0:0:0:
192,192,162976,128,0,163061:0:0:0:0:
64,192,162976,128,0,163061:0:0:0:0:
320,192,163061,128,0,163145:0:0:0:0:
448,192,163145,128,0,163229:0:0:0:0:
64,192,163145,128,0,163229:0:0:0:0:
320,192,163229,128,0,163313:0:0:0:0:
192,192,163229,128,0,163313:0:0:0:0:
64,192,163313,128,0,163398:0:0:0:0:
448,192,163313,128,0,163398:0:0:0:0:
192,192,163398,128,0,163482:0:0:0:0:
320,192,163482,128,0,163566:0:0:0:0:
448,192,163482,128,0,163566:0:0:0:0:
192,192,163566,128,0,163650:0:0:0:0:
320,192,163650,128,0,163735:0:0:0:0:
448,192,163650,128,0,163735:0:0:0:0:
64,192,163735,128,0,163819:0:0:0:0:
192,192,163819,128,0,163903:0:0:0:0:
448,192,163819,128,0,163903:0:0:0:0:
320,192,163903,128,0,163988:0:0:0:0:
64,192,163988,128,0,164072:0:0:0:0:
192,192,163988,128,0,164072:0:0:0:0:
448,192,163988,128,0,164072:0:0:0:0:
320,192,164072,128,0,164156:0:0:0:0:
448,192,164156,128,0,164240:0:0:0:0:
64,192,164156,128,0,164240:0:0:0:0:
192,192,164240,128,0,164325:0:0:0:0:
320,192,164325,128,0,164409:0:0:0:0:
448,192,164325,128,0,164409:0:0:0:0:
192,192,164409,128,0,164493:0:0:0:0:
64,192,164409,128,0,164493:0:0:0:0:
320,192,164493,128,0,164577:0:0:0:0:
448,192,164493,128,0,164577:0:0:0:0:
192,192,164577,128,0,164662:0:0:0:0:
320,192,164662,128,0,164746:0:0:0:0:
448,192,164662,128,0,164746:0:0:0:0:
64,192,164746,128,0,164830:0:0:0:0:
192,192,164830,128,0,164915:0:0:0:0:
448,192,164830,128,0,164915:0:0:0:0:
320,192,164915,128,0,164999:0:0:0:0:
192,192,164999,128,0,165083:0:0:0:0:
64,192,164999,128,0,165083:0:0:0:0:
320,192,165083,128,0,165167:0:0:0:0:
448,192,165167,128,0,165252:0:0:0:0:
64,192,165167,128,0,165252:0:0:0:0:
192,192,165252,128,0,165336:0:0:0:0:
320,192,165336,128,0,165420:0:0:0:0:
448,192,165336,128,0,165420:0:0:0:0:
192,192,165420,128,0,165504:0:0:0:0:
64,192,165504,128,0,165589:0:0:0:0:
448,192,165504,128,0,165589:0:0:0:0:
320,192,165589,128,0,165673:0:0:0:0:
192,192,165589,128,0,165673:0:0:0:0:
448,192,165673,128,0,165757:0:0:0:0:
64,192,165673,128,0,165757:0:0:0:0:
320,192,165757,128,0,165841:0:0:0:0:
192,192,165841,128,0,165926:0:0:0:0:
448,192,165841,128,0,165926:0:0:0:0:
64,192,165926,128,0,166010:0:0:0:0:
320,192,166010,128,0,166094:0:0:0:0:
448,192,166010,128,0,166094:0:0:0:0:
192,192,166094,128,0,166179:0:0:0:0:
320,192,166179,128,0,166263:0:0:0:0:
64,192,166179,128,0,166263:0:0:0:0:
448,192,166263,128,0,166347:0:0:0:0:
192,192,166347,128,0,166431:0:0:0:0:
64,192,166347,128,0,166431:0:0:0:0:
320,192,166431,128,0,166516:0:0:0:0:
192,192,166516,128,0,166600:0:0:0:0:
448,192,166516,128,0,166600:0:0:0:0:
64,192,166600,128,0,166684:0:0:0:0:
192,192,166684,128,0,166768:0:0:0:0:
320,192,166684,128,0,166768:0:0:0:0:
448,192,166684,128,0,166768:0:0:0:0:
448,192,166853,128,0,166937:0:0:0:0:
192,192,166853,128,0,166937:0:0:0:0:
64,192,167021,128,0,167106:0:0:0:0:
320,192,167021,128,0,167106:0:0:0:0:
192,192,167190,128,0,167274:0:0:0:0:
320,192,167190,128,0,167274:0:0:0:0:
448,192,167190,128,0,167274:0:0:0:0:
64,192,167358,128,0,167443:0:0:0:0:
320,192,167358,128,0,167443:0:0:0:0:
448,192,167358,128,0,167443:0:0:0:0:
448,192,167527,128,0,167611:0:0:0:0:
192,192,167527,128,0,167611:0:0:0:0:
64,192,167527,128,0,167611:0:0:0:0:
64,192,167695,128,0,167780:0:0:0:0:
192,192,167695,128,0,167780:0:0:0:0:
320,192,167695,128,0,167780:0:0:0:0:
64,192,167864,128,0,167948:0:0:0:0:
320,192,167864,128,0,167948:0:0:0:0:
448,192,167864,128,0,167948:0:0:0:0:
448,192,168033,128,0,168117:0:0:0:0:
192,192,168033,128,0,168117:0:0:0:0:
64,192,168033,128,0,168117:0:0:0:0:
192,192,168201,128,0,168285:0:0:0:0:
320,192,168201,128,0,168285:0:0:0:0:
448,192,168201,128,0,168285:0:0:0:0:
64,192,168370,128,0,168454:0:0:0:0:
192,192,168370,128,0,168454:0:0:0:0:
320,192,168370,128,0,168454:0:0:0:0:
448,192,168370,128,0,168454:0:0:0:0:
64,192,168538,128,0,168622:0:0:0:0:
192,192,168538,128,0,168622:0:0:0:0:
320,192,168538,128,0,168622:0:0:0:0:
448,192,168538,128,0,168622:0:0:0:0:
64,192,180167,132,0,180673:0:0:0:0:
320,192,180504,128,0,180673:0:0:0:0:
448,192,180673,128,0,180841:0:0:0:0:
192,192,180673,128,0,180841:0:0:0:0:
320,192,180841,128,0,181179:0:0:0:0:
64,192,180841,1,0,0:0:0:0:
64,192,181010,128,0,181179:0:0:0:0:
192,192,181179,128,0,181347:0:0:0:0:
448,192,181179,1,0,0:0:0:0:
448,192,181347,128,0,181684:0:0:0:0:
192,192,181516,1,0,0:0:0:0:
320,192,181516,128,0,181684:0:0:0:0:
64,192,181684,128,0,181853:0:0:0:0:
320,192,181853,128,0,182021:0:0:0:0:
448,192,181853,1,0,0:0:0:0:
192,192,182021,128,0,182190:0:0:0:0:
448,192,182021,1,0,0:0:0:0:
64,192,182190,128,0,182527:0:0:0:0:
448,192,182190,1,0,0:0:0:0:
448,192,182358,1,0,0:0:0:0:
448,192,182527,1,0,0:0:0:0:
320,192,182527,128,0,182695:0:0:0:0:
448,192,182695,1,0,0:0:0:0:
192,192,182695,128,0,182864:0:0:0:0:
448,192,182864,1,0,0:0:0:0:
64,192,182864,128,0,183201:0:0:0:0:
448,192,183033,1,0,0:0:0:0:
192,192,183033,128,0,183201:0:0:0:0:
448,192,183201,1,0,0:0:0:0:
320,192,183201,128,0,183370:0:0:0:0:
448,192,183370,1,0,0:0:0:0:
64,192,183370,128,0,183707:0:0:0:0:
448,192,183538,1,0,0:0:0:0:
192,192,183538,128,0,183707:0:0:0:0:
448,192,183707,1,0,0:0:0:0:
320,192,183707,128,0,183875:0:0:0:0:
448,192,183875,1,0,0:0:0:0:
192,192,183875,128,0,184044:0:0:0:0:
64,192,183875,1,0,0:0:0:0:
448,192,184044,1,0,0:0:0:0:
64,192,184044,128,0,184381:0:0:0:0:
448,192,184212,1,0,0:0:0:0:
320,192,184212,128,0,184381:0:0:0:0:
448,192,184381,1,0,0:0:0:0:
192,192,184381,128,0,184718:0:0:0:0:
448,192,184549,1,0,0:0:0:0:
64,192,184549,128,0,184718:0:0:0:0:
448,192,184718,1,0,0:0:0:0:
320,192,184718,128,0,184886:0:0:0:0:
448,192,184886,1,0,0:0:0:0:
192,192,184886,128,0,185055:0:0:0:0:
448,192,185055,1,0,0:0:0:0:
320,192,185055,128,0,185224:0:0:0:0:
448,192,185224,1,0,0:0:0:0:
64,192,185224,128,0,185392:0:0:0:0:
448,192,185392,1,0,0:0:0:0:
192,192,185392,128,0,185561:0:0:0:0:
64,192,185561,128,0,185645:0:0:0:0:
320,192,185561,128,0,185645:0:0:0:0:
448,192,185561,128,0,185645:0:0:0:0:
192,192,185729,128,0,185813:0:0:0:0:
448,192,185729,128,0,185813:0:0:0:0:
320,192,185729,128,0,185813:0:0:0:0:
64,192,185898,128,0,185982:0:0:0:0:
192,192,185898,128,0,185982:0:0:0:0:
320,192,185898,128,0,185982:0:0:0:0:
448,192,186066,128,0,186150:0:0:0:0:
64,192,186066,128,0,186150:0:0:0:0:
192,192,186066,128,0,186150:0:0:0:0:
320,192,186235,128,0,186319:0:0:0:0:
192,192,186235,128,0,186319:0:0:0:0:
448,192,186235,128,0,186319:0:0:0:0:
64,192,186403,128,0,186488:0:0:0:0:
320,192,186403,128,0,186488:0:0:0:0:
448,192,186403,128,0,186488:0:0:0:0:
64,192,186572,128,0,186656:0:0:0:0:
192,192,186572,128,0,186656:0:0:0:0:
448,192,186572,128,0,186656:0:0:0:0:
320,192,186740,128,0,186825:0:0:0:0:
448,192,186740,128,0,186825:0:0:0:0:
192,192,186740,128,0,186825:0:0:0:0:
64,192,186909,128,0,186993:0:0:0:0:
192,192,186909,128,0,186993:0:0:0:0:
320,192,186909,128,0,186993:0:0:0:0:
448,192,186909,1,0,0:0:0:0:
448,192,187077,128,0,187162:0:0:0:0:
192,192,187077,128,0,187162:0:0:0:0:
64,192,187077,128,0,187162:0:0:0:0:
320,192,187077,1,0,0:0:0:0:
64,192,187246,128,0,187330:0:0:0:0:
448,192,187246,128,0,187330:0:0:0:0:
320,192,187246,128,0,187330:0:0:0:0:
192,192,187246,1,0,0:0:0:0:
192,192,187415,128,0,187499:0:0:0:0:
320,192,187415,128,0,187499:0:0:0:0:
448,192,187415,128,0,187499:0:0:0:0:
64,192,187415,1,0,0:0:0:0:
64,192,187583,128,0,187667:0:0:0:0:
192,192,187583,128,0,187667:0:0:0:0:
448,192,187583,128,0,187667:0:0:0:0:
320,192,187583,1,0,0:0:0:0:
320,192,187752,128,0,187836:0:0:0:0:
448,192,187752,128,0,187836:0:0:0:0:
192,192,187752,128,0,187836:0:0:0:0:
64,192,187752,128,0,187836:0:0:0:0:
64,192,187920,128,0,188004:0:0:0:0:
192,192,187920,128,0,188004:0:0:0:0:
320,192,187920,128,0,188004:0:0:0:0:
448,192,187920,128,0,188004:0:0:0:0:
64,192,188089,128,0,188173:0:0:0:0:
192,192,188089,128,0,188173:0:0:0:0:
320,192,188089,128,0,188173:0:0:0:0:
448,192,188089,128,0,188173:0:0:0:0:
64,192,188257,128,0,188341:0:0:0:0:
192,192,188299,128,0,188384:0:0:0:0:
448,192,188341,128,0,188426:0:0:0:0:
320,192,188384,128,0,188468:0:0:0:0:
192,192,188426,128,0,188510:0:0:0:0:
64,192,188468,128,0,188552:0:0:0:0:
320,192,188510,128,0,188594:0:0:0:0:
448,192,188552,128,0,188636:0:0:0:0:
64,192,188594,128,0,188679:0:0:0:0:
192,192,188636,128,0,188721:0:0:0:0:
320,192,188679,128,0,188763:0:0:0:0:
448,192,188721,128,0,188805:0:0:0:0:
192,192,188763,128,0,188847:0:0:0:0:
64,192,188805,128,0,188889:0:0:0:0:
320,192,188847,128,0,188931:0:0:0:0:
448,192,188889,128,0,188974:0:0:0:0:
64,192,188931,128,0,189016:0:0:0:0:
192,192,188974,128,0,189058:0:0:0:0:
448,192,189016,128,0,189100:0:0:0:0:
320,192,189058,128,0,189142:0:0:0:0:
64,192,189100,128,0,189184:0:0:0:0:
192,192,189142,128,0,189226:0:0:0:0:
320,192,189184,128,0,189268:0:0:0:0:
448,192,189226,128,0,189311:0:0:0:0:
64,192,189268,128,0,189353:0:0:0:0:
192,192,189311,128,0,189395:0:0:0:0:
448,192,189353,128,0,189437:0:0:0:0:
320,192,189395,128,0,189479:0:0:0:0:
64,192,189437,128,0,189521:0:0:0:0:
192,192,189479,128,0,189563:0:0:0:0:
448,192,189521,128,0,189606:0:0:0:0:
320,192,189563,128,0,189648:0:0:0:0:
64,192,189606,128,0,189732:0:0:0:0:
192,192,189648,128,0,189690:0:0:0:0:
448,192,189690,128,0,189816:0:0:0:0:
320,192,189732,128,0,189774:0:0:0:0:
192,192,189774,128,0,189900:0:0:0:0:
64,192,189816,128,0,189858:0:0:0:0:
320,192,189858,128,0,189943:0:0:0:0:
448,192,189900,128,0,189985:0:0:0:0:
64,192,189943,128,0,190069:0:0:0:0:
192,192,189985,128,0,190027:0:0:0:0:
320,192,190027,128,0,190111:0:0:0:0:
448,192,190069,128,0,190153:0:0:0:0:
192,192,190111,128,0,190238:0:0:0:0:
64,192,190153,128,0,190195:0:0:0:0:
320,192,190195,128,0,190322:0:0:0:0:
448,192,190238,128,0,190280:0:0:0:0:
64,192,190280,128,0,190364:0:0:0:0:
192,192,190322,128,0,190406:0:0:0:0:
448,192,190364,128,0,190490:0:0:0:0:
320,192,190406,128,0,190448:0:0:0:0:
64,192,190448,128,0,190533:0:0:0:0:
192,192,190490,128,0,190575:0:0:0:0:
320,192,190533,128,0,190659:0:0:0:0:
448,192,190575,128,0,190617:0:0:0:0:
64,192,190617,128,0,190701:0:0:0:0:
192,192,190659,128,0,190743:0:0:0:0:
448,192,190701,128,0,190870:0:0:0:0:
320,192,190743,128,0,190870:0:0:0:0:
64,192,190785,128,0,190870:0:0:0:0:
192,192,190827,128,0,190954:0:0:0:0:
320,192,190954,128,0,191122:0:0:0:0:
448,192,190954,128,0,191038:0:0:0:0:
64,192,190954,1,0,0:0:0:0:
64,192,191038,1,0,0:0:0:0:
448,192,191122,1,0,0:0:0:0:
192,192,191122,128,0,191207:0:0:0:0:
64,192,191207,1,0,0:0:0:0:
320,192,191291,128,0,191375:0:0:0:0:
448,192,191291,128,0,191459:0:0:0:0:
192,192,191291,1,0,0:0:0:0:
64,192,191375,1,0,0:0:0:0:
320,192,191459,1,0,0:0:0:0:
192,192,191459,128,0,191544:0:0:0:0:
64,192,191544,1,0,0:0:0:0:
192,192,191628,128,0,191797:0:0:0:0:
320,192,191628,128,0,191712:0:0:0:0:
448,192,191628,1,0,0:0:0:0:
64,192,191712,1,0,0:0:0:0:
448,192,191797,128,0,191881:0:0:0:0:
320,192,191797,1,0,0:0:0:0:
192,192,191881,1,0,0:0:0:0:
448,192,191965,128,0,192134:0:0:0:0:
320,192,191965,128,0,192049:0:0:0:0:
64,192,191965,1,0,0:0:0:0:
192,192,192049,1,0,0:0:0:0:
64,192,192134,128,0,192218:0:0:0:0:
320,192,192134,1,0,0:0:0:0:
192,192,192218,1,0,0:0:0:0:
320,192,192302,128,0,192471:0:0:0:0:
448,192,192302,128,0,192386:0:0:0:0:
64,192,192302,1,0,0:0:0:0:
192,192,192386,1,0,0:0:0:0:
64,192,192471,128,0,192555:0:0:0:0:
448,192,192471,1,0,0:0:0:0:
320,192,192555,1,0,0:0:0:0:
448,192,192639,128,0,192808:0:0:0:0:
192,192,192639,128,0,192724:0:0:0:0:
64,192,192639,1,0,0:0:0:0:
320,192,192724,1,0,0:0:0:0:
64,192,192808,128,0,192892:0:0:0:0:
192,192,192808,1,0,0:0:0:0:
320,192,192892,1,0,0:0:0:0:
64,192,192976,128,0,193145:0:0:0:0:
448,192,192976,128,0,193061:0:0:0:0:
192,192,192976,1,0,0:0:0:0:
320,192,193061,1,0,0:0:0:0:
192,192,193145,128,0,193229:0:0:0:0:
448,192,193145,1,0,0:0:0:0:
320,192,193229,1,0,0:0:0:0:
192,192,193313,128,0,193482:0:0:0:0:
64,192,193313,128,0,193398:0:0:0:0:
448,192,193313,1,0,0:0:0:0:
320,192,193398,1,0,0:0:0:0:
64,192,193482,1,0,0:0:0:0:
448,192,193482,128,0,193566:0:0:0:0:
320,192,193566,1,0,0:0:0:0:
64,192,193650,128,0,193819:0:0:0:0:
192,192,193650,1,0,0:0:0:0:
448,192,193650,128,0,193735:0:0:0:0:
320,192,193735,1,0,0:0:0:0:
192,192,193819,128,0,193903:0:0:0:0:
320,192,193903,1,0,0:0:0:0:
64,192,193988,128,0,194072:0:0:0:0:
192,192,193988,1,0,0:0:0:0:
448,192,193988,128,0,194156:0:0:0:0:
320,192,194072,1,0,0:0:0:0:
64,192,194156,1,0,0:0:0:0:
192,192,194156,128,0,194240:0:0:0:0:
448,192,194240,1,0,0:0:0:0:
64,192,194325,128,0,194493:0:0:0:0:
320,192,194325,128,0,194409:0:0:0:0:
192,192,194325,1,0,0:0:0:0:
448,192,194409,1,0,0:0:0:0:
320,192,194493,1,0,0:0:0:0:
192,192,194493,128,0,194577:0:0:0:0:
448,192,194577,1,0,0:0:0:0:
192,192,194662,128,0,194830:0:0:0:0:
320,192,194662,128,0,194746:0:0:0:0:
64,192,194662,1,0,0:0:0:0:
448,192,194746,1,0,0:0:0:0:
64,192,194830,128,0,194915:0:0:0:0:
320,192,194830,1,0,0:0:0:0:
448,192,194915,1,0,0:0:0:0:
64,192,194999,128,0,195167:0:0:0:0:
192,192,194999,128,0,195083:0:0:0:0:
320,192,194999,1,0,0:0:0:0:
448,192,195083,1,0,0:0:0:0:
320,192,195167,128,0,195252:0:0:0:0:
192,192,195167,1,0,0:0:0:0:
448,192,195252,1,0,0:0:0:0:
64,192,195336,128,0,195420:0:0:0:0:
320,192,195336,128,0,195504:0:0:0:0:
192,192,195336,1,0,0:0:0:0:
448,192,195420,1,0,0:0:0:0:
64,192,195504,1,0,0:0:0:0:
192,192,195504,128,0,195589:0:0:0:0:
320,192,195589,1,0,0:0:0:0:
448,192,195673,128,0,195757:0:0:0:0:
64,192,195673,128,0,195757:0:0:0:0:
320,192,195757,128,0,195841:0:0:0:0:
448,192,195841,1,0,0:0:0:0:
192,192,195841,128,0,195926:0:0:0:0:
64,192,195926,128,0,196010:0:0:0:0:
320,192,195926,1,0,0:0:0:0:
448,192,196010,128,0,196094:0:0:0:0:
192,192,196010,1,0,0:0:0:0:
320,192,196094,128,0,196179:0:0:0:0:
448,192,196179,1,0,0:0:0:0:
64,192,196179,128,0,196263:0:0:0:0:
192,192,196263,128,0,196347:0:0:0:0:
64,192,196347,1,0,0:0:0:0:
448,192,196347,128,0,196431:0:0:0:0:
320,192,196347,128,0,196431:0:0:0:0:
192,192,196431,1,0,0:0:0:0:
64,192,196516,128,0,196600:0:0:0:0:
448,192,196516,128,0,196600:0:0:0:0:
320,192,196600,128,0,196684:0:0:0:0:
448,192,196684,128,0,196937:0:0:0:0:
64,192,196684,1,0,0:0:0:0:
192,192,196768,1,0,0:0:0:0:
320,192,196853,1,0,0:0:0:0:
64,192,196853,128,0,196937:0:0:0:0:
192,192,196937,1,0,0:0:0:0:
448,192,197021,128,0,197106:0:0:0:0:
64,192,197021,128,0,197106:0:0:0:0:
320,192,197106,128,0,197190:0:0:0:0:
448,192,197190,1,0,0:0:0:0:
192,192,197190,128,0,197274:0:0:0:0:
64,192,197274,128,0,197358:0:0:0:0:
320,192,197274,1,0,0:0:0:0:
448,192,197358,128,0,197443:0:0:0:0:
192,192,197358,1,0,0:0:0:0:
320,192,197443,128,0,197527:0:0:0:0:
64,192,197527,128,0,197611:0:0:0:0:
448,192,197527,1,0,0:0:0:0:
192,192,197611,128,0,197695:0:0:0:0:
320,192,197695,128,0,197780:0:0:0:0:
64,192,197695,1,0,0:0:0:0:
448,192,197695,128,0,197780:0:0:0:0:
192,192,197780,1,0,0:0:0:0:
64,192,197864,128,0,197948:0:0:0:0:
448,192,197864,128,0,197948:0:0:0:0:
320,192,197948,128,0,198033:0:0:0:0:
192,192,198033,128,0,198201:0:0:0:0:
64,192,198033,1,0,0:0:0:0:
320,192,198117,1,0,0:0:0:0:
448,192,198201,128,0,198285:0:0:0:0:
64,192,198201,1,0,0:0:0:0:
320,192,198285,1,0,0:0:0:0:
64,192,198370,128,0,198454:0:0:0:0:
448,192,198370,128,0,198454:0:0:0:0:
192,192,198454,128,0,198538:0:0:0:0:
64,192,198538,1,0,0:0:0:0:
320,192,198538,128,0,198622:0:0:0:0:
448,192,198622,128,0,198707:0:0:0:0:
192,192,198622,1,0,0:0:0:0:
64,192,198707,128,0,198791:0:0:0:0:
320,192,198707,1,0,0:0:0:0:
192,192,198791,128,0,198875:0:0:0:0:
448,192,198875,128,0,198959:0:0:0:0:
64,192,198875,1,0,0:0:0:0:
320,192,198959,128,0,199044:0:0:0:0:
448,192,199044,1,0,0:0:0:0:
64,192,199044,128,0,199128:0:0:0:0:
192,192,199044,128,0,199128:0:0:0:0:
320,192,199128,1,0,0:0:0:0:
448,192,199212,128,0,199297:0:0:0:0:
192,192,199212,1,0,0:0:0:0:
320,192,199297,1,0,0:0:0:0:
64,192,199381,1,0,0:0:0:0:
192,192,199381,128,0,199549:0:0:0:0:
448,192,199381,1,0,0:0:0:0:
320,192,199465,1,0,0:0:0:0:
64,192,199549,1,0,0:0:0:0:
448,192,199549,128,0,199634:0:0:0:0:
192,192,199634,1,0,0:0:0:0:
320,192,199718,1,0,0:0:0:0:
64,192,199718,128,0,199886:0:0:0:0:
192,192,199802,1,0,0:0:0:0:
320,192,199886,128,0,199971:0:0:0:0:
448,192,199886,1,0,0:0:0:0:
64,192,199971,1,0,0:0:0:0:
448,192,200055,128,0,200308:0:0:0:0:
320,192,200055,1,0,0:0:0:0:
192,192,200139,1,0,0:0:0:0:
320,192,200224,128,0,200308:0:0:0:0:
64,192,200224,1,0,0:0:0:0:
192,192,200308,1,0,0:0:0:0:
448,192,200392,128,0,200476:0:0:0:0:
320,192,200392,1,0,0:0:0:0:
64,192,200476,1,0,0:0:0:0:
192,192,200476,128,0,200561:0:0:0:0:
448,192,200561,1,0,0:0:0:0:
320,192,200561,128,0,200645:0:0:0:0:
64,192,200645,1,0,0:0:0:0:
192,192,200645,128,0,200729:0:0:0:0:
448,192,200729,1,0,0:0:0:0:
320,192,200729,128,0,200813:0:0:0:0:
64,192,200813,1,0,0:0:0:0:
192,192,200813,128,0,200898:0:0:0:0:
448,192,200898,1,0,0:0:0:0:
320,192,200898,128,0,200982:0:0:0:0:
64,192,200982,1,0,0:0:0:0:
192,192,200982,128,0,201066:0:0:0:0:
448,192,201066,1,0,0:0:0:0:
320,192,201066,128,0,201150:0:0:0:0:
192,192,201150,1,0,0:0:0:0:
448,192,201235,1,0,0:0:0:0:
64,192,201235,128,0,201319:0:0:0:0:
320,192,201319,1,0,0:0:0:0:
64,192,201403,1,0,0:0:0:0:
192,192,201403,128,0,201488:0:0:0:0:
320,192,201488,1,0,0:0:0:0:
64,192,201572,1,0,0:0:0:0:
448,192,201572,128,0,201656:0:0:0:0:
192,192,201656,1,0,0:0:0:0:
320,192,201740,128,0,201993:0:0:0:0:
448,192,201740,128,0,201825:0:0:0:0:
64,192,201740,1,0,0:0:0:0:
192,192,201825,1,0,0:0:0:0:
64,192,201909,128,0,201993:0:0:0:0:
448,192,201909,1,0,0:0:0:0:
192,192,201993,128,0,202077:0:0:0:0:
448,192,202077,128,0,202330:0:0:0:0:
320,192,202077,128,0,202162:0:0:0:0:
64,192,202077,1,0,0:0:0:0:
192,192,202162,1,0,0:0:0:0:
320,192,202246,128,0,202330:0:0:0:0:
64,192,202246,1,0,0:0:0:0:
192,192,202330,1,0,0:0:0:0:
64,192,202415,128,0,202667:0:0:0:0:
448,192,202415,128,0,202499:0:0:0:0:
320,192,202415,1,0,0:0:0:0:
192,192,202499,1,0,0:0:0:0:
448,192,202583,1,0,0:0:0:0:
320,192,202583,128,0,202667:0:0:0:0:
192,192,202667,128,0,202752:0:0:0:0:
448,192,202752,128,0,203004:0:0:0:0:
320,192,202752,1,0,0:0:0:0:
64,192,202752,128,0,202836:0:0:0:0:
192,192,202836,1,0,0:0:0:0:
64,192,202920,1,0,0:0:0:0:
320,192,202920,128,0,203004:0:0:0:0:
192,192,203004,128,0,203089:0:0:0:0:
320,192,203089,128,0,203341:0:0:0:0:
64,192,203089,1,0,0:0:0:0:
448,192,203089,128,0,203173:0:0:0:0:
192,192,203173,1,0,0:0:0:0:
448,192,203257,1,0,0:0:0:0:
64,192,203257,128,0,203341:0:0:0:0:
192,192,203341,128,0,203426:0:0:0:0:
448,192,203426,128,0,203679:0:0:0:0:
320,192,203426,128,0,203510:0:0:0:0:
64,192,203426,1,0,0:0:0:0:
192,192,203510,1,0,0:0:0:0:
64,192,203594,128,0,203679:0:0:0:0:
320,192,203594,1,0,0:0:0:0:
192,192,203679,128,0,203763:0:0:0:0:
64,192,203763,128,0,204016:0:0:0:0:
320,192,203763,128,0,203847:0:0:0:0:
448,192,203763,1,0,0:0:0:0:
192,192,203847,1,0,0:0:0:0:
320,192,203931,1,0,0:0:0:0:
448,192,203931,128,0,204016:0:0:0:0:
192,192,204016,1,0,0:0:0:0:
64,192,204100,128,0,204184:0:0:0:0:
320,192,204100,128,0,204353:0:0:0:0:
448,192,204100,1,0,0:0:0:0:
192,192,204184,1,0,0:0:0:0:
448,192,204268,128,0,204353:0:0:0:0:
64,192,204268,1,0,0:0:0:0:
192,192,204353,128,0,204437:0:0:0:0:
64,192,204437,128,0,204690:0:0:0:0:
448,192,204437,128,0,204521:0:0:0:0:
192,192,204521,1,0,0:0:0:0:
320,192,204606,128,0,204690:0:0:0:0:
448,192,204606,1,0,0:0:0:0:
192,192,204690,1,0,0:0:0:0:
320,192,204774,128,0,205027:0:0:0:0:
64,192,204774,128,0,204858:0:0:0:0:
448,192,204774,1,0,0:0:0:0:
192,192,204858,1,0,0:0:0:0:
448,192,204943,128,0,205027:0:0:0:0:
64,192,204943,1,0,0:0:0:0:
192,192,205027,128,0,205111:0:0:0:0:
64,192,205111,128,0,205364:0:0:0:0:
448,192,205111,128,0,205195:0:0:0:0:
320,192,205111,1,0,0:0:0:0:
192,192,205195,1,0,0:0:0:0:
320,192,205280,128,0,205364:0:0:0:0:
448,192,205280,1,0,0:0:0:0:
192,192,205364,1,0,0:0:0:0:
320,192,205448,128,0,205533:0:0:0:0:
448,192,205448,128,0,205701:0:0:0:0:
64,192,205448,1,0,0:0:0:0:
192,192,205533,1,0,0:0:0:0:
64,192,205617,128,0,205701:0:0:0:0:
320,192,205617,1,0,0:0:0:0:
192,192,205701,128,0,205785:0:0:0:0:
64,192,205785,128,0,206038:0:0:0:0:
320,192,205785,128,0,205870:0:0:0:0:
448,192,205785,1,0,0:0:0:0:
192,192,205870,1,0,0:0:0:0:
448,192,205954,128,0,206038:0:0:0:0:
320,192,205954,1,0,0:0:0:0:
192,192,206038,128,0,206122:0:0:0:0:
448,192,206122,128,0,206375:0:0:0:0:
64,192,206122,128,0,206207:0:0:0:0:
320,192,206122,1,0,0:0:0:0:
192,192,206207,1,0,0:0:0:0:
320,192,206291,128,0,206375:0:0:0:0:
64,192,206291,1,0,0:0:0:0:
192,192,206375,128,0,206459:0:0:0:0:
448,192,206459,128,0,206544:0:0:0:0:
64,192,206459,128,0,206544:0:0:0:0:
320,192,206459,1,0,0:0:0:0:
320,192,206544,128,0,206628:0:0:0:0:
448,192,206628,1,0,0:0:0:0:
192,192,206628,128,0,206712:0:0:0:0:
64,192,206712,128,0,206797:0:0:0:0:
320,192,206712,1,0,0:0:0:0:
448,192,206797,128,0,206881:0:0:0:0:
192,192,206797,1,0,0:0:0:0:
320,192,206881,128,0,206965:0:0:0:0:
448,192,206965,1,0,0:0:0:0:
64,192,206965,128,0,207049:0:0:0:0:
192,192,207049,128,0,207134:0:0:0:0:
64,192,207134,1,0,0:0:0:0:
448,192,207134,128,0,207218:0:0:0:0:
320,192,207134,128,0,207218:0:0:0:0:
192,192,207218,1,0,0:0:0:0:
64,192,207302,128,0,207386:0:0:0:0:
448,192,207302,128,0,207386:0:0:0:0:
320,192,207386,128,0,207471:0:0:0:0:
448,192,207471,128,0,207724:0:0:0:0:
64,192,207471,1,0,0:0:0:0:
192,192,207555,1,0,0:0:0:0:
320,192,207639,1,0,0:0:0:0:
64,192,207639,128,0,207724:0:0:0:0:
192,192,207724,1,0,0:0:0:0:
448,192,207808,128,0,207892:0:0:0:0:
64,192,207808,128,0,207892:0:0:0:0:
320,192,207808,1,0,0:0:0:0:
320,192,207892,128,0,207976:0:0:0:0:
448,192,207976,1,0,0:0:0:0:
192,192,207976,128,0,208061:0:0:0:0:
64,192,208061,128,0,208145:0:0:0:0:
320,192,208061,1,0,0:0:0:0:
448,192,208145,128,0,208229:0:0:0:0:
192,192,208145,1,0,0:0:0:0:
320,192,208229,128,0,208313:0:0:0:0:
64,192,208313,128,0,208398:0:0:0:0:
448,192,208313,1,0,0:0:0:0:
192,192,208398,128,0,208482:0:0:0:0:
320,192,208482,128,0,208566:0:0:0:0:
64,192,208482,1,0,0:0:0:0:
448,192,208482,128,0,208566:0:0:0:0:
192,192,208566,1,0,0:0:0:0:
64,192,208650,128,0,208735:0:0:0:0:
448,192,208650,128,0,208735:0:0:0:0:
320,192,208735,128,0,208819:0:0:0:0:
192,192,208819,128,0,209072:0:0:0:0:
64,192,208819,1,0,0:0:0:0:
320,192,208903,1,0,0:0:0:0:
448,192,208988,128,0,209072:0:0:0:0:
64,192,208988,1,0,0:0:0:0:
320,192,209072,1,0,0:0:0:0:
64,192,209156,128,0,209240:0:0:0:0:
448,192,209156,128,0,209240:0:0:0:0:
192,192,209156,1,0,0:0:0:0:
192,192,209240,128,0,209325:0:0:0:0:
64,192,209325,1,0,0:0:0:0:
320,192,209325,128,0,209409:0:0:0:0:
448,192,209409,128,0,209493:0:0:0:0:
192,192,209409,1,0,0:0:0:0:
64,192,209493,128,0,209577:0:0:0:0:
320,192,209493,1,0,0:0:0:0:
192,192,209577,128,0,209662:0:0:0:0:
448,192,209662,128,0,209746:0:0:0:0:
64,192,209662,1,0,0:0:0:0:
320,192,209746,128,0,209830:0:0:0:0:
448,192,209830,1,0,0:0:0:0:
64,192,209830,128,0,209915:0:0:0:0:
192,192,209830,128,0,209915:0:0:0:0:
320,192,209915,1,0,0:0:0:0:
448,192,209999,128,0,210083:0:0:0:0:
192,192,209999,1,0,0:0:0:0:
320,192,210083,1,0,0:0:0:0:
64,192,210167,1,0,0:0:0:0:
192,192,210167,128,0,210336:0:0:0:0:
448,192,210167,1,0,0:0:0:0:
320,192,210252,1,0,0:0:0:0:
64,192,210336,1,0,0:0:0:0:
448,192,210336,128,0,210673:0:0:0:0:
192,192,210420,1,0,0:0:0:0:
320,192,210504,1,0,0:0:0:0:
64,192,210504,128,0,210589:0:0:0:0:
192,192,210589,1,0,0:0:0:0:
320,192,210673,128,0,210757:0:0:0:0:
64,192,210673,1,0,0:0:0:0:
192,192,210757,1,0,0:0:0:0:
448,192,210841,128,0,211094:0:0:0:0:
320,192,210841,128,0,210926:0:0:0:0:
64,192,210841,1,0,0:0:0:0:
192,192,210926,1,0,0:0:0:0:
320,192,211010,128,0,211094:0:0:0:0:
64,192,211010,1,0,0:0:0:0:
192,192,211094,128,0,211179:0:0:0:0:
448,192,211179,128,0,211263:0:0:0:0:
320,192,211179,1,0,0:0:0:0:
64,192,211263,1,0,0:0:0:0:
192,192,211263,128,0,211347:0:0:0:0:
448,192,211347,1,0,0:0:0:0:
320,192,211347,128,0,211431:0:0:0:0:
64,192,211431,1,0,0:0:0:0:
192,192,211431,128,0,211516:0:0:0:0:
448,192,211516,1,0,0:0:0:0:
320,192,211516,128,0,211600:0:0:0:0:
64,192,211600,1,0,0:0:0:0:
192,192,211600,128,0,211684:0:0:0:0:
448,192,211684,1,0,0:0:0:0:
320,192,211684,128,0,211768:0:0:0:0:
64,192,211768,1,0,0:0:0:0:
192,192,211768,128,0,211853:0:0:0:0:
448,192,211853,1,0,0:0:0:0:
320,192,211853,128,0,211937:0:0:0:0:
192,192,211937,1,0,0:0:0:0:
64,192,211937,128,0,212021:0:0:0:0:
448,192,212021,1,0,0:0:0:0:
320,192,212021,128,0,212106:0:0:0:0:
192,192,212106,128,0,212190:0:0:0:0:
448,192,212190,1,0,0:0:0:0:
64,192,212190,128,0,212274:0:0:0:0:
320,192,212274,128,0,212358:0:0:0:0:
64,192,212358,1,0,0:0:0:0:
192,192,212358,128,0,212443:0:0:0:0:
320,192,212443,128,0,212527:0:0:0:0:
64,192,212527,128,0,212611:0:0:0:0:
192,192,212527,128,0,212611:0:0:0:0:
448,192,212527,128,0,212611:0:0:0:0:
