osu file format v14

[General]
AudioFilename: audio.mp3
AudioLeadIn: 0
PreviewTime: 82009
Countdown: 1
SampleSet: Soft
StackLeniency: 0.2
Mode: 0
LetterboxInBreaks: 0
WidescreenStoryboard: 0

[Editor]
Bookmarks: 41616,45259,48688,52116,58973,62402,65830,69259,75366,79545,82973,87366,88223,137830,140616,140938,145330,192688,206402,220116,247545,288688,302402
DistanceSpacing: 0.7
BeatDivisor: 8
GridSize: 16
TimelineZoom: 2.999999

[Metadata]
Title:Day after
TitleUnicode:Day after
Artist:FELT
ArtistUnicode:FELT
Creator:samosita
Version:Fleeting
Source:東方花映塚 ~ Phantasmagoria of Flower View.
Tags:Kazami Yuuka maika 舞花 Grow Color NAGI☆ c85 Touhou Kaeidzuka 東方Project ZUN 風見 幽香 今昔幻想郷 Land Gensokyo Past and Present Deneb
BeatmapID:1620058
BeatmapSetID:770568

[Difficulty]
HPDrainRate:6
CircleSize:4.5
OverallDifficulty:7
ApproachRate:9
SliderMultiplier:1.6
SliderTickRate:1

[Events]
//Background and Video events
0,0,"37591920_p0.jpg",0,0
//Break Periods
//Storyboard Layer 0 (Background)
//Storyboard Layer 1 (Fail)
//Storyboard Layer 2 (Pass)
//Storyboard Layer 3 (Foreground)
//Storyboard Sound Samples

[TimingPoints]
688,428.571428571429,4,2,1,50,1,0
688,-133.333333333333,4,2,3,50,0,0
1330,-133.333333333333,4,2,0,50,0,0
4116,-133.333333333333,4,2,3,50,0,0
4759,-133.333333333333,4,2,0,50,0,0
6366,-133.333333333333,4,2,1,5,0,0
6473,-133.333333333333,4,2,0,65,0,0
6795,-133.333333333333,4,2,1,5,0,0
6902,-133.333333333333,4,2,0,65,0,0
7545,-133.333333333333,4,2,3,65,0,0
8188,-133.333333333333,4,2,0,65,0,0
10973,-133.333333333333,4,2,3,65,0,0
11616,-133.333333333333,4,2,0,65,0,0
13223,-133.333333333333,4,2,1,5,0,0
13330,-133.333333333333,4,2,0,65,0,0
13652,-133.333333333333,4,2,1,5,0,0
13759,-133.333333333333,4,2,3,65,0,0
13973,-133.333333333333,4,2,0,65,0,0
14402,-100,4,2,1,65,0,1
14616,-100,4,2,1,65,0,0
14830,-100,4,2,0,65,0,0
17188,-100,4,2,3,65,0,0
17616,-100,4,2,1,65,0,0
17830,-100,4,2,1,65,0,0
18259,-100,4,2,0,65,0,0
19759,-100,4,2,0,65,0,0
21045,-100,4,2,1,85,0,0
21259,-100,4,2,1,65,0,0
21688,-100,4,2,0,65,0,0
24045,-100,4,2,3,65,0,0
24473,-100,4,2,1,65,0,0
24688,-100,4,2,1,65,0,0
25116,-100,4,2,0,65,0,0
27259,-100,4,2,4,65,0,0
28116,-100,4,2,1,65,0,0
28545,-100,4,2,0,65,0,0
30902,-100,4,2,3,65,0,0
31330,-100,4,2,1,65,0,0
31973,-100,4,2,0,65,0,0
34330,-100,4,2,1,85,0,0
34973,-100,4,2,1,65,0,0
35402,-100,4,2,0,65,0,0
37759,-100,4,2,3,65,0,0
38188,-100,4,2,1,65,0,0
38830,-100,4,2,0,65,0,0
40330,-100,4,2,1,65,0,0
40759,-100,4,2,1,85,0,0
40973,-100,4,2,0,65,0,0
41188,-100,4,2,3,85,0,0
41616,-100,4,2,1,85,0,0
41830,-100,4,2,1,65,0,1
42045,-100,4,2,0,65,0,0
45045,-100,4,2,1,65,0,0
45473,-100,4,2,0,65,0,0
48259,-100,4,2,1,85,0,0
48688,-100,4,2,1,65,0,0
49116,-100,4,2,0,65,0,0
51902,-100,4,2,1,65,0,0
52330,-100,4,2,0,65,0,0
54045,-100,4,2,3,85,0,0
54366,-100,4,2,1,5,0,0
54473,-100,4,2,3,85,0,0
54795,-100,4,2,1,85,0,0
55545,-100,4,2,1,65,0,0
55759,-100,4,2,0,65,0,0
58759,-100,4,2,1,65,0,0
59188,-100,4,2,0,65,0,0
61973,-100,4,2,1,85,0,0
62402,-100,4,2,1,65,0,0
62830,-100,4,2,0,65,0,0
62884,-100,4,2,0,65,0,0
65295,-100,4,2,1,5,0,0
65402,-100,4,2,1,65,0,0
65723,-100,4,2,1,5,0,0
65830,-100,4,2,1,65,0,0
66045,-100,4,2,0,65,0,0
66366,-100,4,2,0,5,0,0
66473,-100,4,2,0,65,0,0
67759,-100,4,2,1,85,0,0
68188,-100,4,2,3,85,0,0
69259,-100,4,2,1,60,0,1
69688,-100,4,2,1,60,0,0
72473,-100,4,2,3,60,0,0
72688,-100,4,2,1,60,0,0
72902,-100,4,2,1,60,0,0
74188,-100,4,2,5,60,0,0
74402,-100,4,2,1,60,0,0
75473,-100,4,2,3,60,0,0
75688,-100,4,2,1,60,0,0
75795,-100,4,2,3,60,0,0
76116,-100,4,2,1,60,0,0
78045,-100,4,2,5,60,0,0
78473,-100,4,2,1,60,0,0
78902,-100,4,2,3,60,0,0
79545,-100,4,2,0,60,0,0
80188,-100,4,2,1,45,0,0
80402,-100,4,2,1,50,0,0
80616,-100,4,2,1,55,0,0
80830,-100,4,2,1,60,0,0
81045,-100,4,2,1,85,0,0
82116,-200,4,2,1,30,0,0
82330,-133.333333333333,4,2,1,30,0,0
82545,-100,4,2,2,30,0,0
82759,-66.6666666666667,4,2,1,30,0,0
82973,-66.6666666666667,4,2,1,85,0,1
83295,-66.6666666666667,4,2,0,85,0,1
83402,-66.6666666666667,4,2,1,85,0,1
83830,-66.6666666666667,4,2,0,85,0,1
84045,-66.6666666666667,4,2,1,85,0,1
84473,-66.6666666666667,4,2,0,85,0,1
85116,-66.6666666666667,4,2,1,85,0,1
85330,-66.6666666666667,4,2,0,85,0,1
85759,-66.6666666666667,4,2,1,85,0,1
86188,-66.6666666666667,4,2,0,85,0,1
86402,-66.6666666666667,4,2,1,85,0,1
86830,-66.6666666666667,4,2,1,85,0,1
87045,-66.6666666666667,4,2,0,85,0,1
87473,-66.6666666666667,4,2,1,85,0,1
87902,-66.6666666666667,4,2,0,85,0,1
88116,-66.6666666666667,4,2,1,85,0,1
88330,-66.6666666666667,4,2,0,85,0,1
88545,-66.6666666666667,4,2,1,85,0,1
88973,-66.6666666666667,4,2,0,85,0,1
89188,-66.6666666666667,4,2,1,85,0,1
90473,-66.6666666666667,4,2,0,85,0,1
90902,-66.6666666666667,4,2,1,85,0,1
91330,-66.6666666666667,4,2,0,85,0,1
91545,-66.6666666666667,4,2,1,85,0,1
91759,-66.6666666666667,4,2,0,85,0,1
91973,-66.6666666666667,4,2,1,85,0,1
92188,-66.6666666666667,4,2,0,85,0,1
92402,-66.6666666666667,4,2,1,85,0,1
93045,-66.6666666666667,4,2,0,85,0,1
93259,-66.6666666666667,4,2,1,85,0,1
93902,-66.6666666666667,4,2,0,85,0,1
94116,-66.6666666666667,4,2,4,85,0,1
94330,-66.6666666666667,4,2,1,85,0,1
94545,-66.6666666666667,4,2,3,85,0,1
94759,-66.6666666666667,4,2,1,85,0,1
95830,-66.6666666666667,4,2,1,85,0,0
96045,-66.6666666666667,4,2,3,85,0,0
96259,-66.6666666666667,4,2,1,85,0,0
96688,-66.6666666666667,4,2,1,85,0,1
97009,-66.6666666666667,4,2,0,85,0,1
97116,-66.6666666666667,4,2,1,85,0,1
97330,-66.6666666666667,4,2,0,85,0,1
97759,-66.6666666666667,4,2,1,85,0,1
98188,-66.6666666666667,4,2,0,85,0,1
98402,-66.6666666666667,4,2,1,85,0,1
98616,-66.6666666666667,4,2,0,85,0,1
98830,-66.6666666666667,4,2,1,85,0,1
99045,-66.6666666666667,4,2,0,85,0,1
99259,-66.6666666666667,4,2,1,85,0,1
99902,-66.6666666666667,4,2,0,85,0,1
100116,-66.6666666666667,4,2,1,85,0,1
100759,-66.6666666666667,4,2,0,85,0,1
101188,-66.6666666666667,4,2,1,85,0,1
101616,-66.6666666666667,4,2,0,85,0,1
101830,-66.6666666666667,4,2,1,85,0,1
102045,-66.6666666666667,4,2,0,85,0,1
102259,-66.6666666666667,4,2,1,85,0,1
102473,-66.6666666666667,4,2,0,85,0,1
102580,-66.6666666666667,4,2,1,85,0,1
104188,-66.6666666666667,4,2,4,85,0,1
104830,-66.6666666666667,4,2,1,85,0,1
105045,-66.6666666666667,4,2,4,85,0,1
105259,-66.6666666666667,4,2,1,85,0,1
105473,-66.6666666666667,4,2,4,85,0,1
105688,-66.6666666666667,4,2,1,85,0,1
105902,-66.6666666666667,4,2,4,85,0,1
106116,-66.6666666666667,4,2,1,85,0,1
106330,-66.6666666666667,4,2,4,85,0,1
106545,-66.6666666666667,4,2,1,85,0,1
107616,-66.6666666666667,4,2,0,85,0,1
107830,-66.6666666666667,4,2,1,85,0,1
110188,-66.6666666666667,4,2,1,85,0,1
110295,-66.6666666666667,4,2,1,85,0,0
110402,-100,4,2,3,65,0,1
110616,-100,4,2,1,65,0,0
110723,-100,4,2,0,65,0,0
111473,-100,4,2,1,5,0,0
111580,-100,4,2,0,65,0,0
111795,-100,4,2,1,5,0,0
111902,-100,4,2,1,65,0,0
112116,-100,4,2,3,65,0,0
112223,-100,4,2,1,65,0,0
112545,-100,4,2,0,65,0,0
114580,-100,4,2,1,5,0,0
114688,-100,4,2,0,65,0,0
115759,-100,4,2,3,65,0,0
116616,-100,4,2,1,65,0,0
117045,-100,4,2,1,65,0,0
117259,-100,4,2,3,65,0,0
117473,-100,4,2,1,65,0,0
117580,-100,4,2,0,65,0,0
118330,-100,4,2,1,5,0,0
118438,-100,4,2,0,65,0,0
118652,-100,4,2,1,5,0,0
118759,-100,4,2,1,65,0,0
118973,-100,4,2,3,65,0,0
119295,-100,4,2,0,65,0,0
121223,-100,4,2,1,5,0,0
121330,-100,4,2,0,65,0,0
122616,-100,4,2,3,65,0,0
123473,-100,4,2,1,65,0,0
124116,-100,4,2,1,65,0,1
124330,-100,4,2,1,65,0,0
124430,-100,4,2,0,65,0,0
124973,-100,4,2,1,65,0,0
125616,-100,4,2,1,65,0,0
126045,-100,4,2,0,65,0,0
126902,-100,4,2,1,65,0,0
127330,-100,4,2,1,65,0,0
127759,-100,4,2,0,65,0,0
128402,-100,4,2,1,65,0,0
129045,-100,4,2,1,65,0,0
129473,-100,4,2,3,65,0,0
130116,-100,4,2,1,65,0,0
130973,-100,4,2,1,65,0,0
131402,-100,4,2,0,65,0,0
131830,-100,4,2,1,65,0,0
132473,-100,4,2,1,65,0,0
133330,-100,4,2,0,65,0,0
133759,-100,4,2,1,65,0,0
133866,-100,4,2,1,65,0,0
134295,-100,4,2,1,5,0,0
134402,-100,4,2,0,65,0,0
134723,-100,4,2,1,5,0,0
134830,-100,4,2,0,65,0,0
135366,-100,4,2,1,65,0,0
136545,-100,4,2,0,65,0,0
136759,-100,4,2,1,65,0,0
137188,-100,4,2,3,65,0,0
137830,-100,4,2,1,60,0,1
138259,-100,4,2,1,60,0,0
139545,-100,4,2,0,65,0,0
139759,-100,4,2,1,60,0,0
140616,-100,4,2,3,60,0,0
141045,-100,4,2,1,60,0,0
141259,-100,4,2,1,60,0,0
142330,-100,4,2,1,60,0,0
142759,-100,4,2,5,60,0,0
142973,-100,4,2,0,60,0,0
143402,-100,4,2,5,60,0,0
143616,-100,4,2,1,60,0,0
144045,-100,4,2,3,60,0,0
144152,-100,4,2,1,60,0,0
144366,-100,4,2,3,60,0,0
144688,-100,4,2,1,60,0,0
146188,-100,4,2,0,60,0,0
146616,-100,4,2,5,60,0,0
147045,-100,4,2,1,60,0,0
147473,-100,4,2,3,60,0,0
147688,-100,4,2,1,60,0,0
148116,-100,4,2,0,60,0,0
148759,-100,4,2,1,40,0,0
148973,-100,4,2,1,45,0,0
149188,-100,4,2,1,50,0,0
149402,-100,4,2,1,55,0,0
150688,-200,4,2,1,45,0,0
150902,-133.333333333333,4,2,1,45,0,0
151116,-100,4,2,2,45,0,0
151330,-66.6666666666667,4,2,1,45,0,0
151545,-66.6666666666667,4,2,1,85,0,1
151866,-66.6666666666667,4,2,0,85,0,1
151973,-66.6666666666667,4,2,1,85,0,1
152402,-66.6666666666667,4,2,0,85,0,1
152616,-66.6666666666667,4,2,1,85,0,1
153045,-66.6666666666667,4,2,0,85,0,1
153259,-66.6666666666667,4,2,1,85,0,1
153473,-66.6666666666667,4,2,0,85,0,1
153688,-66.6666666666667,4,2,1,85,0,1
153902,-66.6666666666667,4,2,0,85,0,1
154330,-66.6666666666667,4,2,1,85,0,1
155616,-66.6666666666667,4,2,0,85,0,1
156045,-66.6666666666667,4,2,1,85,0,1
156473,-66.6666666666667,4,2,0,85,0,1
157116,-66.6666666666667,4,2,1,85,0,1
157545,-66.6666666666667,4,2,0,85,0,1
157759,-66.6666666666667,4,2,1,85,0,1
159045,-66.6666666666667,4,2,0,85,0,1
159473,-66.6666666666667,4,2,1,85,0,1
159902,-66.6666666666667,4,2,0,85,0,1
160116,-66.6666666666667,4,2,1,85,0,1
160330,-66.6666666666667,4,2,0,85,0,1
160545,-66.6666666666667,4,2,1,85,0,1
160759,-66.6666666666667,4,2,0,85,0,1
161188,-66.6666666666667,4,2,1,85,0,1
162473,-66.6666666666667,4,2,0,85,0,1
162688,-66.6666666666667,4,2,4,85,0,1
162902,-66.6666666666667,4,2,1,85,0,1
163116,-66.6666666666667,4,2,3,85,0,1
163330,-66.6666666666667,4,2,1,85,0,1
164402,-66.6666666666667,4,2,1,85,0,0
164616,-66.6666666666667,4,2,3,85,0,0
164830,-66.6666666666667,4,2,1,85,0,0
165259,-66.6666666666667,4,2,1,85,0,1
165580,-66.6666666666667,4,2,0,85,0,1
165688,-66.6666666666667,4,2,1,85,0,1
166116,-66.6666666666667,4,2,0,85,0,1
166330,-66.6666666666667,4,2,1,85,0,1
166759,-66.6666666666667,4,2,0,85,0,1
166973,-66.6666666666667,4,2,1,85,0,1
167188,-66.6666666666667,4,2,0,85,0,1
167402,-66.6666666666667,4,2,1,85,0,1
167616,-66.6666666666667,4,2,0,85,0,1
167830,-66.6666666666667,4,2,1,85,0,1
169330,-66.6666666666667,4,2,0,85,0,1
169759,-66.6666666666667,4,2,1,85,0,1
170188,-66.6666666666667,4,2,0,85,0,1
170402,-66.6666666666667,4,2,1,85,0,1
170616,-66.6666666666667,4,2,0,85,0,1
170830,-66.6666666666667,4,2,1,85,0,1
171045,-66.6666666666667,4,2,0,85,0,1
171152,-66.6666666666667,4,2,1,85,0,1
172759,-66.6666666666667,4,2,4,85,0,1
173402,-66.6666666666667,4,2,1,85,0,1
173616,-66.6666666666667,4,2,4,85,0,1
173830,-66.6666666666667,4,2,1,85,0,1
174045,-66.6666666666667,4,2,4,85,0,1
174259,-66.6666666666667,4,2,1,85,0,1
174473,-66.6666666666667,4,2,4,85,0,1
174580,-66.6666666666667,4,2,1,85,0,1
174902,-66.6666666666667,4,2,4,85,0,1
175116,-66.6666666666667,4,2,1,85,0,1
175330,-66.6666666666667,4,2,1,85,0,1
175545,-66.6666666666667,4,2,1,85,0,1
176188,-66.6666666666667,4,2,0,85,0,1
176402,-66.6666666666667,4,2,1,85,0,1
178866,-66.6666666666667,4,2,1,85,0,0
178973,-133.333333333333,4,2,3,65,0,1
179188,-133.333333333333,4,2,1,65,0,0
179509,-133.333333333333,4,2,1,5,0,0
179616,-133.333333333333,4,2,3,65,0,0
180045,-133.333333333333,4,2,0,65,0,0
181330,-133.333333333333,4,2,3,65,0,0
181652,-133.333333333333,4,2,0,5,0,0
181759,-133.333333333333,4,2,0,65,0,0
182938,-133.333333333333,4,2,1,5,0,0
183045,-133.333333333333,4,2,3,50,0,0
183473,-133.333333333333,4,2,0,65,0,0
185402,-133.333333333333,4,2,0,5,0,0
185509,-133.333333333333,4,2,0,65,0,0
185723,-133.333333333333,4,2,0,5,0,0
185830,-133.333333333333,4,2,0,65,0,0
186045,-133.333333333333,4,2,0,5,0,0
186152,-133.333333333333,4,2,0,65,0,0
186366,-133.333333333333,4,2,0,5,0,0
186473,-133.333333333333,4,2,3,65,0,0
186902,-133.333333333333,4,2,0,65,0,0
188188,-133.333333333333,4,2,3,65,0,0
188509,-133.333333333333,4,2,1,5,0,0
188616,-133.333333333333,4,2,0,65,0,0
189795,-133.333333333333,4,2,1,5,0,0
189902,-133.333333333333,4,2,3,65,0,0
190331,-133.333333333333,4,2,0,65,0,0
192045,-133.333333333333,4,2,3,65,0,0
192259,-133.333333333333,4,2,1,5,0,0
192366,-133.333333333333,4,2,3,65,0,0
192580,-133.333333333333,4,2,1,5,0,0
192688,-133.333333333333,4,2,1,65,0,0
194402,-133.333333333333,4,2,0,65,0,0
195366,-133.333333333333,4,2,1,65,0,0
196116,-133.333333333333,4,2,0,65,0,0
196759,-133.333333333333,4,2,3,65,0,0
197080,-133.333333333333,4,2,1,65,0,0
197830,-133.333333333333,4,2,0,65,0,0
198795,-133.333333333333,4,2,1,65,0,0
200188,-133.333333333333,4,2,3,65,0,0
200616,-133.333333333333,4,2,1,65,0,0
201259,-133.333333333333,4,2,0,65,0,0
202330,-133.333333333333,4,2,1,65,0,0
202973,-133.333333333333,4,2,0,65,0,0
203616,-133.333333333333,4,2,0,65,0,0
203938,-133.333333333333,4,2,1,65,0,0
204473,-133.333333333333,4,2,0,65,0,0
205330,-133.333333333333,4,2,1,65,0,0
206402,-100,4,2,1,65,0,0
208116,-100,4,2,3,65,0,0
208759,-100,4,2,1,65,0,0
208973,-133.333333333333,4,2,0,65,0,0
209188,-100,4,2,4,65,0,0
209830,-100,4,2,1,65,0,0
210688,-133.333333333333,4,2,0,65,0,0
211330,-100,4,2,1,65,0,0
211545,-100,4,2,3,65,0,0
211759,-100,4,2,1,65,0,0
211973,-133.333333333333,4,2,0,65,0,0
212188,-100,4,2,1,65,0,0
212402,-133.333333333333,4,2,0,65,0,0
212616,-100,4,2,1,65,0,0
214116,-133.333333333333,4,2,0,65,0,0
214330,-100,4,2,1,65,0,0
217759,-133.333333333333,4,2,3,65,0,0
218188,-100,4,2,1,65,0,0
219259,-100,4,2,3,65,0,0
220116,-200,4,2,0,30,0,1
220330,-200,4,2,0,30,0,0
232973,-200,4,2,1,50,0,0
233295,-200,4,2,1,5,0,0
233402,-200,4,2,1,65,0,0
233723,-200,4,2,1,5,0,0
233830,-100,4,2,1,85,0,1
234045,-100,4,2,1,85,0,0
234473,-100,4,2,0,85,0,0
234688,-100,4,2,1,85,0,0
234902,-100,4,2,0,85,0,0
235330,-100,4,2,1,85,0,0
237902,-100,4,2,0,85,0,0
238116,-100,4,2,1,85,0,0
238330,-100,4,2,0,85,0,0
238759,-100,4,2,1,85,0,0
239188,-100,4,2,0,85,0,0
239830,-100,4,2,1,85,0,0
240259,-100,4,2,3,85,0,0
240473,-100,4,2,1,85,0,0
241330,-100,4,2,0,85,0,0
241545,-100,4,2,1,30,0,0
241759,-100,4,2,0,30,0,0
241973,-100,4,2,1,30,0,0
242188,-100,4,2,1,30,0,0
242402,-100,4,2,1,35,0,0
242616,-100,4,2,1,40,0,0
242830,-100,4,2,1,45,0,0
243045,-100,4,2,1,65,0,0
243259,-100,4,2,1,55,0,0
243473,-100,4,2,1,60,0,0
243688,-100,4,2,1,65,0,0
243902,-100,4,2,1,85,0,0
245188,-100,4,2,3,85,0,0
245616,-100,4,2,1,85,0,0
246473,-100,4,2,3,85,0,0
246902,-66.6666666666667,4,2,1,85,0,0
247116,-66.6666666666667,4,2,2,85,0,0
247545,-66.6666666666667,4,2,1,85,0,1
247866,-66.6666666666667,4,2,0,85,0,1
247973,-66.6666666666667,4,2,1,85,0,1
248402,-66.6666666666667,4,2,0,85,0,1
248616,-66.6666666666667,4,2,1,85,0,1
249045,-66.6666666666667,4,2,0,85,0,1
249259,-66.6666666666667,4,2,1,85,0,1
249473,-66.6666666666667,4,2,0,85,0,1
249688,-66.6666666666667,4,2,1,85,0,1
249902,-66.6666666666667,4,2,0,85,0,1
250330,-66.6666666666667,4,2,1,85,0,1
251616,-66.6666666666667,4,2,0,85,0,1
252045,-66.6666666666667,4,2,1,85,0,1
252473,-66.6666666666667,4,2,0,85,0,1
253009,-66.6666666666667,4,2,1,85,0,1
253545,-66.6666666666667,4,2,0,85,0,1
253759,-66.6666666666667,4,2,1,85,0,1
255045,-66.6666666666667,4,2,0,85,0,1
255473,-66.6666666666667,4,2,1,85,0,1
255902,-66.6666666666667,4,2,0,85,0,1
256116,-66.6666666666667,4,2,1,85,0,1
256330,-66.6666666666667,4,2,0,85,0,1
256545,-66.6666666666667,4,2,1,85,0,1
256759,-66.6666666666667,4,2,0,85,0,1
257188,-66.6666666666667,4,2,1,85,0,1
258473,-66.6666666666667,4,2,0,85,0,1
258688,-66.6666666666667,4,2,4,85,0,1
258902,-66.6666666666667,4,2,1,85,0,1
259116,-66.6666666666667,4,2,3,85,0,1
259330,-66.6666666666667,4,2,1,85,0,1
260402,-66.6666666666667,4,2,1,85,0,0
260616,-66.6666666666667,4,2,3,85,0,0
260830,-66.6666666666667,4,2,1,85,0,0
261259,-66.6666666666667,4,2,1,85,0,1
261580,-66.6666666666667,4,2,0,85,0,1
261688,-66.6666666666667,4,2,1,85,0,1
262116,-66.6666666666667,4,2,0,85,0,1
262330,-66.6666666666667,4,2,1,85,0,1
262759,-66.6666666666667,4,2,0,85,0,1
262973,-66.6666666666667,4,2,1,85,0,1
263188,-66.6666666666667,4,2,0,85,0,1
263402,-66.6666666666667,4,2,1,85,0,1
263616,-66.6666666666667,4,2,0,85,0,1
264045,-66.6666666666667,4,2,1,85,0,1
265330,-66.6666666666667,4,2,0,85,0,1
265759,-66.6666666666667,4,2,1,85,0,1
266188,-66.6666666666667,4,2,0,85,0,1
266402,-66.6666666666667,4,2,1,85,0,1
266616,-66.6666666666667,4,2,0,85,0,1
266830,-66.6666666666667,4,2,1,85,0,1
267045,-66.6666666666667,4,2,0,85,0,1
267152,-66.6666666666667,4,2,1,85,0,1
267259,-66.6666666666667,4,2,0,85,0,1
267473,-66.6666666666667,4,2,1,85,0,1
268759,-66.6666666666667,4,2,4,85,0,1
269402,-66.6666666666667,4,2,1,85,0,1
269616,-66.6666666666667,4,2,4,85,0,1
269723,-66.6666666666667,4,2,1,85,0,1
270045,-66.6666666666667,4,2,4,85,0,1
270152,-66.6666666666667,4,2,1,85,0,1
270473,-66.6666666666667,4,2,4,85,0,1
271116,-66.6666666666667,4,2,1,85,0,1
272188,-66.6666666666667,4,2,0,85,0,1
272402,-66.6666666666667,4,2,1,85,0,1
274866,-66.6666666666667,4,2,1,85,0,0
274973,-66.6666666666667,4,2,1,85,0,1
275188,-66.6666666666667,4,2,1,85,0,0
275616,-66.6666666666667,4,2,0,85,0,0
276045,-66.6666666666667,4,2,1,85,0,0
276473,-66.6666666666667,4,2,0,85,0,0
276688,-66.6666666666667,4,2,1,85,0,0
277330,-66.6666666666667,4,2,0,85,0,0
277759,-66.6666666666667,4,2,1,85,0,0
279045,-66.6666666666667,4,2,0,85,0,0
279473,-66.6666666666667,4,2,1,85,0,0
279902,-66.6666666666667,4,2,0,85,0,0
280116,-66.6666666666667,4,2,1,85,0,0
280759,-66.6666666666667,4,2,0,85,0,0
280866,-66.6666666666667,4,2,1,85,0,0
282473,-66.6666666666667,4,2,0,85,0,0
282902,-66.6666666666667,4,2,1,85,0,0
283330,-66.6666666666667,4,2,0,85,0,0
283545,-66.6666666666667,4,2,1,85,0,0
284188,-66.6666666666667,4,2,0,85,0,0
284616,-66.6666666666667,4,2,1,85,0,0
288045,-66.6666666666667,4,2,3,85,0,0
288473,-66.6666666666667,4,2,1,85,0,0
288688,-66.6666666666667,4,2,1,85,0,1
288902,-66.6666666666667,4,2,1,85,0,0
289330,-66.6666666666667,4,2,5,85,0,0
289866,-66.6666666666667,4,2,1,85,0,0
290188,-66.6666666666667,4,2,0,85,0,0
290402,-66.6666666666667,4,2,1,85,0,0
291045,-66.6666666666667,4,2,0,85,0,0
291259,-66.6666666666667,4,2,1,85,0,0
292759,-66.6666666666667,4,2,0,85,0,0
293188,-66.6666666666667,4,2,1,85,0,0
293616,-66.6666666666667,4,2,0,85,0,0
294045,-66.6666666666667,4,2,1,85,0,0
294473,-66.6666666666667,4,2,0,85,0,0
294580,-66.6666666666667,4,2,1,85,0,0
296188,-66.6666666666667,4,2,0,85,0,0
296616,-66.6666666666667,4,2,1,85,0,0
297045,-66.6666666666667,4,2,0,85,0,0
297152,-66.6666666666667,4,2,1,85,0,0
297902,-66.6666666666667,4,2,0,85,0,0
298116,-66.6666666666667,4,2,1,85,0,0
300688,-66.6666666666667,4,2,0,50,0,0
301116,-66.6666666666667,4,2,1,50,0,0
301330,441.176470588235,4,2,1,50,1,0
301330,-100,4,2,1,60,0,0
301550,-100,4,2,1,70,0,0
301771,-100,4,2,1,80,0,0
301991,468.75,4,2,0,80,1,0
302459,468.75,4,2,1,85,1,0
302459,-133.333333333333,4,2,1,85,0,0
309490,-133.333333333333,4,2,1,5,0,0

[Colours]
Combo1 : 252,107,46
Combo2 : 52,220,128
Combo3 : 249,204,28

[HitObjects]
40,38,688,6,0,L|61:108,1,60.0000022888184,6|0,0:0|0:0,0:0:0:0:
95,94,1009,2,0,L|89:138,1,30.0000011444092,0|0,0:0|0:0,0:0:0:0:
60,214,1330,2,0,P|92:222|123:215,1,60.0000022888184,2|0,2:0|0:0,0:0:0:0:
163,217,1652,2,0,L|146:174,1,30.0000011444092,0|0,0:0|0:0,0:0:0:0:
144,304,1973,2,0,L|200:283,1,60.0000022888184,2|0,0:0|0:0,0:0:0:0:
59,315,2402,2,0,L|17:392,2,60.0000022888184,2|0|2,0:0|0:0|0:0,0:0:0:0:
256,352,3045,2,0,P|273:330|269:234,1,120.000004577637,2|0,0:0|0:0,0:0:0:0:
297,133,3688,2,0,L|248:108,3,30.0000011444092,0|0|0|0,0:0|0:0|0:0|0:0,0:0:0:0:
332,137,4116,6,0,L|369:61,1,60.0000022888184,6|0,0:0|0:0,0:0:0:0:
405,93,4438,2,0,L|394:48,1,30.0000011444092,0|0,0:0|0:0,0:0:0:0:
418,174,4759,2,0,P|373:212|355:213,1,60.0000022888184,2|0,0:0|0:0,0:0:0:0:
341,200,5080,2,0,L|318:179,1,30.0000011444092,0|0,0:0|0:0,0:0:0:0:
307,309,5402,2,0,L|361:375,2,60.0000022888184,2|0|2,0:0|0:0|0:0,0:0:0:0:
286,235,6045,2,0,P|239:262|219:293,1,90.0000034332277,2|0,0:0|0:0,0:0:0:0:
162,258,6473,2,0,B|140:313|184:349,1,90.0000034332277,2|0,0:0|0:0,0:0:0:0:
162,258,6902,2,0,B|231:256|231:256|272:222,1,120.000004577637,2|0,0:0|0:0,0:0:0:0:
496,248,7545,6,0,L|408:240,1,60.0000022888184,6|0,0:0|0:0,0:0:0:0:
432,288,7866,2,0,L|384:264,1,30.0000011444092,0|0,0:0|0:0,0:0:0:0:
254,346,8188,2,0,P|287:323|302:285,1,60.0000022888184,2|0,0:0|0:0,0:0:0:0:
322,318,8509,2,0,L|345:341,1,30.0000011444092,0|0,0:0|0:0,0:0:0:0:
372,261,8830,2,0,P|390:237|399:209,1,60.0000022888184,2|0,0:0|0:0,0:0:0:0:
280,224,9259,2,0,L|232:152,2,60.0000022888184,2|2|2,0:0|0:0|0:0,0:0:0:0:
481,171,9902,2,0,P|439:128|381:117,1,120.000004577637,2|0,0:0|0:0,0:0:0:0:
291,174,10545,2,0,L|275:145,3,30.0000011444092,0|0|0|0,0:0|0:0|0:0|0:0,0:0:0:0:
294,208,10973,6,0,L|206:208,1,60.0000022888184,6|0,0:0|0:0,0:0:0:0:
220,248,11295,2,0,L|168:224,1,30.0000011444092,0|0,0:0|0:0,0:0:0:0:
54,169,11616,2,0,P|83:197|122:210,1,60.0000022888184,2|0,0:0|0:0,0:0:0:0:
155,200,11938,2,0,L|125:242,1,30.0000011444092,0|0,0:0|0:0,0:0:0:0:
168,120,12259,2,0,L|179:40,2,60.0000022888184,2|0|2,0:0|0:0|0:0,0:0:0:0:
285,44,12902,2,0,P|330:76|345:112,1,90.0000034332277,2|0,0:0|0:0,0:0:0:0:
328,141,13330,2,0,P|263:164|260:191,1,90.0000034332277,2|0,0:0|0:0,0:0:0:0:
282,281,13759,1,4,0:0:0:0:
369,252,13973,1,2,0:0:0:0:
352,347,14188,1,2,0:0:0:0:
282,281,14402,6,0,L|162:246,1,120,6|0,0:0|0:0,0:0:0:0:
128,222,14830,1,2,0:0:0:0:
40,176,15045,2,0,L|159:110,1,120,2|0,0:0|0:0,0:0:0:0:
167,80,15473,1,2,0:0:0:0:
256,24,15688,2,0,L|336:136,1,120,2|0,0:0|0:0,0:0:0:0:
358,105,16116,2,0,P|348:145|295:189,2,80,6|0|0,0:0|0:0|0:0,0:0:0:0:
468,11,16759,1,2,0:0:0:0:
468,11,17188,2,0,L|474:50,1,40,4|0,0:0|0:0,0:0:0:0:
399,175,17403,2,0,L|437:163,1,40,4|0,0:0|0:0,0:0:0:0:
374,67,17617,2,0,L|431:101,1,40,2|0,0:0|0:0,0:0:0:0:
486,120,17830,6,0,L|469:251,1,120,6|0,0:0|0:0,0:0:0:0:
437,266,18259,1,2,0:0:0:0:
321,288,18473,2,0,L|253:166,1,120,2|0,0:0|0:0,0:0:0:0:
278,144,18902,1,2,0:0:0:0:
145,93,19116,2,0,L|60:122,2,80,2|2|0,0:0|0:0|0:0,0:0:0:0:
236,47,19759,5,2,0:0:0:0:
229,86,19973,1,2,0:0:0:0:
250,126,20188,1,2,0:0:0:0:
435,151,20402,1,2,0:0:0:0:
404,219,20616,1,2,0:0:0:0:
180,207,20830,1,2,0:0:0:0:
103,219,21045,1,2,0:0:0:0:
64,288,21259,6,0,P|89:340|161:364,1,120,6|0,0:0|0:0,0:0:0:0:
178,354,21688,1,2,0:0:0:0:
138,177,21902,2,0,P|123:242|144:290,1,120,2|0,0:0|0:0,0:0:0:0:
176,294,22331,1,2,0:0:0:0:
259,134,22545,2,0,P|215:176|199:233,1,120,2|0,0:0|0:0,0:0:0:0:
234,254,22973,2,0,L|289:324,2,80,6|0|2,0:0|0:0|0:0,0:0:0:0:
340,202,23616,1,2,0:0:0:0:
340,202,24045,2,4,L|364:253,1,40,4|4,0:0|0:0,0:0:0:0:
440,186,24259,2,4,L|471:250,1,40,4|4,0:0|0:0,0:0:0:0:
389,348,24473,2,4,L|408:308,1,40,2|0,0:0|0:0,0:0:0:0:
464,295,24688,6,0,B|363:293|363:293|375:265,1,120,6|0,0:0|0:0,0:0:0:0:
358,251,25116,1,2,0:0:0:0:
287,300,25330,2,0,B|236:213|236:213|266:208,1,120,2|0,0:0|0:0,0:0:0:0:
270,185,25758,1,2,0:0:0:0:
348,135,25973,2,0,L|450:136,2,80,2|0|2,0:0|0:0|0:0,0:0:0:0:
204,55,26616,5,2,0:0:0:0:
214,86,26830,1,2,0:0:0:0:
197,124,27045,1,2,0:0:0:0:
284,362,27259,1,2,0:0:0:0:
205,273,27473,1,2,0:0:0:0:
76,301,27688,1,2,0:0:0:0:
218,162,27902,1,2,0:0:0:0:
466,66,28116,6,0,L|327:140,1,120,6|0,0:0|0:0,0:0:0:0:
321,114,28545,1,2,0:0:0:0:
216,163,28759,2,0,L|355:237,1,120,2|0,0:0|0:0,0:0:0:0:
361,211,29188,1,2,0:0:0:0:
465,363,29402,2,0,L|465:238,1,120,2|0,0:0|0:0,0:0:0:0:
449,228,29830,2,0,P|418:244|385:295,2,80,6|0|2,0:0|0:0|0:0,0:0:0:0:
320,182,30473,1,2,0:0:0:0:
320,182,30902,2,0,L|372:215,1,40,4|0,0:0|0:0,0:0:0:0:
261,88,31116,2,0,L|313:113,1,40,4|0,0:0|0:0,0:0:0:0:
236,227,31330,2,0,L|188:209,1,40,2|0,0:0|0:0,0:0:0:0:
120,175,31545,6,0,L|82:58,1,120,6|0,0:0|0:0,0:0:0:0:
108,45,31973,1,2,0:0:0:0:
230,136,32188,2,0,L|270:252,1,120,2|0,0:0|0:0,0:0:0:0:
296,256,32616,1,2,0:0:0:0:
99,265,32830,2,0,L|11:265,2,80,2|0|2,0:0|0:0|0:0,0:0:0:0:
221,306,33473,5,2,0:0:0:0:
191,271,33688,1,2,0:0:0:0:
211,230,33902,1,2,0:0:0:0:
368,240,34116,2,0,L|399:216,1,40,0|0,0:0|0:0,0:0:0:0:
400,96,34330,1,8,0:0:0:0:
400,96,34438,1,8,0:0:0:0:
400,96,34545,1,8,0:0:0:0:
189,38,34759,1,2,0:0:0:0:
208,299,34973,6,0,B|177:342|92:341,1,120,6|0,0:0|0:0,0:0:0:0:
77,308,35402,1,2,0:0:0:0:
147,190,35616,2,0,B|149:137|221:91,1,120,2|0,0:0|0:0,0:0:0:0:
251,110,36045,1,2,0:0:0:0:
358,321,36259,2,0,B|328:249|276:238,1,120,2|0,0:0|0:0,0:0:0:0:
304,214,36688,2,0,L|392:214,2,80,6|0|2,0:0|0:0|0:0,0:0:0:0:
270,110,37330,1,2,0:0:0:0:
270,110,37759,2,0,L|320:110,1,40,4|0,0:0|0:0,0:0:0:0:
234,34,37973,2,0,L|273:33,1,40,4|0,0:0|0:0,0:0:0:0:
188,159,38188,2,0,L|147:160,1,40,2|0,0:0|0:0,0:0:0:0:
48,160,38402,6,0,B|138:161|138:161|106:205,1,120,6|0,0:0|0:0,0:0:0:0:
97,231,38830,1,2,0:0:0:0:
275,271,39045,2,0,B|185:270|185:270|217:226,1,120,2|0,0:0|0:0,0:0:0:0:
225,202,39473,1,2,0:0:0:0:
172,113,39688,2,0,L|168:22,2,80,2|0|2,0:0|0:0|0:0,0:0:0:0:
306,166,40330,5,8,0:0:0:0:
323,270,40545,2,0,L|325:312,1,40,8|0,0:0|0:0,0:0:0:0:
225,202,40759,1,8,0:0:0:0:
388,153,40974,1,2,0:0:0:0:
272,71,41188,1,8,0:0:0:0:
323,270,41402,1,8,0:0:0:0:
171,162,41616,2,0,L|125:148,1,40,2|0,0:0|0:0,0:0:0:0:
114,182,41830,6,0,P|138:235|179:271,1,80,6|0,0:0|0:0,0:0:0:0:
257,181,42259,1,2,0:0:0:0:
189,313,42473,1,0,0:0:0:0:
114,182,42688,2,0,L|68:78,1,80,2|0,0:0|0:0,0:0:0:0:
6,15,43116,2,0,L|100:16,1,80,0|2,0:0|0:0,0:0:0:0:
81,108,43545,1,0,0:0:0:0:
81,108,43759,2,0,P|124:97|160:102,1,80,2|0,0:0|0:0,0:0:0:0:
175,17,44188,2,0,P|235:37|270:79,1,120
326,189,44616,5,0,0:0:0:0:
323,152,44723,1,0,0:0:0:0:
303,126,44830,2,0,L|366:79,1,40,0|0,0:0|0:0,0:0:0:0:
412,49,45045,1,2,0:0:0:0:
412,49,45152,1,0,0:0:0:0:
412,49,45259,6,0,L|370:157,1,80,2|0,0:0|0:0,0:0:0:0:
361,157,45580,2,0,L|414:156,1,40,0|2,0:0|0:0,0:0:0:0:
490,338,45902,2,0,L|488:228,1,80,2|2,0:0|0:0,0:0:0:0:
455,242,46223,2,0,L|409:289,1,40
307,295,46545,2,0,P|316:345|360:367,2,80,2|2|0,0:0|0:0|0:0,0:0:0:0:
259,171,47188,1,2,0:0:0:0:
259,171,47616,6,0,P|194:141|152:146,1,80,2|2,0:0|0:0,0:0:0:0:
164,245,48045,1,0,0:0:0:0:
90,360,48259,1,8,0:0:0:0:
48,308,48473,1,2,0:0:0:0:
48,308,48580,1,0,0:0:0:0:
48,308,48688,6,0,L|163:349,1,120,6|0,0:0|0:0,0:0:0:0:
190,325,49116,1,2,0:0:0:0:
409,233,49330,2,0,L|268:300,1,120,2|0,0:0|0:0,0:0:0:0:
269,266,49759,1,2,0:0:0:0:
47,175,49973,2,0,L|169:239,1,120,2|0,0:0|0:0,0:0:0:0:
183,253,50402,2,0,P|178:304|138:337,2,80,2|0|2,0:0|0:0|0:0,0:0:0:0:
247,165,51045,5,2,0:0:0:0:
166,92,51259,2,0,P|118:67|103:33,1,80,2|0,0:0|0:0,0:0:0:0:
56,215,51688,2,0,L|31:185,1,40,2|0,0:0|0:0,0:0:0:0:
14,104,51902,1,2,0:0:0:0:
14,104,52009,1,0,0:0:0:0:
14,104,52116,1,2,0:0:0:0:
108,175,52330,2,0,P|124:193|188:209,1,80,0|2,0:0|0:0,0:0:0:0:
173,131,52759,6,0,B|202:82|202:82|291:76,1,120,2|0,0:0|0:0,0:0:0:0:
300,66,53187,1,2,0:0:0:0:
272,161,53402,2,0,B|316:203|316:203|325:280,1,120,2|0,0:0|0:0,0:0:0:0:
305,292,53830,1,2,0:0:0:0:
473,137,54045,6,0,L|378:61,1,120,4|0,0:0|0:0,0:0:0:0:
300,66,54473,2,0,L|402:148,1,120,4|0,0:0|0:0,0:0:0:0:
483,270,54902,1,8,0:0:0:0:
468,301,55009,1,8,0:0:0:0:
440,319,55116,1,8,0:0:0:0:
292,264,55330,1,2,0:0:0:0:
292,172,55545,6,0,L|292:92,1,80,6|0,0:0|0:0,0:0:0:0:
292,315,55973,1,2,0:0:0:0:
292,172,56188,1,0,0:0:0:0:
202,251,56402,2,0,L|116:292,1,80,2|0,0:0|0:0,0:0:0:0:
29,209,56830,2,0,L|112:179,1,80,2|2,0:0|0:0,0:0:0:0:
202,251,57259,1,0,0:0:0:0:
202,251,57473,2,0,P|227:301|282:316,1,80,2|0,0:0|0:0,0:0:0:0:
293,223,57902,2,0,P|331:177|332:116,1,120,2|0,0:0|0:0,0:0:0:0:
300,17,58330,5,0,0:0:0:0:
324,53,58438,1,0,0:0:0:0:
330,89,58545,2,0,L|369:121,1,40,0|0,0:0|0:0,0:0:0:0:
406,195,58759,1,2,0:0:0:0:
406,195,58866,1,0,0:0:0:0:
406,195,58973,6,0,L|298:198,1,80,2|0,0:0|0:0,0:0:0:0:
206,199,59295,2,0,L|266:199,1,40,0|2,0:0|0:0,0:0:0:0:
12,277,59616,2,0,L|121:276,1,80,2|0,0:0|0:0,0:0:0:0:
210,277,59938,2,0,L|151:277,1,40,0|2,0:0|0:0,0:0:0:0:
105,351,60259,2,0,L|10:349,2,80,2|0|2,0:0|0:0|0:0,0:0:0:0:
159,239,60902,1,2,0:0:0:0:
159,239,61330,6,0,L|157:124,1,80,2|0,0:0|0:0,0:0:0:0:
178,51,61759,1,0,0:0:0:0:
318,194,61973,1,8,0:0:0:0:
246,167,62188,1,2,0:0:0:0:
246,167,62295,1,0,0:0:0:0:
246,167,62402,6,0,P|331:147|363:98,1,120,6|0,0:0|0:0,0:0:0:0:
359,88,62830,1,2,0:0:0:0:
512,255,63045,2,0,P|427:235|395:186,1,120,2|0,0:0|0:0,0:0:0:0:
391,184,63473,1,2,0:0:0:0:
264,343,63688,2,0,P|349:323|381:274,1,120,2|0,0:0|0:0,0:0:0:0:
368,275,64116,2,0,L|368:176,2,80,2|0|2,0:0|0:0|0:0,0:0:0:0:
457,339,64759,5,2,0:0:0:0:
459,242,64973,2,0,P|417:206|415:135,1,120,2|0,0:0|0:0,0:0:0:0:
478,177,65402,2,0,P|439:141|345:122,1,120,2|0,0:0|0:0,0:0:0:0:
379,46,65830,6,0,P|342:55|300:90,1,80,2|2,0:0|0:0,0:0:0:0:
302,151,66152,1,0,0:0:0:0:
302,151,66259,2,0,L|234:126,1,40,2|0,0:0|0:0,0:0:0:0:
205,94,66473,2,0,P|192:134|210:190,1,80,2|0,0:0|0:0,0:0:0:0:
214,243,66795,1,0,0:0:0:0:
214,243,66902,1,2,0:0:0:0:
339,318,67116,2,0,B|375:246,2,80,2|0|2,0:0|0:0|0:0,0:0:0:0:
131,310,67759,1,8,0:0:0:0:
20,252,68188,5,8,0:0:0:0:
115,199,68402,1,0,0:0:0:0:
209,143,68616,2,0,L|211:92,1,40,8|0,0:0|0:0,0:0:0:0:
174,141,68830,1,8,0:0:0:0:
163,172,68938,1,0,0:0:0:0:
153,203,69046,1,0,0:0:0:0:
142,232,69153,1,0,0:0:0:0:
102,262,69259,2,0,B|147:271|147:271|189:266,1,80,6|0,0:0|0:0,0:0:0:0:
269,214,69580,1,0,0:0:0:0:
269,214,69688,1,2,0:0:0:0:
255,71,69902,6,0,P|316:80|350:102,1,80,8|0,0:0|0:0,0:0:0:0:
317,271,70330,1,2,0:0:0:0:
410,180,70545,1,12,0:0:0:0:
410,180,70652,1,0,0:0:0:0:
410,180,70759,1,0,0:0:0:0:
244,184,70973,6,0,P|188:184|142:153,1,80
133,107,71295,1,0,0:0:0:0:
133,107,71402,1,2,0:0:0:0:
74,195,71616,1,12,0:0:0:0:
140,362,71830,1,0,0:0:0:0:
158,106,72045,6,0,L|174:155,1,40,2|0,0:0|0:0,0:0:0:0:
228,244,72259,1,8,0:0:0:0:
244,281,72366,1,0,0:0:0:0:
268,329,72473,1,8,0:0:0:0:
268,329,72580,1,0,0:0:0:0:
268,329,72688,2,0,L|358:318,1,80,6|0,0:0|0:0,0:0:0:0:
391,270,73009,1,0,0:0:0:0:
391,270,73116,1,2,0:0:0:0:
154,177,73330,6,0,P|114:215|94:264,1,80,8|0,0:0|0:0,0:0:0:0:
219,350,73759,1,2,0:0:0:0:
304,184,73973,1,12,0:0:0:0:
304,184,74080,1,0,0:0:0:0:
304,184,74188,2,0,L|349:237,1,40,2|0,0:0|0:0,0:0:0:0:
415,241,74402,6,0,L|470:158,1,80,0|0,0:0|0:0,0:0:0:0:
488,107,74723,1,0,0:0:0:0:
488,107,74830,1,2,0:0:0:0:
390,59,75045,1,12,0:0:0:0:
339,262,75259,1,0,0:0:0:0:
131,148,75473,5,2,0:0:0:0:
156,120,75580,1,8,0:0:0:0:
194,105,75687,1,8,0:0:0:0:
231,103,75795,1,8,0:0:0:0:
265,110,75902,1,8,0:0:0:0:
197,354,76116,2,0,L|89:324,1,80,6|0,0:0|0:0,0:0:0:0:
68,289,76438,1,0,0:0:0:0:
68,289,76545,1,2,0:0:0:0:
136,65,76759,6,0,L|158:158,1,80,8|0,0:0|0:0,0:0:0:0:
251,314,77188,1,2,0:0:0:0:
288,202,77402,1,12,0:0:0:0:
288,202,77509,1,0,0:0:0:0:
288,202,77616,1,0,0:0:0:0:
120,284,77830,1,0,0:0:0:0:
128,80,78045,6,0,L|104:20,1,40,2|0,0:0|0:0,0:0:0:0:
224,80,78259,2,0,L|264:40,1,40,2|0,0:0|0:0,0:0:0:0:
192,176,78473,2,0,P|192:224|176:272,1,80,8|0,0:0|0:0,0:0:0:0:
77,229,78795,1,0,0:0:0:0:
77,229,78902,2,0,L|16:290,2,80,8|0|8,0:0|0:0|0:0,0:0:0:0:
188,197,79545,5,2,2:2:0:0:
237,225,79759,1,2,0:0:0:0:
280,253,79973,1,2,0:0:0:0:
221,15,80188,5,8,0:0:0:0:
312,61,80402,1,8,0:0:0:0:
398,111,80616,1,8,0:0:0:0:
119,164,80830,5,8,0:0:0:0:
330,315,81045,1,12,0:0:0:0:
111,188,82116,6,0,L|91:157,1,20,0|0,0:0|0:0,0:0:0:0:
271,300,82330,6,0,L|298:348,1,30.0000011444092,0|0,0:0|0:0,0:0:0:0:
299,110,82545,6,0,L|275:61,1,40,4|0,0:0|0:0,0:0:0:0:
432,222,82759,6,0,L|478:300,1,60.0000022888184,0|0,0:0|0:0,0:0:0:0:
336,320,82973,6,0,P|242:320|197:299,1,120.000004577637,4|0,0:0|0:0,0:0:0:0:
160,264,83295,1,2,0:0:0:0:
160,264,83402,1,8,0:0:0:0:
32,156,83616,2,0,P|23:126|32:92,1,60.0000022888184,0|0,0:0|0:0,0:0:0:0:
79,43,83830,1,2,0:0:0:0:
299,64,84045,6,0,B|360:82|360:82|422:69,1,120.000004577637,2|8,0:0|0:0,0:0:0:0:
476,141,84366,1,0,0:0:0:0:
476,141,84473,2,0,B|472:199|426:255|426:255|380:223,1,180.000006866455,2|0,0:0|0:0,0:0:0:0:
350,140,84902,2,0,L|265:142,1,60.0000022888184,2|0,0:0|0:0,0:0:0:0:
237,195,85116,1,8,0:0:0:0:
72,287,85330,5,2,0:0:0:0:
54,169,85545,1,0,0:0:0:0:
55,169,85652,1,0,0:0:0:0:
55,169,85759,2,0,P|93:140|104:118,1,60.0000022888184,2|0,0:0|0:0,0:0:0:0:
174,117,85973,2,0,L|178:179,1,60.0000022888184,8|0,0:0|0:0,0:0:0:0:
175,264,86188,1,0,0:0:0:0:
41,298,86402,6,0,P|107:312|166:292,1,120.000004577637,4|0,0:0|0:0,0:0:0:0:
257,137,86830,2,0,L|215:196,1,60.0000022888184,8|0,0:0|0:0,0:0:0:0:
207,249,87045,2,0,P|279:230|341:249,1,120.000004577637,2|0,0:0|0:0,0:0:0:0:
375,87,87473,6,0,B|408:150|408:150|415:210,1,120.000004577637,2|8,0:0|0:0,0:0:0:0:
483,269,87795,1,0,0:0:0:0:
483,269,87902,2,0,P|421:293|340:285,1,120.000004577637,2|2,0:0|0:0,0:0:0:0:
285,271,88223,1,0,0:0:0:0:
285,271,88330,2,0,B|283:238|283:238|299:220|299:188,1,60.0000022888184,2|0,0:0|0:0,0:0:0:0:
348,149,88545,1,8,0:0:0:0:
218,22,88759,6,0,P|165:32|109:22,1,60.0000022888184,0|8,0:0|0:0,0:0:0:0:
93,69,88973,1,2,0:0:0:0:
96,103,89080,1,0,0:0:0:0:
115,133,89188,1,2,0:0:0:0:
217,236,89402,2,0,B|211:275|211:275|152:312|73:288,1,180.000006866455,8|0,0:0|0:0,0:0:0:0:
46,98,89830,6,0,P|30:154|46:242,1,120.000004577637,4|0,0:0|0:0,0:0:0:0:
124,227,90152,1,0,0:0:0:0:
124,227,90259,2,0,L|124:155,1,60.0000022888184,8|0,0:0|0:0,0:0:0:0:
124,87,90473,2,0,B|193:69|196:110|283:85,1,120.000004577637,2|0,0:0|0:0,0:0:0:0:
410,88,90902,6,0,L|436:25,1,60.0000022888184,2|0,0:0|0:0,0:0:0:0:
365,228,91116,1,8,0:0:0:0:
283,181,91330,1,2,0:0:0:0:
283,181,91438,1,0,0:0:0:0:
283,181,91545,2,0,L|183:229,1,60.0000022888184,2|0,0:0|0:0,0:0:0:0:
214,296,91759,2,0,P|167:283|120:251,1,60.0000022888184,2|0,0:0|0:0,0:0:0:0:
80,227,91973,1,8,0:0:0:0:
37,38,92188,6,0,P|40:109|70:152,1,120.000004577637,2|0,0:0|0:0,0:0:0:0:
160,161,92509,1,0,0:0:0:0:
160,161,92616,1,2,0:0:0:0:
338,273,92830,1,8,0:0:0:0:
289,92,93045,1,0,0:0:0:0:
289,92,93152,1,0,0:0:0:0:
289,92,93259,6,0,P|366:79|434:123,1,120.000004577637,4|0,0:0|0:0,0:0:0:0:
325,260,93688,2,0,L|338:319,1,60.0000022888184,8|0,0:0|0:0,0:0:0:0:
237,237,93902,2,0,B|248:169|248:169|281:141|298:101,1,120.000004577637,2|2,0:0|0:0,0:0:0:0:
165,63,94223,1,0,0:0:0:0:
165,63,94330,2,2,L|95:78,2,60.0000022888184
474,160,94759,6,0,B|478:259|478:259|468:299|411:316,1,180.000006866455,4|0,0:0|0:0,0:0:0:0:
194,295,95188,2,0,P|230:328|256:331,1,60.0000022888184,2|0,0:0|0:0,0:0:0:0:
421,312,95402,1,4,0:0:0:0:
257,256,95616,6,8,P|295:266|323:257,1,60.0000022888185,8|8,0:0|0:0,0:0:0:0:
388,221,95830,1,8,0:0:0:0:
410,201,95938,1,8,0:0:0:0:
418,173,96045,1,8,0:0:0:0:
406,151,96152,1,0,0:0:0:0:
372,122,96259,1,8,0:0:0:0:
352,74,96366,1,8,0:0:0:0:
380,33,96473,1,8,0:0:0:0:
430,39,96580,1,8,0:0:0:0:
441,95,96688,6,0,B|374:132|374:132|333:105|269:88,1,180.000006866455,4|0,0:0|0:0,0:0:0:0:
204,43,97116,1,8,0:0:0:0:
82,215,97330,2,0,P|68:183|72:131,1,60.0000022888184
100,90,97545,1,2,0:0:0:0:
254,178,97759,6,0,L|406:175,1,120.000004577637,2|8,0:0|0:0,0:0:0:0:
488,136,98080,1,0,0:0:0:0:
488,136,98188,2,0,B|461:173|461:173|457:220|432:242,1,120.000004577637,2|2,0:0|0:0,0:0:0:0:
408,319,98509,1,0,0:0:0:0:
408,319,98616,2,0,L|310:317,1,60.0000022888184,2|0,0:0|0:0,0:0:0:0:
265,281,98830,1,8,0:0:0:0:
98,216,99045,5,2,0:0:0:0:
195,36,99259,2,0,P|224:29|253:34,1,60.0000022888184
279,168,99473,2,0,P|225:191|174:164,1,120.000004577637,2|8,0:0|0:0,0:0:0:0:
123,93,99794,1,0,0:0:0:0:
123,93,99902,1,0,0:0:0:0:
446,116,100116,6,0,P|459:174|448:233,1,120.000004577637,4|0,0:0|0:0,0:0:0:0:
231,299,100545,1,8,0:0:0:0:
199,207,100759,2,0,P|257:218|313:197,1,120.000004577637,2|0,0:0|0:0,0:0:0:0:
115,91,101188,2,0,L|76:37,1,60.0000022888184,2|0,0:0|0:0,0:0:0:0:
112,244,101402,1,8,0:0:0:0:
199,279,101616,6,0,P|230:328|296:340,1,120.000004577637,2|2,0:0|0:0,0:0:0:0:
285,248,101938,1,0,0:0:0:0:
285,248,102044,2,0,B|283:215|283:215|296:168,1,60.0000022888184,2|0,0:0|0:0,0:0:0:0:
227,56,102259,1,8,0:0:0:0:
130,68,102473,2,0,L|61:23,1,60.0000022888184,2|8,0:0|0:0,0:0:0:0:
96,153,102687,1,0,0:0:0:0:
96,153,102794,1,0,0:0:0:0:
96,153,102902,2,0,B|79:222|79:222,1,60.0000022888184,2|0,0:0|0:0,0:0:0:0:
117,276,103116,1,8,2:0:0:0:
284,326,103330,5,0,0:0:0:0:
340,323,103438,1,0,0:0:0:0:
383,350,103544,2,0,B|355:302|355:302|364:271|354:238,1,120.000004577637,4|0,0:0|0:0,0:0:0:0:
339,15,103973,1,8,0:0:0:0:
177,77,104188,2,0,P|127:111|103:177,1,120.000004577637,2|0,0:0|0:0,0:0:0:0:
181,223,104509,1,0,0:0:0:0:
212,239,104616,2,0,B|253:230|281:204,1,60.0000022888184,2|0,0:0|0:0,0:0:0:0:
374,137,104830,1,8,0:0:0:0:
278,342,105045,6,0,P|237:370|146:363,1,120.000004577637,2|2,0:0|0:0,0:0:0:0:
103,332,105366,1,0,0:0:0:0:
68,312,105473,1,2,0:0:0:0:
139,149,105688,1,8,0:0:0:0:
368,247,105902,2,0,P|396:183|369:115,1,120.000004577637,2|0,0:0|0:0,0:0:0:0:
348,59,106223,1,0,0:0:0:0:
308,45,106330,1,2,2:2:0:0:
261,263,106545,1,8,0:0:0:0:
423,154,106759,1,2,0:0:0:0:
456,135,106866,1,0,0:0:0:0:
484,149,106973,6,0,B|472:227|472:227|482:254|478:298,1,120.000004577637,4|0,0:0|0:0,0:0:0:0:
344,328,107402,2,0,L|341:268,1,60.0000022888184,8|0,0:0|0:0,0:0:0:0:
256,56,107616,2,0,B|263:120|240:175,1,120.000004577637,2|8,0:0|0:0,0:0:0:0:
144,293,107937,1,0,0:0:0:0:
144,293,108045,2,0,L|109:371,2,60.0000022888184,2|0|2,0:0|0:0|0:0,0:0:0:0:
401,197,108473,2,0,B|425:141|425:141|412:69,1,120.000004577637,4|0,0:0|0:0,0:0:0:0:
216,125,108902,5,2,0:0:0:0:
216,125,109009,1,0,0:0:0:0:
216,125,109116,2,0,L|179:188,1,60.0000022888184,4|0,0:0|0:0,0:0:0:0:
74,274,109330,2,0,L|114:339,1,60.0000022888184,0|8,0:0|0:0,0:0:0:0:
193,187,109545,1,8,0:0:0:0:
193,187,109652,1,0,0:0:0:0:
193,187,109759,2,0,P|188:153|167:129,1,60.0000022888184,2|0,0:0|0:0,0:0:0:0:
9,9,109973,1,4,0:0:0:0:
34,186,110188,1,2,0:0:0:0:
34,186,110295,1,2,0:0:0:0:
34,186,110402,6,0,P|77:179|122:185,1,80,4|0,0:0|0:0,0:0:0:0:
88,251,110723,2,0,B|131:259|131:259|173:248|197:210,1,120,2|2,0:0|0:0,0:0:0:0:
335,224,111259,2,0,P|365:270|390:287,1,80,2|0,0:0|0:0,0:0:0:0:
353,332,111580,2,0,P|388:300|426:295,1,80,2|0,0:0|0:0,0:0:0:0:
415,212,111902,2,0,L|449:191,1,40,0|0,0:0|0:0,0:0:0:0:
512,76,112116,6,0,B|465:53|423:72|423:72|399:49,1,120,4|0,0:0|0:0,0:0:0:0:
331,24,112545,2,0,L|304:66,1,40,2|0,0:0|0:0,0:0:0:0:
256,128,112759,1,0,0:0:0:0:
256,128,112866,1,2,0:0:0:0:
256,128,112973,2,0,L|221:99,2,40
346,230,113402,1,0,0:0:0:0:
201,265,113616,6,0,L|174:242,2,20,2|0|0,0:0|0:0|0:0,0:0:0:0:
205,291,113830,2,0,L|169:309,1,40,2|0,0:0|0:0,0:0:0:0:
239,359,114045,2,0,B|268:348|285:318|285:318|346:309,1,120,2|2,0:0|0:0,0:0:0:0:
418,260,114473,2,0,P|400:241|378:228,1,40,0|0,0:0|0:0,0:0:0:0:
322,189,114688,2,0,P|338:170|358:158,1,40,2|0,0:0|0:0,0:0:0:0:
420,108,114902,1,0,0:0:0:0:
420,108,115009,2,0,L|452:70,2,40,0|2|0,0:0|0:0|0:0,0:0:0:0:
336,91,115330,2,0,P|295:108|266:140,1,80,2|0,0:0|0:0,0:0:0:0:
128,283,115759,5,4,0:0:0:0:
191,200,115973,1,4,0:0:0:0:
270,133,116188,1,4,0:0:0:0:
166,86,116402,1,4,0:0:0:0:
191,200,116616,1,2,0:0:0:0:
29,151,116830,1,8,0:0:0:0:
98,213,117045,2,0,L|114:226,2,20,2|0|0,0:0|0:0|0:0,0:0:0:0:
54,204,117259,6,0,P|68:146|112:125,1,80,4|0,0:0|0:0,0:0:0:0:
89,47,117580,2,0,B|125:53|151:81|151:81|208:82,1,120,2|0,0:0|0:0,0:0:0:0:
326,62,118116,2,0,P|368:91|403:86,1,80,2|0,0:0|0:0,0:0:0:0:
432,70,118438,2,0,P|405:96|397:141,1,80,2|0,0:0|0:0,0:0:0:0:
334,185,118759,2,0,L|303:218,1,40,0|0,0:0|0:0,0:0:0:0:
287,328,118973,6,0,P|342:350|397:322,1,120,4|0,0:0|0:0,0:0:0:0:
476,315,119402,2,0,L|449:276,1,40,2|0,0:0|0:0,0:0:0:0:
393,222,119616,1,0,0:0:0:0:
393,222,119723,1,2,0:0:0:0:
393,222,119830,2,0,L|423:187,2,40,0|0|2,0:0|0:0|0:0,0:0:0:0:
287,328,120259,1,0,0:0:0:0:
196,271,120473,6,0,L|214:296,2,20,2|0|0,0:0|0:0|0:0,0:0:0:0:
191,242,120688,2,0,L|220:201,1,40,2|0,0:0|0:0,0:0:0:0:
222,123,120902,2,0,B|185:129|163:151|163:151|106:142,1,120,2|0,0:0|0:0,0:0:0:0:
60,206,121331,2,0,L|49:245,1,40,2|0,0:0|0:0,0:0:0:0:
88,343,121546,2,0,L|104:304,1,40
169,260,121760,1,2,0:0:0:0:
169,260,121867,2,0,P|155:239|134:222,2,40,0|2|0,0:0|0:0|0:0,0:0:0:0:
204,349,122188,2,0,P|252:319|260:266,1,80,2|0,0:0|0:0,0:0:0:0:
319,78,122616,5,4,0:0:0:0:
313,193,122830,1,4,0:0:0:0:
260,299,123045,1,4,0:0:0:0:
410,266,123259,1,4,0:0:0:0:
196,218,123473,1,8,0:0:0:0:
167,206,123580,1,8,0:0:0:0:
142,191,123688,2,0,L|137:145,1,40,8|0,0:0|0:0,0:0:0:0:
110,42,123902,1,2,0:0:0:0:
241,28,124116,6,0,P|311:44|336:74,1,80,6|0,0:0|0:0,0:0:0:0:
357,177,124545,1,0,0:0:0:0:
248,141,124759,1,2,0:0:0:0:
286,285,124973,2,0,L|287:326,1,40,8|8,0:0|0:0,0:0:0:0:
212,289,125188,2,0,L|180:247,1,40,8|8,0:0|0:0,0:0:0:0:
149,179,125402,1,8,0:0:0:0:
45,133,125616,6,0,P|30:180|42:213,1,80,2|2,0:0|0:0,0:0:0:0:
93,54,126045,2,0,L|189:45,1,80,2|0,0:0|0:0,0:0:0:0:
207,196,126473,2,0,L|167:257,1,40,0|0,0:0|0:0,0:0:0:0:
221,289,126688,1,2,0:0:0:0:
358,264,126902,1,8,0:0:0:0:
385,270,127009,1,8,0:0:0:0:
408,272,127116,2,8,L|435:240,1,40,8|0,0:0|0:0,0:0:0:0:
456,169,127330,6,0,P|439:124|406:95,1,80,2|2,0:0|0:0,0:0:0:0:
237,101,127759,2,0,P|289:140|318:181,1,80,2|0,0:0|0:0,0:0:0:0:
298,230,128080,1,0,0:0:0:0:
298,230,128188,1,0,0:0:0:0:
452,283,128402,5,8,0:0:0:0:
428,311,128509,1,8,0:0:0:0:
399,332,128616,1,8,0:0:0:0:
370,349,128723,1,8,0:0:0:0:
341,352,128830,1,8,0:0:0:0:
255,233,129045,2,0,L|255:129,1,80,2|2,0:0|0:0,0:0:0:0:
277,41,129473,5,4,0:0:0:0:
125,124,129688,1,4,0:0:0:0:
161,12,129902,1,4,0:0:0:0:
258,170,130116,2,8,L|290:207,1,40
379,205,130330,2,8,L|362:241,1,40,8|8,0:0|0:0,0:0:0:0:
334,323,130545,2,8,P|274:337|231:320,1,80,8|2,0:0|0:0,0:0:0:0:
76,279,130973,6,2,L|38:361,2,80,6|2|2,0:0|0:0|0:0,0:0:0:0:
190,98,131616,1,0,0:0:0:0:
84,146,131830,1,8,0:0:0:0:
102,176,131938,1,8,0:0:0:0:
129,192,132045,1,8,0:0:0:0:
163,204,132152,1,8,0:0:0:0:
198,207,132259,1,8,0:0:0:0:
336,72,132473,5,2,0:0:0:0:
384,218,132688,2,0,L|363:297,1,80,2|0,0:0|0:0,0:0:0:0:
321,202,133009,2,0,L|348:173,1,40,0|0,0:0|0:0,0:0:0:0:
398,352,133330,5,2,0:0:0:0:
274,331,133545,2,0,P|227:354|178:340,1,80,0|8,0:0|0:0,0:0:0:0:
318,274,133866,1,8,0:0:0:0:
328,248,133973,2,0,P|283:231|219:255,1,120,8|0,0:0|0:0,0:0:0:0:
123,221,134402,6,0,P|187:215|219:271,1,120,2|0,0:0|0:0,0:0:0:0:
200,316,134830,2,0,L|225:263,1,40,0|0,0:0|0:0,0:0:0:0:
112,314,135045,2,0,P|88:254|154:222,1,120,2|8,0:0|0:0,0:0:0:0:
128,192,135473,1,8,0:0:0:0:
126,161,135580,1,8,0:0:0:0:
125,131,135688,1,8,0:0:0:0:
206,44,135902,1,2,0:0:0:0:
264,304,136116,6,0,L|304:192,1,80,2|0,0:0|0:0,0:0:0:0:
240,152,136438,2,0,L|280:136,1,40,0|2,0:0|0:0,0:0:0:0:
410,36,136759,1,4,0:0:0:0:
448,225,136973,1,0,0:0:0:0:
317,98,137188,1,8,0:0:0:0:
410,36,137402,1,10,0:0:0:0:
481,118,137616,1,0,0:0:0:0:
213,265,137830,6,0,L|175:162,1,80,4|0,0:0|0:0,0:0:0:0:
154,107,138152,1,0,0:0:0:0:
154,107,138259,1,2,0:0:0:0:
48,263,138473,2,0,P|87:302|128:321,1,80,8|0,0:0|0:0,0:0:0:0:
325,335,138902,1,2,0:0:0:0:
192,210,139116,1,8,0:0:0:0:
192,210,139223,1,0,0:0:0:0:
192,210,139330,1,0,0:0:0:0:
354,134,139545,6,0,P|402:118|434:86,1,80,2|2,0:0|0:0,0:0:0:0:
466,22,139866,1,0,0:0:0:0:
466,22,139973,1,2,0:0:0:0:
208,47,140188,1,4,0:0:0:0:
282,189,140402,1,0,0:0:0:0:
111,251,140616,6,0,L|97:207,1,40,8|0,0:0|0:0,0:0:0:0:
89,140,140830,1,8,0:0:0:0:
77,103,140938,1,0,0:0:0:0:
68,66,141045,1,2,0:0:0:0:
68,66,141152,1,0,0:0:0:0:
68,66,141259,2,0,L|150:41,1,80,4|0,0:0|0:0,0:0:0:0:
215,24,141580,1,0,0:0:0:0:
215,24,141688,1,2,0:0:0:0:
208,191,141902,1,8,0:0:0:0:
369,143,142116,6,0,L|450:82,1,80,2|0,0:0|0:0,0:0:0:0:
439,24,142438,1,0,0:0:0:0:
439,24,142545,1,2,0:0:0:0:
435,200,142759,1,2,0:0:0:0:
279,248,142973,6,0,P|239:224|206:190,1,80,2|0,0:0|0:0,0:0:0:0:
88,112,143402,1,2,0:0:0:0:
65,312,143616,2,0,L|123:313,1,40,8|0,0:0|0:0,0:0:0:0:
335,354,143830,2,0,L|261:354,1,40,0|0,0:0|0:0,0:0:0:0:
193,327,144045,5,8,0:0:0:0:
177,284,144152,1,0,0:0:0:0:
160,240,144259,2,0,L|96:240,1,40,8|8,0:0|0:0,0:0:0:0:
32,192,144473,1,8,0:0:0:0:
34,35,144688,2,0,L|141:65,1,80,4|0,0:0|0:0,0:0:0:0:
184,40,145009,1,0,0:0:0:0:
184,40,145116,1,2,0:0:0:0:
211,200,145330,6,0,P|259:248|315:264,1,120,8|0,0:0|0:0,0:0:0:0:
376,256,145759,1,0,0:0:0:0:
352,112,145973,1,12,0:0:0:0:
176,120,146188,6,0,P|136:160|120:232,1,120,2|0,0:0|0:0,0:0:0:0:
198,262,146616,2,0,L|239:310,1,40,2|0,0:0|0:0,0:0:0:0:
327,158,146830,2,0,L|356:187,1,40,2|0,0:0|0:0,0:0:0:0:
253,73,147045,6,0,P|189:36|125:53,1,120,12|0,0:0|0:0,0:0:0:0:
114,118,147473,1,8,0:0:0:0:
205,274,147688,1,2,0:0:0:0:
205,274,147795,1,0,0:0:0:0:
205,274,147902,1,2,0:0:0:0:
350,331,148116,5,2,0:0:0:0:
373,222,148330,1,2,0:0:0:0:
326,121,148545,1,2,0:0:0:0:
230,311,148759,5,8,0:0:0:0:
308,185,148973,1,8,0:0:0:0:
299,27,149188,1,8,0:0:0:0:
115,284,149402,5,8,0:0:0:0:
337,65,149616,1,12,0:0:0:0:
425,264,150688,6,0,L|443:235,1,20,0|0,0:0|0:0,0:0:0:0:
359,80,150902,6,0,L|374:54,1,30.0000011444092,0|0,0:0|0:0,0:0:0:0:
164,88,151116,6,0,L|136:48,1,40,4|0,0:0|0:0,0:0:0:0:
114,274,151330,6,0,L|77:226,1,60.0000022888184,0|0,0:0|0:0,0:0:0:0:
23,63,151545,6,0,P|80:47|140:54,1,120.000004577637,4|0,0:0|0:0,0:0:0:0:
192,112,151867,1,2,0:0:0:0:
192,112,151974,1,8,0:0:0:0:
448,144,152188,2,0,P|453:173|444:201,1,60.0000022888184,0|0,0:0|0:0,0:0:0:0:
394,268,152402,1,2,0:0:0:0:
202,217,152617,6,0,B|168:160|168:160|204:85,1,120.000004577637,2|8,0:0|0:0,0:0:0:0:
244,35,152938,1,0,0:0:0:0:
244,35,153045,2,0,P|282:78|277:136,1,120.000004577637,2|2,0:0|0:0,0:0:0:0:
268,229,153367,1,0,0:0:0:0:
268,229,153474,2,0,L|327:232,1,60.0000022888184,2|0,0:0|0:0,0:0:0:0:
375,154,153688,1,8,0:0:0:0:
160,32,153902,5,2,0:0:0:0:
32,96,154117,1,0,0:0:0:0:
32,96,154224,1,0,0:0:0:0:
32,96,154331,2,0,P|32:136|72:160,1,60.0000022888184,2|0,0:0|0:0,0:0:0:0:
140,161,154545,2,0,L|92:225,1,60.0000022888184,8|0,0:0|0:0,0:0:0:0:
33,255,154760,1,0,0:0:0:0:
224,224,154974,6,0,P|248:176|248:104,1,120.000004577637,4|0,0:0|0:0,0:0:0:0:
429,49,155402,2,0,L|397:99,1,60.0000022888184,8|0,0:0|0:0,0:0:0:0:
386,175,155617,2,0,B|432:195|432:195|473:182|520:175,1,120.000004577637,2|0,0:0|0:0,0:0:0:0:
320,294,156045,6,0,B|272:310|272:310|184:302,1,120.000004577637,2|8,0:0|0:0,0:0:0:0:
200,226,156367,1,0,0:0:0:0:
200,226,156474,2,0,B|153:217|133:252|98:289|98:289|47:275,1,180.000006866455,2|0,0:0|0:0,0:0:0:0:
37,196,156902,2,0,P|29:167|37:132,1,60.0000022888184,2|0,0:0|0:0,0:0:0:0:
74,80,157117,1,8,0:0:0:0:
232,200,157330,6,0,P|262:199|290:181,1,60.0000022888184,0|8,0:0|0:0,0:0:0:0:
332,108,157545,1,2,0:0:0:0:
360,134,157652,1,0,0:0:0:0:
379,170,157760,1,2,0:0:0:0:
414,308,157974,2,0,B|473:308|473:308|505:290|512:250|493:189,1,180.000006866455,8|0,0:0|0:0,0:0:0:0:
329,142,158402,6,0,B|397:143|397:143|426:130|443:114,1,120.000004577637,4|0,0:0|0:0,0:0:0:0:
359,63,158724,1,0,0:0:0:0:
359,63,158831,2,0,L|299:63,1,60.0000022888184,8|0,0:0|0:0,0:0:0:0:
258,135,159045,2,0,B|216:171|216:171|214:213|188:237,1,120.000004577637,2|0,0:0|0:0,0:0:0:0:
75,102,159473,6,0,L|62:18,1,60.0000022888184,2|0,0:0|0:0,0:0:0:0:
0,156,159688,1,8,0:0:0:0:
50,255,159902,1,2,0:0:0:0:
50,255,160010,1,0,0:0:0:0:
50,255,160117,2,0,L|150:303,1,60.0000022888184,2|0,0:0|0:0,0:0:0:0:
120,359,160331,2,0,P|167:346|214:314,1,60.0000022888184,2|0,0:0|0:0,0:0:0:0:
185,249,160545,1,8,0:0:0:0:
384,169,160760,6,0,P|363:224|311:254,1,120.000004577637,2|0,0:0|0:0,0:0:0:0:
184,176,161188,1,2,0:0:0:0:
268,44,161402,1,8,0:0:0:0:
114,114,161617,1,0,0:0:0:0:
114,114,161724,1,0,0:0:0:0:
114,114,161831,6,0,P|89:167|96:226,1,120.000004577637,4|0,0:0|0:0,0:0:0:0:
326,252,162260,2,0,L|313:189,1,60.0000022888184,8|0,0:0|0:0,0:0:0:0:
294,119,162474,2,0,B|362:108|362:108|390:75|420:60,1,120.000004577637,2|2,0:0|0:0,0:0:0:0:
260,34,162795,1,0,0:0:0:0:
260,34,162902,2,8,L|190:1,2,60.0000022888184,2|2|2,0:0|0:0|0:0,0:0:0:0:
307,321,163331,2,0,B|395:237|395:237|391:203|341:175,1,180.000006866455,12|0,0:0|0:0,0:0:0:0:
282,211,163759,2,0,L|212:183,1,60.0000022888184,2|0,0:0|0:0,0:0:0:0:
42,92,163973,1,4,0:0:0:0:
82,198,164188,6,0,L|20:117,1,60.0000022888184,2|8,0:0|0:0,0:0:0:0:
65,35,164402,1,8,0:0:0:0:
81,26,164509,1,8,0:0:0:0:
101,23,164616,1,8,0:0:0:0:
119,27,164723,1,0,0:0:0:0:
146,64,164830,1,8,0:0:0:0:
183,86,164938,1,8,0:0:0:0:
235,78,165045,1,8,0:0:0:0:
263,30,165152,1,8,0:0:0:0:
209,6,165259,6,0,B|189:64|189:64|206:154,1,120.000004577637,4|0,0:0|0:0,0:0:0:0:
268,197,165580,1,2,0:0:0:0:
268,197,165688,1,8,0:0:0:0:
176,304,165902,2,0,P|144:318|48:288,1,120.000004577637,0|2,0:0|0:0,0:0:0:0:
48,208,166223,1,0,0:0:0:0:
48,208,166330,2,0,B|25:168|48:120|48:120|48:88,1,120.000004577637,2|8,0:0|0:0,0:0:0:0:
241,224,166759,6,0,B|172:233|131:175,1,120.000004577637,2|2,0:0|0:0,0:0:0:0:
231,135,167080,1,0,0:0:0:0:
231,135,167187,2,0,L|290:136,1,60.0000022888184,2|0,0:0|0:0,0:0:0:0:
346,79,167401,1,8,0:0:0:0:
506,195,167616,5,2,0:0:0:0:
483,331,167830,2,0,P|453:337|424:332,1,60.0000022888184,0|0,0:0|0:0,0:0:0:0:
381,250,168044,2,0,P|355:273|333:310,1,60.0000022888184,2|0,0:0|0:0,0:0:0:0:
296,370,168259,1,8,0:0:0:0:
296,370,168365,1,0,0:0:0:0:
296,370,168473,1,0,0:0:0:0:
79,323,168687,6,0,P|137:335|195:324,1,120.000004577637,4|0,0:0|0:0,0:0:0:0:
153,181,169116,2,0,L|106:128,1,60.0000022888184,8|0,0:0|0:0,0:0:0:0:
55,72,169330,2,0,P|33:131|46:188,1,120.000004577637,2|0,0:0|0:0,0:0:0:0:
202,49,169758,2,0,B|265:60|265:60|300:29|331:43,1,120.000004577637,2|8,0:0|0:0,0:0:0:0:
176,266,170187,6,0,P|132:226|114:170,1,120.000004577637,2|2,0:0|0:0,0:0:0:0:
208,184,170509,1,0,0:0:0:0:
208,184,170615,2,0,B|236:177|268:184,1,60.0000022888184,2|0,0:0|0:0,0:0:0:0:
297,261,170830,1,8,0:0:0:0:
480,315,171044,2,0,L|481:247,1,60.0000022888184,2|8,0:0|0:0,0:0:0:0:
472,113,171258,1,0,0:0:0:0:
472,113,171365,1,0,0:0:0:0:
472,113,171473,2,0,B|447:179|447:179,1,60.0000022888184,2|0,0:0|0:0,0:0:0:0:
391,233,171688,1,8,0:0:0:0:
191,328,171901,5,0,0:0:0:0:
131,349,172009,1,0,0:0:0:0:
75,341,172115,2,0,B|145:308|145:308|157:264,1,120.000004577637,4|0,0:0|0:0,0:0:0:0:
139,64,172544,1,8,0:0:0:0:
289,209,172759,2,0,P|296:268|341:321,1,120.000004577637,2|0,0:0|0:0,0:0:0:0:
400,251,173080,1,0,0:0:0:0:
376,217,173187,2,0,B|406:184|406:184|455:183|478:144,1,120.000004577637,2|8,0:0|0:0,0:0:0:0:
420,34,173616,6,0,P|374:25|288:55,1,120.000004577637,2|2,0:0|0:0,0:0:0:0:
291,79,173937,1,0,0:0:0:0:
279,110,174044,1,2,0:0:0:0:
85,46,174259,1,8,0:0:0:0:
179,190,174473,2,0,P|222:241|295:272,1,120.000004577637,2|0,0:0|0:0,0:0:0:0:
327,307,174795,1,0,0:0:0:0:
368,296,174901,1,2,0:0:0:0:
450,193,175115,1,8,0:0:0:0:
425,62,175330,1,2,0:0:0:0:
404,34,175437,1,0,0:0:0:0:
375,20,175544,6,0,B|346:60|346:60|362:111|344:166,1,120.000004577637,4|0,0:0|0:0,0:0:0:0:
227,293,175973,2,0,L|224:233,1,60.0000022888184,8|0,0:0|0:0,0:0:0:0:
120,35,176187,2,0,B|103:103|122:164,1,120.000004577637,2|8,0:0|0:0,0:0:0:0:
137,284,176508,1,0,0:0:0:0:
137,284,176615,2,0,L|102:362,2,60.0000022888184,2|0|0,0:0|0:0|0:0,0:0:0:0:
323,73,177044,2,0,B|293:85|267:100|267:100|201:85,1,120.000004577637,4|0,0:0|0:0,0:0:0:0:
146,176,177473,5,2,0:0:0:0:
146,176,177580,1,0,0:0:0:0:
146,176,177687,2,0,L|177:228,1,60.0000022888184,12|0,0:0|0:0,0:0:0:0:
276,307,177902,2,8,L|222:361,1,60.0000022888184,0|8,0:0|0:0,0:0:0:0:
184,233,178116,1,8,0:0:0:0:
184,233,178223,1,0,0:0:0:0:
184,233,178330,2,0,P|197:206|221:189,1,60.0000022888184,2|0,0:0|0:0,0:0:0:0:
435,103,178544,1,4,0:0:0:0:
378,228,178759,1,2,0:0:0:0:
291,121,178973,6,0,P|241:97|191:14,1,150.000005722046,4|0,0:0|0:0,0:0:0:0:
123,66,179616,2,0,L|47:31,1,60.0000022888184,2|0,0:0|0:0,0:0:0:0:
152,133,180045,2,0,L|100:142,1,30.0000011444092,2|0,0:0|0:0,0:0:0:0:
98,180,180259,1,0,0:0:0:0:
216,199,180473,2,0,L|182:234,1,30.0000011444092,2|0,0:0|0:0,0:0:0:0:
201,262,180688,1,0,0:0:0:0:
303,231,180902,2,0,L|321:275,1,30.0000011444092,2|0,0:0|0:0,0:0:0:0:
355,269,181117,1,0,0:0:0:0:
379,175,181330,2,0,L|480:179,1,90.0000034332277,4|0,0:0|0:0,0:0:0:0:
471,51,181759,5,2,0:0:0:0:
377,89,181973,1,0,0:0:0:0:
377,89,182080,2,0,L|331:69,1,30.0000011444092,2|0,0:0|0:0,0:0:0:0:
277,46,182295,1,0,0:0:0:0:
277,46,182402,2,0,L|263:89,1,30.0000011444092,2|0,0:0|0:0,0:0:0:0:
229,151,182616,1,0,0:0:0:0:
229,151,182723,2,0,P|272:191|297:191,1,60.0000022888184,2|0,0:0|0:0,0:0:0:0:
323,264,183045,6,0,B|295:282|295:282|254:276,1,60.0000022888184,2|0,0:0|0:0,0:0:0:0:
166,227,183473,2,0,L|145:255,1,30.0000011444092,2|0,0:0|0:0,0:0:0:0:
108,258,183688,1,0,0:0:0:0:
209,137,183902,2,0,L|177:169,1,30.0000011444092,2|0,0:0|0:0,0:0:0:0:
146,166,184116,1,0,0:0:0:0:
249,67,184330,2,0,L|201:64,1,30.0000011444092,2|0,0:0|0:0,0:0:0:0:
180,35,184545,1,0,0:0:0:0:
98,67,184759,1,2,0:0:0:0:
87,102,184866,1,0,0:0:0:0:
116,134,184973,1,0,0:0:0:0:
239,145,185188,6,0,P|211:181|191:194,1,60.0000022888184,2|0,0:0|0:0,0:0:0:0:
149,229,185509,2,0,P|184:251|206:253,1,60.0000022888184,2|0,0:0|0:0,0:0:0:0:
264,272,185830,2,0,P|246:303|226:315,1,60.0000022888184,2|0,0:0|0:0,0:0:0:0:
265,347,186152,2,0,L|330:342,1,60.0000022888184,2|0,0:0|0:0,0:0:0:0:
391,257,186473,6,0,P|421:284|430:323,1,60.0000022888184,2|0,0:0|0:0,0:0:0:0:
463,245,186902,2,0,L|461:192,1,30.0000011444092,2|0,0:0|0:0,0:0:0:0:
437,173,187116,1,0,0:0:0:0:
351,179,187330,2,0,L|349:129,1,30.0000011444092,2|0,0:0|0:0,0:0:0:0:
311,108,187545,1,0,0:0:0:0:
235,142,187759,2,0,L|236:92,1,30.0000011444092,2|0,0:0|0:0,0:0:0:0:
209,77,187973,1,0,0:0:0:0:
137,144,188188,2,0,B|133:191|133:191|149:208|140:238,1,90.0000034332277,4|0,0:0|0:0,0:0:0:0:
83,352,188616,5,2,0:0:0:0:
217,273,188830,1,0,0:0:0:0:
217,273,188938,2,0,L|253:269,1,30.0000011444092,2|0,0:0|0:0,0:0:0:0:
288,208,189152,1,0,0:0:0:0:
288,208,189259,2,0,L|328:235,1,30.0000011444092,2|0,0:0|0:0,0:0:0:0:
334,314,189473,1,0,0:0:0:0:
334,314,189580,2,0,P|374:295|394:261,1,60.0000022888184,2|0,0:0|0:0,0:0:0:0:
449,204,189902,6,0,B|476:238|476:238|477:277,1,60.0000022888184,2|0,0:0|0:0,0:0:0:0:
473,153,190330,2,0,L|471:107,1,30.0000011444092,2|0,0:0|0:0,0:0:0:0:
440,86,190545,1,0,0:0:0:0:
339,60,190759,2,0,L|341:115,1,30.0000011444092,2|0,0:0|0:0,0:0:0:0:
314,131,190973,1,0,0:0:0:0:
225,163,191188,2,0,L|225:122,1,30.0000011444092,2|0,0:0|0:0,0:0:0:0:
195,94,191402,1,0,0:0:0:0:
101,116,191616,1,2,0:0:0:0:
88,149,191723,1,0,0:0:0:0:
99,190,191830,1,0,0:0:0:0:
198,226,192045,6,0,P|221:243|263:248,1,60.0000022888184,2|0,0:0|0:0,0:0:0:0:
247,166,192366,2,0,P|209:146|172:141,1,60.0000022888184,2|0,0:0|0:0,0:0:0:0:
332,276,192688,2,0,P|331:223|314:204,1,60.0000022888184,4|0,0:0|0:0,0:0:0:0:
247,166,193009,1,0,0:0:0:0:
247,166,193116,2,0,B|277:125|309:125,1,60.0000022888184,0|0,0:0|0:0,0:0:0:0:
275,47,193438,2,0,L|324:62,1,30.0000011444092,0|0,0:0|0:0,0:0:0:0:
394,73,193652,1,8,0:0:0:0:
426,95,193759,1,8,0:0:0:0:
443,131,193866,1,8,0:0:0:0:
444,172,193973,1,8,0:0:0:0:
426,306,194188,5,2,0:0:0:0:
426,306,194402,2,0,P|399:264|399:229,1,60.0000022888184,2|0,0:0|0:0,0:0:0:0:
334,209,194723,2,0,P|322:246|332:280,1,60.0000022888184,0|0,0:0|0:0,0:0:0:0:
242,238,195045,2,0,P|249:185|284:136,1,90.0000034332277,2|0,0:0|0:0,0:0:0:0:
219,93,195473,1,8,0:0:0:0:
188,117,195580,1,8,0:0:0:0:
169,149,195688,1,8,0:0:0:0:
142,280,195902,5,2,0:0:0:0:
142,280,196116,2,0,P|105:241|96:224,1,60.0000022888184,2|0,0:0|0:0,0:0:0:0:
48,159,196438,2,0,L|81:174,1,30.0000011444092,0|0,0:0|0:0,0:0:0:0:
212,206,196759,2,0,L|283:160,1,60.0000022888184,2|0,0:0|0:0,0:0:0:0:
296,96,197080,1,8,0:0:0:0:
322,122,197188,1,8,0:0:0:0:
336,166,197295,1,8,0:0:0:0:
334,208,197402,1,8,0:0:0:0:
426,293,197616,5,2,0:0:0:0:
426,293,197830,2,0,P|392:288|360:296,1,60,2|0,0:0|0:0,0:0:0:0:
354,357,198152,2,0,L|323:349,1,30.0000011444092
134,347,198473,2,0,L|159:280,1,60.0000022888184,2|0,0:0|0:0,0:0:0:0:
146,222,198795,1,8,0:0:0:0:
122,207,198902,1,8,0:0:0:0:
89,195,199009,1,8,0:0:0:0:
62,191,199116,2,0,L|86:119,1,60,8|2,0:0|0:0,0:0:0:0:
20,102,199545,6,0,P|49:73|89:59,1,60.0000022888184,4|0,0:0|0:0,0:0:0:0:
77,3,199866,2,0,L|131:19,1,30.0000011444092,0|0,0:0|0:0,0:0:0:0:
177,82,200188,2,0,P|208:91|263:58,1,90.0000034332277,2|0,0:0|0:0,0:0:0:0:
306,95,200616,1,8,0:0:0:0:
284,147,200723,1,8,0:0:0:0:
264,198,200830,1,8,0:0:0:0:
225,352,201045,5,2,0:0:0:0:
225,352,201259,2,0,P|274:326|300:318,1,60.0000022888184,2|0,0:0|0:0,0:0:0:0:
251,250,201580,2,0,L|287:263,1,30.0000011444092,0|0,0:0|0:0,0:0:0:0:
412,346,201902,2,0,P|460:306|468:258,1,90.0000034332277,2|0,0:0|0:0,0:0:0:0:
469,224,202330,1,8,0:0:0:0:
437,200,202438,1,8,0:0:0:0:
400,181,202545,1,8,0:0:0:0:
296,62,202759,5,2,0:0:0:0:
296,62,202973,2,0,P|285:117|291:147,1,60.0000022888184,2|0,0:0|0:0,0:0:0:0:
324,185,203295,2,0,L|358:215,1,30.0000011444092,0|0,0:0|0:0,0:0:0:0:
212,241,203616,2,0,P|182:230|150:193,1,60.0000022888184,2|0,0:0|0:0,0:0:0:0:
143,134,203938,1,8,0:0:0:0:
104,155,204045,1,8,0:0:0:0:
86,198,204152,1,8,0:0:0:0:
85,240,204259,1,8,0:0:0:0:
148,326,204473,6,0,P|216:341|248:331,1,90.0000034332277,2|0,0:0|0:0,0:0:0:0:
325,344,204902,2,0,L|295:305,1,30.0000011444092,0|0,0:0|0:0,0:0:0:0:
208,234,205116,1,2,0:0:0:0:
310,168,205330,1,4,0:0:0:0:
334,136,205438,1,0,0:0:0:0:
360,104,205545,1,0,0:0:0:0:
176,96,205759,2,0,L|157:66,1,30.0000011444092,2|0,0:0|0:0,0:0:0:0:
263,35,205973,1,4,0:0:0:0:
304,328,206402,6,0,L|408:280,1,80,4|0,0:0|0:0,0:0:0:0:
448,256,206723,2,0,P|415:226|374:218,1,80,4|0,0:0|0:0,0:0:0:0:
286,229,207045,2,0,P|302:171|381:116,1,160,8|2,0:0|0:0,0:0:0:0:
450,50,207580,1,0,0:0:0:0:
450,50,207688,1,0,0:0:0:0:
460,196,207902,6,0,L|503:222,2,40,4|0|10,0:0|0:0|0:0,0:0:0:0:
343,229,208330,2,0,L|305:180,1,40,8|0,0:0|0:0,0:0:0:0:
285,131,208545,1,0,0:0:0:0:
180,198,208759,2,0,L|213:137,1,40,12|0,0:0|0:0,0:0:0:0:
254,65,208973,1,2,0:0:0:0:
122,68,209188,1,2,0:0:0:0:
78,185,209402,1,2,0:0:0:0:
78,185,209509,2,0,P|94:212|146:240,1,80,2|0,0:0|0:0,0:0:0:0:
339,292,209830,6,0,P|348:228|310:172,1,120,4|0,0:0|0:0,0:0:0:0:
260,111,210259,1,0,0:0:0:0:
74,46,210473,2,0,L|101:96,1,40,8|0,0:0|0:0,0:0:0:0:
125,145,210688,1,2,0:0:0:0:
184,325,210902,5,0,0:0:0:0:
146,308,211009,1,0,0:0:0:0:
106,291,211116,1,2,0:0:0:0:
58,147,211330,2,0,L|34:90,2,40,4|0|8,0:0|0:0|0:0,0:0:0:0:
187,196,211758,2,0,L|247:159,1,40,0|0,0:0|0:0,0:0:0:0:
311,122,211972,1,2,0:0:0:0:
306,230,212188,2,0,L|310:175,1,40,12|0,0:0|0:0,0:0:0:0:
320,59,212401,1,2,0:0:0:0:
185,48,212616,1,2,0:0:0:0:
229,220,212830,1,8,0:0:0:0:
229,220,212938,2,0,P|243:275|292:307,1,80
422,139,213259,6,0,P|395:73|348:39,1,120,4|0,0:0|0:0,0:0:0:0:
270,38,213688,1,8,0:0:0:0:
268,170,213902,2,0,L|283:219,1,40,0|0,0:0|0:0,0:0:0:0:
355,260,214116,1,2,0:0:0:0:
154,307,214330,1,2,0:0:0:0:
154,307,214438,1,0,0:0:0:0:
154,307,214545,2,0,P|110:326|64:310,1,80,8|0,0:0|0:0,0:0:0:0:
52,177,214973,5,2,0:0:0:0:
52,177,215080,2,0,L|114:139,1,40,8|0,0:0|0:0,0:0:0:0:
207,16,215295,1,2,0:0:0:0:
207,16,215402,2,0,L|121:60,1,80,8|0,0:0|0:0,0:0:0:0:
108,224,215830,5,0,0:0:0:0:
108,224,215938,1,0,0:0:0:0:
108,224,216045,1,2,0:0:0:0:
187,106,216259,1,8,0:0:0:0:
220,288,216473,1,2,0:0:0:0:
366,299,216688,2,0,P|353:250|302:211,1,80,4|0,0:0|0:0,0:0:0:0:
200,137,217116,1,8,0:0:0:0:
74,326,217330,6,8,L|52:357,4,20
430,53,217759,2,0,L|478:4,1,40,2|0,0:0|0:0,0:0:0:0:
379,296,217973,2,0,L|377:368,1,40,2|0,0:0|0:0,0:0:0:0:
404,167,218188,2,0,B|371:187|371:187|297:190|258:243|258:243|317:216|353:161|330:123|284:128,1,320,4|0,0:0|0:0,0:0:0:0:
31,42,219259,6,0,B|62:59|85:43|85:43|95:65|87:96|103:127|141:139|141:139|175:130|192:102|193:63,1,240,2|0,0:0|0:0,0:0:0:0:
266,85,220116,6,0,P|248:47|174:16,1,120,2|0,0:0|0:0,0:0:0:0:
186,97,220973,2,0,L|149:120,1,40,2|0,0:0|0:0,0:0:0:0:
79,166,221402,1,0,0:0:0:0:
84,257,221616,2,0,P|94:303|84:351,1,80,2|0,0:0|0:0,0:0:0:0:
181,347,222259,1,2,0:0:0:0:
270,229,222473,1,0,0:0:0:0:
362,240,222688,6,0,L|362:188,1,40,2|0,0:0|0:0,0:0:0:0:
294,94,223116,2,0,L|295:141,1,40,2|0,0:0|0:0,0:0:0:0:
431,183,223545,2,0,P|404:142|364:133,1,80,2|0,0:0|0:0,0:0:0:0:
318,39,224188,2,0,P|296:81|300:121,1,80,2|0,0:0|0:0,0:0:0:0:
354,200,224830,1,0,0:0:0:0:
263,206,225045,2,0,L|217:206,1,40,2|0,0:0|0:0,0:0:0:0:
126,137,225473,2,0,L|166:137,1,40,2|0,0:0|0:0,0:0:0:0:
248,130,225902,1,2,0:0:0:0:
88,286,226116,6,0,L|61:252,1,40
18,192,226545,2,0,L|54:159,1,40,2|0,0:0|0:0,0:0:0:0:
45,80,226973,2,0,P|84:83|116:106,1,80,2|0,0:0|0:0,0:0:0:0:
144,189,227616,2,0,L|184:171,1,40,2|0,0:0|0:0,0:0:0:0:
206,94,228045,1,2,0:0:0:0:
259,157,228259,1,0,0:0:0:0:
287,311,228473,6,0,L|336:287,1,40
394,321,228902,2,0,L|407:281,1,40,2|0,0:0|0:0,0:0:0:0:
468,114,229330,6,0,B|441:133|416:99|390:116,1,80,2|0,0:0|0:0,0:0:0:0:
387,189,229973,2,0,L|363:238,1,40,2|0,0:0|0:0,0:0:0:0:
457,236,230402,6,0,L|413:310,1,80,2|0,0:0|0:0,0:0:0:0:
270,324,231045,2,0,L|349:324,1,80,2|2,0:0|0:0,0:0:0:0:
301,245,231688,1,0,0:0:0:0:
226,242,231902,2,0,L|190:318,1,80,2|0,0:0|0:0,0:0:0:0:
115,329,232545,1,0,0:0:0:0:
45,285,232759,1,2,0:0:0:0:
99,159,232973,6,0,L|151:109,1,60,2|0,0:0|0:0,0:0:0:0:
104,80,233402,2,0,L|170:76,1,60,2|0,0:0|0:0,0:0:0:0:
316,69,233830,6,0,L|300:155,1,80,4|0,0:0|0:0,0:0:0:0:
392,133,234259,2,0,L|374:218,1,80,0|2,0:0|0:0,0:0:0:0:
377,317,234580,1,0,0:0:0:0:
377,317,234688,1,8,0:0:0:0:
278,324,234902,2,0,P|238:300|194:318,1,80,2|0,0:0|0:0,0:0:0:0:
232,230,235330,2,0,L|202:323,1,80,2|0,0:0|0:0,0:0:0:0:
123,341,235759,1,0,0:0:0:0:
76,226,235973,2,0,L|50:138,1,80,0|2,0:0|0:0,0:0:0:0:
143,15,236402,5,8,0:0:0:0:
183,103,236616,2,0,L|152:198,1,80,0|0,0:0|0:0,0:0:0:0:
211,348,237045,1,2,0:0:0:0:
211,348,237152,1,0,0:0:0:0:
211,348,237259,2,0,L|259:244,1,80,6|0,0:0|0:0,0:0:0:0:
120,249,237688,2,0,L|169:158,1,80,0|2,0:0|0:0,0:0:0:0:
202,91,238009,1,0,0:0:0:0:
202,91,238116,1,8,0:0:0:0:
48,95,238330,2,0,P|90:71|137:66,1,80,2|0,0:0|0:0,0:0:0:0:
202,91,238759,6,0,L|245:12,2,80,2|0|2,0:0|0:0|0:0,0:0:0:0:
84,188,239402,2,0,P|148:227|184:226,1,80,0|2,0:0|0:0,0:0:0:0:
279,305,239830,1,8,0:0:0:0:
384,256,240045,1,0,0:0:0:0:
321,177,240259,2,0,L|356:86,1,80,2|2,0:0|0:0,0:0:0:0:
432,64,240580,1,0,0:0:0:0:
432,64,240688,6,0,P|376:66|303:40,1,120,2|0,0:0|0:0,0:0:0:0:
194,21,241116,1,0,0:0:0:0:
227,148,241330,1,2,0:0:0:0:
148,218,241545,2,0,P|165:245|219:256,1,80,8|2,0:0|0:0,0:0:0:0:
315,257,241866,1,0,0:0:0:0:
315,257,241974,1,8,0:0:0:0:
66,193,242188,6,0,P|57:244|77:275,1,80,8|8,0:0|0:0,0:0:0:0:
172,325,242616,1,8,0:0:0:0:
203,120,242830,1,8,0:0:0:0:
249,329,243045,2,0,P|239:288|197:253,1,80,8|8,0:0|0:0,0:0:0:0:
143,207,243366,1,0,0:0:0:0:
143,207,243473,1,8,0:0:0:0:
54,322,243688,1,8,0:0:0:0:
272,149,243902,1,12,0:0:0:0:
58,38,244116,6,0,P|52:91|70:126,1,80,0|8,0:0|0:0,0:0:0:0:
162,132,244438,1,8,0:0:0:0:
162,132,244545,1,8,0:0:0:0:
258,253,244759,1,8,0:0:0:0:
235,287,244866,1,8,0:0:0:0:
193,301,244973,1,8,0:0:0:0:
91,116,245188,1,8,0:0:0:0:
183,224,245402,1,8,0:0:0:0:
263,93,245616,1,4,0:0:0:0:
263,93,245723,1,0,0:0:0:0:
263,93,245830,1,0,0:0:0:0:
417,68,246045,6,0,L|360:19,1,40,8|0,0:0|0:0,0:0:0:0:
443,188,246259,2,0,L|392:147,1,40,8|0,0:0|0:0,0:0:0:0:
308,133,246473,6,0,L|297:163,1,20
229,126,246581,2,0,L|216:155,1,20
166,91,246688,2,0,L|146:102,1,20,0|0,0:0|0:0,0:0:0:0:
126,28,246795,2,0,L|93:24,1,20,0|0,0:0|0:0,0:0:0:0:
64,66,246902,6,0,L|34:29,2,30.0000011444092,2|0|0,0:0|0:0|0:0,0:0:0:0:
113,152,247116,6,0,B|155:186|155:186|224:196,1,120.000004577637,4|0,0:0|0:0,0:0:0:0:
402,59,247545,6,0,P|418:116|411:176,1,120.000004577637,4|0,0:0|0:0,0:0:0:0:
386,269,247867,1,2,0:0:0:0:
386,269,247974,1,8,0:0:0:0:
71,166,248188,2,0,P|66:137|75:109,1,60.0000022888184,0|0,0:0|0:0,0:0:0:0:
105,35,248402,1,2,0:0:0:0:
69,298,248617,6,0,P|127:283|203:296,1,120.000004577637,2|8,0:0|0:0,0:0:0:0:
276,307,248938,1,0,0:0:0:0:
276,307,249045,2,0,P|314:264|309:206,1,120.000004577637,2|2,0:0|0:0,0:0:0:0:
247,145,249367,1,0,0:0:0:0:
247,145,249474,2,0,L|151:142,1,60.0000022888184,2|0,0:0|0:0,0:0:0:0:
131,196,249688,1,8,0:0:0:0:
273,348,249902,5,2,0:0:0:0:
414,244,250117,1,0,0:0:0:0:
414,244,250224,1,0,0:0:0:0:
414,244,250331,2,0,P|414:204|398:171,1,60.0000022888184,2|0,0:0|0:0,0:0:0:0:
330,161,250545,2,0,L|367:92,1,60.0000022888184,8|0,0:0|0:0,0:0:0:0:
400,37,250760,1,0,0:0:0:0:
158,86,250973,6,0,P|222:70|287:86,1,120.000004577637,4|0,0:0|0:0,0:0:0:0:
404,280,251402,2,0,L|362:227,1,60.0000022888184,8|0,0:0|0:0,0:0:0:0:
329,160,251617,2,0,B|289:168|289:168|265:152|195:160,1,120.000004577637,2|0,0:0|0:0,0:0:0:0:
235,317,252045,6,0,B|283:333|283:333|371:325,1,120.000004577637,2|8,0:0|0:0,0:0:0:0:
325,249,252367,1,0,0:0:0:0:
325,249,252474,2,0,B|381:241|416:267|416:267|423:317|469:329,1,180.000006866455,2|0,0:0|0:0,0:0:0:0:
463,126,252902,2,0,P|471:97|463:62,1,60.0000022888184,2|0,0:0|0:0,0:0:0:0:
409,29,253116,1,8,0:0:0:0:
197,57,253331,6,0,B|192:97|192:97|163:133,1,60.0000022888184,0|8,0:0|0:0,0:0:0:0:
232,179,253545,1,2,0:0:0:0:
232,179,253652,1,0,0:0:0:0:
232,179,253759,2,0,L|256:233,1,60.0000022888184,2|0,0:0|0:0,0:0:0:0:
279,327,253974,2,0,B|208:330|168:273|168:273|152:204,1,180.000006866455,8|0,0:0|0:0,0:0:0:0:
59,75,254402,6,0,P|53:149|86:235,1,120.000004577637,4|0,0:0|0:0,0:0:0:0:
55,272,254724,1,0,0:0:0:0:
55,272,254831,2,0,L|117:291,1,60.0000022888184,8|0,0:0|0:0,0:0:0:0:
107,367,255045,2,0,B|187:372|204:293,1,120.000004577637,2|0,0:0|0:0,0:0:0:0:
163,137,255473,6,0,L|129:67,1,60.0000022888184,2|0,0:0|0:0,0:0:0:0:
195,260,255688,1,8,0:0:0:0:
315,241,255902,1,2,0:0:0:0:
315,241,256010,1,0,0:0:0:0:
315,241,256117,2,0,L|413:243,1,60.0000022888184,2|0,0:0|0:0,0:0:0:0:
458,258,256331,2,0,P|435:312|393:336,1,60.0000022888184,2|0,0:0|0:0,0:0:0:0:
361,355,256545,1,8,0:0:0:0:
350,150,256760,6,0,P|329:95|277:65,1,120.000004577637,2|0,0:0|0:0,0:0:0:0:
187,180,257188,1,2,0:0:0:0:
331,338,257402,1,8,0:0:0:0:
439,179,257617,1,0,0:0:0:0:
439,179,257724,1,0,0:0:0:0:
439,179,257831,6,0,P|464:126|457:67,1,120.000004577637,4|0,0:0|0:0,0:0:0:0:
172,60,258260,2,0,L|273:94,1,60.0000022888184,8|0,0:0|0:0,0:0:0:0:
301,129,258474,2,0,B|311:189|311:189|286:245,1,120.000004577637,2|2,0:0|0:0,0:0:0:0:
202,316,258795,1,0,0:0:0:0:
202,316,258902,2,2,L|155:365,2,60.0000022888184,2|0|2,0:0|0:0|0:0,0:0:0:0:
248,106,259331,2,0,B|309:86|378:104|378:104|361:164,1,180.000006866455,12|0,0:0|0:0,0:0:0:0:
285,202,259759,2,2,P|307:236|350:253,1,60.0000022888184,2|0,0:0|0:0,0:0:0:0:
438,317,259973,1,4,0:0:0:0:
462,199,260188,6,0,P|473:229|466:258,1,60.0000022888184,2|8,0:0|0:0,0:0:0:0:
390,361,260402,1,8,0:0:0:0:
359,372,260509,1,8,0:0:0:0:
327,369,260616,1,8,0:0:0:0:
299,357,260723,1,0,0:0:0:0:
314,307,260830,1,8,0:0:0:0:
291,265,260938,1,8,0:0:0:0:
234,251,261045,1,8,0:0:0:0:
192,277,261152,1,8,0:0:0:0:
157,292,261259,6,0,B|179:242|179:242|232:204,1,120.000004577637,4|0,0:0|0:0,0:0:0:0:
343,180,261580,1,2,0:0:0:0:
343,180,261688,1,8,0:0:0:0:
254,31,261902,2,0,P|268:63|238:159,1,120.000004577637,0|2,0:0|0:0,0:0:0:0:
227,244,262223,1,0,0:0:0:0:
227,244,262330,2,0,B|267:221|315:244|315:244|347:244,1,120.000004577637,2|8,0:0|0:0,0:0:0:0:
469,52,262759,6,0,B|410:33|338:55,1,120.000004577637,2|2,0:0|0:0,0:0:0:0:
261,134,263080,1,0,0:0:0:0:
261,134,263187,2,0,L|321:161,1,60.0000022888184,2|0,0:0|0:0,0:0:0:0:
412,195,263401,1,8,0:0:0:0:
290,297,263616,5,2,0:0:0:0:
153,226,263830,2,0,P|147:196|151:167,1,60.0000022888184,0|0,0:0|0:0,0:0:0:0:
225,133,264044,2,0,P|209:104|177:79,1,60.0000022888185,2|0,0:0|0:0,0:0:0:0:
109,54,264259,1,8,0:0:0:0:
109,54,264365,1,0,0:0:0:0:
109,54,264473,1,0,0:0:0:0:
153,226,264687,6,0,P|211:238|269:227,1,120.000004577637,4|0,0:0|0:0,0:0:0:0:
314,48,265116,2,0,L|340:106,1,60.0000022888184,8|0,0:0|0:0,0:0:0:0:
412,174,265330,2,0,B|401:250|373:272|373:272|290:268,1,180.000006866455,2|0,0:0|0:0,0:0:0:0:
88,260,265758,2,0,P|150:253|207:267,1,120.000004577637,2|8,0:0|0:0,0:0:0:0:
154,173,266080,1,0,0:0:0:0:
154,173,266187,6,0,B|207:178|248:198|248:198|281:182,1,120.000004577637,2|2,0:0|0:0,0:0:0:0:
346,169,266509,1,0,0:0:0:0:
346,169,266615,2,0,B|353:201|343:239,1,60.0000022888184,2|0,0:0|0:0,0:0:0:0:
305,308,266830,1,8,0:0:0:0:
46,165,267044,2,0,L|127:186,1,60.0000022888184,2|8,0:0|0:0,0:0:0:0:
201,105,267258,1,0,0:0:0:0:
201,105,267365,1,0,0:0:0:0:
201,105,267473,2,0,B|123:88,1,60.0000022888184,2|0,0:0|0:0,0:0:0:0:
48,55,267688,1,8,0:0:0:0:
260,192,267901,5,0,0:0:0:0:
313,191,268009,1,0,0:0:0:0:
342,163,268115,2,0,B|354:231|396:234|396:234|437:188,1,120.000004577637,4|0,0:0|0:0,0:0:0:0:
512,58,268545,1,8,0:0:0:0:
489,239,268759,2,0,B|468:299|390:313,1,120.000004577637,2|0,0:0|0:0,0:0:0:0:
301,248,269080,1,0,0:0:0:0:
261,220,269187,2,0,B|300:136|300:136|373:97|373:97,1,120.000004577637,2|8,0:0|0:0,0:0:0:0:
472,55,269616,6,0,P|408:34|339:60,1,120.000004577637,2|2,0:0|0:0,0:0:0:0:
271,64,269937,1,0,0:0:0:0:
252,101,270044,1,2,0:0:0:0:
355,295,270259,1,8,0:0:0:0:
168,314,270473,2,0,P|117:271|86:198,1,120.000004577637,2|0,0:0|0:0,0:0:0:0:
59,137,270795,1,0,0:0:0:0:
81,102,270901,1,2,0:0:0:0:
200,12,271115,1,8,0:0:0:0:
348,198,271330,1,2,0:0:0:0:
312,230,271437,1,0,0:0:0:0:
285,244,271544,6,0,B|282:293|282:293|322:328|336:383,1,120.000004577637,4|0,0:0|0:0,0:0:0:0:
139,139,271973,2,0,L|158:78,1,60.0000022888184,8|0,0:0|0:0,0:0:0:0:
341,60,272187,2,8,B|378:137|378:137|377:179,1,120.000004577637,2|8,0:0|0:0,0:0:0:0:
272,248,272508,1,0,0:0:0:0:
272,248,272615,2,2,L|237:304,2,60.0000022888185,2|0|0,0:0|0:0|0:0,0:0:0:0:
466,23,273044,2,0,B|482:76|454:139,1,120.000004577637,4|0,0:0|0:0,0:0:0:0:
218,212,273473,5,2,0:0:0:0:
218,212,273580,1,0,0:0:0:0:
218,212,273687,2,0,L|183:149,1,60.0000022888185,12|0,0:0|0:0,0:0:0:0:
62,62,273902,2,8,L|97:-1,1,60.0000022888185
188,159,274116,1,8,0:0:0:0:
188,159,274223,1,0,0:0:0:0:
188,159,274330,2,0,P|172:194|146:216,1,60.0000022888185,2|0,0:0|0:0,0:0:0:0:
0,23,274544,1,4,0:0:0:0:
221,47,274759,1,0,0:0:0:0:
221,47,274866,1,0,0:0:0:0:
221,47,274973,6,0,P|220:120|262:173,1,120.000004577637,4|0,0:0|0:0,0:0:0:0:
286,182,275295,1,0,0:0:0:0:
286,182,275402,1,8,0:0:0:0:
150,210,275616,2,0,P|194:268|275:297,1,120.000004577637,2|0,0:0|0:0,0:0:0:0:
365,177,276045,2,0,L|384:246,1,60.0000022888184,2|0,0:0|0:0,0:0:0:0:
395,326,276259,1,8,0:0:0:0:
269,182,276473,1,2,0:0:0:0:
269,182,276580,1,0,0:0:0:0:
269,182,276688,1,2,0:0:0:0:
206,346,276902,5,0,0:0:0:0:
141,203,277116,1,8,0:0:0:0:
216,95,277330,2,0,P|175:64|104:77,1,120.000004577637,2|0,0:0|0:0,0:0:0:0:
113,151,277652,2,0,L|151:222,1,60.0000022888184,0|2,0:0|0:0,0:0:0:0:
156,255,277866,1,0,0:0:0:0:
205,266,277973,1,8,0:0:0:0:
248,264,278080,1,0,0:0:0:0:
292,248,278188,1,0,0:0:0:0:
431,49,278402,6,0,P|366:103|340:149,1,120.000004577637,4|0,0:0|0:0,0:0:0:0:
210,189,278830,1,8,0:0:0:0:
196,18,279045,2,0,P|267:45|325:27,1,120.000004577637,2|0,0:0|0:0,0:0:0:0:
458,112,279473,2,0,L|446:188,1,60.0000022888184,2|0,0:0|0:0,0:0:0:0:
426,257,279688,1,8,0:0:0:0:
310,144,279902,1,2,0:0:0:0:
310,144,280009,1,0,0:0:0:0:
310,144,280116,1,2,0:0:0:0:
114,331,280330,5,0,0:0:0:0:
238,202,280545,1,8,0:0:0:0:
92,187,280759,2,0,L|89:108,1,60.0000022888184,2|8,0:0|0:0,0:0:0:0:
113,104,280973,1,0,0:0:0:0:
141,82,281080,1,8,0:0:0:0:
168,64,281188,1,0,0:0:0:0:
306,154,281402,2,0,L|339:210,1,60.0000022888184,8|0,0:0|0:0,0:0:0:0:
433,223,281616,2,0,L|401:163,1,60.0000022888184,2|0,0:0|0:0,0:0:0:0:
357,72,281830,6,0,P|285:54|222:71,1,120.000004577637,6|0,0:0|0:0,0:0:0:0:
201,80,282152,1,0,0:0:0:0:
201,80,282259,1,8,0:0:0:0:
94,8,282473,2,0,P|57:68|69:132,1,120.000004577637,2|0,0:0|0:0,0:0:0:0:
91,317,282902,2,0,L|166:266,1,60.0000022888184,2|0,0:0|0:0,0:0:0:0:
235,216,283116,1,8,0:0:0:0:
102,182,283330,1,2,0:0:0:0:
102,182,283438,1,0,0:0:0:0:
102,182,283545,1,2,0:0:0:0:
231,344,283759,5,0,0:0:0:0:
309,219,283973,1,8,0:0:0:0:
481,311,284188,2,0,P|439:293|350:326,1,120.000004577637,2|0,0:0|0:0,0:0:0:0:
309,219,284509,2,0,L|268:160,1,60.0000022888184,0|2,0:0|0:0,0:0:0:0:
248,139,284723,1,0,0:0:0:0:
213,119,284830,1,8,0:0:0:0:
182,95,284938,1,0,0:0:0:0:
162,67,285045,1,0,0:0:0:0:
154,30,285152,1,0,0:0:0:0:
249,13,285259,5,4,0:0:0:0:
213,221,285473,2,0,P|186:243|155:285,1,60.0000022888184,8|0,0:0|0:0,0:0:0:0:
272,288,285688,2,0,L|367:290,1,60.0000022888184,8|0,0:0|0:0,0:0:0:0:
385,359,285902,2,8,P|415:341|439:303,1,60.0000022888184
439,183,286116,1,8,0:0:0:0:
439,136,286223,1,8,0:0:0:0:
415,103,286330,2,0,P|389:122|370:161,1,60.0000022888184,8|0,0:0|0:0,0:0:0:0:
364,275,286545,1,0,0:0:0:0:
281,98,286759,2,0,P|226:150|201:220,1,120.000004577637,12|0,0:0|0:0,0:0:0:0:
188,381,287188,6,0,L|221:332,1,60.0000022888184,2|0,0:0|0:0,0:0:0:0:
318,185,287402,1,12,0:0:0:0:
117,86,287616,2,0,L|161:22,1,60.0000022888184,8|0,0:0|0:0,0:0:0:0:
206,136,287830,1,8,0:0:0:0:
206,136,287938,1,0,0:0:0:0:
206,136,288045,2,0,L|174:198,1,60.0000022888184,8|0,0:0|0:0,0:0:0:0:
306,86,288259,2,0,L|341:26,1,60.0000022888184,8|0,0:0|0:0,0:0:0:0:
410,33,288473,1,8,0:0:0:0:
422,75,288580,1,8,0:0:0:0:
444,147,288688,6,0,P|361:137|286:151,1,120.000004577637,4|0,0:0|0:0,0:0:0:0:
159,56,289116,1,8,0:0:0:0:
174,251,289330,2,0,L|45:252,2,120.000004577637,2|0|2,0:0|0:0|0:0,0:0:0:0:
278,256,289866,1,0,0:0:0:0:
278,256,289973,1,8,0:0:0:0:
441,94,290188,6,0,L|472:35,1,60.0000022888184,2|0,0:0|0:0,0:0:0:0:
341,122,290402,1,2,0:0:0:0:
341,122,290509,1,0,0:0:0:0:
341,122,290616,2,0,L|375:59,1,60.0000022888184,0|0,0:0|0:0,0:0:0:0:
267,80,290830,2,0,L|236:136,1,60.0000022888184,8|0,0:0|0:0,0:0:0:0:
246,224,291045,1,2,0:0:0:0:
92,282,291259,5,0,0:0:0:0:
72,243,291366,1,0,0:0:0:0:
64,198,291473,1,2,0:0:0:0:
70,152,291580,1,0,0:0:0:0:
89,109,291687,1,8,0:0:0:0:
169,147,291902,1,0,0:0:0:0:
148,30,292116,6,0,P|169:124|167:182,1,120.000004577637,4|0,0:0|0:0,0:0:0:0:
152,325,292545,1,8,0:0:0:0:
270,95,292759,2,0,P|274:173|245:239,1,120.000004577637,2|0,0:0|0:0,0:0:0:0:
288,338,293188,2,0,P|331:288|358:202,2,120.000004577637,2|8|2,0:0|0:0|0:0,0:0:0:0:
196,354,293723,1,0,0:0:0:0:
196,354,293830,1,0,0:0:0:0:
221,201,294045,5,2,0:0:0:0:
71,99,294259,1,8,0:0:0:0:
71,99,294366,1,0,0:0:0:0:
71,99,294473,2,0,L|144:50,1,60.0000022888184,0|8,0:0|0:0,0:0:0:0:
203,35,294688,1,0,0:0:0:0:
211,210,294902,1,0,0:0:0:0:
325,69,295116,2,0,L|363:14,2,60.0000022888184,8|0|0,0:0|0:0|0:0,0:0:0:0:
313,229,295438,1,0,0:0:0:0:
313,229,295545,6,0,P|392:172|416:116,1,120.000004577637,4|0,0:0|0:0,0:0:0:0:
461,24,295973,1,8,0:0:0:0:
261,69,296188,2,0,P|210:75|133:53,2,120.000004577637,2|0|2,0:0|0:0|0:0,0:0:0:0:
358,54,296723,1,0,0:0:0:0:
358,54,296830,1,8,0:0:0:0:
140,270,297045,6,0,L|100:326,1,60.0000022888184,2|0,0:0|0:0,0:0:0:0:
112,172,297259,1,2,0:0:0:0:
112,172,297366,1,0,0:0:0:0:
112,172,297474,2,0,L|82:224,1,60.0000022888184,0|0,0:0|0:0,0:0:0:0:
43,124,297688,2,0,L|90:38,1,60.0000022888184,8|0,0:0|0:0,0:0:0:0:
146,34,297902,1,2,0:0:0:0:
217,138,298116,5,0,0:0:0:0:
260,159,298224,1,0,0:0:0:0:
307,156,298331,1,2,0:0:0:0:
345,141,298438,1,0,0:0:0:0:
379,116,298545,1,8,0:0:0:0:
464,240,298759,1,0,0:0:0:0:
366,317,298973,6,0,P|328:259|341:180,1,120.000004577637,4|0,0:0|0:0,0:0:0:0:
372,27,299402,1,8,0:0:0:0:
238,263,299616,2,0,P|245:200|265:138,1,120.000004577637,8|0,0:0|0:0,0:0:0:0:
236,37,299938,1,0,0:0:0:0:
236,37,300045,2,0,P|190:92|162:166,1,120.000004577637,2|0,0:0|0:0,0:0:0:0:
238,263,300473,5,12,0:0:0:0:
352,43,300688,1,2,0:0:0:0:
436,250,300902,1,0,0:0:0:0:
236,336,301116,1,8,0:0:0:0:
406,92,301330,5,8,0:0:0:0:
128,144,301550,1,8,0:0:0:0:
341,353,301771,1,8,0:0:0:0:
266,114,301991,6,0,L|252:85,7,20,2|0|0|0|0|0|0|0,0:0|0:0|0:0|0:0|0:0|0:0|0:0|0:0,0:0:0:0:
257,95,302459,6,0,B|299:165|292:226|292:226|360:204|384:148|384:148|400:204|400:204|454:98|454:98|464:236|312:292|312:292|272:308|256:340|256:340|240:308|200:292|200:292|48:236|56:100|56:100|112:204|112:204|128:148|128:148|153:205|220:226|220:226|231:186|201:146|201:146|171:107|171:44|216:9|276:6|319:26|337:67|312:128,1,1800.00006866455,4|0,0:0|0:0,0:0:0:0:
