osu file format v14

[General]
AudioFilename: Day after (1).mp3
AudioLeadIn: 0
PreviewTime: 82037
Countdown: 0
SampleSet: Normal
StackLeniency: 0.7
Mode: 1
LetterboxInBreaks: 0
WidescreenStoryboard: 0

[Editor]
Bookmarks: 110330,178902,192616,220045,233759,261187,288616
DistanceSpacing: 2
BeatDivisor: 4
GridSize: 8
TimelineZoom: 1.5

[Metadata]
Title:Day after
TitleUnicode:Day after
Artist:FELT
ArtistUnicode:FELT
Creator:Senritsu
Version:Oni
Source:東方Project
Tags:東方花映塚 ~ Phantasmagoria of Flower View maika 舞花 hinsvar Grow Color NAGI☆ c85 Touhou Kaeidzuka project 今昔幻想郷 Land Gensokyo Past and Present
BeatmapID:718430
BeatmapSetID:323180

[Difficulty]
HPDrainRate:6
CircleSize:5
OverallDifficulty:6
ApproachRate:5
SliderMultiplier:1.4
SliderTickRate:1

[Events]
//Background and Video events
0,0,"rsz_kazamipct20fragrancepct20wallpaperspct20hdpct202560x1440.jpg",0,100
//Break Periods
//Storyboard Layer 0 (Background)
//Storyboard Layer 1 (Fail)
//Storyboard Layer 2 (Pass)
//Storyboard Layer 3 (Foreground)
//Storyboard Sound Samples

[TimingPoints]
608.542341969897,428.571428571429,4,1,0,80,1,0
14322,-100,4,1,0,85,0,0
41751,-100,4,1,0,80,0,0
79679,-100,4,1,0,60,0,0
79894,-100,4,1,0,70,0,0
80108,-100,4,1,0,80,0,0
80322,-100,4,1,0,90,0,0
82465,-100,4,1,0,50,0,0
82894,-100,4,1,0,100,0,1
110322,-100,4,1,0,100,0,0
110537,-100,4,1,0,75,0,0
124037,-100,4,1,0,80,0,0
149108,-100,4,1,0,90,0,0
151037,-100,4,1,0,50,0,0
151465,-100,4,1,0,100,0,1
178894,-100,4,1,0,100,0,0
179537,-100,4,1,0,50,0,0
192608,-100,4,1,0,80,0,0
206322,-100,4,1,0,90,0,0
218322,-100,4,1,0,60,0,0
233751,-100,4,1,0,90,0,0
241037,-100,4,1,0,50,0,0
241251,-100,4,1,0,60,0,0
241465,-100,4,1,0,70,0,0
241679,-100,4,1,0,75,0,0
241894,-100,4,1,0,80,0,0
242108,-100,4,1,0,85,0,0
242322,-100,4,1,0,90,0,0
242751,-100,4,1,0,95,0,0
242965,-100,4,1,0,100,0,0
244679,-100,4,1,0,70,0,0
245537,-100,4,1,0,90,0,0
246394,-100,4,1,0,50,0,0
246608,-100,4,1,0,60,0,0
247037,-100,4,1,0,50,0,0
247465,-100,4,1,0,100,0,1
274894,-100,4,1,0,100,0,0
300822,-100,4,1,0,60,0,0
301037,-100,4,1,0,70,0,0
301251,-100,4,1,0,80,0,0
301465,-100,4,1,0,85,0,0
301679,-100,4,1,0,90,0,0
301894,-100,4,1,0,95,0,0
302322,-100,4,1,0,40,0,0

[HitObjects]
160,144,608,5,8,0:0:0:0:
146,138,1251,1,0,0:0:0:0:
155,138,1894,1,0,0:0:0:0:
161,133,2322,1,0,0:0:0:0:
172,130,2537,1,8,0:0:0:0:
167,132,2965,1,8,0:0:0:0:
184,131,3394,1,8,0:0:0:0:
184,131,3608,1,8,0:0:0:0:
184,131,3715,1,8,0:0:0:0:
184,131,3929,1,8,0:0:0:0:
184,131,4037,1,8,0:0:0:0:
185,128,4679,1,0,0:0:0:0:
184,131,5322,1,0,0:0:0:0:
184,131,5965,1,8,0:0:0:0:
185,128,6394,1,8,0:0:0:0:
184,131,6822,1,8,0:0:0:0:
194,143,7037,1,8,0:0:0:0:
194,143,7144,1,8,0:0:0:0:
194,143,7251,1,8,0:0:0:0:
194,143,7465,1,8,0:0:0:0:
198,143,8108,1,0,0:0:0:0:
195,153,8751,1,0,0:0:0:0:
184,144,9179,1,0,0:0:0:0:
197,146,9394,1,8,0:0:0:0:
183,156,9822,1,8,0:0:0:0:
186,151,10251,1,8,0:0:0:0:
186,151,10465,1,8,0:0:0:0:
186,151,10572,1,8,0:0:0:0:
186,151,10787,1,8,0:0:0:0:
186,151,10894,1,8,0:0:0:0:
186,151,11537,1,0,0:0:0:0:
178,155,12179,1,0,0:0:0:0:
186,151,12822,1,8,0:0:0:0:
186,151,13251,1,8,0:0:0:0:
186,151,13679,1,8,0:0:0:0:
186,151,13894,1,8,0:0:0:0:
186,151,14001,1,8,0:0:0:0:
194,152,14108,1,8,0:0:0:0:
190,156,14322,1,4,0:0:0:0:
208,144,14751,1,8,0:0:0:0:
208,144,14965,1,0,0:0:0:0:
208,144,15394,1,0,0:0:0:0:
208,144,15608,1,0,0:0:0:0:
208,144,16037,1,8,0:0:0:0:
208,144,16251,1,0,0:0:0:0:
208,144,16679,1,8,0:0:0:0:
208,144,17108,1,8,0:0:0:0:
208,144,17322,1,8,0:0:0:0:
208,144,17429,1,8,0:0:0:0:
208,144,17644,1,8,0:0:0:0:
208,144,17751,1,8,0:0:0:0:
208,144,18179,1,8,0:0:0:0:
192,152,18394,1,0,0:0:0:0:
208,144,18822,1,8,0:0:0:0:
208,144,19037,1,8,0:0:0:0:
208,144,19465,1,0,0:0:0:0:
208,144,19679,1,8,0:0:0:0:
208,144,19894,1,0,0:0:0:0:
208,144,20108,1,0,0:0:0:0:
208,144,20322,1,8,0:0:0:0:
208,144,20537,1,8,0:0:0:0:
208,144,20751,1,8,0:0:0:0:
208,144,20858,1,8,0:0:0:0:
192,144,20965,1,8,0:0:0:0:
208,144,21179,1,4,0:0:0:0:
208,144,21608,1,8,0:0:0:0:
208,144,21822,1,0,0:0:0:0:
208,144,22251,1,0,0:0:0:0:
208,144,22465,1,0,0:0:0:0:
200,144,22894,1,8,0:0:0:0:
200,144,23108,1,8,0:0:0:0:
200,144,23537,1,0,0:0:0:0:
200,144,23965,1,8,0:0:0:0:
200,144,24179,1,8,0:0:0:0:
200,144,24287,1,8,0:0:0:0:
200,144,24501,1,8,0:0:0:0:
200,144,24608,1,8,0:0:0:0:
176,144,25036,1,8,0:0:0:0:
184,144,25251,1,0,0:0:0:0:
184,144,25679,1,0,0:0:0:0:
184,144,25894,1,0,0:0:0:0:
184,144,26323,1,0,0:0:0:0:
184,144,26537,1,8,0:0:0:0:
184,144,26751,1,8,0:0:0:0:
184,144,26965,1,0,0:0:0:0:
184,144,27179,1,8,0:0:0:0:
184,144,27394,1,8,0:0:0:0:
184,144,27608,1,8,0:0:0:0:
184,144,27822,1,0,0:0:0:0:
184,144,28037,1,4,0:0:0:0:
184,144,28465,1,8,0:0:0:0:
184,144,28679,1,0,0:0:0:0:
184,144,29108,1,0,0:0:0:0:
184,144,29322,1,0,0:0:0:0:
184,144,29751,1,8,0:0:0:0:
184,144,29965,1,0,0:0:0:0:
184,144,30394,1,8,0:0:0:0:
184,144,30822,1,8,0:0:0:0:
184,144,31037,1,8,0:0:0:0:
184,144,31144,1,8,0:0:0:0:
184,144,31358,1,8,0:0:0:0:
184,144,31465,1,8,0:0:0:0:
184,144,31894,1,8,0:0:0:0:
184,144,32108,1,0,0:0:0:0:
184,144,32536,1,0,0:0:0:0:
184,144,32751,1,0,0:0:0:0:
184,144,33179,1,0,0:0:0:0:
184,144,33394,1,0,0:0:0:0:
184,144,33608,1,8,0:0:0:0:
192,136,33822,1,8,0:0:0:0:
192,136,34037,1,0,0:0:0:0:
184,144,34144,1,0,0:0:0:0:
184,144,34251,1,8,0:0:0:0:
184,144,34358,1,8,0:0:0:0:
184,144,34465,1,8,0:0:0:0:
160,144,34679,1,8,0:0:0:0:
192,152,34894,1,4,0:0:0:0:
184,152,35322,1,8,0:0:0:0:
184,152,35537,1,0,0:0:0:0:
184,152,35965,1,0,0:0:0:0:
184,152,36179,1,0,0:0:0:0:
184,152,36608,1,8,0:0:0:0:
184,152,36822,1,0,0:0:0:0:
184,152,37037,1,0,0:0:0:0:
200,160,37251,1,8,0:0:0:0:
184,152,37679,1,8,0:0:0:0:
184,152,37894,1,8,0:0:0:0:
184,152,38001,1,8,0:0:0:0:
184,152,38215,1,8,0:0:0:0:
184,152,38322,1,8,0:0:0:0:
184,152,38751,1,8,0:0:0:0:
184,152,38965,1,0,0:0:0:0:
184,152,39394,1,0,0:0:0:0:
184,152,39608,1,0,0:0:0:0:
184,152,40037,1,0,0:0:0:0:
184,152,40251,1,8,0:0:0:0:
184,152,40465,1,8,0:0:0:0:
184,152,40679,1,8,0:0:0:0:
184,152,40894,1,0,0:0:0:0:
184,152,41108,1,0,0:0:0:0:
184,152,41322,1,8,0:0:0:0:
184,152,41537,1,0,0:0:0:0:
152,184,41751,1,4,0:0:0:0:
160,168,41965,1,8,0:0:0:0:
160,168,42179,1,8,0:0:0:0:
160,168,42394,1,0,0:0:0:0:
160,168,42608,1,8,0:0:0:0:
160,168,43037,1,8,0:0:0:0:
160,168,43251,1,8,0:0:0:0:
160,168,43679,1,8,0:0:0:0:
160,168,43894,1,8,0:0:0:0:
160,168,44109,1,0,0:0:0:0:
160,168,44323,1,8,0:0:0:0:
160,168,44537,1,0,0:0:0:0:
160,168,44751,1,8,0:0:0:0:
160,168,44858,1,8,0:0:0:0:
120,160,44965,1,0,0:0:0:0:
160,168,45072,1,8,0:0:0:0:
160,168,45179,1,0,0:0:0:0:
160,168,45394,1,8,0:0:0:0:
160,168,45608,1,8,0:0:0:0:
160,168,45822,1,0,0:0:0:0:
160,168,46251,1,8,0:0:0:0:
160,168,46465,1,0,0:0:0:0:
160,168,46894,1,0,0:0:0:0:
160,168,47108,1,8,0:0:0:0:
160,168,47322,1,8,0:0:0:0:
160,168,47537,1,0,0:0:0:0:
160,168,47751,1,0,0:0:0:0:
160,168,47965,1,8,0:0:0:0:
160,184,48072,1,8,0:0:0:0:
160,168,48179,1,8,0:0:0:0:
160,168,48394,1,0,0:0:0:0:
160,168,48608,1,4,0:0:0:0:
152,168,49037,1,8,0:0:0:0:
160,168,49251,1,0,0:0:0:0:
168,168,49679,1,8,0:0:0:0:
168,168,49894,1,8,0:0:0:0:
168,168,50322,1,0,0:0:0:0:
168,168,50537,1,8,0:0:0:0:
176,160,50751,1,8,0:0:0:0:
176,160,50965,1,0,0:0:0:0:
184,160,51179,1,0,0:0:0:0:
152,184,51394,1,8,0:0:0:0:
160,160,51501,1,0,0:0:0:0:
168,168,51608,1,8,0:0:0:0:
168,168,51715,1,8,0:0:0:0:
160,176,51822,1,0,0:0:0:0:
168,168,52037,1,0,0:0:0:0:
160,160,52251,1,8,0:0:0:0:
176,160,52465,1,8,0:0:0:0:
168,168,52679,1,0,0:0:0:0:
136,176,53108,1,0,0:0:0:0:
168,168,53322,1,8,0:0:0:0:
168,168,53751,1,8,0:0:0:0:
176,160,53965,1,0,0:0:0:0:
176,160,54179,1,8,0:0:0:0:
168,168,54394,1,8,0:0:0:0:
168,160,54608,1,0,0:0:0:0:
168,168,54822,1,8,0:0:0:0:
184,160,54929,1,8,0:0:0:0:
168,168,55037,1,8,0:0:0:0:
168,160,55251,1,0,0:0:0:0:
168,168,55465,1,12,0:0:0:0:
160,160,55679,1,0,0:0:0:0:
160,160,55894,1,8,0:0:0:0:
160,160,56108,1,8,0:0:0:0:
160,160,56322,1,0,0:0:0:0:
160,160,56751,1,8,0:0:0:0:
160,160,56965,1,0,0:0:0:0:
160,160,57394,1,0,0:0:0:0:
144,176,57608,1,8,0:0:0:0:
160,160,57822,1,0,0:0:0:0:
160,160,58037,1,8,0:0:0:0:
160,160,58251,1,0,0:0:0:0:
144,176,58465,1,8,0:0:0:0:
136,168,58572,1,8,0:0:0:0:
160,160,58679,1,8,0:0:0:0:
160,160,58787,1,8,0:0:0:0:
160,160,58894,1,0,0:0:0:0:
160,160,59322,1,8,0:0:0:0:
160,160,59537,1,0,0:0:0:0:
160,160,59965,1,0,0:0:0:0:
144,152,60179,1,8,0:0:0:0:
160,160,60608,1,0,0:0:0:0:
160,160,60822,1,8,0:0:0:0:
144,152,61037,1,8,0:0:0:0:
160,160,61251,1,0,0:0:0:0:
152,160,61465,1,8,0:0:0:0:
160,160,61679,1,0,0:0:0:0:
152,168,61894,1,8,0:0:0:0:
80,160,62001,1,8,0:0:0:0:
160,160,62108,1,8,0:0:0:0:
160,160,62322,1,4,0:0:0:0:
160,160,62751,1,8,0:0:0:0:
160,160,62965,1,0,0:0:0:0:
160,160,63394,1,0,0:0:0:0:
152,168,63608,1,8,0:0:0:0:
160,160,64036,1,0,0:0:0:0:
160,160,64251,1,8,0:0:0:0:
176,176,64465,1,8,0:0:0:0:
160,160,64679,1,0,0:0:0:0:
160,160,64894,1,0,0:0:0:0:
104,176,65001,1,0,0:0:0:0:
160,160,65108,1,0,0:0:0:0:
152,176,65215,1,0,0:0:0:0:
152,176,65322,1,8,0:0:0:0:
160,160,65537,1,8,0:0:0:0:
160,160,65644,1,0,0:0:0:0:
160,160,65751,1,0,0:0:0:0:
160,160,66179,1,8,0:0:0:0:
160,160,66394,1,0,0:0:0:0:
160,160,66822,1,0,0:0:0:0:
176,160,67037,1,8,0:0:0:0:
160,160,67465,1,0,0:0:0:0:
160,160,67679,1,8,0:0:0:0:
160,160,68108,1,0,0:0:0:0:
160,160,68537,1,0,0:0:0:0:
160,160,68751,1,0,0:0:0:0:
160,144,69179,1,4,0:0:0:0:
168,144,69501,1,0,0:0:0:0:
168,144,69608,1,0,0:0:0:0:
160,152,69822,1,8,0:0:0:0:
152,144,70251,1,0,0:0:0:0:
160,152,70465,1,12,0:0:0:0:
152,144,70679,1,0,0:0:0:0:
152,144,71108,1,0,0:0:0:0:
152,144,71322,1,0,0:0:0:0:
160,152,71537,1,12,0:0:0:0:
152,152,71751,1,0,0:0:0:0:
152,152,71965,1,0,0:0:0:0:
152,152,72179,1,8,0:0:0:0:
160,160,72287,1,8,0:0:0:0:
152,152,72394,1,0,0:0:0:0:
152,152,72608,1,4,0:0:0:0:
152,152,72929,1,0,0:0:0:0:
152,152,73037,1,0,0:0:0:0:
168,160,73251,1,8,0:0:0:0:
152,152,73465,1,0,0:0:0:0:
144,160,73679,1,0,0:0:0:0:
160,160,73894,1,0,0:0:0:0:
160,160,74108,1,12,0:0:0:0:
160,160,74322,1,0,0:0:0:0:
160,160,74751,1,0,0:0:0:0:
184,152,74965,1,12,0:0:0:0:
160,160,75179,1,0,0:0:0:0:
160,160,75394,1,0,0:0:0:0:
160,160,75501,1,0,0:0:0:0:
184,152,75608,1,8,0:0:0:0:
160,160,75715,1,0,0:0:0:0:
160,160,75822,1,0,0:0:0:0:
160,160,76037,1,4,0:0:0:0:
160,160,76358,1,0,0:0:0:0:
160,160,76465,1,0,0:0:0:0:
192,152,76679,1,8,0:0:0:0:
176,152,77108,1,0,0:0:0:0:
192,152,77322,1,12,0:0:0:0:
160,136,77537,1,0,0:0:0:0:
192,152,77965,1,12,0:0:0:0:
208,152,78179,1,12,0:0:0:0:
200,136,78394,1,0,0:0:0:0:
192,160,78822,1,8,0:0:0:0:
200,136,79037,1,0,0:0:0:0:
200,136,79251,1,0,0:0:0:0:
176,152,79679,1,0,0:0:0:0:
192,128,79894,1,0,0:0:0:0:
192,128,80108,1,0,0:0:0:0:
192,128,80322,1,0,0:0:0:0:
192,128,80537,1,0,0:0:0:0:
192,128,80751,1,0,0:0:0:0:
208,168,80965,1,12,0:0:0:0:
224,168,82465,1,12,0:0:0:0:
208,168,82894,5,4,0:0:0:0:
224,160,83215,1,0,0:0:0:0:
224,168,83322,1,8,0:0:0:0:
224,152,83537,1,0,0:0:0:0:
224,152,83751,1,0,0:0:0:0:
224,152,83965,1,8,0:0:0:0:
224,168,84179,1,8,0:0:0:0:
224,152,84394,1,0,0:0:0:0:
224,160,84822,1,8,0:0:0:0:
224,168,85037,1,8,0:0:0:0:
224,176,85251,1,0,0:0:0:0:
224,160,85465,1,0,0:0:0:0:
224,160,85679,1,8,0:0:0:0:
224,160,85787,1,0,0:0:0:0:
224,168,85894,1,8,0:0:0:0:
232,160,86108,1,8,0:0:0:0:
232,160,86322,1,4,0:0:0:0:
224,168,86644,1,0,0:0:0:0:
224,168,86751,1,8,0:0:0:0:
224,160,86965,1,0,0:0:0:0:
224,160,87179,1,0,0:0:0:0:
224,160,87394,1,8,0:0:0:0:
224,160,87501,1,8,0:0:0:0:
224,168,87608,1,8,0:0:0:0:
224,160,87822,1,0,0:0:0:0:
224,160,88037,1,0,0:0:0:0:
224,152,88144,1,8,0:0:0:0:
224,160,88251,1,0,0:0:0:0:
224,160,88358,1,0,0:0:0:0:
224,168,88465,1,8,0:0:0:0:
224,152,88679,1,0,0:0:0:0:
216,160,88787,1,8,0:0:0:0:
216,160,88894,1,0,0:0:0:0:
216,160,89108,1,0,0:0:0:0:
224,168,89322,1,8,0:0:0:0:
224,160,89429,1,0,0:0:0:0:
224,160,89537,1,8,0:0:0:0:
224,160,89751,1,4,0:0:0:0:
224,160,89965,1,0,0:0:0:0:
224,168,90179,1,8,0:0:0:0:
232,152,90394,1,0,0:0:0:0:
224,168,90822,1,0,0:0:0:0:
224,168,91037,1,8,0:0:0:0:
224,152,91251,1,8,0:0:0:0:
224,152,91358,1,0,0:0:0:0:
224,152,91465,1,0,0:0:0:0:
224,152,91679,1,0,0:0:0:0:
224,168,91894,1,8,0:0:0:0:
216,160,92108,1,0,0:0:0:0:
224,144,92537,1,0,0:0:0:0:
224,176,92644,1,0,0:0:0:0:
224,168,92751,1,8,0:0:0:0:
248,168,92965,1,8,0:0:0:0:
216,168,93179,1,4,0:0:0:0:
224,168,93608,1,8,0:0:0:0:
216,168,93822,1,0,0:0:0:0:
224,160,94037,1,8,0:0:0:0:
208,184,94251,1,0,0:0:0:0:
200,184,94358,1,0,0:0:0:0:
224,168,94465,1,8,0:0:0:0:
208,184,94679,1,12,0:0:0:0:
208,176,95108,1,0,0:0:0:0:
224,168,95322,1,12,0:0:0:0:
224,176,95644,1,8,0:0:0:0:
224,176,95751,1,8,0:0:0:0:
224,176,95965,1,0,0:0:0:0:
224,168,96179,1,8,0:0:0:0:
224,176,96287,1,0,0:0:0:0:
224,176,96394,1,0,0:0:0:0:
224,176,96608,1,4,0:0:0:0:
224,184,96929,1,0,0:0:0:0:
224,168,97037,1,8,0:0:0:0:
224,184,97251,1,0,0:0:0:0:
224,184,97465,1,0,0:0:0:0:
224,184,97679,1,8,0:0:0:0:
224,168,97894,1,8,0:0:0:0:
224,184,98108,1,0,0:0:0:0:
72,144,98215,1,0,0:0:0:0:
208,176,98322,1,0,0:0:0:0:
208,176,98537,1,8,0:0:0:0:
208,176,98644,1,0,0:0:0:0:
224,168,98751,1,8,0:0:0:0:
224,176,98965,1,8,0:0:0:0:
216,176,99072,1,0,0:0:0:0:
224,176,99179,1,0,0:0:0:0:
216,176,99394,1,0,0:0:0:0:
224,168,99608,1,8,0:0:0:0:
224,176,99822,1,8,0:0:0:0:
224,176,100037,1,4,0:0:0:0:
208,176,100358,1,0,0:0:0:0:
224,168,100465,1,8,0:0:0:0:
208,176,100679,1,8,0:0:0:0:
208,176,100894,1,0,0:0:0:0:
208,176,101108,1,8,0:0:0:0:
208,176,101215,1,0,0:0:0:0:
224,168,101322,1,8,0:0:0:0:
224,176,101537,1,8,0:0:0:0:
208,168,101644,1,8,0:0:0:0:
224,176,101751,1,0,0:0:0:0:
224,168,101858,1,8,0:0:0:0:
224,168,101965,1,0,0:0:0:0:
224,168,102179,1,8,0:0:0:0:
208,168,102394,1,0,0:0:0:0:
216,176,102501,1,8,0:0:0:0:
208,168,102608,1,8,0:0:0:0:
224,168,102715,1,8,0:0:0:0:
224,168,102822,1,0,0:0:0:0:
224,168,103037,1,8,0:0:0:0:
128,152,103144,1,0,0:0:0:0:
208,160,103251,1,0,0:0:0:0:
200,168,103465,1,4,0:0:0:0:
200,168,103787,1,0,0:0:0:0:
224,168,103894,1,8,0:0:0:0:
200,168,104108,1,8,0:0:0:0:
200,168,104322,1,0,0:0:0:0:
200,168,104644,1,0,0:0:0:0:
224,168,104751,1,8,0:0:0:0:
216,168,104965,1,8,0:0:0:0:
216,168,105179,1,0,0:0:0:0:
216,168,105394,1,0,0:0:0:0:
216,168,105501,1,0,0:0:0:0:
224,168,105608,1,8,0:0:0:0:
216,168,105822,1,0,0:0:0:0:
216,168,106144,1,8,0:0:0:0:
216,168,106251,1,0,0:0:0:0:
224,168,106465,1,8,0:0:0:0:
216,176,106679,1,0,0:0:0:0:
216,176,106894,1,4,0:0:0:0:
224,168,107322,1,8,0:0:0:0:
216,176,107537,1,0,0:0:0:0:
216,176,107644,1,0,0:0:0:0:
216,176,107751,1,8,0:0:0:0:
216,176,107965,1,0,0:0:0:0:
224,168,108179,1,0,0:0:0:0:
216,176,108394,1,12,0:0:0:0:
192,176,108822,1,0,0:0:0:0:
224,168,109037,1,12,0:0:0:0:
208,168,109251,1,8,0:0:0:0:
208,168,109358,1,8,0:0:0:0:
208,168,109465,1,8,0:0:0:0:
208,168,109679,1,0,0:0:0:0:
224,168,109894,1,12,0:0:0:0:
216,160,110108,1,0,0:0:0:0:
224,168,110322,1,0,0:0:0:0:
384,192,110537,1,8,0:0:0:0:
128,192,110751,1,0,0:0:0:0:
128,192,110858,1,0,0:0:0:0:
128,192,110965,1,0,0:0:0:0:
384,192,111179,1,8,0:0:0:0:
128,192,111394,1,0,0:0:0:0:
384,192,111501,1,8,0:0:0:0:
128,192,111715,1,0,0:0:0:0:
384,192,111822,1,8,0:0:0:0:
128,192,112037,1,0,0:0:0:0:
128,192,112144,1,0,0:0:0:0:
128,192,112251,1,0,0:0:0:0:
128,192,112358,1,0,0:0:0:0:
384,192,112465,1,8,0:0:0:0:
128,192,112679,1,0,0:0:0:0:
384,192,113108,1,8,0:0:0:0:
128,192,113322,1,0,0:0:0:0:
384,192,113429,1,8,0:0:0:0:
128,192,113537,1,0,0:0:0:0:
128,192,113751,1,0,0:0:0:0:
384,192,113965,1,8,0:0:0:0:
128,192,114072,1,0,0:0:0:0:
384,192,114287,1,8,0:0:0:0:
128,192,114394,1,0,0:0:0:0:
384,192,114608,1,8,0:0:0:0:
128,192,114822,1,0,0:0:0:0:
384,192,114929,1,8,0:0:0:0:
128,192,115037,1,0,0:0:0:0:
384,192,115251,1,8,0:0:0:0:
128,192,115465,1,0,0:0:0:0:
384,192,115572,1,8,0:0:0:0:
128,192,115679,1,0,0:0:0:0:
384,192,115894,1,8,0:0:0:0:
384,192,116108,1,8,0:0:0:0:
128,192,116215,1,0,0:0:0:0:
384,192,116322,1,8,0:0:0:0:
128,192,116537,1,0,0:0:0:0:
384,192,116751,1,8,0:0:0:0:
128,192,116965,1,0,0:0:0:0:
128,192,117179,1,4,0:0:0:0:
384,192,117394,1,8,0:0:0:0:
128,192,117822,1,0,0:0:0:0:
128,192,117929,1,0,0:0:0:0:
384,192,118037,1,8,0:0:0:0:
128,192,118251,1,0,0:0:0:0:
384,192,118358,1,8,0:0:0:0:
128,192,118572,1,0,0:0:0:0:
384,192,118679,1,8,0:0:0:0:
128,192,118894,1,0,0:0:0:0:
128,192,119001,1,0,0:0:0:0:
128,192,119108,1,0,0:0:0:0:
128,192,119215,1,0,0:0:0:0:
384,192,119322,1,8,0:0:0:0:
128,192,119537,1,0,0:0:0:0:
384,192,119965,1,8,0:0:0:0:
128,192,120179,1,0,0:0:0:0:
384,192,120287,1,8,0:0:0:0:
128,192,120394,1,0,0:0:0:0:
128,192,120608,1,0,0:0:0:0:
384,192,120822,1,8,0:0:0:0:
128,192,120929,1,0,0:0:0:0:
384,192,121144,1,8,0:0:0:0:
128,192,121251,1,0,0:0:0:0:
384,192,121465,1,8,0:0:0:0:
128,192,121679,1,0,0:0:0:0:
384,192,121787,1,8,0:0:0:0:
128,192,121894,1,0,0:0:0:0:
384,192,122108,1,8,0:0:0:0:
128,192,122322,1,0,0:0:0:0:
384,192,122429,1,8,0:0:0:0:
128,192,122537,1,0,0:0:0:0:
384,192,122751,1,8,0:0:0:0:
384,192,122965,1,8,0:0:0:0:
128,192,123072,1,0,0:0:0:0:
384,192,123179,1,8,0:0:0:0:
128,192,123394,1,0,0:0:0:0:
128,192,123501,1,0,0:0:0:0:
384,192,123608,1,8,0:0:0:0:
128,192,123822,1,0,0:0:0:0:
128,192,124037,1,4,0:0:0:0:
128,192,124465,1,0,0:0:0:0:
128,192,124679,1,0,0:0:0:0:
384,192,124894,1,8,0:0:0:0:
128,192,125108,1,0,0:0:0:0:
128,192,125215,1,0,0:0:0:0:
384,192,125322,1,8,0:0:0:0:
128,192,125537,1,0,0:0:0:0:
384,192,125751,1,8,0:0:0:0:
128,192,125965,1,0,0:0:0:0:
128,192,126072,1,0,0:0:0:0:
128,192,126179,1,0,0:0:0:0:
128,192,126608,1,0,0:0:0:0:
128,192,126822,1,0,0:0:0:0:
384,192,126929,1,8,0:0:0:0:
384,192,127037,1,8,0:0:0:0:
128,192,127251,1,0,0:0:0:0:
128,192,127465,1,0,0:0:0:0:
128,192,127894,1,0,0:0:0:0:
384,192,128322,1,8,0:0:0:0:
128,192,128429,1,0,0:0:0:0:
128,192,128537,1,0,0:0:0:0:
128,192,128644,1,0,0:0:0:0:
384,192,128751,1,8,0:0:0:0:
384,192,128965,1,8,0:0:0:0:
128,192,129179,1,0,0:0:0:0:
128,192,129394,1,0,0:0:0:0:
128,192,129501,1,0,0:0:0:0:
384,192,129608,1,8,0:0:0:0:
128,192,129822,1,0,0:0:0:0:
128,192,130037,1,0,0:0:0:0:
128,192,130144,1,0,0:0:0:0:
384,192,130251,1,8,0:0:0:0:
128,192,130358,1,0,0:0:0:0:
384,192,130465,1,8,0:0:0:0:
128,192,130894,1,4,0:0:0:0:
128,192,131322,1,0,0:0:0:0:
128,192,131537,1,0,0:0:0:0:
384,192,131751,1,8,0:0:0:0:
128,192,131858,1,0,0:0:0:0:
128,192,131965,1,0,0:0:0:0:
384,192,132072,1,8,0:0:0:0:
384,192,132179,1,8,0:0:0:0:
384,192,132394,1,8,0:0:0:0:
128,192,132608,1,0,0:0:0:0:
128,192,132715,1,0,0:0:0:0:
384,192,132822,1,8,0:0:0:0:
384,192,132929,1,8,0:0:0:0:
128,192,133037,1,0,0:0:0:0:
128,192,133465,1,0,0:0:0:0:
128,192,133679,1,0,0:0:0:0:
384,192,133787,1,8,0:0:0:0:
384,192,133894,1,8,0:0:0:0:
128,192,134108,1,0,0:0:0:0:
128,192,134322,1,0,0:0:0:0:
384,192,134537,1,8,0:0:0:0:
128,192,134751,1,0,0:0:0:0:
128,192,135179,1,0,0:0:0:0:
128,192,135287,1,0,0:0:0:0:
384,192,135394,1,8,0:0:0:0:
384,192,135501,1,8,0:0:0:0:
384,192,135608,1,8,0:0:0:0:
128,192,135822,1,0,0:0:0:0:
128,192,136037,1,0,0:0:0:0:
384,192,136144,1,8,0:0:0:0:
128,192,136251,1,0,0:0:0:0:
384,192,136358,1,8,0:0:0:0:
384,192,136465,1,8,0:0:0:0:
128,192,136679,1,0,0:0:0:0:
384,192,136894,1,8,0:0:0:0:
128,192,137108,1,0,0:0:0:0:
384,192,137322,1,6,0:0:0:0:
128,192,137537,1,0,0:0:0:0:
128,192,137751,1,4,0:0:0:0:
128,192,137965,1,0,0:0:0:0:
384,192,138072,1,8,0:0:0:0:
128,192,138179,1,0,0:0:0:0:
384,192,138394,1,8,0:0:0:0:
128,192,138608,1,0,0:0:0:0:
128,192,138822,1,0,0:0:0:0:
384,192,139037,1,6,0:0:0:0:
128,192,139465,1,0,0:0:0:0:
384,192,139679,1,8,0:0:0:0:
128,192,139787,1,0,0:0:0:0:
128,192,139894,1,0,0:0:0:0:
384,192,140108,1,6,0:0:0:0:
128,192,140429,1,0,0:0:0:0:
384,192,140537,1,8,0:0:0:0:
384,192,140751,1,8,0:0:0:0:
128,192,140858,1,0,0:0:0:0:
128,192,140965,1,0,0:0:0:0:
128,192,141179,1,4,0:0:0:0:
128,192,141394,1,0,0:0:0:0:
384,192,141501,1,8,0:0:0:0:
128,192,141608,1,0,0:0:0:0:
384,192,141822,1,8,0:0:0:0:
128,192,142037,1,0,0:0:0:0:
128,192,142465,1,0,0:0:0:0:
128,192,142679,1,4,0:0:0:0:
384,192,143108,1,8,0:0:0:0:
128,192,143322,1,4,0:0:0:0:
128,192,143537,1,6,0:0:0:0:
128,192,143965,1,0,0:0:0:0:
384,192,144179,1,8,0:0:0:0:
128,192,144287,1,0,0:0:0:0:
128,192,144394,1,0,0:0:0:0:
128,192,144608,1,4,0:0:0:0:
128,192,144822,1,0,0:0:0:0:
384,192,144929,1,8,0:0:0:0:
128,192,145037,1,0,0:0:0:0:
384,192,145251,1,8,0:0:0:0:
128,192,145465,1,0,0:0:0:0:
384,192,145894,1,10,0:0:0:0:
128,192,146108,1,0,0:0:0:0:
128,192,146215,1,0,0:0:0:0:
128,192,146322,1,0,0:0:0:0:
128,192,146537,1,4,0:0:0:0:
128,192,146751,1,4,0:0:0:0:
384,192,146965,1,6,0:0:0:0:
128,192,147179,1,0,0:0:0:0:
384,192,147287,1,8,0:0:0:0:
128,192,147394,1,0,0:0:0:0:
128,192,147608,1,0,0:0:0:0:
128,192,147715,1,0,0:0:0:0:
128,192,147822,1,0,0:0:0:0:
128,192,147929,1,0,0:0:0:0:
384,192,148037,1,8,0:0:0:0:
128,192,148358,1,0,0:0:0:0:
384,192,148465,1,8,0:0:0:0:
128,192,148679,1,0,0:0:0:0:
128,192,148787,1,0,0:0:0:0:
384,192,148894,1,8,0:0:0:0:
128,192,149108,1,0,0:0:0:0:
384,192,149322,1,8,0:0:0:0:
384,192,149537,1,6,0:0:0:0:
384,192,151037,5,6,0:0:0:0:
128,192,151465,1,4,0:0:0:0:
384,192,151894,1,8,0:0:0:0:
128,192,152108,1,0,0:0:0:0:
128,192,152322,1,0,0:0:0:0:
384,192,152537,1,8,0:0:0:0:
128,192,152751,1,0,0:0:0:0:
384,192,152965,1,8,0:0:0:0:
128,192,153179,1,0,0:0:0:0:
128,192,153287,1,0,0:0:0:0:
128,192,153394,1,0,0:0:0:0:
384,192,153608,1,8,0:0:0:0:
128,192,153822,1,0,0:0:0:0:
128,192,154037,1,0,0:0:0:0:
128,192,154144,1,0,0:0:0:0:
128,192,154251,1,0,0:0:0:0:
384,192,154465,1,8,0:0:0:0:
384,192,154679,1,0,0:0:0:0:
128,192,154894,1,4,0:0:0:0:
384,192,155322,1,8,0:0:0:0:
128,192,155537,1,0,0:0:0:0:
128,192,155751,1,0,0:0:0:0:
128,192,155858,1,0,0:0:0:0:
384,192,155965,1,8,0:0:0:0:
384,192,156179,1,8,0:0:0:0:
128,192,156394,1,0,0:0:0:0:
128,192,156608,1,0,0:0:0:0:
384,192,156715,1,8,0:0:0:0:
128,192,156822,1,0,0:0:0:0:
128,192,157037,1,8,0:0:0:0:
128,192,157251,1,0,0:0:0:0:
384,192,157358,1,8,0:0:0:0:
384,192,157572,1,8,0:0:0:0:
128,192,157679,1,0,0:0:0:0:
384,192,157894,1,8,0:0:0:0:
128,192,158108,1,0,0:0:0:0:
128,192,158322,1,4,0:0:0:0:
384,192,158751,1,8,0:0:0:0:
384,192,158965,1,8,0:0:0:0:
128,192,159179,1,0,0:0:0:0:
128,192,159287,1,0,0:0:0:0:
384,192,159394,1,8,0:0:0:0:
128,192,159608,1,0,0:0:0:0:
384,192,159822,1,8,0:0:0:0:
128,192,160251,1,0,0:0:0:0:
384,192,160465,1,8,0:0:0:0:
128,192,160679,1,0,0:0:0:0:
128,192,160787,1,0,0:0:0:0:
384,192,160894,1,8,0:0:0:0:
128,192,161108,1,0,0:0:0:0:
384,192,161322,1,8,0:0:0:0:
128,192,161537,1,0,0:0:0:0:
128,192,161751,1,4,0:0:0:0:
384,192,162179,1,8,0:0:0:0:
128,192,162394,1,0,0:0:0:0:
128,192,162608,1,0,0:0:0:0:
128,192,162715,1,0,0:0:0:0:
384,192,162822,1,8,0:0:0:0:
128,192,163037,1,0,0:0:0:0:
384,192,163251,1,6,0:0:0:0:
128,192,163679,1,0,0:0:0:0:
384,192,163894,1,6,0:0:0:0:
128,192,164108,1,0,0:0:0:0:
384,192,164215,1,8,0:0:0:0:
384,192,164322,1,8,0:0:0:0:
128,192,164537,1,0,0:0:0:0:
384,192,164751,1,8,0:0:0:0:
128,192,164858,1,0,0:0:0:0:
128,192,164965,1,0,0:0:0:0:
384,192,165179,1,6,0:0:0:0:
384,192,165608,1,8,0:0:0:0:
128,192,165822,1,0,0:0:0:0:
128,192,166037,1,0,0:0:0:0:
128,192,166144,1,0,0:0:0:0:
384,192,166251,1,8,0:0:0:0:
128,192,166465,1,0,0:0:0:0:
384,192,166679,1,8,0:0:0:0:
128,192,166894,1,0,0:0:0:0:
128,192,167001,1,0,0:0:0:0:
128,192,167108,1,0,0:0:0:0:
384,192,167322,1,8,0:0:0:0:
128,192,167537,1,0,0:0:0:0:
128,192,167751,1,0,0:0:0:0:
128,192,167858,1,0,0:0:0:0:
128,192,167965,1,0,0:0:0:0:
384,192,168179,1,8,0:0:0:0:
128,192,168394,1,0,0:0:0:0:
128,192,168608,1,4,0:0:0:0:
384,192,169037,1,8,0:0:0:0:
128,192,169251,1,0,0:0:0:0:
128,192,169465,1,0,0:0:0:0:
128,192,169572,1,0,0:0:0:0:
384,192,169679,1,8,0:0:0:0:
384,192,169894,1,8,0:0:0:0:
128,192,170108,1,0,0:0:0:0:
128,192,170215,1,0,0:0:0:0:
128,192,170322,1,0,0:0:0:0:
384,192,170537,1,0,0:0:0:0:
384,192,170751,1,8,0:0:0:0:
128,192,170965,1,0,0:0:0:0:
128,192,171072,1,0,0:0:0:0:
128,192,171179,1,0,0:0:0:0:
128,192,171394,1,0,0:0:0:0:
384,192,171608,1,8,0:0:0:0:
384,192,171822,1,8,0:0:0:0:
128,192,172037,1,4,0:0:0:0:
384,192,172465,1,8,0:0:0:0:
128,192,172679,1,0,0:0:0:0:
128,192,172894,1,0,0:0:0:0:
128,192,173001,1,0,0:0:0:0:
384,192,173108,1,8,0:0:0:0:
384,192,173322,1,8,0:0:0:0:
128,192,173537,1,0,0:0:0:0:
128,192,173751,1,0,0:0:0:0:
384,192,174179,1,8,0:0:0:0:
128,192,174608,1,0,0:0:0:0:
128,192,174822,1,0,0:0:0:0:
128,192,174929,1,0,0:0:0:0:
384,192,175037,1,8,0:0:0:0:
128,192,175251,1,0,0:0:0:0:
128,192,175465,1,4,0:0:0:0:
384,192,175894,1,8,0:0:0:0:
128,192,176108,1,0,0:0:0:0:
128,192,176215,1,0,0:0:0:0:
128,192,176322,1,0,0:0:0:0:
128,192,176537,1,0,0:0:0:0:
384,192,176751,1,8,0:0:0:0:
128,192,176965,1,4,0:0:0:0:
128,192,177394,1,0,0:0:0:0:
128,192,177608,1,4,0:0:0:0:
128,192,177822,5,0,0:0:0:0:
128,192,177929,1,0,0:0:0:0:
384,192,178037,1,8,0:0:0:0:
128,192,178251,1,0,0:0:0:0:
384,192,178465,1,6,0:0:0:0:
128,192,178894,1,0,0:0:0:0:
128,184,179537,1,8,0:0:0:0:
128,184,179965,1,8,0:0:0:0:
144,184,180072,1,0,0:0:0:0:
136,176,180179,1,0,0:0:0:0:
136,176,180393,1,8,0:0:0:0:
136,176,180608,1,0,0:0:0:0:
136,176,180715,1,0,0:0:0:0:
136,176,180822,1,8,0:0:0:0:
136,184,181037,1,0,0:0:0:0:
160,176,181251,1,8,0:0:0:0:
152,168,181679,1,8,0:0:0:0:
136,184,181894,1,0,0:0:0:0:
152,168,182108,1,0,0:0:0:0:
136,184,182322,1,8,0:0:0:0:
144,168,182751,1,0,0:0:0:0:
144,168,182965,1,8,0:0:0:0:
144,168,183179,1,0,0:0:0:0:
144,168,183287,1,0,0:0:0:0:
152,168,183394,1,8,0:0:0:0:
144,168,183608,1,0,0:0:0:0:
152,168,183822,1,8,0:0:0:0:
152,168,184251,1,8,0:0:0:0:
144,168,184465,1,0,0:0:0:0:
152,168,184679,1,8,0:0:0:0:
152,168,185108,1,8,0:0:0:0:
184,160,185215,1,0,0:0:0:0:
184,160,185322,1,0,0:0:0:0:
152,168,185537,1,8,0:0:0:0:
144,176,185751,1,0,0:0:0:0:
176,152,186179,1,0,0:0:0:0:
168,160,186394,1,8,0:0:0:0:
152,168,186608,1,0,0:0:0:0:
168,160,186822,1,8,0:0:0:0:
160,152,186929,1,8,0:0:0:0:
152,168,187037,1,0,0:0:0:0:
160,176,187144,1,0,0:0:0:0:
168,160,187251,1,8,0:0:0:0:
160,152,187465,1,0,0:0:0:0:
168,160,187679,1,8,0:0:0:0:
96,144,187787,1,0,0:0:0:0:
168,160,187894,1,0,0:0:0:0:
168,160,188108,1,8,0:0:0:0:
168,160,188537,1,8,0:0:0:0:
184,160,188751,1,0,0:0:0:0:
168,160,188965,1,8,0:0:0:0:
152,160,189072,1,0,0:0:0:0:
160,160,189179,1,0,0:0:0:0:
160,152,189394,1,8,0:0:0:0:
152,144,189608,1,8,0:0:0:0:
160,152,189715,1,8,0:0:0:0:
152,144,189822,1,0,0:0:0:0:
152,144,190037,1,0,0:0:0:0:
152,144,190144,1,0,0:0:0:0:
168,160,190251,1,8,0:0:0:0:
168,160,190358,1,8,0:0:0:0:
160,160,190465,1,8,0:0:0:0:
160,152,190679,1,0,0:0:0:0:
160,160,190894,1,8,0:0:0:0:
160,160,191001,1,0,0:0:0:0:
160,160,191108,1,0,0:0:0:0:
160,160,191322,1,8,0:0:0:0:
152,176,191537,1,0,0:0:0:0:
160,160,191751,1,8,0:0:0:0:
152,168,191858,1,0,0:0:0:0:
152,168,191965,1,8,0:0:0:0:
160,160,192179,1,8,0:0:0:0:
136,176,192394,1,8,0:0:0:0:
128,192,192608,5,4,0:0:0:0:
128,192,193037,1,0,0:0:0:0:
128,192,193465,1,0,0:0:0:0:
128,192,193572,1,0,0:0:0:0:
384,192,193679,1,8,0:0:0:0:
384,192,193787,1,8,0:0:0:0:
384,192,193894,1,8,0:0:0:0:
128,192,194108,1,0,0:0:0:0:
128,192,194322,1,0,0:0:0:0:
128,192,194537,1,0,0:0:0:0:
384,192,194644,1,8,0:0:0:0:
384,192,194751,1,8,0:0:0:0:
128,192,194965,1,0,0:0:0:0:
384,192,195179,1,8,0:0:0:0:
384,192,195394,1,8,0:0:0:0:
128,192,195501,1,0,0:0:0:0:
128,192,195608,1,0,0:0:0:0:
128,192,195822,1,0,0:0:0:0:
128,192,196037,1,0,0:0:0:0:
128,192,196251,1,0,0:0:0:0:
384,192,196358,1,8,0:0:0:0:
128,192,196572,1,0,0:0:0:0:
384,192,196679,1,8,0:0:0:0:
128,192,196894,1,0,0:0:0:0:
128,192,197001,1,0,0:0:0:0:
384,192,197108,1,8,0:0:0:0:
384,192,197215,1,8,0:0:0:0:
384,192,197322,1,8,0:0:0:0:
128,192,197537,1,0,0:0:0:0:
128,192,197751,1,0,0:0:0:0:
128,192,197965,1,0,0:0:0:0:
384,192,198072,1,8,0:0:0:0:
384,192,198179,1,8,0:0:0:0:
128,192,198394,1,0,0:0:0:0:
128,192,198608,1,0,0:0:0:0:
128,192,198715,1,0,0:0:0:0:
384,192,198822,1,8,0:0:0:0:
384,192,198929,1,8,0:0:0:0:
384,192,199037,1,8,0:0:0:0:
128,192,199251,1,0,0:0:0:0:
128,192,199465,1,4,0:0:0:0:
128,192,199787,1,0,0:0:0:0:
384,192,199894,1,8,0:0:0:0:
128,192,200108,1,0,0:0:0:0:
128,192,200322,1,0,0:0:0:0:
128,192,200429,1,0,0:0:0:0:
128,192,200537,1,0,0:0:0:0:
384,192,200644,1,8,0:0:0:0:
384,192,200751,1,8,0:0:0:0:
128,192,200965,1,0,0:0:0:0:
384,192,201072,1,8,0:0:0:0:
128,192,201179,1,0,0:0:0:0:
128,192,201394,1,0,0:0:0:0:
384,192,201608,1,8,0:0:0:0:
128,192,201822,1,0,0:0:0:0:
384,192,201929,1,8,0:0:0:0:
128,192,202144,1,0,0:0:0:0:
384,192,202251,1,8,0:0:0:0:
128,192,202358,1,0,0:0:0:0:
384,192,202465,1,8,0:0:0:0:
384,192,202572,1,8,0:0:0:0:
128,192,202679,1,0,0:0:0:0:
128,192,202787,1,0,0:0:0:0:
384,192,202894,1,8,0:0:0:0:
128,192,203108,1,0,0:0:0:0:
128,192,203215,1,0,0:0:0:0:
384,192,203322,1,8,0:0:0:0:
128,192,203537,1,0,0:0:0:0:
384,192,203644,1,8,0:0:0:0:
384,192,203858,1,8,0:0:0:0:
128,192,203965,1,0,0:0:0:0:
384,192,204072,1,8,0:0:0:0:
384,192,204179,1,8,0:0:0:0:
128,192,204394,1,0,0:0:0:0:
384,192,204501,1,8,0:0:0:0:
128,192,204715,1,0,0:0:0:0:
384,192,204822,1,8,0:0:0:0:
384,192,204929,1,8,0:0:0:0:
128,192,205037,1,0,0:0:0:0:
384,192,205251,1,8,0:0:0:0:
384,192,205358,1,8,0:0:0:0:
128,192,205465,1,0,0:0:0:0:
128,192,205679,1,0,0:0:0:0:
384,192,205894,1,8,0:0:0:0:
128,192,206322,1,4,0:0:0:0:
128,192,206644,1,0,0:0:0:0:
384,192,206751,1,8,0:0:0:0:
384,192,206965,1,6,0:0:0:0:
128,192,207179,1,0,0:0:0:0:
128,192,207394,1,0,0:0:0:0:
384,192,207501,1,8,0:0:0:0:
384,192,207608,1,8,0:0:0:0:
128,192,207822,1,4,0:0:0:0:
128,192,208037,1,0,0:0:0:0:
128,192,208251,1,0,0:0:0:0:
384,192,208358,1,8,0:0:0:0:
384,192,208465,1,8,0:0:0:0:
384,192,208679,1,6,0:0:0:0:
128,192,209001,1,0,0:0:0:0:
384,192,209108,1,8,0:0:0:0:
128,192,209322,1,0,0:0:0:0:
384,192,209429,1,8,0:0:0:0:
128,192,209751,1,4,0:0:0:0:
128,192,210072,1,0,0:0:0:0:
384,192,210179,1,8,0:0:0:0:
384,192,210394,1,6,0:0:0:0:
128,192,210822,1,0,0:0:0:0:
384,192,210929,1,8,0:0:0:0:
128,192,211037,1,0,0:0:0:0:
128,192,211251,1,4,0:0:0:0:
384,192,211465,1,8,0:0:0:0:
128,192,211679,1,0,0:0:0:0:
384,192,211787,1,8,0:0:0:0:
128,192,211894,1,0,0:0:0:0:
384,192,212108,1,6,0:0:0:0:
384,192,212537,1,8,0:0:0:0:
128,192,212751,1,0,0:0:0:0:
384,192,212858,1,8,0:0:0:0:
128,192,212965,1,0,0:0:0:0:
128,192,213179,1,4,0:0:0:0:
128,192,213394,1,0,0:0:0:0:
384,192,213501,1,0,0:0:0:0:
128,192,213608,1,8,0:0:0:0:
384,192,213822,1,8,0:0:0:0:
128,192,213929,1,0,0:0:0:0:
384,192,214144,1,8,0:0:0:0:
128,192,214251,1,0,0:0:0:0:
384,192,214465,1,8,0:0:0:0:
128,192,214679,1,0,0:0:0:0:
384,192,214787,1,8,0:0:0:0:
128,192,214894,1,0,0:0:0:0:
384,192,215001,1,8,0:0:0:0:
128,192,215215,1,0,0:0:0:0:
384,192,215322,1,8,0:0:0:0:
128,192,215537,1,0,0:0:0:0:
384,192,215644,1,8,0:0:0:0:
384,192,215751,1,8,0:0:0:0:
384,192,215965,1,8,0:0:0:0:
128,192,216072,1,0,0:0:0:0:
128,192,216179,1,0,0:0:0:0:
384,192,216394,1,8,0:0:0:0:
128,192,216608,1,4,0:0:0:0:
128,192,216822,1,0,0:0:0:0:
128,192,216929,1,0,0:0:0:0:
384,192,217037,1,8,0:0:0:0:
128,192,217251,1,0,0:0:0:0:
128,192,217358,1,0,0:0:0:0:
384,192,217465,1,8,0:0:0:0:
128,192,217679,1,0,0:0:0:0:
384,192,217787,1,8,0:0:0:0:
384,192,217894,1,8,0:0:0:0:
128,192,218108,1,4,0:0:0:0:
256,192,218322,12,0,219608,0:0:0:0:
128,192,220037,5,0,0:0:0:0:
384,192,220679,1,8,0:0:0:0:
128,192,221322,1,0,0:0:0:0:
128,192,221751,1,0,0:0:0:0:
384,192,222394,1,8,0:0:0:0:
128,192,223037,1,0,0:0:0:0:
128,192,223465,1,0,0:0:0:0:
384,192,224108,1,8,0:0:0:0:
128,192,224751,1,0,0:0:0:0:
128,192,225394,1,0,0:0:0:0:
384,192,225608,1,8,0:0:0:0:
128,192,225822,1,0,0:0:0:0:
384,192,226465,1,8,0:0:0:0:
128,192,226894,1,0,0:0:0:0:
128,192,227322,1,0,0:0:0:0:
384,192,227537,1,8,0:0:0:0:
128,192,228179,1,0,0:0:0:0:
128,192,228608,1,0,0:0:0:0:
128,192,229037,1,0,0:0:0:0:
384,192,229251,1,8,0:0:0:0:
128,192,230322,1,0,0:0:0:0:
128,192,230965,1,0,0:0:0:0:
384,192,231608,1,8,0:0:0:0:
128,192,231822,1,0,0:0:0:0:
128,192,232679,5,0,0:0:0:0:
128,192,233108,1,0,0:0:0:0:
128,192,233322,1,0,0:0:0:0:
227,189,233751,5,4,0:0:0:0:
227,189,234394,1,0,0:0:0:0:
232,176,234608,1,8,0:0:0:0:
232,176,234822,1,8,0:0:0:0:
232,176,235037,1,0,0:0:0:0:
232,168,235251,1,0,0:0:0:0:
232,168,235679,1,8,0:0:0:0:
232,168,235894,1,0,0:0:0:0:
232,168,236108,1,0,0:0:0:0:
232,168,236322,1,8,0:0:0:0:
240,144,236537,1,8,0:0:0:0:
232,160,236751,1,0,0:0:0:0:
232,168,236965,1,8,0:0:0:0:
232,168,237179,1,4,0:0:0:0:
232,184,237608,1,8,0:0:0:0:
240,200,237822,1,0,0:0:0:0:
232,184,238037,1,8,0:0:0:0:
232,184,238251,1,8,0:0:0:0:
240,200,238679,1,0,0:0:0:0:
240,200,239108,1,0,0:0:0:0:
240,200,239537,1,0,0:0:0:0:
232,184,239751,1,8,0:0:0:0:
240,200,239965,1,0,0:0:0:0:
240,200,240179,1,12,0:0:0:0:
240,200,240394,1,0,0:0:0:0:
240,200,240608,1,4,0:0:0:0:
224,200,241037,1,0,0:0:0:0:
240,200,241251,1,0,0:0:0:0:
240,200,241465,1,0,0:0:0:0:
240,200,241679,1,0,0:0:0:0:
240,200,241894,1,0,0:0:0:0:
240,200,242108,1,0,0:0:0:0:
240,200,242322,1,0,0:0:0:0:
240,200,242537,1,0,0:0:0:0:
240,200,242751,1,0,0:0:0:0:
240,200,242965,1,0,0:0:0:0:
240,200,243179,1,0,0:0:0:0:
240,200,243394,1,4,0:0:0:0:
240,200,243608,1,4,0:0:0:0:
240,200,243822,1,12,0:0:0:0:
256,200,244251,1,0,0:0:0:0:
256,192,244358,1,0,0:0:0:0:
256,200,244465,1,8,0:0:0:0:
256,200,244679,1,4,0:0:0:0:
256,200,244894,1,12,0:0:0:0:
256,200,245108,1,4,0:0:0:0:
256,200,245322,1,4,0:0:0:0:
264,216,245537,1,12,0:0:0:0:
264,216,245965,1,12,0:0:0:0:
264,216,246179,1,4,0:0:0:0:
248,192,246394,1,0,0:0:0:0:
248,192,246501,1,0,0:0:0:0:
248,192,246608,1,8,0:0:0:0:
248,192,246715,1,8,0:0:0:0:
216,208,246822,1,8,0:0:0:0:
272,216,247037,1,12,0:0:0:0:
248,208,247465,1,4,0:0:0:0:
248,216,247894,1,8,0:0:0:0:
256,192,248108,1,0,0:0:0:0:
256,192,248215,1,0,0:0:0:0:
256,192,248322,1,0,0:0:0:0:
256,192,248537,1,0,0:0:0:0:
248,208,248751,1,8,0:0:0:0:
256,192,248965,1,0,0:0:0:0:
256,192,249287,1,0,0:0:0:0:
256,192,249394,1,0,0:0:0:0:
248,216,249608,1,8,0:0:0:0:
256,200,249822,1,8,0:0:0:0:
256,200,249929,1,0,0:0:0:0:
256,200,250037,1,0,0:0:0:0:
256,200,250251,1,0,0:0:0:0:
256,200,250358,1,0,0:0:0:0:
256,200,250465,1,8,0:0:0:0:
256,192,250679,1,8,0:0:0:0:
256,192,250894,1,4,0:0:0:0:
239,193,251215,1,0,0:0:0:0:
248,216,251322,1,8,0:0:0:0:
256,200,251537,1,0,0:0:0:0:
248,192,251751,1,0,0:0:0:0:
248,192,251858,1,0,0:0:0:0:
248,192,251965,1,8,0:0:0:0:
248,208,252179,1,8,0:0:0:0:
256,192,252394,1,0,0:0:0:0:
256,192,252608,1,0,0:0:0:0:
256,192,252715,1,8,0:0:0:0:
256,192,252822,1,0,0:0:0:0:
248,216,253037,1,8,0:0:0:0:
240,208,253358,1,8,0:0:0:0:
248,192,253465,1,0,0:0:0:0:
248,192,253572,1,8,0:0:0:0:
248,192,253679,1,0,0:0:0:0:
248,208,253894,1,8,0:0:0:0:
256,208,254001,1,8,0:0:0:0:
288,192,254108,1,0,0:0:0:0:
256,208,254322,1,4,0:0:0:0:
248,216,254751,1,8,0:0:0:0:
248,192,254965,1,0,0:0:0:0:
248,192,255072,1,8,0:0:0:0:
248,192,255179,1,0,0:0:0:0:
248,192,255394,1,0,0:0:0:0:
256,192,255501,1,0,0:0:0:0:
248,208,255608,1,8,0:0:0:0:
256,192,255822,1,8,0:0:0:0:
256,192,256037,1,0,0:0:0:0:
256,192,256251,1,8,0:0:0:0:
248,216,256465,1,8,0:0:0:0:
256,192,256679,1,0,0:0:0:0:
248,184,257001,1,8,0:0:0:0:
248,184,257108,1,0,0:0:0:0:
256,200,257322,1,8,0:0:0:0:
248,200,257537,1,0,0:0:0:0:
248,200,257751,1,4,0:0:0:0:
248,200,258072,1,0,0:0:0:0:
248,216,258179,1,8,0:0:0:0:
256,200,258394,1,0,0:0:0:0:
256,200,258608,1,8,0:0:0:0:
256,200,258715,1,0,0:0:0:0:
256,200,258822,1,0,0:0:0:0:
248,208,259037,1,8,0:0:0:0:
256,192,259251,1,12,0:0:0:0:
248,200,259679,1,0,0:0:0:0:
248,216,259894,5,12,0:0:0:0:
256,200,260215,1,8,0:0:0:0:
256,200,260322,1,8,0:0:0:0:
256,200,260537,1,0,0:0:0:0:
248,208,260751,1,8,0:0:0:0:
232,192,260858,1,0,0:0:0:0:
232,192,260965,1,0,0:0:0:0:
208,208,261179,5,4,0:0:0:0:
208,208,261608,1,8,0:0:0:0:
208,208,261822,1,0,0:0:0:0:
208,208,261929,1,0,0:0:0:0:
208,208,262037,1,0,0:0:0:0:
208,208,262251,1,0,0:0:0:0:
208,208,262465,1,8,0:0:0:0:
208,208,262679,1,0,0:0:0:0:
208,208,263108,1,0,0:0:0:0:
208,208,263322,1,8,0:0:0:0:
208,208,263537,1,8,0:0:0:0:
208,208,263644,1,8,0:0:0:0:
208,208,263751,1,0,0:0:0:0:
208,208,263965,1,0,0:0:0:0:
208,208,264072,1,0,0:0:0:0:
208,208,264179,1,8,0:0:0:0:
208,208,264394,1,8,0:0:0:0:
208,208,264608,1,4,0:0:0:0:
208,208,264929,1,0,0:0:0:0:
208,208,265037,1,8,0:0:0:0:
216,216,265251,1,8,0:0:0:0:
216,216,265465,1,0,0:0:0:0:
216,216,265679,1,0,0:0:0:0:
216,216,265787,1,0,0:0:0:0:
216,216,265894,1,8,0:0:0:0:
200,208,266108,1,8,0:0:0:0:
224,200,266322,1,0,0:0:0:0:
224,216,266429,1,0,0:0:0:0:
216,216,266537,1,8,0:0:0:0:
200,208,266644,1,8,0:0:0:0:
216,216,266751,1,8,0:0:0:0:
200,208,266965,1,0,0:0:0:0:
192,200,267072,1,8,0:0:0:0:
176,184,267179,1,8,0:0:0:0:
208,208,267394,1,0,0:0:0:0:
200,208,267501,1,8,0:0:0:0:
216,216,267608,1,8,0:0:0:0:
224,208,267715,1,0,0:0:0:0:
208,208,267822,1,8,0:0:0:0:
208,208,268037,1,4,0:0:0:0:
224,216,268358,1,0,0:0:0:0:
216,216,268465,1,8,0:0:0:0:
208,216,268679,1,0,0:0:0:0:
216,208,268787,1,8,0:0:0:0:
216,208,268894,1,8,0:0:0:0:
224,208,269001,1,0,0:0:0:0:
216,200,269108,1,0,0:0:0:0:
216,216,269322,1,8,0:0:0:0:
216,200,269537,1,0,0:0:0:0:
216,200,269644,1,0,0:0:0:0:
216,200,269751,1,8,0:0:0:0:
216,200,269965,1,0,0:0:0:0:
216,216,270179,1,8,0:0:0:0:
216,200,270394,1,0,0:0:0:0:
208,200,270608,1,8,0:0:0:0:
208,200,270715,1,0,0:0:0:0:
208,200,270822,1,0,0:0:0:0:
216,216,271037,1,8,0:0:0:0:
208,200,271251,1,0,0:0:0:0:
208,200,271465,1,12,0:0:0:0:
216,216,271894,1,8,0:0:0:0:
208,208,272108,1,8,0:0:0:0:
208,208,272215,1,8,0:0:0:0:
208,192,272322,1,0,0:0:0:0:
208,200,272537,1,0,0:0:0:0:
208,200,272751,1,0,0:0:0:0:
208,200,272965,1,6,0:0:0:0:
216,208,273394,1,0,0:0:0:0:
208,200,273608,1,6,0:0:0:0:
208,192,273822,1,0,0:0:0:0:
208,200,273929,1,8,0:0:0:0:
208,200,274036,1,8,0:0:0:0:
208,192,274251,1,0,0:0:0:0:
208,192,274465,1,8,0:0:0:0:
208,192,274572,1,8,0:0:0:0:
208,192,274679,1,0,0:0:0:0:
208,192,274894,1,4,0:0:0:0:
384,192,275322,1,8,0:0:0:0:
128,192,275537,1,0,0:0:0:0:
128,192,275751,1,0,0:0:0:0:
128,192,275858,1,0,0:0:0:0:
384,192,275965,1,8,0:0:0:0:
128,192,276179,1,0,0:0:0:0:
384,192,276394,1,8,0:0:0:0:
128,192,276608,1,0,0:0:0:0:
128,192,276715,1,0,0:0:0:0:
128,192,276822,1,0,0:0:0:0:
384,192,277037,1,8,0:0:0:0:
128,192,277251,1,0,0:0:0:0:
128,192,277465,1,0,0:0:0:0:
128,192,277572,1,0,0:0:0:0:
384,192,277679,1,8,0:0:0:0:
384,192,277894,1,8,0:0:0:0:
128,192,278108,1,0,0:0:0:0:
128,192,278322,1,4,0:0:0:0:
128,192,278537,1,0,0:0:0:0:
384,192,278751,1,8,0:0:0:0:
128,192,278965,1,0,0:0:0:0:
128,192,279179,1,0,0:0:0:0:
128,192,279287,1,0,0:0:0:0:
384,192,279394,1,8,0:0:0:0:
128,192,279608,1,0,0:0:0:0:
384,192,279822,1,8,0:0:0:0:
128,192,280037,1,0,0:0:0:0:
128,192,280144,1,0,0:0:0:0:
384,192,280251,1,8,0:0:0:0:
128,192,280465,1,0,0:0:0:0:
384,192,280679,1,8,0:0:0:0:
384,192,280787,1,8,0:0:0:0:
128,192,280894,1,0,0:0:0:0:
384,192,281001,1,8,0:0:0:0:
128,192,281108,1,0,0:0:0:0:
384,192,281322,1,8,0:0:0:0:
128,192,281537,1,0,0:0:0:0:
128,192,281751,1,4,0:0:0:0:
384,192,282179,1,8,0:0:0:0:
128,192,282394,1,0,0:0:0:0:
128,192,282608,1,0,0:0:0:0:
128,192,282715,1,0,0:0:0:0:
384,192,282822,1,8,0:0:0:0:
128,192,283037,1,0,0:0:0:0:
384,192,283251,1,8,0:0:0:0:
128,192,283358,1,0,0:0:0:0:
128,192,283465,1,0,0:0:0:0:
128,192,283572,1,0,0:0:0:0:
384,192,283679,1,8,0:0:0:0:
128,192,283894,1,0,0:0:0:0:
384,192,284108,1,8,0:0:0:0:
128,192,284322,1,0,0:0:0:0:
128,192,284429,1,0,0:0:0:0:
384,192,284537,1,8,0:0:0:0:
384,192,284751,1,8,0:0:0:0:
128,192,284965,1,0,0:0:0:0:
384,192,285179,1,6,0:0:0:0:
128,192,285394,1,0,0:0:0:0:
384,192,285608,1,8,0:0:0:0:
128,192,285822,1,0,0:0:0:0:
384,192,285929,1,8,0:0:0:0:
128,192,286037,1,0,0:0:0:0:
128,192,286144,1,0,0:0:0:0:
384,192,286251,1,8,0:0:0:0:
128,192,286465,1,0,0:0:0:0:
384,192,286679,1,6,0:0:0:0:
128,192,287108,1,0,0:0:0:0:
384,192,287322,1,6,0:0:0:0:
384,192,287537,5,8,0:0:0:0:
128,192,287644,1,0,0:0:0:0:
128,192,287751,1,0,0:0:0:0:
128,192,287965,1,0,0:0:0:0:
384,192,288179,1,8,0:0:0:0:
128,192,288394,1,0,0:0:0:0:
192,176,288608,5,4,0:0:0:0:
192,176,288929,1,0,0:0:0:0:
192,176,289037,1,8,0:0:0:0:
192,176,289251,1,12,0:0:0:0:
184,168,289465,1,0,0:0:0:0:
176,160,289679,1,12,0:0:0:0:
192,176,289894,1,8,0:0:0:0:
192,168,290001,1,0,0:0:0:0:
192,168,290108,1,0,0:0:0:0:
200,184,290322,1,0,0:0:0:0:
144,160,290537,1,0,0:0:0:0:
200,176,290644,1,0,0:0:0:0:
192,176,290751,1,8,0:0:0:0:
208,176,290965,1,0,0:0:0:0:
200,176,291072,1,8,0:0:0:0:
200,176,291287,1,8,0:0:0:0:
200,176,291394,1,0,0:0:0:0:
192,176,291608,1,8,0:0:0:0:
192,168,291822,1,0,0:0:0:0:
192,168,292037,1,12,0:0:0:0:
152,160,292251,1,0,0:0:0:0:
152,160,292358,1,0,0:0:0:0:
192,176,292465,1,8,0:0:0:0:
192,176,292679,1,0,0:0:0:0:
160,160,292894,1,8,0:0:0:0:
176,160,293001,1,0,0:0:0:0:
192,176,293108,1,0,0:0:0:0:
192,176,293322,1,8,0:0:0:0:
192,176,293537,1,0,0:0:0:0:
192,176,293751,1,0,0:0:0:0:
192,176,293858,1,8,0:0:0:0:
152,144,294072,1,0,0:0:0:0:
192,176,294179,1,8,0:0:0:0:
184,176,294394,1,0,0:0:0:0:
184,176,294501,1,8,0:0:0:0:
184,176,294608,1,0,0:0:0:0:
192,184,294822,1,0,0:0:0:0:
152,144,294929,1,0,0:0:0:0:
192,176,295037,1,8,0:0:0:0:
152,144,295144,1,0,0:0:0:0:
200,176,295251,1,0,0:0:0:0:
184,184,295465,1,12,0:0:0:0:
184,184,295679,1,0,0:0:0:0:
192,176,295894,1,8,0:0:0:0:
184,176,296108,1,0,0:0:0:0:
184,176,296215,1,8,0:0:0:0:
152,144,296322,1,8,0:0:0:0:
184,176,296429,1,8,0:0:0:0:
184,176,296537,1,0,0:0:0:0:
192,176,296751,1,8,0:0:0:0:
208,176,296965,1,0,0:0:0:0:
200,176,297179,1,0,0:0:0:0:
192,160,297394,1,0,0:0:0:0:
200,176,297501,1,0,0:0:0:0:
192,176,297608,1,8,0:0:0:0:
192,160,297822,1,0,0:0:0:0:
192,160,297929,1,0,0:0:0:0:
208,176,298144,1,8,0:0:0:0:
208,176,298251,1,0,0:0:0:0:
192,176,298465,1,8,0:0:0:0:
184,176,298679,1,0,0:0:0:0:
200,176,298894,1,4,0:0:0:0:
192,160,299108,1,0,0:0:0:0:
152,176,299215,1,0,0:0:0:0:
192,176,299322,1,8,0:0:0:0:
200,176,299537,1,8,0:0:0:0:
200,176,299644,1,8,0:0:0:0:
200,176,299751,1,8,0:0:0:0:
200,176,299965,1,0,0:0:0:0:
192,176,300179,1,8,0:0:0:0:
200,176,300394,1,4,0:0:0:0:
208,184,300822,1,0,0:0:0:0:
208,176,301037,1,0,0:0:0:0:
208,176,301251,1,0,0:0:0:0:
208,176,301465,1,4,0:0:0:0:
208,176,301679,1,4,0:0:0:0:
200,176,301894,1,4,0:0:0:0:
256,192,302322,12,0,309179,0:0:0:0:
