osu file format v14

[General]
AudioFilename: audio120.mp3
AudioLeadIn: 0
PreviewTime: 68401
Countdown: 0
SampleSet: None
StackLeniency: 0.7
Mode: 3
LetterboxInBreaks: 0
SpecialStyle: 0
WidescreenStoryboard: 0

[Editor]
DistanceSpacing: 0.8
BeatDivisor: 4
GridSize: 8
TimelineZoom: 2

[Metadata]
Title:Day After
TitleUnicode:Day After
Artist:FELT
ArtistUnicode:FELT
Creator:arcwinolivirus
Version:Blossoming Flower 1.2x
Source:東方Project
Tags:東方花映塚 ~ phantasmagoria of flower view maika 舞花 hinsvar grow color nagi☆ c85 touhou kaeidzuka project 今昔幻想郷 land gensokyo past and
BeatmapID:1957027
BeatmapSetID:936831

[Difficulty]
HPDrainRate:8
CircleSize:4
OverallDifficulty:8
ApproachRate:5
SliderMultiplier:1.4
SliderTickRate:1

[Events]
//Background and Video events
0,0,"dayafterbg.jpg",0,0
//Break Periods
//Storyboard Layer 0 (Background)
//Storyboard Layer 1 (Fail)
//Storyboard Layer 2 (Pass)
//Storyboard Layer 3 (Foreground)
//Storyboard Sound Samples

[TimingPoints]
567,357.142857142858,4,2,1,30,1,0

[HitObjects]
448,192,567,5,0,0:0:0:0:
64,192,567,1,0,0:0:0:0:
320,192,656,1,0,0:0:0:0:
192,192,745,1,0,0:0:0:0:
448,192,834,1,0,0:0:0:0:
192,192,924,1,0,0:0:0:0:
64,192,924,1,0,0:0:0:0:
320,192,1013,1,0,0:0:0:0:
448,192,1102,1,0,0:0:0:0:
64,192,1102,1,0,0:0:0:0:
192,192,1192,1,0,0:0:0:0:
320,192,1281,1,0,0:0:0:0:
64,192,1370,1,0,0:0:0:0:
192,192,1459,1,0,0:0:0:0:
448,192,1459,1,0,0:0:0:0:
320,192,1549,1,0,0:0:0:0:
448,192,1638,1,0,0:0:0:0:
64,192,1638,1,0,0:0:0:0:
192,192,1727,1,0,0:0:0:0:
320,192,1817,1,0,0:0:0:0:
64,192,1906,1,0,0:0:0:0:
448,192,1995,1,0,0:0:0:0:
320,192,1995,1,0,0:0:0:0:
192,192,2084,1,0,0:0:0:0:
448,192,2174,1,0,0:0:0:0:
64,192,2174,1,0,0:0:0:0:
320,192,2263,1,0,0:0:0:0:
192,192,2352,1,0,0:0:0:0:
448,192,2442,1,0,0:0:0:0:
64,192,2531,1,0,0:0:0:0:
192,192,2531,1,0,0:0:0:0:
320,192,2620,1,0,0:0:0:0:
192,192,2709,1,0,0:0:0:0:
448,192,2799,1,0,0:0:0:0:
64,192,2888,1,0,0:0:0:0:
320,192,2888,1,0,0:0:0:0:
192,192,2977,1,0,0:0:0:0:
64,192,3067,1,0,0:0:0:0:
448,192,3067,1,0,0:0:0:0:
192,192,3156,1,0,0:0:0:0:
320,192,3156,1,0,0:0:0:0:
448,192,3245,1,0,0:0:0:0:
64,192,3245,1,0,0:0:0:0:
192,192,3334,1,0,0:0:0:0:
320,192,3334,1,0,0:0:0:0:
64,192,3424,1,0,0:0:0:0:
448,192,3424,1,0,0:0:0:0:
320,192,3513,1,0,0:0:0:0:
64,192,3602,1,0,0:0:0:0:
320,192,3692,1,0,0:0:0:0:
448,192,3781,1,0,0:0:0:0:
192,192,3781,1,0,0:0:0:0:
64,192,3870,1,0,0:0:0:0:
320,192,3959,1,0,0:0:0:0:
448,192,3959,1,0,0:0:0:0:
192,192,4049,1,0,0:0:0:0:
64,192,4138,1,0,0:0:0:0:
320,192,4138,1,0,0:0:0:0:
448,192,4227,1,0,0:0:0:0:
192,192,4317,1,0,0:0:0:0:
64,192,4317,1,0,0:0:0:0:
448,192,4406,1,0,0:0:0:0:
320,192,4495,1,0,0:0:0:0:
192,192,4495,1,0,0:0:0:0:
64,192,4584,1,0,0:0:0:0:
192,192,4674,1,0,0:0:0:0:
448,192,4674,1,0,0:0:0:0:
320,192,4763,1,0,0:0:0:0:
448,192,4852,1,0,0:0:0:0:
64,192,4852,1,0,0:0:0:0:
192,192,4942,1,0,0:0:0:0:
64,192,5031,1,0,0:0:0:0:
320,192,5031,1,0,0:0:0:0:
448,192,5120,1,0,0:0:0:0:
192,192,5209,1,0,0:0:0:0:
320,192,5299,1,0,0:0:0:0:
64,192,5388,1,0,0:0:0:0:
192,192,5388,1,0,0:0:0:0:
448,192,5477,1,0,0:0:0:0:
64,192,5567,1,0,0:0:0:0:
448,192,5656,1,0,0:0:0:0:
320,192,5745,1,0,0:0:0:0:
192,192,5745,1,0,0:0:0:0:
64,192,5834,1,0,0:0:0:0:
448,192,5924,1,0,0:0:0:0:
64,192,6013,1,0,0:0:0:0:
192,192,6102,1,0,0:0:0:0:
320,192,6102,1,0,0:0:0:0:
448,192,6192,1,0,0:0:0:0:
64,192,6281,1,0,0:0:0:0:
192,192,6281,1,0,0:0:0:0:
448,192,6370,1,0,0:0:0:0:
64,192,6459,1,0,0:0:0:0:
320,192,6459,1,0,0:0:0:0:
192,192,6549,1,0,0:0:0:0:
448,192,6638,1,0,0:0:0:0:
64,192,6638,1,0,0:0:0:0:
320,192,6727,1,0,0:0:0:0:
192,192,6817,1,0,0:0:0:0:
448,192,6817,1,0,0:0:0:0:
320,192,6906,1,0,0:0:0:0:
64,192,6995,1,0,0:0:0:0:
448,192,7084,1,0,0:0:0:0:
320,192,7174,1,0,0:0:0:0:
192,192,7174,1,0,0:0:0:0:
64,192,7263,1,0,0:0:0:0:
320,192,7352,1,0,0:0:0:0:
448,192,7352,1,0,0:0:0:0:
64,192,7442,1,0,0:0:0:0:
192,192,7531,1,0,0:0:0:0:
320,192,7620,1,0,0:0:0:0:
64,192,7709,1,0,0:0:0:0:
448,192,7709,1,0,0:0:0:0:
192,192,7799,1,0,0:0:0:0:
64,192,7888,1,0,0:0:0:0:
320,192,7888,1,0,0:0:0:0:
192,192,7977,1,0,0:0:0:0:
448,192,8067,1,0,0:0:0:0:
64,192,8156,1,0,0:0:0:0:
192,192,8245,1,0,0:0:0:0:
320,192,8245,1,0,0:0:0:0:
448,192,8334,1,0,0:0:0:0:
64,192,8424,1,0,0:0:0:0:
320,192,8513,1,0,0:0:0:0:
448,192,8602,1,0,0:0:0:0:
192,192,8602,1,0,0:0:0:0:
64,192,8692,1,0,0:0:0:0:
320,192,8781,1,0,0:0:0:0:
192,192,8781,1,0,0:0:0:0:
448,192,8870,1,0,0:0:0:0:
64,192,8870,1,0,0:0:0:0:
320,192,8959,1,0,0:0:0:0:
192,192,8959,1,0,0:0:0:0:
448,192,9049,1,0,0:0:0:0:
64,192,9049,1,0,0:0:0:0:
320,192,9138,1,0,0:0:0:0:
192,192,9138,1,0,0:0:0:0:
448,192,9227,1,0,0:0:0:0:
64,192,9317,1,0,0:0:0:0:
320,192,9406,1,0,0:0:0:0:
448,192,9495,1,0,0:0:0:0:
192,192,9495,1,0,0:0:0:0:
64,192,9584,1,0,0:0:0:0:
192,192,9674,1,0,0:0:0:0:
448,192,9674,1,0,0:0:0:0:
64,192,9763,1,0,0:0:0:0:
320,192,9852,1,0,0:0:0:0:
448,192,9942,1,0,0:0:0:0:
192,192,10031,1,0,0:0:0:0:
320,192,10120,1,0,0:0:0:0:
448,192,10209,1,0,0:0:0:0:
64,192,10209,1,0,0:0:0:0:
192,192,10299,1,0,0:0:0:0:
320,192,10388,1,0,0:0:0:0:
64,192,10477,1,0,0:0:0:0:
192,192,10567,1,0,0:0:0:0:
448,192,10567,1,0,0:0:0:0:
320,192,10656,1,0,0:0:0:0:
192,192,10745,1,0,0:0:0:0:
64,192,10745,1,0,0:0:0:0:
448,192,10834,1,0,0:0:0:0:
320,192,10924,1,0,0:0:0:0:
192,192,11013,1,0,0:0:0:0:
320,192,11102,1,0,0:0:0:0:
448,192,11102,1,0,0:0:0:0:
64,192,11192,1,0,0:0:0:0:
192,192,11281,1,0,0:0:0:0:
320,192,11370,1,0,0:0:0:0:
448,192,11459,1,0,0:0:0:0:
192,192,11459,1,0,0:0:0:0:
64,192,11549,1,0,0:0:0:0:
320,192,11638,1,0,0:0:0:0:
192,192,11638,1,0,0:0:0:0:
448,192,11727,1,0,0:0:0:0:
64,192,11817,1,0,0:0:0:0:
320,192,11817,1,0,0:0:0:0:
192,192,11906,1,0,0:0:0:0:
320,192,11995,1,0,0:0:0:0:
448,192,11995,1,0,0:0:0:0:
64,192,11995,1,0,0:0:0:0:
192,192,12084,1,0,0:0:0:0:
448,192,12174,1,0,0:0:0:0:
320,192,12263,1,0,0:0:0:0:
192,192,12352,1,0,0:0:0:0:
64,192,12352,1,0,0:0:0:0:
448,192,12442,1,0,0:0:0:0:
64,192,12531,1,0,0:0:0:0:
192,192,12531,1,0,0:0:0:0:
448,192,12620,1,0,0:0:0:0:
320,192,12709,1,0,0:0:0:0:
64,192,12799,1,0,0:0:0:0:
192,192,12888,1,0,0:0:0:0:
320,192,12888,1,0,0:0:0:0:
448,192,12977,1,0,0:0:0:0:
320,192,13067,1,0,0:0:0:0:
192,192,13067,1,0,0:0:0:0:
64,192,13156,1,0,0:0:0:0:
448,192,13245,1,0,0:0:0:0:
192,192,13334,1,0,0:0:0:0:
320,192,13424,1,0,0:0:0:0:
448,192,13424,1,0,0:0:0:0:
64,192,13513,1,0,0:0:0:0:
320,192,13602,1,0,0:0:0:0:
448,192,13602,1,0,0:0:0:0:
192,192,13692,1,0,0:0:0:0:
64,192,13781,1,0,0:0:0:0:
448,192,13870,1,0,0:0:0:0:
192,192,13959,1,0,0:0:0:0:
320,192,13959,1,0,0:0:0:0:
64,192,14049,1,0,0:0:0:0:
448,192,14138,1,0,0:0:0:0:
192,192,14227,1,0,0:0:0:0:
320,192,14317,1,0,0:0:0:0:
64,192,14406,1,0,0:0:0:0:
192,192,14495,1,0,0:0:0:0:
448,192,14495,1,0,0:0:0:0:
64,192,14584,1,0,0:0:0:0:
320,192,14584,1,0,0:0:0:0:
448,192,14674,1,0,0:0:0:0:
192,192,14674,1,0,0:0:0:0:
320,192,14763,1,0,0:0:0:0:
64,192,14763,1,0,0:0:0:0:
448,192,14852,1,0,0:0:0:0:
192,192,14852,1,0,0:0:0:0:
320,192,14942,1,0,0:0:0:0:
64,192,15031,1,0,0:0:0:0:
448,192,15120,1,0,0:0:0:0:
192,192,15209,1,0,0:0:0:0:
64,192,15209,1,0,0:0:0:0:
320,192,15299,1,0,0:0:0:0:
64,192,15388,1,0,0:0:0:0:
192,192,15388,1,0,0:0:0:0:
448,192,15477,1,0,0:0:0:0:
320,192,15567,1,0,0:0:0:0:
64,192,15656,1,0,0:0:0:0:
192,192,15745,1,0,0:0:0:0:
320,192,15745,1,0,0:0:0:0:
448,192,15834,1,0,0:0:0:0:
320,192,15924,1,0,0:0:0:0:
192,192,15924,1,0,0:0:0:0:
64,192,16013,1,0,0:0:0:0:
448,192,16102,1,0,0:0:0:0:
192,192,16192,1,0,0:0:0:0:
320,192,16281,1,0,0:0:0:0:
448,192,16281,1,0,0:0:0:0:
64,192,16370,1,0,0:0:0:0:
320,192,16459,1,0,0:0:0:0:
448,192,16459,1,0,0:0:0:0:
192,192,16549,1,0,0:0:0:0:
320,192,16638,1,0,0:0:0:0:
64,192,16638,1,0,0:0:0:0:
448,192,16727,1,0,0:0:0:0:
192,192,16817,1,0,0:0:0:0:
320,192,16817,1,0,0:0:0:0:
64,192,16906,1,0,0:0:0:0:
192,192,16995,1,0,0:0:0:0:
448,192,16995,1,0,0:0:0:0:
320,192,17084,1,0,0:0:0:0:
64,192,17174,1,0,0:0:0:0:
448,192,17174,1,0,0:0:0:0:
192,192,17263,1,0,0:0:0:0:
320,192,17352,1,0,0:0:0:0:
64,192,17352,1,0,0:0:0:0:
448,192,17442,1,0,0:0:0:0:
192,192,17531,1,0,0:0:0:0:
64,192,17531,1,0,0:0:0:0:
320,192,17620,1,0,0:0:0:0:
448,192,17709,1,0,0:0:0:0:
192,192,17709,1,0,0:0:0:0:
64,192,17709,1,0,0:0:0:0:
320,192,17799,1,0,0:0:0:0:
64,192,17888,1,0,0:0:0:0:
192,192,17977,1,0,0:0:0:0:
320,192,18067,1,0,0:0:0:0:
448,192,18067,1,0,0:0:0:0:
64,192,18156,1,0,0:0:0:0:
448,192,18245,1,0,0:0:0:0:
320,192,18245,1,0,0:0:0:0:
64,192,18334,1,0,0:0:0:0:
192,192,18424,1,0,0:0:0:0:
448,192,18513,1,0,0:0:0:0:
320,192,18602,1,0,0:0:0:0:
192,192,18602,1,0,0:0:0:0:
64,192,18692,1,0,0:0:0:0:
192,192,18781,1,0,0:0:0:0:
320,192,18781,1,0,0:0:0:0:
448,192,18870,1,0,0:0:0:0:
64,192,18959,1,0,0:0:0:0:
320,192,19049,1,0,0:0:0:0:
192,192,19138,1,0,0:0:0:0:
64,192,19138,1,0,0:0:0:0:
448,192,19227,1,0,0:0:0:0:
192,192,19317,1,0,0:0:0:0:
64,192,19317,1,0,0:0:0:0:
320,192,19406,1,0,0:0:0:0:
448,192,19495,1,0,0:0:0:0:
64,192,19584,1,0,0:0:0:0:
320,192,19674,1,0,0:0:0:0:
192,192,19674,1,0,0:0:0:0:
448,192,19763,1,0,0:0:0:0:
64,192,19852,1,0,0:0:0:0:
320,192,19942,1,0,0:0:0:0:
192,192,20031,1,0,0:0:0:0:
448,192,20120,1,0,0:0:0:0:
320,192,20209,1,0,0:0:0:0:
64,192,20209,1,0,0:0:0:0:
448,192,20299,1,0,0:0:0:0:
192,192,20299,1,0,0:0:0:0:
64,192,20388,1,0,0:0:0:0:
320,192,20388,1,0,0:0:0:0:
448,192,20477,1,0,0:0:0:0:
192,192,20477,1,0,0:0:0:0:
64,192,20567,1,0,0:0:0:0:
320,192,20567,1,0,0:0:0:0:
192,192,20656,1,0,0:0:0:0:
448,192,20745,1,0,0:0:0:0:
64,192,20834,1,0,0:0:0:0:
320,192,20924,1,0,0:0:0:0:
448,192,20924,1,0,0:0:0:0:
192,192,21013,1,0,0:0:0:0:
448,192,21102,1,0,0:0:0:0:
320,192,21102,1,0,0:0:0:0:
64,192,21192,1,0,0:0:0:0:
192,192,21281,1,0,0:0:0:0:
448,192,21370,1,0,0:0:0:0:
320,192,21459,1,0,0:0:0:0:
192,192,21459,1,0,0:0:0:0:
64,192,21549,1,0,0:0:0:0:
192,192,21638,1,0,0:0:0:0:
320,192,21638,1,0,0:0:0:0:
448,192,21727,1,0,0:0:0:0:
64,192,21817,1,0,0:0:0:0:
320,192,21906,1,0,0:0:0:0:
192,192,21995,1,0,0:0:0:0:
64,192,21995,1,0,0:0:0:0:
448,192,22084,1,0,0:0:0:0:
192,192,22174,1,0,0:0:0:0:
64,192,22174,1,0,0:0:0:0:
320,192,22263,1,0,0:0:0:0:
192,192,22352,1,0,0:0:0:0:
448,192,22352,1,0,0:0:0:0:
64,192,22442,1,0,0:0:0:0:
320,192,22531,1,0,0:0:0:0:
192,192,22531,1,0,0:0:0:0:
448,192,22620,1,0,0:0:0:0:
320,192,22709,1,0,0:0:0:0:
64,192,22709,1,0,0:0:0:0:
192,192,22799,5,0,0:0:0:0:
448,192,22888,1,0,0:0:0:0:
64,192,22888,1,0,0:0:0:0:
320,192,22977,1,0,0:0:0:0:
192,192,23067,1,0,0:0:0:0:
448,192,23067,1,0,0:0:0:0:
64,192,23156,1,0,0:0:0:0:
320,192,23245,1,0,0:0:0:0:
448,192,23245,1,0,0:0:0:0:
192,192,23334,1,0,0:0:0:0:
64,192,23424,1,0,0:0:0:0:
320,192,23424,1,0,0:0:0:0:
448,192,23424,1,0,0:0:0:0:
192,192,23513,1,0,0:0:0:0:
448,192,23602,1,0,0:0:0:0:
320,192,23692,1,0,0:0:0:0:
192,192,23781,1,0,0:0:0:0:
64,192,23781,1,0,0:0:0:0:
448,192,23870,1,0,0:0:0:0:
64,192,23959,1,0,0:0:0:0:
192,192,23959,1,0,0:0:0:0:
448,192,24049,1,0,0:0:0:0:
320,192,24138,1,0,0:0:0:0:
64,192,24227,1,0,0:0:0:0:
192,192,24317,1,0,0:0:0:0:
320,192,24317,1,0,0:0:0:0:
448,192,24406,1,0,0:0:0:0:
320,192,24495,1,0,0:0:0:0:
192,192,24495,1,0,0:0:0:0:
64,192,24584,1,0,0:0:0:0:
448,192,24674,1,0,0:0:0:0:
192,192,24763,1,0,0:0:0:0:
320,192,24852,1,0,0:0:0:0:
448,192,24852,1,0,0:0:0:0:
64,192,24942,1,0,0:0:0:0:
320,192,25031,1,0,0:0:0:0:
448,192,25031,1,0,0:0:0:0:
192,192,25120,1,0,0:0:0:0:
64,192,25209,1,0,0:0:0:0:
448,192,25299,1,0,0:0:0:0:
192,192,25388,1,0,0:0:0:0:
320,192,25388,1,0,0:0:0:0:
64,192,25477,1,0,0:0:0:0:
448,192,25567,1,0,0:0:0:0:
192,192,25656,1,0,0:0:0:0:
448,192,25745,1,0,0:0:0:0:
320,192,25745,1,0,0:0:0:0:
64,192,25834,1,0,0:0:0:0:
192,192,25924,1,0,0:0:0:0:
320,192,25924,1,0,0:0:0:0:
64,192,26013,1,0,0:0:0:0:
448,192,26013,1,0,0:0:0:0:
320,192,26102,1,0,0:0:0:0:
192,192,26102,1,0,0:0:0:0:
448,192,26192,1,0,0:0:0:0:
64,192,26192,1,0,0:0:0:0:
192,192,26281,1,0,0:0:0:0:
320,192,26281,1,0,0:0:0:0:
448,192,26370,1,0,0:0:0:0:
64,192,26459,1,0,0:0:0:0:
320,192,26549,1,0,0:0:0:0:
192,192,26638,1,0,0:0:0:0:
64,192,26638,1,0,0:0:0:0:
448,192,26727,1,0,0:0:0:0:
64,192,26817,1,0,0:0:0:0:
192,192,26817,1,0,0:0:0:0:
448,192,26906,1,0,0:0:0:0:
320,192,26995,1,0,0:0:0:0:
64,192,27084,1,0,0:0:0:0:
192,192,27174,1,0,0:0:0:0:
320,192,27174,1,0,0:0:0:0:
448,192,27263,1,0,0:0:0:0:
320,192,27352,1,0,0:0:0:0:
192,192,27352,1,0,0:0:0:0:
64,192,27442,1,0,0:0:0:0:
448,192,27531,1,0,0:0:0:0:
192,192,27620,1,0,0:0:0:0:
320,192,27709,1,0,0:0:0:0:
448,192,27709,1,0,0:0:0:0:
64,192,27799,1,0,0:0:0:0:
320,192,27888,1,0,0:0:0:0:
448,192,27888,1,0,0:0:0:0:
192,192,27977,1,0,0:0:0:0:
320,192,28067,1,0,0:0:0:0:
64,192,28067,1,0,0:0:0:0:
448,192,28156,1,0,0:0:0:0:
192,192,28245,1,0,0:0:0:0:
320,192,28245,1,0,0:0:0:0:
64,192,28334,1,0,0:0:0:0:
192,192,28424,1,0,0:0:0:0:
448,192,28424,1,0,0:0:0:0:
320,192,28513,1,0,0:0:0:0:
64,192,28602,1,0,0:0:0:0:
448,192,28602,1,0,0:0:0:0:
192,192,28692,1,0,0:0:0:0:
320,192,28781,1,0,0:0:0:0:
64,192,28781,1,0,0:0:0:0:
448,192,28870,1,0,0:0:0:0:
192,192,28959,1,0,0:0:0:0:
64,192,28959,1,0,0:0:0:0:
320,192,29049,1,0,0:0:0:0:
448,192,29138,1,0,0:0:0:0:
192,192,29138,1,0,0:0:0:0:
64,192,29138,1,0,0:0:0:0:
320,192,29227,1,0,0:0:0:0:
64,192,29317,1,0,0:0:0:0:
192,192,29406,1,0,0:0:0:0:
320,192,29495,1,0,0:0:0:0:
448,192,29495,1,0,0:0:0:0:
64,192,29584,1,0,0:0:0:0:
448,192,29674,1,0,0:0:0:0:
320,192,29674,1,0,0:0:0:0:
64,192,29763,1,0,0:0:0:0:
192,192,29852,1,0,0:0:0:0:
448,192,29942,1,0,0:0:0:0:
320,192,30031,1,0,0:0:0:0:
192,192,30031,1,0,0:0:0:0:
64,192,30120,1,0,0:0:0:0:
192,192,30209,1,0,0:0:0:0:
320,192,30209,1,0,0:0:0:0:
448,192,30299,1,0,0:0:0:0:
64,192,30388,1,0,0:0:0:0:
320,192,30477,1,0,0:0:0:0:
192,192,30567,1,0,0:0:0:0:
64,192,30567,1,0,0:0:0:0:
448,192,30656,1,0,0:0:0:0:
192,192,30745,1,0,0:0:0:0:
64,192,30745,1,0,0:0:0:0:
320,192,30834,1,0,0:0:0:0:
448,192,30924,1,0,0:0:0:0:
64,192,31013,1,0,0:0:0:0:
320,192,31102,1,0,0:0:0:0:
192,192,31102,1,0,0:0:0:0:
448,192,31192,1,0,0:0:0:0:
64,192,31281,1,0,0:0:0:0:
320,192,31370,1,0,0:0:0:0:
64,192,31459,1,0,0:0:0:0:
192,192,31459,1,0,0:0:0:0:
448,192,31549,1,0,0:0:0:0:
192,192,31638,1,0,0:0:0:0:
64,192,31638,1,0,0:0:0:0:
448,192,31727,1,0,0:0:0:0:
320,192,31727,1,0,0:0:0:0:
64,192,31817,1,0,0:0:0:0:
192,192,31817,1,0,0:0:0:0:
448,192,31906,1,0,0:0:0:0:
320,192,31906,1,0,0:0:0:0:
64,192,31995,1,0,0:0:0:0:
192,192,31995,1,0,0:0:0:0:
320,192,32084,1,0,0:0:0:0:
448,192,32174,1,0,0:0:0:0:
192,192,32263,1,0,0:0:0:0:
320,192,32352,1,0,0:0:0:0:
448,192,32352,1,0,0:0:0:0:
64,192,32442,1,0,0:0:0:0:
448,192,32531,1,0,0:0:0:0:
320,192,32531,1,0,0:0:0:0:
64,192,32620,1,0,0:0:0:0:
192,192,32709,1,0,0:0:0:0:
448,192,32799,1,0,0:0:0:0:
320,192,32888,1,0,0:0:0:0:
192,192,32888,1,0,0:0:0:0:
64,192,32977,1,0,0:0:0:0:
192,192,33067,1,0,0:0:0:0:
320,192,33067,1,0,0:0:0:0:
448,192,33156,1,0,0:0:0:0:
64,192,33245,1,0,0:0:0:0:
320,192,33334,1,0,0:0:0:0:
192,192,33424,1,0,0:0:0:0:
64,192,33424,1,0,0:0:0:0:
448,192,33513,1,0,0:0:0:0:
192,192,33602,1,0,0:0:0:0:
64,192,33602,1,0,0:0:0:0:
320,192,33692,1,0,0:0:0:0:
192,192,33781,1,0,0:0:0:0:
448,192,33781,1,0,0:0:0:0:
64,192,33870,1,0,0:0:0:0:
320,192,33959,1,0,0:0:0:0:
192,192,33959,1,0,0:0:0:0:
448,192,34049,1,0,0:0:0:0:
320,192,34138,1,0,0:0:0:0:
64,192,34138,1,0,0:0:0:0:
192,192,34227,5,0,0:0:0:0:
448,192,34317,1,0,0:0:0:0:
64,192,34317,1,0,0:0:0:0:
320,192,34406,1,0,0:0:0:0:
192,192,34495,1,0,0:0:0:0:
448,192,34495,1,0,0:0:0:0:
64,192,34584,1,0,0:0:0:0:
320,192,34674,1,0,0:0:0:0:
448,192,34674,1,0,0:0:0:0:
192,192,34763,1,0,0:0:0:0:
64,192,34852,1,0,0:0:0:0:
320,192,34852,1,0,0:0:0:0:
448,192,34852,1,0,0:0:0:0:
192,192,34942,1,0,0:0:0:0:
64,192,35031,1,0,0:0:0:0:
448,192,35031,1,0,0:0:0:0:
320,192,35120,1,0,0:0:0:0:
64,192,35209,5,0,0:0:0:0:
192,192,35209,1,0,0:0:0:0:
448,192,35299,1,0,0:0:0:0:
192,192,35388,1,0,0:0:0:0:
320,192,35388,1,0,0:0:0:0:
64,192,35477,1,0,0:0:0:0:
448,192,35567,1,0,0:0:0:0:
320,192,35567,1,0,0:0:0:0:
192,192,35656,1,0,0:0:0:0:
64,192,35745,1,0,0:0:0:0:
448,192,35834,1,0,0:0:0:0:
192,192,35924,1,0,0:0:0:0:
320,192,35924,1,0,0:0:0:0:
64,192,36013,1,0,0:0:0:0:
448,192,36102,1,0,0:0:0:0:
192,192,36102,1,0,0:0:0:0:
320,192,36192,1,0,0:0:0:0:
64,192,36281,1,0,0:0:0:0:
192,192,36370,1,0,0:0:0:0:
320,192,36459,1,0,0:0:0:0:
448,192,36459,1,0,0:0:0:0:
64,192,36549,1,0,0:0:0:0:
448,192,36638,1,0,0:0:0:0:
64,192,36727,1,0,0:0:0:0:
320,192,36817,1,0,0:0:0:0:
192,192,36817,1,0,0:0:0:0:
448,192,36906,1,0,0:0:0:0:
64,192,36995,1,0,0:0:0:0:
192,192,36995,1,0,0:0:0:0:
320,192,37084,1,0,0:0:0:0:
448,192,37174,1,0,0:0:0:0:
64,192,37174,1,0,0:0:0:0:
192,192,37263,1,0,0:0:0:0:
448,192,37352,1,0,0:0:0:0:
320,192,37352,1,0,0:0:0:0:
192,192,37442,1,0,0:0:0:0:
448,192,37531,1,0,0:0:0:0:
64,192,37531,1,0,0:0:0:0:
320,192,37620,1,0,0:0:0:0:
192,192,37709,1,0,0:0:0:0:
448,192,37799,1,0,0:0:0:0:
320,192,37888,1,0,0:0:0:0:
64,192,37888,1,0,0:0:0:0:
192,192,37977,1,0,0:0:0:0:
448,192,38067,1,0,0:0:0:0:
320,192,38067,1,0,0:0:0:0:
64,192,38156,1,0,0:0:0:0:
320,192,38245,1,0,0:0:0:0:
448,192,38245,1,0,0:0:0:0:
192,192,38334,1,0,0:0:0:0:
64,192,38424,1,0,0:0:0:0:
448,192,38513,1,0,0:0:0:0:
192,192,38602,1,0,0:0:0:0:
64,192,38602,1,0,0:0:0:0:
320,192,38692,1,0,0:0:0:0:
64,192,38781,1,0,0:0:0:0:
192,192,38781,1,0,0:0:0:0:
448,192,38870,1,0,0:0:0:0:
320,192,38959,1,0,0:0:0:0:
64,192,39049,1,0,0:0:0:0:
192,192,39138,1,0,0:0:0:0:
320,192,39138,1,0,0:0:0:0:
448,192,39227,1,0,0:0:0:0:
192,192,39317,1,0,0:0:0:0:
320,192,39317,1,0,0:0:0:0:
64,192,39406,1,0,0:0:0:0:
448,192,39495,1,0,0:0:0:0:
192,192,39584,1,0,0:0:0:0:
448,192,39674,1,0,0:0:0:0:
320,192,39674,1,0,0:0:0:0:
64,192,39763,1,0,0:0:0:0:
320,192,39852,1,0,0:0:0:0:
192,192,39852,1,0,0:0:0:0:
448,192,39942,1,0,0:0:0:0:
192,192,40031,1,0,0:0:0:0:
64,192,40031,1,0,0:0:0:0:
320,192,40120,1,0,0:0:0:0:
448,192,40209,1,0,0:0:0:0:
64,192,40209,1,0,0:0:0:0:
192,192,40299,1,0,0:0:0:0:
320,192,40388,1,0,0:0:0:0:
448,192,40388,1,0,0:0:0:0:
192,192,40477,1,0,0:0:0:0:
64,192,40567,1,0,0:0:0:0:
448,192,40567,1,0,0:0:0:0:
320,192,40567,1,0,0:0:0:0:
192,192,40656,1,0,0:0:0:0:
320,192,40745,1,0,0:0:0:0:
64,192,40834,1,0,0:0:0:0:
448,192,40924,1,0,0:0:0:0:
192,192,40924,1,0,0:0:0:0:
64,192,41013,1,0,0:0:0:0:
448,192,41102,1,0,0:0:0:0:
192,192,41102,1,0,0:0:0:0:
320,192,41192,1,0,0:0:0:0:
64,192,41281,1,0,0:0:0:0:
448,192,41370,1,0,0:0:0:0:
192,192,41459,1,0,0:0:0:0:
320,192,41459,1,0,0:0:0:0:
448,192,41549,1,0,0:0:0:0:
192,192,41638,1,0,0:0:0:0:
320,192,41638,1,0,0:0:0:0:
64,192,41727,1,0,0:0:0:0:
448,192,41817,1,0,0:0:0:0:
320,192,41906,1,0,0:0:0:0:
192,192,41995,1,0,0:0:0:0:
448,192,41995,1,0,0:0:0:0:
64,192,42084,1,0,0:0:0:0:
448,192,42174,1,0,0:0:0:0:
192,192,42174,1,0,0:0:0:0:
320,192,42263,1,0,0:0:0:0:
64,192,42352,1,0,0:0:0:0:
192,192,42352,1,0,0:0:0:0:
448,192,42442,1,0,0:0:0:0:
64,192,42531,1,0,0:0:0:0:
320,192,42531,1,0,0:0:0:0:
192,192,42620,1,0,0:0:0:0:
320,192,42709,1,0,0:0:0:0:
448,192,42709,1,0,0:0:0:0:
192,192,42799,1,0,0:0:0:0:
448,192,42888,1,0,0:0:0:0:
64,192,42888,1,0,0:0:0:0:
192,192,42977,1,0,0:0:0:0:
64,192,43067,1,0,0:0:0:0:
320,192,43067,1,0,0:0:0:0:
448,192,43156,1,0,0:0:0:0:
320,192,43245,1,0,0:0:0:0:
192,192,43245,1,0,0:0:0:0:
64,192,43334,1,0,0:0:0:0:
320,192,43424,1,0,0:0:0:0:
192,192,43424,1,0,0:0:0:0:
448,192,43513,1,0,0:0:0:0:
192,192,43602,1,0,0:0:0:0:
64,192,43602,1,0,0:0:0:0:
320,192,43692,1,0,0:0:0:0:
64,192,43781,1,0,0:0:0:0:
448,192,43870,1,0,0:0:0:0:
320,192,43959,1,0,0:0:0:0:
192,192,43959,1,0,0:0:0:0:
64,192,44049,1,0,0:0:0:0:
448,192,44138,1,0,0:0:0:0:
192,192,44227,1,0,0:0:0:0:
448,192,44317,1,0,0:0:0:0:
320,192,44317,1,0,0:0:0:0:
64,192,44406,1,0,0:0:0:0:
320,192,44495,1,0,0:0:0:0:
448,192,44495,1,0,0:0:0:0:
192,192,44584,1,0,0:0:0:0:
64,192,44674,1,0,0:0:0:0:
320,192,44763,1,0,0:0:0:0:
448,192,44852,1,0,0:0:0:0:
192,192,44852,1,0,0:0:0:0:
64,192,44942,1,0,0:0:0:0:
320,192,45031,1,0,0:0:0:0:
192,192,45031,1,0,0:0:0:0:
448,192,45120,1,0,0:0:0:0:
320,192,45209,1,0,0:0:0:0:
64,192,45209,1,0,0:0:0:0:
192,192,45299,1,0,0:0:0:0:
320,192,45388,1,0,0:0:0:0:
448,192,45388,1,0,0:0:0:0:
64,192,45477,1,0,0:0:0:0:
320,192,45567,1,0,0:0:0:0:
192,192,45567,1,0,0:0:0:0:
448,192,45656,1,0,0:0:0:0:
64,192,45745,1,0,0:0:0:0:
192,192,45745,1,0,0:0:0:0:
448,192,45834,1,0,0:0:0:0:
320,192,45834,1,0,0:0:0:0:
64,192,45924,1,0,0:0:0:0:
192,192,45924,1,0,0:0:0:0:
320,192,46013,1,0,0:0:0:0:
64,192,46102,1,0,0:0:0:0:
448,192,46102,1,0,0:0:0:0:
320,192,46192,1,0,0:0:0:0:
448,192,46281,1,0,0:0:0:0:
192,192,46281,1,0,0:0:0:0:
64,192,46281,1,0,0:0:0:0:
320,192,46370,1,0,0:0:0:0:
448,192,46459,1,0,0:0:0:0:
64,192,46459,1,0,0:0:0:0:
192,192,46549,1,0,0:0:0:0:
448,192,46638,5,0,0:0:0:0:
320,192,46638,1,0,0:0:0:0:
64,192,46727,1,0,0:0:0:0:
320,192,46817,1,0,0:0:0:0:
192,192,46817,1,0,0:0:0:0:
448,192,46906,1,0,0:0:0:0:
64,192,46995,1,0,0:0:0:0:
192,192,46995,1,0,0:0:0:0:
320,192,47084,1,0,0:0:0:0:
448,192,47174,1,0,0:0:0:0:
64,192,47263,1,0,0:0:0:0:
320,192,47352,1,0,0:0:0:0:
192,192,47352,1,0,0:0:0:0:
448,192,47442,1,0,0:0:0:0:
64,192,47531,1,0,0:0:0:0:
320,192,47531,1,0,0:0:0:0:
192,192,47620,1,0,0:0:0:0:
448,192,47709,1,0,0:0:0:0:
320,192,47799,1,0,0:0:0:0:
192,192,47888,1,0,0:0:0:0:
64,192,47888,1,0,0:0:0:0:
448,192,47977,1,0,0:0:0:0:
64,192,48067,1,0,0:0:0:0:
448,192,48156,1,0,0:0:0:0:
192,192,48245,1,0,0:0:0:0:
320,192,48245,1,0,0:0:0:0:
64,192,48334,1,0,0:0:0:0:
448,192,48424,1,0,0:0:0:0:
320,192,48424,1,0,0:0:0:0:
192,192,48513,1,0,0:0:0:0:
64,192,48602,1,0,0:0:0:0:
448,192,48602,1,0,0:0:0:0:
192,192,48692,1,0,0:0:0:0:
320,192,48692,1,0,0:0:0:0:
64,192,48781,1,0,0:0:0:0:
448,192,48781,1,0,0:0:0:0:
192,192,48870,1,0,0:0:0:0:
320,192,48870,1,0,0:0:0:0:
64,192,48959,1,0,0:0:0:0:
448,192,48959,1,0,0:0:0:0:
192,192,49049,1,0,0:0:0:0:
320,192,49138,1,0,0:0:0:0:
64,192,49227,1,0,0:0:0:0:
192,192,49317,1,0,0:0:0:0:
448,192,49317,1,0,0:0:0:0:
320,192,49406,1,0,0:0:0:0:
64,192,49495,1,0,0:0:0:0:
192,192,49495,1,0,0:0:0:0:
448,192,49584,1,0,0:0:0:0:
192,192,49674,1,0,0:0:0:0:
64,192,49674,1,0,0:0:0:0:
320,192,49763,1,0,0:0:0:0:
448,192,49852,1,0,0:0:0:0:
64,192,49942,1,0,0:0:0:0:
320,192,50031,1,0,0:0:0:0:
448,192,50031,1,0,0:0:0:0:
192,192,50120,1,0,0:0:0:0:
448,192,50209,1,0,0:0:0:0:
320,192,50209,1,0,0:0:0:0:
64,192,50299,1,0,0:0:0:0:
192,192,50388,1,0,0:0:0:0:
448,192,50477,1,0,0:0:0:0:
320,192,50567,1,0,0:0:0:0:
192,192,50567,1,0,0:0:0:0:
64,192,50656,1,0,0:0:0:0:
320,192,50745,1,0,0:0:0:0:
192,192,50745,1,0,0:0:0:0:
448,192,50834,1,0,0:0:0:0:
64,192,50924,1,0,0:0:0:0:
320,192,51013,1,0,0:0:0:0:
64,192,51102,1,0,0:0:0:0:
192,192,51102,1,0,0:0:0:0:
448,192,51192,1,0,0:0:0:0:
192,192,51281,1,0,0:0:0:0:
320,192,51281,1,0,0:0:0:0:
64,192,51370,1,0,0:0:0:0:
320,192,51459,1,0,0:0:0:0:
448,192,51459,1,0,0:0:0:0:
192,192,51549,1,0,0:0:0:0:
64,192,51638,1,0,0:0:0:0:
448,192,51638,1,0,0:0:0:0:
320,192,51727,1,0,0:0:0:0:
192,192,51817,1,0,0:0:0:0:
64,192,51817,1,0,0:0:0:0:
320,192,51906,1,0,0:0:0:0:
448,192,51995,1,0,0:0:0:0:
64,192,51995,1,0,0:0:0:0:
192,192,51995,1,0,0:0:0:0:
320,192,52084,1,0,0:0:0:0:
192,192,52174,1,0,0:0:0:0:
448,192,52263,1,0,0:0:0:0:
64,192,52352,1,0,0:0:0:0:
320,192,52352,1,0,0:0:0:0:
448,192,52442,1,0,0:0:0:0:
64,192,52531,1,0,0:0:0:0:
320,192,52531,1,0,0:0:0:0:
192,192,52620,1,0,0:0:0:0:
448,192,52709,1,0,0:0:0:0:
64,192,52799,1,0,0:0:0:0:
320,192,52888,1,0,0:0:0:0:
192,192,52888,1,0,0:0:0:0:
64,192,52977,1,0,0:0:0:0:
320,192,53067,1,0,0:0:0:0:
192,192,53067,1,0,0:0:0:0:
448,192,53156,1,0,0:0:0:0:
64,192,53245,1,0,0:0:0:0:
192,192,53334,1,0,0:0:0:0:
320,192,53424,1,0,0:0:0:0:
64,192,53424,1,0,0:0:0:0:
448,192,53513,1,0,0:0:0:0:
64,192,53602,1,0,0:0:0:0:
320,192,53602,1,0,0:0:0:0:
192,192,53692,1,0,0:0:0:0:
448,192,53781,1,0,0:0:0:0:
320,192,53781,1,0,0:0:0:0:
64,192,53870,1,0,0:0:0:0:
448,192,53959,1,0,0:0:0:0:
192,192,53959,1,0,0:0:0:0:
320,192,54049,1,0,0:0:0:0:
192,192,54138,1,0,0:0:0:0:
64,192,54138,1,0,0:0:0:0:
448,192,54227,1,0,0:0:0:0:
64,192,54317,1,0,0:0:0:0:
448,192,54406,1,0,0:0:0:0:
320,192,54495,1,0,0:0:0:0:
192,192,54495,1,0,0:0:0:0:
64,192,54584,1,0,0:0:0:0:
448,192,54674,1,0,0:0:0:0:
192,192,54763,1,0,0:0:0:0:
448,192,54852,1,0,0:0:0:0:
320,192,54852,1,0,0:0:0:0:
64,192,54942,1,0,0:0:0:0:
192,192,55031,1,0,0:0:0:0:
448,192,55120,1,0,0:0:0:0:
320,192,55209,1,0,0:0:0:0:
64,192,55299,1,0,0:0:0:0:
192,192,55388,1,0,0:0:0:0:
320,192,55388,1,0,0:0:0:0:
448,192,55477,1,0,0:0:0:0:
64,192,55567,1,0,0:0:0:0:
320,192,55656,1,0,0:0:0:0:
64,192,55745,1,0,0:0:0:0:
192,192,55745,1,0,0:0:0:0:
448,192,55834,1,0,0:0:0:0:
192,192,55924,1,0,0:0:0:0:
64,192,55924,1,0,0:0:0:0:
320,192,56013,1,0,0:0:0:0:
448,192,56102,1,0,0:0:0:0:
192,192,56192,1,0,0:0:0:0:
64,192,56281,1,0,0:0:0:0:
320,192,56281,1,0,0:0:0:0:
448,192,56370,1,0,0:0:0:0:
192,192,56459,1,0,0:0:0:0:
320,192,56459,1,0,0:0:0:0:
64,192,56549,1,0,0:0:0:0:
192,192,56638,1,0,0:0:0:0:
448,192,56638,1,0,0:0:0:0:
320,192,56727,1,0,0:0:0:0:
192,192,56817,1,0,0:0:0:0:
64,192,56817,1,0,0:0:0:0:
448,192,56906,1,0,0:0:0:0:
192,192,56995,1,0,0:0:0:0:
320,192,56995,1,0,0:0:0:0:
64,192,57084,1,0,0:0:0:0:
448,192,57174,1,0,0:0:0:0:
320,192,57174,1,0,0:0:0:0:
192,192,57263,1,0,0:0:0:0:
448,192,57352,1,0,0:0:0:0:
64,192,57352,1,0,0:0:0:0:
320,192,57442,1,0,0:0:0:0:
64,192,57531,1,0,0:0:0:0:
192,192,57531,1,0,0:0:0:0:
448,192,57620,1,0,0:0:0:0:
64,192,57709,1,0,0:0:0:0:
320,192,57709,1,0,0:0:0:0:
192,192,57709,1,0,0:0:0:0:
448,192,57799,1,0,0:0:0:0:
64,192,57888,1,0,0:0:0:0:
320,192,57977,1,0,0:0:0:0:
448,192,58067,1,0,0:0:0:0:
192,192,58067,1,0,0:0:0:0:
320,192,58156,1,0,0:0:0:0:
448,192,58245,1,0,0:0:0:0:
64,192,58245,1,0,0:0:0:0:
192,192,58334,1,0,0:0:0:0:
320,192,58424,1,0,0:0:0:0:
64,192,58513,1,0,0:0:0:0:
448,192,58602,1,0,0:0:0:0:
192,192,58692,1,0,0:0:0:0:
64,192,58781,1,0,0:0:0:0:
320,192,58781,1,0,0:0:0:0:
448,192,58781,1,0,0:0:0:0:
192,192,58870,1,0,0:0:0:0:
64,192,58959,1,0,0:0:0:0:
320,192,58959,1,0,0:0:0:0:
448,192,59049,1,0,0:0:0:0:
192,192,59138,1,0,0:0:0:0:
320,192,59227,1,0,0:0:0:0:
64,192,59317,1,0,0:0:0:0:
448,192,59317,1,0,0:0:0:0:
192,192,59406,1,0,0:0:0:0:
64,192,59495,1,0,0:0:0:0:
448,192,59495,1,0,0:0:0:0:
320,192,59584,1,0,0:0:0:0:
64,192,59674,1,0,0:0:0:0:
448,192,59674,1,0,0:0:0:0:
192,192,59674,1,0,0:0:0:0:
320,192,59763,1,0,0:0:0:0:
192,192,59852,1,0,0:0:0:0:
448,192,59942,1,0,0:0:0:0:
320,192,60031,1,0,0:0:0:0:
64,192,60031,1,0,0:0:0:0:
448,192,60120,1,0,0:0:0:0:
320,192,60209,1,0,0:0:0:0:
192,192,60209,1,0,0:0:0:0:
64,192,60299,1,0,0:0:0:0:
448,192,60299,1,0,0:0:0:0:
192,192,60388,1,0,0:0:0:0:
320,192,60388,1,0,0:0:0:0:
64,192,60477,1,0,0:0:0:0:
448,192,60477,1,0,0:0:0:0:
320,192,60567,1,0,0:0:0:0:
192,192,60567,1,0,0:0:0:0:
64,192,60656,1,0,0:0:0:0:
448,192,60745,1,0,0:0:0:0:
192,192,60834,1,0,0:0:0:0:
320,192,60924,1,0,0:0:0:0:
448,192,60924,1,0,0:0:0:0:
192,192,61013,1,0,0:0:0:0:
64,192,61102,1,0,0:0:0:0:
320,192,61102,1,0,0:0:0:0:
448,192,61192,1,0,0:0:0:0:
192,192,61281,1,0,0:0:0:0:
320,192,61370,1,0,0:0:0:0:
64,192,61459,1,0,0:0:0:0:
448,192,61549,1,0,0:0:0:0:
192,192,61638,1,0,0:0:0:0:
320,192,61727,1,0,0:0:0:0:
448,192,61817,1,0,0:0:0:0:
192,192,61817,1,0,0:0:0:0:
64,192,61817,1,0,0:0:0:0:
320,192,61906,1,0,0:0:0:0:
64,192,61995,1,0,0:0:0:0:
448,192,62084,1,0,0:0:0:0:
320,192,62174,1,0,0:0:0:0:
192,192,62174,1,0,0:0:0:0:
448,192,62263,1,0,0:0:0:0:
320,192,62352,1,0,0:0:0:0:
64,192,62352,1,0,0:0:0:0:
192,192,62442,1,0,0:0:0:0:
64,192,62531,1,0,0:0:0:0:
448,192,62531,1,0,0:0:0:0:
320,192,62531,1,0,0:0:0:0:
192,192,62620,1,0,0:0:0:0:
320,192,62709,1,0,0:0:0:0:
64,192,62799,1,0,0:0:0:0:
320,192,62888,1,0,0:0:0:0:
448,192,62888,1,0,0:0:0:0:
64,192,62977,1,0,0:0:0:0:
192,192,62977,1,0,0:0:0:0:
448,192,63067,1,0,0:0:0:0:
320,192,63067,1,0,0:0:0:0:
192,192,63156,1,0,0:0:0:0:
64,192,63245,1,0,0:0:0:0:
448,192,63245,1,0,0:0:0:0:
320,192,63334,1,0,0:0:0:0:
448,192,63424,1,0,0:0:0:0:
192,192,63424,1,0,0:0:0:0:
64,192,63424,1,0,0:0:0:0:
320,192,63513,1,0,0:0:0:0:
64,192,63602,1,0,0:0:0:0:
448,192,63692,1,0,0:0:0:0:
192,192,63781,1,0,0:0:0:0:
320,192,63781,1,0,0:0:0:0:
448,192,63870,1,0,0:0:0:0:
64,192,63959,1,0,0:0:0:0:
192,192,63959,1,0,0:0:0:0:
320,192,64049,1,0,0:0:0:0:
64,192,64138,1,0,0:0:0:0:
448,192,64227,1,0,0:0:0:0:
320,192,64317,1,0,0:0:0:0:
192,192,64406,1,0,0:0:0:0:
320,192,64495,1,0,0:0:0:0:
448,192,64495,1,0,0:0:0:0:
64,192,64495,1,0,0:0:0:0:
192,192,64584,1,0,0:0:0:0:
64,192,64674,1,0,0:0:0:0:
448,192,64674,1,0,0:0:0:0:
320,192,64763,1,0,0:0:0:0:
192,192,64852,1,0,0:0:0:0:
64,192,64942,1,0,0:0:0:0:
448,192,65031,5,0,0:0:0:0:
192,192,65031,1,0,0:0:0:0:
320,192,65031,1,0,0:0:0:0:
64,192,65120,1,0,0:0:0:0:
192,192,65209,1,0,0:0:0:0:
320,192,65209,1,0,0:0:0:0:
448,192,65209,1,0,0:0:0:0:
64,192,65299,1,0,0:0:0:0:
320,192,65388,5,0,0:0:0:0:
448,192,65388,1,0,0:0:0:0:
192,192,65477,1,0,0:0:0:0:
448,192,65567,1,0,0:0:0:0:
64,192,65567,1,0,0:0:0:0:
320,192,65656,1,0,0:0:0:0:
448,192,65745,1,0,0:0:0:0:
64,192,65745,1,0,0:0:0:0:
192,192,65834,1,0,0:0:0:0:
448,192,65924,1,0,0:0:0:0:
64,192,65924,1,0,0:0:0:0:
192,192,66013,1,0,0:0:0:0:
320,192,66013,1,0,0:0:0:0:
448,192,66102,1,0,0:0:0:0:
64,192,66102,1,0,0:0:0:0:
192,192,66192,1,0,0:0:0:0:
320,192,66192,1,0,0:0:0:0:
448,192,66281,5,0,0:0:0:0:
64,192,66281,1,0,0:0:0:0:
320,192,66459,1,0,0:0:0:0:
192,192,66459,1,0,0:0:0:0:
64,192,66549,1,0,0:0:0:0:
448,192,66638,1,0,0:0:0:0:
192,192,66638,1,0,0:0:0:0:
320,192,66638,1,0,0:0:0:0:
320,192,66817,1,0,0:0:0:0:
192,192,66817,1,0,0:0:0:0:
64,192,66817,1,0,0:0:0:0:
448,192,66995,1,0,0:0:0:0:
192,192,66995,1,0,0:0:0:0:
320,192,66995,1,0,0:0:0:0:
192,192,67174,1,0,0:0:0:0:
320,192,67174,1,0,0:0:0:0:
64,192,67174,1,0,0:0:0:0:
448,192,67352,1,0,0:0:0:0:
320,192,67352,1,0,0:0:0:0:
192,192,67352,1,0,0:0:0:0:
192,192,67531,128,0,68692:0:0:0:0:
64,192,67531,128,0,68692:0:0:0:0:
448,192,67531,128,0,68692:0:0:0:0:
320,192,67531,128,0,68692:0:0:0:0:
448,192,68781,1,0,0:0:0:0:
320,192,68781,1,0,0:0:0:0:
192,192,68781,1,0,0:0:0:0:
64,192,68781,1,0,0:0:0:0:
448,192,69138,1,0,0:0:0:0:
320,192,69138,1,0,0:0:0:0:
64,192,69138,1,0,0:0:0:0:
192,192,69227,1,0,0:0:0:0:
320,192,69317,1,0,0:0:0:0:
448,192,69317,1,0,0:0:0:0:
64,192,69406,1,0,0:0:0:0:
448,192,69495,1,0,0:0:0:0:
320,192,69495,1,0,0:0:0:0:
192,192,69495,1,0,0:0:0:0:
64,192,69584,1,0,0:0:0:0:
320,192,69674,1,0,0:0:0:0:
192,192,69674,1,0,0:0:0:0:
448,192,69763,1,0,0:0:0:0:
64,192,69852,1,0,0:0:0:0:
192,192,69852,1,0,0:0:0:0:
448,192,69942,1,0,0:0:0:0:
192,192,70031,1,0,0:0:0:0:
320,192,70031,1,0,0:0:0:0:
64,192,70120,1,0,0:0:0:0:
192,192,70209,1,0,0:0:0:0:
448,192,70209,1,0,0:0:0:0:
320,192,70209,1,0,0:0:0:0:
64,192,70299,1,0,0:0:0:0:
320,192,70388,1,0,0:0:0:0:
448,192,70388,1,0,0:0:0:0:
192,192,70477,1,0,0:0:0:0:
64,192,70567,1,0,0:0:0:0:
448,192,70567,1,0,0:0:0:0:
320,192,70656,1,0,0:0:0:0:
64,192,70745,1,0,0:0:0:0:
192,192,70745,1,0,0:0:0:0:
448,192,70834,1,0,0:0:0:0:
192,192,70924,1,0,0:0:0:0:
64,192,70924,1,0,0:0:0:0:
320,192,70924,1,0,0:0:0:0:
448,192,71013,1,0,0:0:0:0:
192,192,71102,1,0,0:0:0:0:
320,192,71102,1,0,0:0:0:0:
64,192,71192,1,0,0:0:0:0:
192,192,71281,1,0,0:0:0:0:
448,192,71281,1,0,0:0:0:0:
320,192,71370,1,0,0:0:0:0:
64,192,71459,1,0,0:0:0:0:
448,192,71459,1,0,0:0:0:0:
192,192,71549,1,0,0:0:0:0:
448,192,71638,1,0,0:0:0:0:
320,192,71638,1,0,0:0:0:0:
192,192,71727,1,0,0:0:0:0:
64,192,71727,1,0,0:0:0:0:
320,192,71817,1,0,0:0:0:0:
64,192,71906,1,0,0:0:0:0:
192,192,71906,1,0,0:0:0:0:
448,192,71995,1,0,0:0:0:0:
320,192,71995,1,0,0:0:0:0:
192,192,72084,1,0,0:0:0:0:
320,192,72174,1,0,0:0:0:0:
64,192,72174,1,0,0:0:0:0:
448,192,72263,1,0,0:0:0:0:
192,192,72352,1,0,0:0:0:0:
64,192,72352,1,0,0:0:0:0:
320,192,72352,1,0,0:0:0:0:
448,192,72442,1,0,0:0:0:0:
192,192,72531,1,0,0:0:0:0:
64,192,72531,1,0,0:0:0:0:
320,192,72620,1,0,0:0:0:0:
64,192,72709,1,0,0:0:0:0:
448,192,72709,1,0,0:0:0:0:
192,192,72799,1,0,0:0:0:0:
448,192,72888,1,0,0:0:0:0:
320,192,72888,1,0,0:0:0:0:
192,192,72977,1,0,0:0:0:0:
320,192,73067,1,0,0:0:0:0:
448,192,73067,1,0,0:0:0:0:
64,192,73067,1,0,0:0:0:0:
192,192,73156,1,0,0:0:0:0:
64,192,73245,1,0,0:0:0:0:
320,192,73245,1,0,0:0:0:0:
448,192,73334,1,0,0:0:0:0:
192,192,73424,1,0,0:0:0:0:
64,192,73424,1,0,0:0:0:0:
448,192,73513,1,0,0:0:0:0:
320,192,73513,1,0,0:0:0:0:
64,192,73602,1,0,0:0:0:0:
192,192,73692,1,0,0:0:0:0:
320,192,73692,1,0,0:0:0:0:
448,192,73781,1,0,0:0:0:0:
64,192,73781,1,0,0:0:0:0:
320,192,73870,1,0,0:0:0:0:
64,192,73959,1,0,0:0:0:0:
192,192,73959,1,0,0:0:0:0:
320,192,74049,1,0,0:0:0:0:
448,192,74049,1,0,0:0:0:0:
64,192,74138,1,0,0:0:0:0:
192,192,74227,1,0,0:0:0:0:
448,192,74317,1,0,0:0:0:0:
320,192,74317,1,0,0:0:0:0:
64,192,74406,1,0,0:0:0:0:
448,192,74495,1,0,0:0:0:0:
320,192,74495,1,0,0:0:0:0:
192,192,74495,1,0,0:0:0:0:
64,192,74584,1,0,0:0:0:0:
192,192,74674,1,0,0:0:0:0:
320,192,74763,1,0,0:0:0:0:
64,192,74852,1,0,0:0:0:0:
192,192,74852,1,0,0:0:0:0:
448,192,74852,1,0,0:0:0:0:
320,192,74942,1,0,0:0:0:0:
64,192,75031,1,0,0:0:0:0:
448,192,75031,1,0,0:0:0:0:
192,192,75120,1,0,0:0:0:0:
448,192,75209,1,0,0:0:0:0:
64,192,75209,1,0,0:0:0:0:
320,192,75209,1,0,0:0:0:0:
192,192,75299,1,0,0:0:0:0:
448,192,75388,1,0,0:0:0:0:
320,192,75388,1,0,0:0:0:0:
192,192,75477,1,0,0:0:0:0:
64,192,75477,1,0,0:0:0:0:
320,192,75567,1,0,0:0:0:0:
448,192,75656,1,0,0:0:0:0:
64,192,75656,1,0,0:0:0:0:
192,192,75745,1,0,0:0:0:0:
320,192,75745,1,0,0:0:0:0:
448,192,75834,1,0,0:0:0:0:
320,192,75924,1,0,0:0:0:0:
64,192,75924,1,0,0:0:0:0:
192,192,75924,1,0,0:0:0:0:
448,192,76013,1,0,0:0:0:0:
192,192,76102,1,0,0:0:0:0:
64,192,76102,1,0,0:0:0:0:
320,192,76192,1,0,0:0:0:0:
448,192,76281,1,0,0:0:0:0:
64,192,76281,1,0,0:0:0:0:
192,192,76370,1,0,0:0:0:0:
320,192,76459,1,0,0:0:0:0:
64,192,76459,1,0,0:0:0:0:
448,192,76549,1,0,0:0:0:0:
320,192,76638,1,0,0:0:0:0:
192,192,76638,1,0,0:0:0:0:
64,192,76638,1,0,0:0:0:0:
448,192,76727,1,0,0:0:0:0:
64,192,76817,1,0,0:0:0:0:
192,192,76817,1,0,0:0:0:0:
320,192,76906,1,0,0:0:0:0:
192,192,76995,1,0,0:0:0:0:
448,192,76995,1,0,0:0:0:0:
64,192,77084,1,0,0:0:0:0:
320,192,77174,1,0,0:0:0:0:
448,192,77174,1,0,0:0:0:0:
192,192,77263,1,0,0:0:0:0:
320,192,77352,1,0,0:0:0:0:
64,192,77352,1,0,0:0:0:0:
448,192,77352,1,0,0:0:0:0:
192,192,77442,1,0,0:0:0:0:
448,192,77531,1,0,0:0:0:0:
192,192,77620,1,0,0:0:0:0:
64,192,77620,1,0,0:0:0:0:
448,192,77709,1,0,0:0:0:0:
320,192,77709,1,0,0:0:0:0:
64,192,77799,1,0,0:0:0:0:
320,192,77888,1,0,0:0:0:0:
192,192,77888,1,0,0:0:0:0:
448,192,77977,1,0,0:0:0:0:
192,192,78067,1,0,0:0:0:0:
320,192,78067,1,0,0:0:0:0:
64,192,78067,1,0,0:0:0:0:
448,192,78156,1,0,0:0:0:0:
192,192,78245,1,0,0:0:0:0:
64,192,78245,1,0,0:0:0:0:
320,192,78334,1,0,0:0:0:0:
64,192,78424,1,0,0:0:0:0:
448,192,78424,1,0,0:0:0:0:
192,192,78513,1,0,0:0:0:0:
64,192,78602,1,0,0:0:0:0:
320,192,78602,1,0,0:0:0:0:
448,192,78602,1,0,0:0:0:0:
192,192,78692,1,0,0:0:0:0:
64,192,78781,1,0,0:0:0:0:
448,192,78781,1,0,0:0:0:0:
320,192,78870,1,0,0:0:0:0:
448,192,78959,1,0,0:0:0:0:
192,192,78959,1,0,0:0:0:0:
64,192,78959,1,0,0:0:0:0:
320,192,79049,1,0,0:0:0:0:
192,192,79138,1,0,0:0:0:0:
448,192,79227,1,0,0:0:0:0:
64,192,79317,1,0,0:0:0:0:
320,192,79317,1,0,0:0:0:0:
192,192,79406,1,0,0:0:0:0:
320,192,79495,1,0,0:0:0:0:
448,192,79495,1,0,0:0:0:0:
64,192,79495,1,0,0:0:0:0:
192,192,79584,1,0,0:0:0:0:
448,192,79674,1,0,0:0:0:0:
192,192,79763,1,0,0:0:0:0:
64,192,79763,1,0,0:0:0:0:
448,192,79852,1,0,0:0:0:0:
320,192,79852,1,0,0:0:0:0:
64,192,79942,1,0,0:0:0:0:
192,192,80031,1,0,0:0:0:0:
320,192,80031,1,0,0:0:0:0:
448,192,80120,1,0,0:0:0:0:
192,192,80209,1,0,0:0:0:0:
64,192,80209,1,0,0:0:0:0:
448,192,80299,1,0,0:0:0:0:
320,192,80299,1,0,0:0:0:0:
64,192,80388,1,0,0:0:0:0:
192,192,80388,1,0,0:0:0:0:
320,192,80477,1,0,0:0:0:0:
64,192,80567,1,0,0:0:0:0:
192,192,80567,1,0,0:0:0:0:
448,192,80567,1,0,0:0:0:0:
320,192,80656,1,0,0:0:0:0:
192,192,80745,1,0,0:0:0:0:
64,192,80745,1,0,0:0:0:0:
448,192,80834,1,0,0:0:0:0:
64,192,80924,1,0,0:0:0:0:
192,192,80924,1,0,0:0:0:0:
320,192,80924,1,0,0:0:0:0:
448,192,81013,1,0,0:0:0:0:
192,192,81102,1,0,0:0:0:0:
320,192,81102,1,0,0:0:0:0:
64,192,81192,1,0,0:0:0:0:
448,192,81281,1,0,0:0:0:0:
320,192,81281,1,0,0:0:0:0:
64,192,81370,1,0,0:0:0:0:
320,192,81459,1,0,0:0:0:0:
192,192,81459,1,0,0:0:0:0:
448,192,81549,1,0,0:0:0:0:
320,192,81638,1,0,0:0:0:0:
64,192,81638,1,0,0:0:0:0:
192,192,81638,1,0,0:0:0:0:
448,192,81727,1,0,0:0:0:0:
192,192,81817,1,0,0:0:0:0:
64,192,81817,1,0,0:0:0:0:
320,192,81906,1,0,0:0:0:0:
448,192,81995,1,0,0:0:0:0:
64,192,81995,1,0,0:0:0:0:
192,192,82084,1,0,0:0:0:0:
448,192,82174,1,0,0:0:0:0:
320,192,82174,1,0,0:0:0:0:
64,192,82263,1,0,0:0:0:0:
320,192,82352,1,0,0:0:0:0:
448,192,82352,1,0,0:0:0:0:
192,192,82352,1,0,0:0:0:0:
64,192,82442,1,0,0:0:0:0:
320,192,82531,1,0,0:0:0:0:
192,192,82531,1,0,0:0:0:0:
448,192,82620,1,0,0:0:0:0:
320,192,82709,1,0,0:0:0:0:
64,192,82709,1,0,0:0:0:0:
192,192,82799,1,0,0:0:0:0:
448,192,82888,1,0,0:0:0:0:
64,192,82888,1,0,0:0:0:0:
320,192,82977,1,0,0:0:0:0:
64,192,83067,1,0,0:0:0:0:
192,192,83067,1,0,0:0:0:0:
320,192,83156,1,0,0:0:0:0:
448,192,83156,1,0,0:0:0:0:
192,192,83245,1,0,0:0:0:0:
448,192,83334,1,0,0:0:0:0:
320,192,83334,1,0,0:0:0:0:
64,192,83424,1,0,0:0:0:0:
192,192,83424,1,0,0:0:0:0:
320,192,83513,1,0,0:0:0:0:
192,192,83602,1,0,0:0:0:0:
448,192,83602,1,0,0:0:0:0:
64,192,83692,1,0,0:0:0:0:
320,192,83781,1,0,0:0:0:0:
448,192,83781,1,0,0:0:0:0:
192,192,83781,1,0,0:0:0:0:
64,192,83870,1,0,0:0:0:0:
320,192,83959,1,0,0:0:0:0:
448,192,83959,1,0,0:0:0:0:
192,192,84049,1,0,0:0:0:0:
448,192,84138,1,0,0:0:0:0:
64,192,84138,1,0,0:0:0:0:
320,192,84227,1,0,0:0:0:0:
64,192,84317,1,0,0:0:0:0:
192,192,84317,1,0,0:0:0:0:
320,192,84406,1,0,0:0:0:0:
192,192,84495,1,0,0:0:0:0:
64,192,84495,1,0,0:0:0:0:
448,192,84495,1,0,0:0:0:0:
320,192,84584,1,0,0:0:0:0:
448,192,84674,1,0,0:0:0:0:
192,192,84674,1,0,0:0:0:0:
64,192,84763,1,0,0:0:0:0:
320,192,84852,1,0,0:0:0:0:
448,192,84852,1,0,0:0:0:0:
64,192,84942,1,0,0:0:0:0:
192,192,84942,1,0,0:0:0:0:
448,192,85031,1,0,0:0:0:0:
320,192,85120,1,0,0:0:0:0:
192,192,85120,1,0,0:0:0:0:
64,192,85209,1,0,0:0:0:0:
448,192,85209,1,0,0:0:0:0:
192,192,85299,1,0,0:0:0:0:
448,192,85388,1,0,0:0:0:0:
320,192,85388,1,0,0:0:0:0:
192,192,85477,1,0,0:0:0:0:
64,192,85477,1,0,0:0:0:0:
448,192,85567,1,0,0:0:0:0:
320,192,85656,1,0,0:0:0:0:
64,192,85745,1,0,0:0:0:0:
192,192,85745,1,0,0:0:0:0:
448,192,85834,1,0,0:0:0:0:
64,192,85924,1,0,0:0:0:0:
192,192,85924,1,0,0:0:0:0:
320,192,85924,1,0,0:0:0:0:
448,192,86013,1,0,0:0:0:0:
320,192,86102,1,0,0:0:0:0:
192,192,86192,1,0,0:0:0:0:
448,192,86281,1,0,0:0:0:0:
320,192,86281,1,0,0:0:0:0:
64,192,86281,1,0,0:0:0:0:
192,192,86370,1,0,0:0:0:0:
448,192,86459,1,0,0:0:0:0:
64,192,86459,1,0,0:0:0:0:
320,192,86549,1,0,0:0:0:0:
64,192,86638,1,0,0:0:0:0:
448,192,86638,1,0,0:0:0:0:
192,192,86638,1,0,0:0:0:0:
320,192,86727,1,0,0:0:0:0:
64,192,86817,1,0,0:0:0:0:
192,192,86817,1,0,0:0:0:0:
320,192,86906,1,0,0:0:0:0:
448,192,86906,1,0,0:0:0:0:
192,192,86995,1,0,0:0:0:0:
64,192,87084,1,0,0:0:0:0:
448,192,87084,1,0,0:0:0:0:
320,192,87174,1,0,0:0:0:0:
192,192,87174,1,0,0:0:0:0:
64,192,87263,1,0,0:0:0:0:
192,192,87352,1,0,0:0:0:0:
448,192,87352,1,0,0:0:0:0:
320,192,87352,1,0,0:0:0:0:
64,192,87442,1,0,0:0:0:0:
320,192,87531,1,0,0:0:0:0:
448,192,87531,1,0,0:0:0:0:
192,192,87620,1,0,0:0:0:0:
64,192,87709,1,0,0:0:0:0:
448,192,87709,1,0,0:0:0:0:
320,192,87799,1,0,0:0:0:0:
192,192,87888,1,0,0:0:0:0:
448,192,87888,1,0,0:0:0:0:
64,192,87977,1,0,0:0:0:0:
192,192,88067,1,0,0:0:0:0:
320,192,88067,1,0,0:0:0:0:
448,192,88067,1,0,0:0:0:0:
64,192,88156,1,0,0:0:0:0:
448,192,88245,1,0,0:0:0:0:
320,192,88245,1,0,0:0:0:0:
192,192,88334,1,0,0:0:0:0:
320,192,88424,1,0,0:0:0:0:
64,192,88424,1,0,0:0:0:0:
448,192,88513,1,0,0:0:0:0:
192,192,88602,1,0,0:0:0:0:
64,192,88602,1,0,0:0:0:0:
320,192,88692,1,0,0:0:0:0:
192,192,88781,1,0,0:0:0:0:
448,192,88781,1,0,0:0:0:0:
64,192,88781,1,0,0:0:0:0:
320,192,88870,1,0,0:0:0:0:
64,192,88959,1,0,0:0:0:0:
320,192,89049,1,0,0:0:0:0:
448,192,89049,1,0,0:0:0:0:
64,192,89138,1,0,0:0:0:0:
192,192,89138,1,0,0:0:0:0:
448,192,89227,1,0,0:0:0:0:
192,192,89317,1,0,0:0:0:0:
320,192,89317,1,0,0:0:0:0:
64,192,89406,1,0,0:0:0:0:
320,192,89495,1,0,0:0:0:0:
192,192,89495,1,0,0:0:0:0:
448,192,89495,1,0,0:0:0:0:
64,192,89584,1,0,0:0:0:0:
320,192,89674,1,0,0:0:0:0:
448,192,89674,1,0,0:0:0:0:
64,192,89763,1,0,0:0:0:0:
192,192,89763,1,0,0:0:0:0:
448,192,89852,1,0,0:0:0:0:
320,192,89852,1,0,0:0:0:0:
64,192,89942,1,0,0:0:0:0:
448,192,90031,1,0,0:0:0:0:
192,192,90031,1,0,0:0:0:0:
320,192,90031,1,0,0:0:0:0:
64,192,90120,1,0,0:0:0:0:
192,192,90209,1,0,0:0:0:0:
320,192,90209,1,0,0:0:0:0:
448,192,90299,1,0,0:0:0:0:
64,192,90388,1,0,0:0:0:0:
320,192,90388,1,0,0:0:0:0:
192,192,90388,1,0,0:0:0:0:
448,192,90477,1,0,0:0:0:0:
64,192,90567,1,0,0:0:0:0:
320,192,90656,1,0,0:0:0:0:
192,192,90745,1,0,0:0:0:0:
64,192,90745,1,0,0:0:0:0:
448,192,90834,1,0,0:0:0:0:
192,192,90924,1,0,0:0:0:0:
64,192,90924,1,0,0:0:0:0:
320,192,90924,1,0,0:0:0:0:
448,192,91013,1,0,0:0:0:0:
192,192,91102,1,0,0:0:0:0:
320,192,91192,1,0,0:0:0:0:
64,192,91192,1,0,0:0:0:0:
448,192,91281,1,0,0:0:0:0:
192,192,91281,1,0,0:0:0:0:
64,192,91370,1,0,0:0:0:0:
320,192,91459,1,0,0:0:0:0:
192,192,91459,1,0,0:0:0:0:
448,192,91549,1,0,0:0:0:0:
192,192,91638,1,0,0:0:0:0:
320,192,91638,1,0,0:0:0:0:
64,192,91638,1,0,0:0:0:0:
448,192,91727,1,0,0:0:0:0:
320,192,91817,1,0,0:0:0:0:
192,192,91906,1,0,0:0:0:0:
448,192,91995,1,0,0:0:0:0:
320,192,91995,1,0,0:0:0:0:
64,192,91995,1,0,0:0:0:0:
192,192,92084,1,0,0:0:0:0:
64,192,92174,1,0,0:0:0:0:
320,192,92263,1,0,0:0:0:0:
192,192,92352,1,0,0:0:0:0:
448,192,92442,1,0,0:0:0:0:
320,192,92531,1,0,0:0:0:0:
192,192,92620,1,0,0:0:0:0:
448,192,92709,1,0,0:0:0:0:
64,192,92799,1,0,0:0:0:0:
192,192,92888,1,0,0:0:0:0:
320,192,92977,1,0,0:0:0:0:
64,192,93067,1,0,0:0:0:0:
448,192,93156,1,0,0:0:0:0:
192,192,93245,1,0,0:0:0:0:
320,192,93334,1,0,0:0:0:0:
64,192,93424,1,0,0:0:0:0:
192,192,93513,1,0,0:0:0:0:
448,192,93602,1,0,0:0:0:0:
320,192,93692,1,0,0:0:0:0:
448,192,93781,1,0,0:0:0:0:
192,192,93870,1,0,0:0:0:0:
320,192,93959,1,0,0:0:0:0:
64,192,94049,1,0,0:0:0:0:
192,192,94138,1,0,0:0:0:0:
448,192,94227,1,0,0:0:0:0:
64,192,94317,1,0,0:0:0:0:
320,192,94406,1,0,0:0:0:0:
192,192,94495,1,0,0:0:0:0:
448,192,94584,1,0,0:0:0:0:
192,192,94674,1,0,0:0:0:0:
64,192,94674,1,0,0:0:0:0:
320,192,94763,1,0,0:0:0:0:
64,192,94852,1,0,0:0:0:0:
192,192,94852,1,0,0:0:0:0:
320,192,94942,1,0,0:0:0:0:
448,192,95031,1,0,0:0:0:0:
64,192,95120,1,0,0:0:0:0:
320,192,95209,1,0,0:0:0:0:
192,192,95299,1,0,0:0:0:0:
448,192,95388,1,0,0:0:0:0:
320,192,95477,1,0,0:0:0:0:
448,192,95567,1,0,0:0:0:0:
192,192,95656,1,0,0:0:0:0:
320,192,95745,1,0,0:0:0:0:
64,192,95834,1,0,0:0:0:0:
448,192,95924,1,0,0:0:0:0:
320,192,96013,1,0,0:0:0:0:
192,192,96102,1,0,0:0:0:0:
448,192,96192,1,0,0:0:0:0:
320,192,96281,1,0,0:0:0:0:
64,192,96370,1,0,0:0:0:0:
448,192,96459,1,0,0:0:0:0:
320,192,96459,1,0,0:0:0:0:
192,192,96549,1,0,0:0:0:0:
448,192,96638,1,0,0:0:0:0:
64,192,96638,1,0,0:0:0:0:
320,192,96727,1,0,0:0:0:0:
192,192,96817,1,0,0:0:0:0:
64,192,96817,1,0,0:0:0:0:
448,192,96906,1,0,0:0:0:0:
192,192,96995,1,0,0:0:0:0:
320,192,96995,1,0,0:0:0:0:
64,192,97084,1,0,0:0:0:0:
320,192,97174,1,0,0:0:0:0:
448,192,97174,1,0,0:0:0:0:
192,192,97263,1,0,0:0:0:0:
320,192,97352,1,0,0:0:0:0:
64,192,97352,1,0,0:0:0:0:
448,192,97442,1,0,0:0:0:0:
192,192,97531,1,0,0:0:0:0:
64,192,97531,1,0,0:0:0:0:
320,192,97620,1,0,0:0:0:0:
448,192,97709,1,0,0:0:0:0:
192,192,97709,1,0,0:0:0:0:
64,192,97709,1,0,0:0:0:0:
320,192,97799,1,0,0:0:0:0:
448,192,97888,1,0,0:0:0:0:
192,192,97977,1,0,0:0:0:0:
320,192,98067,1,0,0:0:0:0:
64,192,98156,1,0,0:0:0:0:
192,192,98245,1,0,0:0:0:0:
320,192,98334,1,0,0:0:0:0:
64,192,98424,1,0,0:0:0:0:
448,192,98513,1,0,0:0:0:0:
320,192,98602,1,0,0:0:0:0:
192,192,98692,1,0,0:0:0:0:
448,192,98781,1,0,0:0:0:0:
64,192,98870,1,0,0:0:0:0:
320,192,98959,1,0,0:0:0:0:
192,192,99049,1,0,0:0:0:0:
448,192,99138,1,0,0:0:0:0:
320,192,99227,1,0,0:0:0:0:
64,192,99317,1,0,0:0:0:0:
192,192,99406,1,0,0:0:0:0:
64,192,99495,1,0,0:0:0:0:
320,192,99584,1,0,0:0:0:0:
192,192,99674,1,0,0:0:0:0:
448,192,99763,1,0,0:0:0:0:
320,192,99852,1,0,0:0:0:0:
64,192,99942,1,0,0:0:0:0:
448,192,100031,1,0,0:0:0:0:
192,192,100120,1,0,0:0:0:0:
320,192,100209,1,0,0:0:0:0:
64,192,100299,1,0,0:0:0:0:
448,192,100388,1,0,0:0:0:0:
320,192,100388,1,0,0:0:0:0:
192,192,100477,1,0,0:0:0:0:
320,192,100567,1,0,0:0:0:0:
448,192,100567,1,0,0:0:0:0:
192,192,100656,1,0,0:0:0:0:
64,192,100745,1,0,0:0:0:0:
448,192,100834,1,0,0:0:0:0:
192,192,100924,1,0,0:0:0:0:
320,192,101013,1,0,0:0:0:0:
64,192,101102,1,0,0:0:0:0:
192,192,101192,1,0,0:0:0:0:
64,192,101281,1,0,0:0:0:0:
320,192,101370,1,0,0:0:0:0:
192,192,101459,1,0,0:0:0:0:
448,192,101549,1,0,0:0:0:0:
64,192,101638,1,0,0:0:0:0:
192,192,101727,1,0,0:0:0:0:
320,192,101817,1,0,0:0:0:0:
64,192,101906,1,0,0:0:0:0:
192,192,101995,1,0,0:0:0:0:
448,192,102084,1,0,0:0:0:0:
192,192,102174,1,0,0:0:0:0:
64,192,102174,1,0,0:0:0:0:
320,192,102263,1,0,0:0:0:0:
448,192,102352,1,0,0:0:0:0:
64,192,102352,1,0,0:0:0:0:
192,192,102442,1,0,0:0:0:0:
448,192,102531,1,0,0:0:0:0:
320,192,102531,1,0,0:0:0:0:
64,192,102620,1,0,0:0:0:0:
192,192,102709,1,0,0:0:0:0:
320,192,102709,1,0,0:0:0:0:
448,192,102799,1,0,0:0:0:0:
64,192,102888,1,0,0:0:0:0:
192,192,102888,1,0,0:0:0:0:
320,192,102977,1,0,0:0:0:0:
448,192,103067,1,0,0:0:0:0:
192,192,103067,1,0,0:0:0:0:
64,192,103156,1,0,0:0:0:0:
448,192,103245,1,0,0:0:0:0:
320,192,103245,1,0,0:0:0:0:
192,192,103334,1,0,0:0:0:0:
448,192,103424,1,0,0:0:0:0:
320,192,103424,1,0,0:0:0:0:
64,192,103424,1,0,0:0:0:0:
192,192,103513,1,0,0:0:0:0:
64,192,103602,1,0,0:0:0:0:
448,192,103602,1,0,0:0:0:0:
320,192,103692,1,0,0:0:0:0:
64,192,103781,1,0,0:0:0:0:
192,192,103781,1,0,0:0:0:0:
448,192,103870,1,0,0:0:0:0:
192,192,103959,1,0,0:0:0:0:
320,192,103959,1,0,0:0:0:0:
64,192,104049,1,0,0:0:0:0:
320,192,104138,1,0,0:0:0:0:
448,192,104138,1,0,0:0:0:0:
64,192,104227,1,0,0:0:0:0:
192,192,104227,1,0,0:0:0:0:
448,192,104317,1,0,0:0:0:0:
320,192,104317,1,0,0:0:0:0:
64,192,104406,1,0,0:0:0:0:
192,192,104406,1,0,0:0:0:0:
448,192,104495,1,0,0:0:0:0:
320,192,104495,1,0,0:0:0:0:
64,192,104584,1,0,0:0:0:0:
320,192,104674,1,0,0:0:0:0:
192,192,104674,1,0,0:0:0:0:
448,192,104763,1,0,0:0:0:0:
64,192,104852,1,0,0:0:0:0:
192,192,104852,1,0,0:0:0:0:
320,192,104942,1,0,0:0:0:0:
64,192,105031,1,0,0:0:0:0:
448,192,105031,1,0,0:0:0:0:
192,192,105120,1,0,0:0:0:0:
320,192,105209,1,0,0:0:0:0:
448,192,105299,1,0,0:0:0:0:
320,192,105388,1,0,0:0:0:0:
192,192,105388,1,0,0:0:0:0:
64,192,105477,1,0,0:0:0:0:
320,192,105567,1,0,0:0:0:0:
448,192,105567,1,0,0:0:0:0:
192,192,105656,1,0,0:0:0:0:
64,192,105745,1,0,0:0:0:0:
448,192,105745,1,0,0:0:0:0:
192,192,105834,1,0,0:0:0:0:
320,192,105834,1,0,0:0:0:0:
64,192,105924,1,0,0:0:0:0:
448,192,105924,1,0,0:0:0:0:
320,192,106013,1,0,0:0:0:0:
64,192,106102,1,0,0:0:0:0:
448,192,106102,1,0,0:0:0:0:
320,192,106192,1,0,0:0:0:0:
64,192,106281,1,0,0:0:0:0:
192,192,106281,1,0,0:0:0:0:
448,192,106370,1,0,0:0:0:0:
192,192,106459,1,0,0:0:0:0:
320,192,106459,1,0,0:0:0:0:
64,192,106549,1,0,0:0:0:0:
448,192,106638,1,0,0:0:0:0:
192,192,106727,1,0,0:0:0:0:
320,192,106817,1,0,0:0:0:0:
64,192,106906,1,0,0:0:0:0:
192,192,106995,1,0,0:0:0:0:
320,192,107084,1,0,0:0:0:0:
448,192,107084,1,0,0:0:0:0:
64,192,107174,1,0,0:0:0:0:
192,192,107174,1,0,0:0:0:0:
448,192,107263,1,0,0:0:0:0:
320,192,107263,1,0,0:0:0:0:
192,192,107352,1,0,0:0:0:0:
64,192,107352,1,0,0:0:0:0:
448,192,107442,1,0,0:0:0:0:
192,192,107531,1,0,0:0:0:0:
320,192,107531,1,0,0:0:0:0:
64,192,107620,1,0,0:0:0:0:
320,192,107709,1,0,0:0:0:0:
192,192,107709,1,0,0:0:0:0:
448,192,107799,1,0,0:0:0:0:
320,192,107888,1,0,0:0:0:0:
64,192,107888,1,0,0:0:0:0:
192,192,107977,1,0,0:0:0:0:
64,192,108067,1,0,0:0:0:0:
448,192,108067,1,0,0:0:0:0:
192,192,108156,1,0,0:0:0:0:
320,192,108245,1,0,0:0:0:0:
448,192,108245,1,0,0:0:0:0:
64,192,108334,1,0,0:0:0:0:
192,192,108424,1,0,0:0:0:0:
320,192,108424,1,0,0:0:0:0:
64,192,108513,1,0,0:0:0:0:
448,192,108513,1,0,0:0:0:0:
320,192,108602,1,0,0:0:0:0:
192,192,108602,1,0,0:0:0:0:
64,192,108692,1,0,0:0:0:0:
448,192,108692,1,0,0:0:0:0:
192,192,108781,1,0,0:0:0:0:
320,192,108781,1,0,0:0:0:0:
64,192,108870,1,0,0:0:0:0:
448,192,108959,1,0,0:0:0:0:
320,192,108959,1,0,0:0:0:0:
192,192,109049,1,0,0:0:0:0:
320,192,109138,1,0,0:0:0:0:
448,192,109138,1,0,0:0:0:0:
64,192,109138,1,0,0:0:0:0:
192,192,109227,1,0,0:0:0:0:
320,192,109317,1,0,0:0:0:0:
64,192,109406,1,0,0:0:0:0:
448,192,109495,1,0,0:0:0:0:
192,192,109584,1,0,0:0:0:0:
320,192,109674,1,0,0:0:0:0:
64,192,109763,1,0,0:0:0:0:
192,192,109852,1,0,0:0:0:0:
64,192,109942,1,0,0:0:0:0:
448,192,109942,1,0,0:0:0:0:
320,192,110031,1,0,0:0:0:0:
192,192,110031,1,0,0:0:0:0:
64,192,110120,1,0,0:0:0:0:
448,192,110120,1,0,0:0:0:0:
320,192,110209,1,0,0:0:0:0:
192,192,110209,1,0,0:0:0:0:
448,192,110299,1,0,0:0:0:0:
192,192,110388,1,0,0:0:0:0:
64,192,110388,1,0,0:0:0:0:
320,192,110477,1,0,0:0:0:0:
448,192,110567,1,0,0:0:0:0:
192,192,110567,1,0,0:0:0:0:
64,192,110656,1,0,0:0:0:0:
320,192,110745,1,0,0:0:0:0:
448,192,110834,1,0,0:0:0:0:
192,192,110924,1,0,0:0:0:0:
448,192,111013,1,0,0:0:0:0:
320,192,111102,1,0,0:0:0:0:
64,192,111102,1,0,0:0:0:0:
192,192,111192,1,0,0:0:0:0:
448,192,111281,1,0,0:0:0:0:
320,192,111281,1,0,0:0:0:0:
64,192,111370,1,0,0:0:0:0:
192,192,111459,1,0,0:0:0:0:
448,192,111459,1,0,0:0:0:0:
320,192,111549,1,0,0:0:0:0:
64,192,111549,1,0,0:0:0:0:
192,192,111638,1,0,0:0:0:0:
448,192,111638,1,0,0:0:0:0:
320,192,111727,1,0,0:0:0:0:
192,192,111817,1,0,0:0:0:0:
64,192,111817,1,0,0:0:0:0:
320,192,111906,1,0,0:0:0:0:
448,192,111995,1,0,0:0:0:0:
64,192,111995,1,0,0:0:0:0:
192,192,112084,1,0,0:0:0:0:
320,192,112174,1,0,0:0:0:0:
64,192,112263,1,0,0:0:0:0:
192,192,112352,1,0,0:0:0:0:
448,192,112442,1,0,0:0:0:0:
192,192,112531,1,0,0:0:0:0:
320,192,112531,1,0,0:0:0:0:
64,192,112620,1,0,0:0:0:0:
448,192,112709,1,0,0:0:0:0:
64,192,112799,1,0,0:0:0:0:
192,192,112799,1,0,0:0:0:0:
320,192,112888,1,0,0:0:0:0:
448,192,112888,1,0,0:0:0:0:
192,192,112977,1,0,0:0:0:0:
64,192,112977,1,0,0:0:0:0:
448,192,113067,1,0,0:0:0:0:
320,192,113067,1,0,0:0:0:0:
192,192,113156,1,0,0:0:0:0:
448,192,113245,1,0,0:0:0:0:
64,192,113245,1,0,0:0:0:0:
320,192,113334,1,0,0:0:0:0:
192,192,113424,1,0,0:0:0:0:
448,192,113424,1,0,0:0:0:0:
64,192,113513,1,0,0:0:0:0:
192,192,113602,1,0,0:0:0:0:
320,192,113602,1,0,0:0:0:0:
448,192,113692,1,0,0:0:0:0:
64,192,113781,1,0,0:0:0:0:
320,192,113781,1,0,0:0:0:0:
192,192,113870,1,0,0:0:0:0:
448,192,113959,1,0,0:0:0:0:
320,192,113959,1,0,0:0:0:0:
64,192,114049,1,0,0:0:0:0:
192,192,114138,1,0,0:0:0:0:
320,192,114138,1,0,0:0:0:0:
448,192,114227,1,0,0:0:0:0:
192,192,114317,1,0,0:0:0:0:
64,192,114317,1,0,0:0:0:0:
320,192,114406,1,0,0:0:0:0:
448,192,114495,1,0,0:0:0:0:
64,192,114495,1,0,0:0:0:0:
192,192,114584,1,0,0:0:0:0:
320,192,114674,1,0,0:0:0:0:
448,192,114674,1,0,0:0:0:0:
64,192,114763,1,0,0:0:0:0:
320,192,114852,1,0,0:0:0:0:
192,192,114852,1,0,0:0:0:0:
448,192,114852,1,0,0:0:0:0:
64,192,114942,1,0,0:0:0:0:
448,192,115031,1,0,0:0:0:0:
320,192,115120,1,0,0:0:0:0:
192,192,115120,1,0,0:0:0:0:
448,192,115209,1,0,0:0:0:0:
64,192,115209,1,0,0:0:0:0:
192,192,115299,1,0,0:0:0:0:
448,192,115388,1,0,0:0:0:0:
64,192,115388,1,0,0:0:0:0:
320,192,115477,1,0,0:0:0:0:
192,192,115567,1,0,0:0:0:0:
448,192,115656,1,0,0:0:0:0:
192,192,115745,1,0,0:0:0:0:
64,192,115745,1,0,0:0:0:0:
320,192,115834,1,0,0:0:0:0:
64,192,115924,1,0,0:0:0:0:
192,192,115924,1,0,0:0:0:0:
448,192,115924,1,0,0:0:0:0:
320,192,116013,1,0,0:0:0:0:
192,192,116102,1,0,0:0:0:0:
448,192,116102,1,0,0:0:0:0:
64,192,116192,1,0,0:0:0:0:
320,192,116281,1,0,0:0:0:0:
192,192,116370,1,0,0:0:0:0:
64,192,116459,1,0,0:0:0:0:
448,192,116459,1,0,0:0:0:0:
320,192,116549,1,0,0:0:0:0:
64,192,116638,1,0,0:0:0:0:
448,192,116638,1,0,0:0:0:0:
192,192,116727,1,0,0:0:0:0:
320,192,116817,1,0,0:0:0:0:
64,192,116817,1,0,0:0:0:0:
448,192,116817,1,0,0:0:0:0:
192,192,116906,1,0,0:0:0:0:
320,192,116995,1,0,0:0:0:0:
64,192,117084,1,0,0:0:0:0:
448,192,117174,1,0,0:0:0:0:
192,192,117174,1,0,0:0:0:0:
64,192,117263,1,0,0:0:0:0:
320,192,117352,1,0,0:0:0:0:
192,192,117352,1,0,0:0:0:0:
64,192,117442,1,0,0:0:0:0:
448,192,117442,1,0,0:0:0:0:
192,192,117531,1,0,0:0:0:0:
320,192,117531,1,0,0:0:0:0:
64,192,117620,1,0,0:0:0:0:
448,192,117620,1,0,0:0:0:0:
320,192,117709,1,0,0:0:0:0:
192,192,117709,1,0,0:0:0:0:
448,192,117799,1,0,0:0:0:0:
64,192,117888,1,0,0:0:0:0:
448,192,117977,1,0,0:0:0:0:
320,192,117977,1,0,0:0:0:0:
64,192,118067,1,0,0:0:0:0:
192,192,118067,1,0,0:0:0:0:
320,192,118156,1,0,0:0:0:0:
192,192,118245,1,0,0:0:0:0:
448,192,118245,1,0,0:0:0:0:
64,192,118334,1,0,0:0:0:0:
320,192,118424,1,0,0:0:0:0:
192,192,118513,1,0,0:0:0:0:
320,192,118602,1,0,0:0:0:0:
448,192,118602,1,0,0:0:0:0:
64,192,118692,1,0,0:0:0:0:
448,192,118781,1,0,0:0:0:0:
320,192,118781,1,0,0:0:0:0:
192,192,118870,1,0,0:0:0:0:
448,192,118959,1,0,0:0:0:0:
320,192,118959,1,0,0:0:0:0:
64,192,118959,1,0,0:0:0:0:
192,192,119049,1,0,0:0:0:0:
448,192,119138,1,0,0:0:0:0:
64,192,119227,1,0,0:0:0:0:
320,192,119317,1,0,0:0:0:0:
192,192,119317,1,0,0:0:0:0:
64,192,119406,1,0,0:0:0:0:
448,192,119495,1,0,0:0:0:0:
192,192,119495,1,0,0:0:0:0:
320,192,119584,1,0,0:0:0:0:
192,192,119674,1,0,0:0:0:0:
64,192,119674,1,0,0:0:0:0:
448,192,119674,1,0,0:0:0:0:
320,192,119763,1,0,0:0:0:0:
192,192,119852,1,0,0:0:0:0:
448,192,119942,1,0,0:0:0:0:
64,192,120031,1,0,0:0:0:0:
192,192,120031,1,0,0:0:0:0:
320,192,120120,1,0,0:0:0:0:
448,192,120120,1,0,0:0:0:0:
192,192,120209,1,0,0:0:0:0:
64,192,120209,1,0,0:0:0:0:
320,192,120299,1,0,0:0:0:0:
64,192,120388,1,0,0:0:0:0:
448,192,120388,1,0,0:0:0:0:
192,192,120477,1,0,0:0:0:0:
448,192,120567,1,0,0:0:0:0:
320,192,120567,1,0,0:0:0:0:
64,192,120567,1,0,0:0:0:0:
192,192,120656,1,0,0:0:0:0:
448,192,120745,1,0,0:0:0:0:
192,192,120834,1,0,0:0:0:0:
64,192,120834,1,0,0:0:0:0:
448,192,120924,1,0,0:0:0:0:
320,192,120924,1,0,0:0:0:0:
64,192,121013,1,0,0:0:0:0:
192,192,121102,1,0,0:0:0:0:
448,192,121102,1,0,0:0:0:0:
320,192,121192,1,0,0:0:0:0:
64,192,121281,1,0,0:0:0:0:
192,192,121370,1,0,0:0:0:0:
448,192,121459,1,0,0:0:0:0:
64,192,121459,1,0,0:0:0:0:
320,192,121549,1,0,0:0:0:0:
448,192,121638,1,0,0:0:0:0:
64,192,121638,1,0,0:0:0:0:
192,192,121638,1,0,0:0:0:0:
320,192,121727,1,0,0:0:0:0:
64,192,121817,1,0,0:0:0:0:
448,192,121817,1,0,0:0:0:0:
192,192,121906,1,0,0:0:0:0:
320,192,121995,1,0,0:0:0:0:
448,192,122084,1,0,0:0:0:0:
64,192,122174,5,0,0:0:0:0:
192,192,122174,1,0,0:0:0:0:
320,192,122174,1,0,0:0:0:0:
448,192,122263,1,0,0:0:0:0:
64,192,122352,1,0,0:0:0:0:
192,192,122352,1,0,0:0:0:0:
320,192,122352,1,0,0:0:0:0:
448,192,122442,1,0,0:0:0:0:
192,192,122531,5,0,0:0:0:0:
64,192,122531,1,0,0:0:0:0:
320,192,122620,1,0,0:0:0:0:
448,192,122709,1,0,0:0:0:0:
64,192,122709,1,0,0:0:0:0:
192,192,122799,1,0,0:0:0:0:
448,192,122888,1,0,0:0:0:0:
64,192,122888,1,0,0:0:0:0:
320,192,122977,1,0,0:0:0:0:
448,192,123067,1,0,0:0:0:0:
64,192,123067,1,0,0:0:0:0:
192,192,123156,1,0,0:0:0:0:
320,192,123156,1,0,0:0:0:0:
448,192,123245,1,0,0:0:0:0:
64,192,123245,1,0,0:0:0:0:
192,192,123334,1,0,0:0:0:0:
320,192,123334,1,0,0:0:0:0:
64,192,123424,5,0,0:0:0:0:
448,192,123424,1,0,0:0:0:0:
320,192,123602,1,0,0:0:0:0:
192,192,123602,1,0,0:0:0:0:
448,192,123692,1,0,0:0:0:0:
192,192,123781,1,0,0:0:0:0:
320,192,123781,1,0,0:0:0:0:
64,192,123781,1,0,0:0:0:0:
448,192,123959,1,0,0:0:0:0:
320,192,123959,1,0,0:0:0:0:
192,192,123959,1,0,0:0:0:0:
192,192,124138,1,0,0:0:0:0:
320,192,124138,1,0,0:0:0:0:
64,192,124138,1,0,0:0:0:0:
448,192,124317,1,0,0:0:0:0:
192,192,124317,1,0,0:0:0:0:
320,192,124317,1,0,0:0:0:0:
320,192,124495,1,0,0:0:0:0:
192,192,124495,1,0,0:0:0:0:
64,192,124495,1,0,0:0:0:0:
64,192,124674,128,0,125834:0:0:0:0:
192,192,124674,128,0,125834:0:0:0:0:
320,192,124674,128,0,125834:0:0:0:0:
448,192,124674,128,0,125834:0:0:0:0:
320,192,125924,1,0,0:0:0:0:
448,192,125924,1,0,0:0:0:0:
64,192,125924,1,0,0:0:0:0:
192,192,125924,1,0,0:0:0:0:
448,192,126281,1,0,0:0:0:0:
192,192,126281,1,0,0:0:0:0:
64,192,126281,1,0,0:0:0:0:
320,192,126370,1,0,0:0:0:0:
64,192,126459,1,0,0:0:0:0:
192,192,126459,1,0,0:0:0:0:
448,192,126549,1,0,0:0:0:0:
320,192,126638,1,0,0:0:0:0:
192,192,126638,1,0,0:0:0:0:
64,192,126638,1,0,0:0:0:0:
448,192,126727,1,0,0:0:0:0:
320,192,126817,1,0,0:0:0:0:
192,192,126817,1,0,0:0:0:0:
64,192,126906,1,0,0:0:0:0:
320,192,126995,1,0,0:0:0:0:
448,192,126995,1,0,0:0:0:0:
64,192,127084,1,0,0:0:0:0:
192,192,127174,1,0,0:0:0:0:
320,192,127174,1,0,0:0:0:0:
448,192,127263,1,0,0:0:0:0:
192,192,127352,1,0,0:0:0:0:
64,192,127352,1,0,0:0:0:0:
320,192,127352,1,0,0:0:0:0:
448,192,127442,1,0,0:0:0:0:
64,192,127531,1,0,0:0:0:0:
192,192,127531,1,0,0:0:0:0:
320,192,127620,1,0,0:0:0:0:
64,192,127709,1,0,0:0:0:0:
448,192,127709,1,0,0:0:0:0:
192,192,127799,1,0,0:0:0:0:
320,192,127888,1,0,0:0:0:0:
448,192,127888,1,0,0:0:0:0:
64,192,127977,1,0,0:0:0:0:
192,192,128067,1,0,0:0:0:0:
448,192,128067,1,0,0:0:0:0:
320,192,128067,1,0,0:0:0:0:
64,192,128156,1,0,0:0:0:0:
192,192,128245,1,0,0:0:0:0:
320,192,128245,1,0,0:0:0:0:
448,192,128334,1,0,0:0:0:0:
64,192,128424,1,0,0:0:0:0:
320,192,128424,1,0,0:0:0:0:
192,192,128513,1,0,0:0:0:0:
64,192,128602,1,0,0:0:0:0:
448,192,128602,1,0,0:0:0:0:
320,192,128692,1,0,0:0:0:0:
192,192,128781,1,0,0:0:0:0:
64,192,128781,1,0,0:0:0:0:
448,192,128870,1,0,0:0:0:0:
320,192,128870,1,0,0:0:0:0:
192,192,128959,1,0,0:0:0:0:
320,192,129049,1,0,0:0:0:0:
192,192,129138,1,0,0:0:0:0:
64,192,129138,1,0,0:0:0:0:
448,192,129138,1,0,0:0:0:0:
320,192,129227,1,0,0:0:0:0:
448,192,129317,1,0,0:0:0:0:
192,192,129317,1,0,0:0:0:0:
64,192,129406,1,0,0:0:0:0:
192,192,129495,1,0,0:0:0:0:
448,192,129495,1,0,0:0:0:0:
320,192,129495,1,0,0:0:0:0:
64,192,129584,1,0,0:0:0:0:
448,192,129674,1,0,0:0:0:0:
320,192,129674,1,0,0:0:0:0:
192,192,129763,1,0,0:0:0:0:
64,192,129852,1,0,0:0:0:0:
448,192,129852,1,0,0:0:0:0:
320,192,129942,1,0,0:0:0:0:
192,192,130031,1,0,0:0:0:0:
64,192,130031,1,0,0:0:0:0:
320,192,130120,1,0,0:0:0:0:
448,192,130209,1,0,0:0:0:0:
64,192,130209,1,0,0:0:0:0:
192,192,130209,1,0,0:0:0:0:
320,192,130299,1,0,0:0:0:0:
192,192,130388,1,0,0:0:0:0:
448,192,130388,1,0,0:0:0:0:
64,192,130477,1,0,0:0:0:0:
448,192,130567,1,0,0:0:0:0:
320,192,130567,1,0,0:0:0:0:
192,192,130656,1,0,0:0:0:0:
64,192,130656,1,0,0:0:0:0:
448,192,130745,1,0,0:0:0:0:
192,192,130834,1,0,0:0:0:0:
320,192,130834,1,0,0:0:0:0:
448,192,130924,1,0,0:0:0:0:
64,192,130924,1,0,0:0:0:0:
192,192,131013,1,0,0:0:0:0:
320,192,131102,1,0,0:0:0:0:
448,192,131102,1,0,0:0:0:0:
64,192,131192,1,0,0:0:0:0:
192,192,131192,1,0,0:0:0:0:
448,192,131281,1,0,0:0:0:0:
320,192,131370,1,0,0:0:0:0:
192,192,131459,1,0,0:0:0:0:
64,192,131459,1,0,0:0:0:0:
448,192,131549,1,0,0:0:0:0:
320,192,131638,1,0,0:0:0:0:
192,192,131638,1,0,0:0:0:0:
448,192,131727,1,0,0:0:0:0:
64,192,131727,1,0,0:0:0:0:
320,192,131817,1,0,0:0:0:0:
192,192,131906,1,0,0:0:0:0:
64,192,131995,1,0,0:0:0:0:
320,192,131995,1,0,0:0:0:0:
448,192,131995,1,0,0:0:0:0:
192,192,132084,1,0,0:0:0:0:
64,192,132174,1,0,0:0:0:0:
448,192,132174,1,0,0:0:0:0:
320,192,132263,1,0,0:0:0:0:
192,192,132352,1,0,0:0:0:0:
448,192,132352,1,0,0:0:0:0:
64,192,132352,1,0,0:0:0:0:
320,192,132442,1,0,0:0:0:0:
192,192,132531,1,0,0:0:0:0:
64,192,132531,1,0,0:0:0:0:
448,192,132620,1,0,0:0:0:0:
320,192,132620,1,0,0:0:0:0:
192,192,132709,1,0,0:0:0:0:
448,192,132799,1,0,0:0:0:0:
64,192,132799,1,0,0:0:0:0:
192,192,132888,1,0,0:0:0:0:
320,192,132888,1,0,0:0:0:0:
64,192,132977,1,0,0:0:0:0:
320,192,133067,1,0,0:0:0:0:
448,192,133067,1,0,0:0:0:0:
192,192,133067,1,0,0:0:0:0:
64,192,133156,1,0,0:0:0:0:
448,192,133245,1,0,0:0:0:0:
320,192,133245,1,0,0:0:0:0:
192,192,133334,1,0,0:0:0:0:
448,192,133424,1,0,0:0:0:0:
64,192,133424,1,0,0:0:0:0:
320,192,133513,1,0,0:0:0:0:
448,192,133602,1,0,0:0:0:0:
192,192,133602,1,0,0:0:0:0:
64,192,133692,1,0,0:0:0:0:
448,192,133781,1,0,0:0:0:0:
320,192,133781,1,0,0:0:0:0:
192,192,133781,1,0,0:0:0:0:
64,192,133870,1,0,0:0:0:0:
320,192,133959,1,0,0:0:0:0:
448,192,133959,1,0,0:0:0:0:
192,192,134049,1,0,0:0:0:0:
64,192,134138,1,0,0:0:0:0:
320,192,134138,1,0,0:0:0:0:
448,192,134227,1,0,0:0:0:0:
64,192,134317,1,0,0:0:0:0:
192,192,134317,1,0,0:0:0:0:
320,192,134406,1,0,0:0:0:0:
64,192,134495,1,0,0:0:0:0:
448,192,134495,1,0,0:0:0:0:
320,192,134584,1,0,0:0:0:0:
192,192,134584,1,0,0:0:0:0:
64,192,134674,1,0,0:0:0:0:
448,192,134763,1,0,0:0:0:0:
320,192,134763,1,0,0:0:0:0:
192,192,134852,1,0,0:0:0:0:
64,192,134852,1,0,0:0:0:0:
448,192,134942,1,0,0:0:0:0:
320,192,135031,1,0,0:0:0:0:
192,192,135031,1,0,0:0:0:0:
64,192,135120,1,0,0:0:0:0:
448,192,135209,1,0,0:0:0:0:
192,192,135209,1,0,0:0:0:0:
320,192,135209,1,0,0:0:0:0:
64,192,135299,1,0,0:0:0:0:
448,192,135388,1,0,0:0:0:0:
320,192,135388,1,0,0:0:0:0:
192,192,135477,1,0,0:0:0:0:
64,192,135567,1,0,0:0:0:0:
448,192,135567,1,0,0:0:0:0:
320,192,135656,1,0,0:0:0:0:
64,192,135745,1,0,0:0:0:0:
192,192,135745,1,0,0:0:0:0:
448,192,135745,1,0,0:0:0:0:
320,192,135834,1,0,0:0:0:0:
64,192,135924,1,0,0:0:0:0:
448,192,135924,1,0,0:0:0:0:
192,192,136013,1,0,0:0:0:0:
448,192,136102,1,0,0:0:0:0:
320,192,136102,1,0,0:0:0:0:
64,192,136102,1,0,0:0:0:0:
192,192,136192,1,0,0:0:0:0:
320,192,136281,1,0,0:0:0:0:
64,192,136370,1,0,0:0:0:0:
192,192,136459,1,0,0:0:0:0:
448,192,136459,1,0,0:0:0:0:
320,192,136549,1,0,0:0:0:0:
448,192,136638,1,0,0:0:0:0:
64,192,136638,1,0,0:0:0:0:
192,192,136638,1,0,0:0:0:0:
320,192,136727,1,0,0:0:0:0:
64,192,136817,1,0,0:0:0:0:
448,192,136906,1,0,0:0:0:0:
320,192,136906,1,0,0:0:0:0:
192,192,136995,1,0,0:0:0:0:
64,192,136995,1,0,0:0:0:0:
448,192,137084,1,0,0:0:0:0:
192,192,137174,1,0,0:0:0:0:
320,192,137174,1,0,0:0:0:0:
64,192,137263,1,0,0:0:0:0:
448,192,137352,1,0,0:0:0:0:
320,192,137352,1,0,0:0:0:0:
192,192,137442,1,0,0:0:0:0:
64,192,137442,1,0,0:0:0:0:
320,192,137531,1,0,0:0:0:0:
448,192,137531,1,0,0:0:0:0:
192,192,137620,1,0,0:0:0:0:
64,192,137709,1,0,0:0:0:0:
320,192,137709,1,0,0:0:0:0:
448,192,137709,1,0,0:0:0:0:
192,192,137799,1,0,0:0:0:0:
448,192,137888,1,0,0:0:0:0:
320,192,137888,1,0,0:0:0:0:
64,192,137977,1,0,0:0:0:0:
192,192,138067,1,0,0:0:0:0:
320,192,138067,1,0,0:0:0:0:
448,192,138067,1,0,0:0:0:0:
64,192,138156,1,0,0:0:0:0:
192,192,138245,1,0,0:0:0:0:
320,192,138245,1,0,0:0:0:0:
448,192,138334,1,0,0:0:0:0:
192,192,138424,1,0,0:0:0:0:
64,192,138424,1,0,0:0:0:0:
448,192,138513,1,0,0:0:0:0:
320,192,138602,1,0,0:0:0:0:
192,192,138602,1,0,0:0:0:0:
64,192,138692,1,0,0:0:0:0:
320,192,138781,1,0,0:0:0:0:
448,192,138781,1,0,0:0:0:0:
192,192,138781,1,0,0:0:0:0:
64,192,138870,1,0,0:0:0:0:
448,192,138959,1,0,0:0:0:0:
320,192,138959,1,0,0:0:0:0:
192,192,139049,1,0,0:0:0:0:
448,192,139138,1,0,0:0:0:0:
64,192,139138,1,0,0:0:0:0:
320,192,139227,1,0,0:0:0:0:
192,192,139317,1,0,0:0:0:0:
64,192,139317,1,0,0:0:0:0:
448,192,139406,1,0,0:0:0:0:
320,192,139495,1,0,0:0:0:0:
64,192,139495,1,0,0:0:0:0:
192,192,139495,1,0,0:0:0:0:
448,192,139584,1,0,0:0:0:0:
320,192,139674,1,0,0:0:0:0:
192,192,139674,1,0,0:0:0:0:
64,192,139763,1,0,0:0:0:0:
448,192,139852,1,0,0:0:0:0:
192,192,139852,1,0,0:0:0:0:
320,192,139942,1,0,0:0:0:0:
448,192,140031,1,0,0:0:0:0:
64,192,140031,1,0,0:0:0:0:
192,192,140120,1,0,0:0:0:0:
320,192,140209,1,0,0:0:0:0:
448,192,140209,1,0,0:0:0:0:
64,192,140299,1,0,0:0:0:0:
192,192,140299,1,0,0:0:0:0:
320,192,140388,1,0,0:0:0:0:
192,192,140477,1,0,0:0:0:0:
64,192,140477,1,0,0:0:0:0:
320,192,140567,1,0,0:0:0:0:
448,192,140567,1,0,0:0:0:0:
192,192,140656,1,0,0:0:0:0:
64,192,140745,1,0,0:0:0:0:
320,192,140745,1,0,0:0:0:0:
448,192,140834,1,0,0:0:0:0:
320,192,140924,1,0,0:0:0:0:
64,192,140924,1,0,0:0:0:0:
192,192,140924,1,0,0:0:0:0:
448,192,141013,1,0,0:0:0:0:
64,192,141102,1,0,0:0:0:0:
192,192,141102,1,0,0:0:0:0:
320,192,141192,1,0,0:0:0:0:
448,192,141281,1,0,0:0:0:0:
64,192,141281,1,0,0:0:0:0:
192,192,141370,1,0,0:0:0:0:
320,192,141459,1,0,0:0:0:0:
448,192,141459,1,0,0:0:0:0:
192,192,141549,1,0,0:0:0:0:
64,192,141638,1,0,0:0:0:0:
448,192,141638,1,0,0:0:0:0:
320,192,141638,1,0,0:0:0:0:
192,192,141727,1,0,0:0:0:0:
320,192,141817,1,0,0:0:0:0:
64,192,141817,1,0,0:0:0:0:
448,192,141906,1,0,0:0:0:0:
64,192,141995,1,0,0:0:0:0:
192,192,141995,1,0,0:0:0:0:
320,192,142084,1,0,0:0:0:0:
448,192,142084,1,0,0:0:0:0:
64,192,142174,1,0,0:0:0:0:
320,192,142263,1,0,0:0:0:0:
192,192,142263,1,0,0:0:0:0:
64,192,142352,1,0,0:0:0:0:
448,192,142352,1,0,0:0:0:0:
320,192,142442,1,0,0:0:0:0:
192,192,142531,1,0,0:0:0:0:
64,192,142531,1,0,0:0:0:0:
448,192,142620,1,0,0:0:0:0:
320,192,142620,1,0,0:0:0:0:
64,192,142709,1,0,0:0:0:0:
192,192,142799,1,0,0:0:0:0:
320,192,142888,1,0,0:0:0:0:
448,192,142888,1,0,0:0:0:0:
64,192,142977,1,0,0:0:0:0:
192,192,143067,1,0,0:0:0:0:
320,192,143067,1,0,0:0:0:0:
448,192,143067,1,0,0:0:0:0:
64,192,143156,1,0,0:0:0:0:
192,192,143245,1,0,0:0:0:0:
320,192,143334,1,0,0:0:0:0:
448,192,143424,1,0,0:0:0:0:
192,192,143424,1,0,0:0:0:0:
64,192,143424,1,0,0:0:0:0:
320,192,143513,1,0,0:0:0:0:
448,192,143602,1,0,0:0:0:0:
64,192,143602,1,0,0:0:0:0:
192,192,143692,1,0,0:0:0:0:
320,192,143781,1,0,0:0:0:0:
64,192,143781,1,0,0:0:0:0:
448,192,143781,1,0,0:0:0:0:
192,192,143870,1,0,0:0:0:0:
320,192,143959,1,0,0:0:0:0:
448,192,143959,1,0,0:0:0:0:
64,192,144049,1,0,0:0:0:0:
192,192,144049,1,0,0:0:0:0:
320,192,144138,1,0,0:0:0:0:
64,192,144227,1,0,0:0:0:0:
448,192,144227,1,0,0:0:0:0:
320,192,144317,1,0,0:0:0:0:
192,192,144317,1,0,0:0:0:0:
448,192,144406,1,0,0:0:0:0:
192,192,144495,1,0,0:0:0:0:
64,192,144495,1,0,0:0:0:0:
320,192,144495,1,0,0:0:0:0:
448,192,144584,1,0,0:0:0:0:
64,192,144674,1,0,0:0:0:0:
192,192,144674,1,0,0:0:0:0:
320,192,144763,1,0,0:0:0:0:
64,192,144852,1,0,0:0:0:0:
448,192,144852,1,0,0:0:0:0:
192,192,144942,1,0,0:0:0:0:
64,192,145031,1,0,0:0:0:0:
320,192,145031,1,0,0:0:0:0:
448,192,145120,1,0,0:0:0:0:
64,192,145209,1,0,0:0:0:0:
192,192,145209,1,0,0:0:0:0:
320,192,145209,1,0,0:0:0:0:
448,192,145299,1,0,0:0:0:0:
192,192,145388,1,0,0:0:0:0:
64,192,145388,1,0,0:0:0:0:
320,192,145477,1,0,0:0:0:0:
448,192,145567,1,0,0:0:0:0:
192,192,145567,1,0,0:0:0:0:
64,192,145656,1,0,0:0:0:0:
448,192,145745,1,0,0:0:0:0:
320,192,145745,1,0,0:0:0:0:
192,192,145834,1,0,0:0:0:0:
448,192,145924,1,0,0:0:0:0:
64,192,145924,1,0,0:0:0:0:
320,192,145924,1,0,0:0:0:0:
192,192,146013,1,0,0:0:0:0:
448,192,146102,1,0,0:0:0:0:
64,192,146192,1,0,0:0:0:0:
192,192,146192,1,0,0:0:0:0:
320,192,146281,1,0,0:0:0:0:
448,192,146281,1,0,0:0:0:0:
64,192,146370,1,0,0:0:0:0:
192,192,146459,1,0,0:0:0:0:
320,192,146459,1,0,0:0:0:0:
448,192,146549,1,0,0:0:0:0:
64,192,146638,1,0,0:0:0:0:
320,192,146638,1,0,0:0:0:0:
192,192,146638,1,0,0:0:0:0:
448,192,146727,1,0,0:0:0:0:
64,192,146817,1,0,0:0:0:0:
192,192,146817,1,0,0:0:0:0:
320,192,146906,1,0,0:0:0:0:
448,192,146906,1,0,0:0:0:0:
192,192,146995,1,0,0:0:0:0:
64,192,146995,1,0,0:0:0:0:
448,192,147084,1,0,0:0:0:0:
192,192,147174,1,0,0:0:0:0:
320,192,147174,1,0,0:0:0:0:
64,192,147174,1,0,0:0:0:0:
448,192,147263,1,0,0:0:0:0:
192,192,147352,1,0,0:0:0:0:
320,192,147352,1,0,0:0:0:0:
64,192,147442,1,0,0:0:0:0:
320,192,147531,1,0,0:0:0:0:
192,192,147531,1,0,0:0:0:0:
448,192,147531,1,0,0:0:0:0:
64,192,147620,1,0,0:0:0:0:
448,192,147709,1,0,0:0:0:0:
192,192,147799,1,0,0:0:0:0:
448,192,147888,1,0,0:0:0:0:
320,192,147888,1,0,0:0:0:0:
64,192,147977,1,0,0:0:0:0:
192,192,148067,1,0,0:0:0:0:
448,192,148067,1,0,0:0:0:0:
320,192,148067,1,0,0:0:0:0:
64,192,148156,1,0,0:0:0:0:
320,192,148245,1,0,0:0:0:0:
448,192,148334,1,0,0:0:0:0:
192,192,148334,1,0,0:0:0:0:
320,192,148424,1,0,0:0:0:0:
64,192,148424,1,0,0:0:0:0:
448,192,148513,1,0,0:0:0:0:
320,192,148602,1,0,0:0:0:0:
192,192,148602,1,0,0:0:0:0:
64,192,148692,1,0,0:0:0:0:
448,192,148781,1,0,0:0:0:0:
192,192,148781,1,0,0:0:0:0:
320,192,148781,1,0,0:0:0:0:
64,192,148870,1,0,0:0:0:0:
192,192,148959,1,0,0:0:0:0:
320,192,149049,1,0,0:0:0:0:
448,192,149138,1,0,0:0:0:0:
192,192,149138,1,0,0:0:0:0:
64,192,149138,1,0,0:0:0:0:
320,192,149227,1,0,0:0:0:0:
64,192,149317,1,0,0:0:0:0:
320,192,149406,1,0,0:0:0:0:
192,192,149495,1,0,0:0:0:0:
448,192,149584,1,0,0:0:0:0:
192,192,149674,1,0,0:0:0:0:
448,192,149763,1,0,0:0:0:0:
64,192,149852,1,0,0:0:0:0:
192,192,149942,1,0,0:0:0:0:
448,192,150031,1,0,0:0:0:0:
320,192,150120,1,0,0:0:0:0:
192,192,150209,1,0,0:0:0:0:
448,192,150299,1,0,0:0:0:0:
64,192,150388,1,0,0:0:0:0:
192,192,150477,1,0,0:0:0:0:
320,192,150567,1,0,0:0:0:0:
64,192,150656,1,0,0:0:0:0:
448,192,150745,1,0,0:0:0:0:
320,192,150834,1,0,0:0:0:0:
192,192,150924,1,0,0:0:0:0:
448,192,151013,1,0,0:0:0:0:
64,192,151102,1,0,0:0:0:0:
192,192,151192,1,0,0:0:0:0:
320,192,151281,1,0,0:0:0:0:
64,192,151370,1,0,0:0:0:0:
448,192,151459,1,0,0:0:0:0:
320,192,151549,1,0,0:0:0:0:
192,192,151638,1,0,0:0:0:0:
448,192,151727,1,0,0:0:0:0:
64,192,151817,1,0,0:0:0:0:
320,192,151906,1,0,0:0:0:0:
192,192,151995,1,0,0:0:0:0:
448,192,152084,1,0,0:0:0:0:
192,192,152174,1,0,0:0:0:0:
448,192,152263,1,0,0:0:0:0:
64,192,152352,1,0,0:0:0:0:
320,192,152442,1,0,0:0:0:0:
64,192,152531,1,0,0:0:0:0:
320,192,152620,1,0,0:0:0:0:
192,192,152709,1,0,0:0:0:0:
448,192,152799,1,0,0:0:0:0:
320,192,152888,1,0,0:0:0:0:
192,192,152977,1,0,0:0:0:0:
448,192,153067,1,0,0:0:0:0:
64,192,153156,1,0,0:0:0:0:
192,192,153245,1,0,0:0:0:0:
320,192,153334,1,0,0:0:0:0:
64,192,153424,1,0,0:0:0:0:
448,192,153513,1,0,0:0:0:0:
320,192,153602,1,0,0:0:0:0:
192,192,153692,1,0,0:0:0:0:
448,192,153781,1,0,0:0:0:0:
64,192,153870,1,0,0:0:0:0:
192,192,153959,1,0,0:0:0:0:
320,192,154049,1,0,0:0:0:0:
64,192,154138,1,0,0:0:0:0:
448,192,154227,1,0,0:0:0:0:
320,192,154317,1,0,0:0:0:0:
192,192,154406,1,0,0:0:0:0:
320,192,154495,1,0,0:0:0:0:
64,192,154584,1,0,0:0:0:0:
192,192,154674,1,0,0:0:0:0:
320,192,154763,1,0,0:0:0:0:
448,192,154852,1,0,0:0:0:0:
64,192,154942,1,0,0:0:0:0:
448,192,155031,1,0,0:0:0:0:
64,192,155120,1,0,0:0:0:0:
320,192,155209,1,0,0:0:0:0:
192,192,155299,1,0,0:0:0:0:
320,192,155388,1,0,0:0:0:0:
192,192,155477,1,0,0:0:0:0:
448,192,155567,1,0,0:0:0:0:
64,192,155656,1,0,0:0:0:0:
320,192,155745,1,0,0:0:0:0:
192,192,155834,1,0,0:0:0:0:
64,192,155924,1,0,0:0:0:0:
448,192,156013,1,0,0:0:0:0:
192,192,156102,1,0,0:0:0:0:
320,192,156192,1,0,0:0:0:0:
448,192,156281,1,0,0:0:0:0:
64,192,156370,1,0,0:0:0:0:
320,192,156459,1,0,0:0:0:0:
192,192,156549,1,0,0:0:0:0:
64,192,156638,1,0,0:0:0:0:
448,192,156727,1,0,0:0:0:0:
192,192,156817,1,0,0:0:0:0:
320,192,156906,1,0,0:0:0:0:
448,192,156995,1,0,0:0:0:0:
64,192,157084,1,0,0:0:0:0:
320,192,157174,1,0,0:0:0:0:
192,192,157263,1,0,0:0:0:0:
64,192,157352,1,0,0:0:0:0:
448,192,157442,1,0,0:0:0:0:
320,192,157531,1,0,0:0:0:0:
192,192,157620,1,0,0:0:0:0:
64,192,157709,1,0,0:0:0:0:
448,192,157799,1,0,0:0:0:0:
64,192,157888,1,0,0:0:0:0:
448,192,157977,1,0,0:0:0:0:
192,192,158067,1,0,0:0:0:0:
320,192,158156,1,0,0:0:0:0:
192,192,158245,1,0,0:0:0:0:
320,192,158334,1,0,0:0:0:0:
64,192,158424,1,0,0:0:0:0:
448,192,158513,1,0,0:0:0:0:
192,192,158602,1,0,0:0:0:0:
320,192,158692,1,0,0:0:0:0:
448,192,158781,1,0,0:0:0:0:
64,192,158870,1,0,0:0:0:0:
320,192,158959,1,0,0:0:0:0:
192,192,159049,1,0,0:0:0:0:
64,192,159138,1,0,0:0:0:0:
448,192,159227,1,0,0:0:0:0:
192,192,159317,1,0,0:0:0:0:
320,192,159406,1,0,0:0:0:0:
448,192,159495,1,0,0:0:0:0:
64,192,159584,1,0,0:0:0:0:
320,192,159674,1,0,0:0:0:0:
192,192,159763,1,0,0:0:0:0:
64,192,159852,1,0,0:0:0:0:
448,192,159942,1,0,0:0:0:0:
192,192,160031,1,0,0:0:0:0:
320,192,160120,1,0,0:0:0:0:
448,192,160209,1,0,0:0:0:0:
64,192,160299,1,0,0:0:0:0:
192,192,160388,1,0,0:0:0:0:
320,192,160477,1,0,0:0:0:0:
192,192,160567,1,0,0:0:0:0:
64,192,160567,1,0,0:0:0:0:
448,192,160567,1,0,0:0:0:0:
320,192,160656,1,0,0:0:0:0:
64,192,160745,1,0,0:0:0:0:
448,192,160834,1,0,0:0:0:0:
192,192,160924,1,0,0:0:0:0:
320,192,161013,1,0,0:0:0:0:
64,192,161102,1,0,0:0:0:0:
448,192,161192,1,0,0:0:0:0:
192,192,161281,1,0,0:0:0:0:
448,192,161370,1,0,0:0:0:0:
320,192,161370,1,0,0:0:0:0:
64,192,161459,1,0,0:0:0:0:
192,192,161459,1,0,0:0:0:0:
448,192,161549,1,0,0:0:0:0:
320,192,161549,1,0,0:0:0:0:
64,192,161638,1,0,0:0:0:0:
192,192,161638,1,0,0:0:0:0:
448,192,161727,1,0,0:0:0:0:
320,192,161817,1,0,0:0:0:0:
64,192,161817,1,0,0:0:0:0:
192,192,161906,1,0,0:0:0:0:
448,192,161995,1,0,0:0:0:0:
320,192,161995,1,0,0:0:0:0:
64,192,162084,1,0,0:0:0:0:
448,192,162174,1,0,0:0:0:0:
320,192,162263,1,0,0:0:0:0:
192,192,162352,1,0,0:0:0:0:
448,192,162442,1,0,0:0:0:0:
64,192,162531,1,0,0:0:0:0:
192,192,162620,1,0,0:0:0:0:
320,192,162709,1,0,0:0:0:0:
64,192,162799,1,0,0:0:0:0:
448,192,162888,1,0,0:0:0:0:
192,192,162888,1,0,0:0:0:0:
64,192,162977,1,0,0:0:0:0:
320,192,162977,1,0,0:0:0:0:
448,192,163067,1,0,0:0:0:0:
192,192,163067,1,0,0:0:0:0:
320,192,163156,1,0,0:0:0:0:
64,192,163245,1,0,0:0:0:0:
192,192,163245,1,0,0:0:0:0:
448,192,163334,1,0,0:0:0:0:
192,192,163424,1,0,0:0:0:0:
320,192,163424,1,0,0:0:0:0:
64,192,163513,1,0,0:0:0:0:
448,192,163602,1,0,0:0:0:0:
192,192,163692,1,0,0:0:0:0:
320,192,163781,1,0,0:0:0:0:
64,192,163870,1,0,0:0:0:0:
448,192,163959,1,0,0:0:0:0:
192,192,164049,1,0,0:0:0:0:
320,192,164138,1,0,0:0:0:0:
64,192,164227,1,0,0:0:0:0:
192,192,164227,1,0,0:0:0:0:
448,192,164317,1,0,0:0:0:0:
320,192,164317,1,0,0:0:0:0:
64,192,164406,1,0,0:0:0:0:
192,192,164406,1,0,0:0:0:0:
448,192,164495,1,0,0:0:0:0:
320,192,164495,1,0,0:0:0:0:
64,192,164584,1,0,0:0:0:0:
448,192,164674,1,0,0:0:0:0:
192,192,164674,1,0,0:0:0:0:
320,192,164763,1,0,0:0:0:0:
64,192,164852,1,0,0:0:0:0:
448,192,164852,1,0,0:0:0:0:
192,192,164942,1,0,0:0:0:0:
320,192,165031,1,0,0:0:0:0:
192,192,165120,1,0,0:0:0:0:
64,192,165209,1,0,0:0:0:0:
448,192,165299,1,0,0:0:0:0:
192,192,165388,1,0,0:0:0:0:
320,192,165477,1,0,0:0:0:0:
448,192,165567,1,0,0:0:0:0:
192,192,165656,1,0,0:0:0:0:
64,192,165656,1,0,0:0:0:0:
448,192,165745,1,0,0:0:0:0:
320,192,165745,1,0,0:0:0:0:
64,192,165834,1,0,0:0:0:0:
192,192,165834,1,0,0:0:0:0:
448,192,165924,1,0,0:0:0:0:
320,192,165924,1,0,0:0:0:0:
64,192,166013,1,0,0:0:0:0:
448,192,166102,1,0,0:0:0:0:
320,192,166102,1,0,0:0:0:0:
192,192,166192,1,0,0:0:0:0:
448,192,166281,1,0,0:0:0:0:
320,192,166281,1,0,0:0:0:0:
64,192,166281,1,0,0:0:0:0:
192,192,166370,1,0,0:0:0:0:
320,192,166459,1,0,0:0:0:0:
64,192,166549,1,0,0:0:0:0:
448,192,166638,1,0,0:0:0:0:
192,192,166727,1,0,0:0:0:0:
320,192,166817,1,0,0:0:0:0:
64,192,166906,1,0,0:0:0:0:
448,192,166995,1,0,0:0:0:0:
192,192,167084,1,0,0:0:0:0:
320,192,167084,1,0,0:0:0:0:
448,192,167174,1,0,0:0:0:0:
64,192,167174,1,0,0:0:0:0:
192,192,167263,1,0,0:0:0:0:
320,192,167263,1,0,0:0:0:0:
448,192,167352,1,0,0:0:0:0:
64,192,167352,1,0,0:0:0:0:
192,192,167442,1,0,0:0:0:0:
448,192,167531,1,0,0:0:0:0:
320,192,167531,1,0,0:0:0:0:
64,192,167620,1,0,0:0:0:0:
320,192,167709,1,0,0:0:0:0:
192,192,167709,1,0,0:0:0:0:
448,192,167799,1,0,0:0:0:0:
64,192,167888,1,0,0:0:0:0:
320,192,167977,1,0,0:0:0:0:
192,192,168067,1,0,0:0:0:0:
448,192,168156,1,0,0:0:0:0:
64,192,168245,1,0,0:0:0:0:
320,192,168334,1,0,0:0:0:0:
192,192,168424,1,0,0:0:0:0:
320,192,168513,1,0,0:0:0:0:
64,192,168602,1,0,0:0:0:0:
448,192,168602,1,0,0:0:0:0:
320,192,168692,1,0,0:0:0:0:
192,192,168692,1,0,0:0:0:0:
64,192,168781,1,0,0:0:0:0:
448,192,168781,1,0,0:0:0:0:
192,192,168870,1,0,0:0:0:0:
448,192,168959,1,0,0:0:0:0:
320,192,168959,1,0,0:0:0:0:
64,192,169049,1,0,0:0:0:0:
320,192,169138,1,0,0:0:0:0:
192,192,169138,1,0,0:0:0:0:
448,192,169227,1,0,0:0:0:0:
192,192,169317,1,0,0:0:0:0:
320,192,169406,1,0,0:0:0:0:
64,192,169495,1,0,0:0:0:0:
448,192,169584,1,0,0:0:0:0:
192,192,169674,1,0,0:0:0:0:
320,192,169763,1,0,0:0:0:0:
64,192,169852,1,0,0:0:0:0:
320,192,169942,1,0,0:0:0:0:
192,192,169942,1,0,0:0:0:0:
64,192,170031,1,0,0:0:0:0:
448,192,170031,1,0,0:0:0:0:
320,192,170120,1,0,0:0:0:0:
192,192,170120,1,0,0:0:0:0:
64,192,170209,1,0,0:0:0:0:
448,192,170209,1,0,0:0:0:0:
192,192,170299,1,0,0:0:0:0:
448,192,170388,1,0,0:0:0:0:
320,192,170388,1,0,0:0:0:0:
64,192,170477,1,0,0:0:0:0:
320,192,170567,1,0,0:0:0:0:
192,192,170567,1,0,0:0:0:0:
448,192,170656,1,0,0:0:0:0:
64,192,170745,1,0,0:0:0:0:
320,192,170834,1,0,0:0:0:0:
192,192,170924,1,0,0:0:0:0:
448,192,171013,1,0,0:0:0:0:
64,192,171102,1,0,0:0:0:0:
192,192,171102,1,0,0:0:0:0:
320,192,171102,1,0,0:0:0:0:
448,192,171192,1,0,0:0:0:0:
64,192,171281,1,0,0:0:0:0:
320,192,171370,1,0,0:0:0:0:
448,192,171459,1,0,0:0:0:0:
192,192,171459,1,0,0:0:0:0:
64,192,171549,1,0,0:0:0:0:
320,192,171638,1,0,0:0:0:0:
192,192,171638,1,0,0:0:0:0:
448,192,171727,1,0,0:0:0:0:
64,192,171817,1,0,0:0:0:0:
320,192,171906,1,0,0:0:0:0:
448,192,171995,1,0,0:0:0:0:
64,192,171995,1,0,0:0:0:0:
192,192,171995,1,0,0:0:0:0:
320,192,172084,1,0,0:0:0:0:
192,192,172174,1,0,0:0:0:0:
448,192,172263,1,0,0:0:0:0:
320,192,172263,1,0,0:0:0:0:
64,192,172263,1,0,0:0:0:0:
192,192,172352,1,0,0:0:0:0:
64,192,172442,1,0,0:0:0:0:
192,192,172531,1,0,0:0:0:0:
320,192,172531,1,0,0:0:0:0:
448,192,172531,1,0,0:0:0:0:
64,192,172620,1,0,0:0:0:0:
320,192,172709,1,0,0:0:0:0:
192,192,172799,1,0,0:0:0:0:
320,192,172888,1,0,0:0:0:0:
448,192,172888,1,0,0:0:0:0:
64,192,172977,1,0,0:0:0:0:
448,192,173067,1,0,0:0:0:0:
192,192,173156,1,0,0:0:0:0:
64,192,173245,1,0,0:0:0:0:
448,192,173245,1,0,0:0:0:0:
320,192,173245,1,0,0:0:0:0:
192,192,173334,1,0,0:0:0:0:
320,192,173424,1,0,0:0:0:0:
448,192,173424,1,0,0:0:0:0:
64,192,173513,1,0,0:0:0:0:
192,192,173602,1,0,0:0:0:0:
320,192,173602,1,0,0:0:0:0:
448,192,173692,1,0,0:0:0:0:
192,192,173781,1,0,0:0:0:0:
64,192,173781,1,0,0:0:0:0:
320,192,173870,1,0,0:0:0:0:
192,192,173959,1,0,0:0:0:0:
64,192,173959,1,0,0:0:0:0:
448,192,173959,1,0,0:0:0:0:
320,192,174049,1,0,0:0:0:0:
64,192,174138,1,0,0:0:0:0:
448,192,174227,1,0,0:0:0:0:
64,192,174317,1,0,0:0:0:0:
192,192,174317,1,0,0:0:0:0:
320,192,174406,1,0,0:0:0:0:
64,192,174495,1,0,0:0:0:0:
320,192,174584,1,0,0:0:0:0:
448,192,174584,1,0,0:0:0:0:
192,192,174674,1,0,0:0:0:0:
320,192,174763,1,0,0:0:0:0:
64,192,174852,1,0,0:0:0:0:
192,192,174852,1,0,0:0:0:0:
448,192,174852,1,0,0:0:0:0:
320,192,174942,1,0,0:0:0:0:
64,192,175031,1,0,0:0:0:0:
448,192,175120,1,0,0:0:0:0:
192,192,175120,1,0,0:0:0:0:
320,192,175120,1,0,0:0:0:0:
64,192,175209,1,0,0:0:0:0:
192,192,175299,1,0,0:0:0:0:
448,192,175388,1,0,0:0:0:0:
320,192,175388,1,0,0:0:0:0:
64,192,175477,1,0,0:0:0:0:
320,192,175567,1,0,0:0:0:0:
192,192,175656,1,0,0:0:0:0:
64,192,175745,1,0,0:0:0:0:
448,192,175745,1,0,0:0:0:0:
320,192,175834,1,0,0:0:0:0:
192,192,175924,1,0,0:0:0:0:
448,192,176013,1,0,0:0:0:0:
192,192,176102,1,0,0:0:0:0:
320,192,176102,1,0,0:0:0:0:
64,192,176102,1,0,0:0:0:0:
448,192,176192,1,0,0:0:0:0:
192,192,176281,1,0,0:0:0:0:
64,192,176281,1,0,0:0:0:0:
320,192,176370,1,0,0:0:0:0:
64,192,176459,1,0,0:0:0:0:
448,192,176459,1,0,0:0:0:0:
192,192,176549,1,0,0:0:0:0:
448,192,176638,1,0,0:0:0:0:
320,192,176638,1,0,0:0:0:0:
64,192,176727,1,0,0:0:0:0:
448,192,176817,1,0,0:0:0:0:
320,192,176817,1,0,0:0:0:0:
192,192,176817,1,0,0:0:0:0:
64,192,176906,1,0,0:0:0:0:
448,192,176995,1,0,0:0:0:0:
192,192,177084,1,0,0:0:0:0:
448,192,177174,1,0,0:0:0:0:
320,192,177174,1,0,0:0:0:0:
64,192,177263,1,0,0:0:0:0:
192,192,177352,1,0,0:0:0:0:
448,192,177352,1,0,0:0:0:0:
320,192,177442,1,0,0:0:0:0:
64,192,177531,1,0,0:0:0:0:
192,192,177531,1,0,0:0:0:0:
448,192,177620,1,0,0:0:0:0:
64,192,177709,1,0,0:0:0:0:
192,192,177709,1,0,0:0:0:0:
320,192,177709,1,0,0:0:0:0:
448,192,177799,1,0,0:0:0:0:
64,192,177888,1,0,0:0:0:0:
448,192,177977,1,0,0:0:0:0:
320,192,177977,1,0,0:0:0:0:
64,192,178067,1,0,0:0:0:0:
192,192,178067,1,0,0:0:0:0:
320,192,178156,1,0,0:0:0:0:
448,192,178245,1,0,0:0:0:0:
64,192,178334,1,0,0:0:0:0:
192,192,178334,1,0,0:0:0:0:
320,192,178424,1,0,0:0:0:0:
192,192,178513,1,0,0:0:0:0:
64,192,178513,1,0,0:0:0:0:
320,192,178602,1,0,0:0:0:0:
448,192,178602,1,0,0:0:0:0:
192,192,178692,1,0,0:0:0:0:
64,192,178781,1,0,0:0:0:0:
448,192,178781,1,0,0:0:0:0:
192,192,178870,1,0,0:0:0:0:
448,192,178959,1,0,0:0:0:0:
320,192,178959,1,0,0:0:0:0:
64,192,179049,1,0,0:0:0:0:
448,192,179138,1,0,0:0:0:0:
320,192,179138,1,0,0:0:0:0:
64,192,179227,1,0,0:0:0:0:
192,192,179227,1,0,0:0:0:0:
448,192,179317,1,0,0:0:0:0:
192,192,179406,1,0,0:0:0:0:
64,192,179406,1,0,0:0:0:0:
448,192,179495,1,0,0:0:0:0:
320,192,179495,1,0,0:0:0:0:
192,192,179584,1,0,0:0:0:0:
448,192,179674,1,0,0:0:0:0:
64,192,179763,1,0,0:0:0:0:
320,192,179763,1,0,0:0:0:0:
192,192,179852,1,0,0:0:0:0:
320,192,179942,1,0,0:0:0:0:
448,192,179942,1,0,0:0:0:0:
192,192,180031,1,0,0:0:0:0:
64,192,180031,1,0,0:0:0:0:
448,192,180120,1,0,0:0:0:0:
192,192,180209,1,0,0:0:0:0:
320,192,180209,1,0,0:0:0:0:
64,192,180299,1,0,0:0:0:0:
320,192,180388,1,0,0:0:0:0:
448,192,180388,1,0,0:0:0:0:
192,192,180477,1,0,0:0:0:0:
64,192,180567,1,0,0:0:0:0:
448,192,180567,1,0,0:0:0:0:
320,192,180567,1,0,0:0:0:0:
192,192,180656,1,0,0:0:0:0:
448,192,180745,1,0,0:0:0:0:
320,192,180745,1,0,0:0:0:0:
64,192,180834,5,0,0:0:0:0:
192,192,180834,1,0,0:0:0:0:
448,192,180924,1,0,0:0:0:0:
320,192,180924,1,0,0:0:0:0:
192,192,181013,1,0,0:0:0:0:
448,192,181102,1,0,0:0:0:0:
64,192,181192,1,0,0:0:0:0:
192,192,181236,1,0,0:0:0:0:
448,192,181281,1,0,0:0:0:0:
320,192,181281,1,0,0:0:0:0:
64,192,181370,1,0,0:0:0:0:
320,192,181459,1,0,0:0:0:0:
192,192,181459,1,0,0:0:0:0:
448,192,181549,1,0,0:0:0:0:
192,192,181638,1,0,0:0:0:0:
320,192,181638,1,0,0:0:0:0:
64,192,181727,1,0,0:0:0:0:
448,192,181817,5,0,0:0:0:0:
192,192,181817,1,0,0:0:0:0:
320,192,181817,1,0,0:0:0:0:
64,192,181995,1,0,0:0:0:0:
192,192,182084,1,0,0:0:0:0:
448,192,182263,1,0,0:0:0:0:
320,192,182352,1,0,0:0:0:0:
64,192,182531,1,0,0:0:0:0:
192,192,182620,1,0,0:0:0:0:
448,192,182709,1,0,0:0:0:0:
192,192,182888,1,0,0:0:0:0:
320,192,183067,1,0,0:0:0:0:
64,192,183245,1,0,0:0:0:0:
448,192,183424,1,0,0:0:0:0:
192,192,183424,1,0,0:0:0:0:
320,192,183602,1,0,0:0:0:0:
64,192,183781,1,0,0:0:0:0:
448,192,183959,1,0,0:0:0:0:
320,192,183959,1,0,0:0:0:0:
64,192,184138,1,0,0:0:0:0:
192,192,184138,1,0,0:0:0:0:
320,192,184317,1,0,0:0:0:0:
448,192,184317,1,0,0:0:0:0:
448,192,184495,1,0,0:0:0:0:
64,192,184495,1,0,0:0:0:0:
192,192,184674,1,0,0:0:0:0:
320,192,184674,1,0,0:0:0:0:
448,192,185031,1,0,0:0:0:0:
192,192,185031,1,0,0:0:0:0:
64,192,185209,1,0,0:0:0:0:
448,192,185388,1,0,0:0:0:0:
192,192,185388,1,0,0:0:0:0:
64,192,185567,1,0,0:0:0:0:
320,192,185567,1,0,0:0:0:0:
320,192,185745,1,0,0:0:0:0:
192,192,185745,1,0,0:0:0:0:
448,192,185924,1,0,0:0:0:0:
320,192,186102,1,0,0:0:0:0:
64,192,186102,1,0,0:0:0:0:
448,192,186281,1,0,0:0:0:0:
192,192,186281,1,0,0:0:0:0:
64,192,186459,1,0,0:0:0:0:
192,192,186638,1,0,0:0:0:0:
320,192,186638,1,0,0:0:0:0:
448,192,186817,1,0,0:0:0:0:
192,192,186817,1,0,0:0:0:0:
448,192,187174,1,0,0:0:0:0:
64,192,187174,1,0,0:0:0:0:
320,192,187352,1,0,0:0:0:0:
192,192,187531,1,0,0:0:0:0:
448,192,187531,1,0,0:0:0:0:
64,192,187709,1,0,0:0:0:0:
448,192,187888,1,0,0:0:0:0:
320,192,187888,1,0,0:0:0:0:
64,192,188067,1,0,0:0:0:0:
448,192,188245,1,0,0:0:0:0:
320,192,188424,1,0,0:0:0:0:
192,192,188424,1,0,0:0:0:0:
64,192,188602,1,0,0:0:0:0:
448,192,188781,1,0,0:0:0:0:
320,192,188781,1,0,0:0:0:0:
192,192,188959,1,0,0:0:0:0:
64,192,189138,1,0,0:0:0:0:
448,192,189138,1,0,0:0:0:0:
320,192,189317,1,0,0:0:0:0:
448,192,189495,1,0,0:0:0:0:
64,192,189495,1,0,0:0:0:0:
448,192,189674,1,0,0:0:0:0:
192,192,189674,1,0,0:0:0:0:
64,192,189852,1,0,0:0:0:0:
192,192,190031,1,0,0:0:0:0:
320,192,190031,1,0,0:0:0:0:
64,192,190209,1,0,0:0:0:0:
448,192,190209,1,0,0:0:0:0:
320,192,190388,1,0,0:0:0:0:
192,192,190388,1,0,0:0:0:0:
448,192,190567,1,0,0:0:0:0:
192,192,190745,1,0,0:0:0:0:
64,192,190745,1,0,0:0:0:0:
448,192,190924,1,0,0:0:0:0:
320,192,191102,1,0,0:0:0:0:
64,192,191102,1,0,0:0:0:0:
192,192,191281,1,0,0:0:0:0:
64,192,191459,1,0,0:0:0:0:
448,192,191459,1,0,0:0:0:0:
448,192,191638,1,0,0:0:0:0:
192,192,191638,1,0,0:0:0:0:
320,192,191817,1,0,0:0:0:0:
64,192,191906,1,0,0:0:0:0:
320,192,191995,1,0,0:0:0:0:
448,192,191995,1,0,0:0:0:0:
192,192,192174,1,0,0:0:0:0:
320,192,192352,1,0,0:0:0:0:
448,192,192531,1,0,0:0:0:0:
64,192,192531,1,0,0:0:0:0:
192,192,192888,1,0,0:0:0:0:
320,192,193067,1,0,0:0:0:0:
448,192,193245,1,0,0:0:0:0:
64,192,193245,1,0,0:0:0:0:
192,192,193602,1,0,0:0:0:0:
320,192,193781,1,0,0:0:0:0:
448,192,193959,1,0,0:0:0:0:
64,192,194138,1,0,0:0:0:0:
320,192,194138,1,0,0:0:0:0:
192,192,194317,1,0,0:0:0:0:
320,192,194317,1,0,0:0:0:0:
448,192,194495,1,0,0:0:0:0:
64,192,194495,1,0,0:0:0:0:
320,192,194674,1,0,0:0:0:0:
64,192,194852,1,0,0:0:0:0:
448,192,194852,1,0,0:0:0:0:
192,192,194852,1,0,0:0:0:0:
64,192,195031,1,0,0:0:0:0:
320,192,195031,1,0,0:0:0:0:
320,192,195209,1,0,0:0:0:0:
192,192,195209,1,0,0:0:0:0:
64,192,195388,1,0,0:0:0:0:
448,192,195388,1,0,0:0:0:0:
192,192,195388,1,0,0:0:0:0:
320,192,195567,1,0,0:0:0:0:
64,192,195567,1,0,0:0:0:0:
448,192,195567,1,0,0:0:0:0:
192,192,195745,1,0,0:0:0:0:
320,192,195745,1,0,0:0:0:0:
192,192,195924,1,0,0:0:0:0:
448,192,195924,1,0,0:0:0:0:
448,192,196102,1,0,0:0:0:0:
64,192,196102,1,0,0:0:0:0:
320,192,196102,1,0,0:0:0:0:
320,192,196281,1,0,0:0:0:0:
192,192,196281,1,0,0:0:0:0:
64,192,196459,1,0,0:0:0:0:
448,192,196459,1,0,0:0:0:0:
192,192,196459,1,0,0:0:0:0:
448,192,196638,1,0,0:0:0:0:
320,192,196638,1,0,0:0:0:0:
320,192,196817,1,0,0:0:0:0:
192,192,196817,1,0,0:0:0:0:
64,192,196817,1,0,0:0:0:0:
192,192,196995,1,0,0:0:0:0:
320,192,196995,1,0,0:0:0:0:
448,192,196995,1,0,0:0:0:0:
448,192,197174,1,0,0:0:0:0:
64,192,197174,1,0,0:0:0:0:
320,192,197352,1,0,0:0:0:0:
192,192,197352,1,0,0:0:0:0:
64,192,197531,1,0,0:0:0:0:
448,192,197531,1,0,0:0:0:0:
192,192,197709,1,0,0:0:0:0:
64,192,197709,1,0,0:0:0:0:
448,192,197709,1,0,0:0:0:0:
320,192,197709,1,0,0:0:0:0:
192,192,197888,1,0,0:0:0:0:
320,192,197888,1,0,0:0:0:0:
64,192,198067,1,0,0:0:0:0:
448,192,198067,1,0,0:0:0:0:
192,192,198245,1,0,0:0:0:0:
448,192,198245,1,0,0:0:0:0:
192,192,198424,1,0,0:0:0:0:
64,192,198424,1,0,0:0:0:0:
320,192,198424,1,0,0:0:0:0:
64,192,198602,1,0,0:0:0:0:
448,192,198602,1,0,0:0:0:0:
320,192,198781,1,0,0:0:0:0:
192,192,198781,1,0,0:0:0:0:
64,192,198959,1,0,0:0:0:0:
320,192,198959,1,0,0:0:0:0:
448,192,198959,1,0,0:0:0:0:
64,192,199138,1,0,0:0:0:0:
192,192,199138,1,0,0:0:0:0:
192,192,199317,1,0,0:0:0:0:
448,192,199317,1,0,0:0:0:0:
320,192,199317,1,0,0:0:0:0:
448,192,199495,1,0,0:0:0:0:
64,192,199495,1,0,0:0:0:0:
64,192,199674,1,0,0:0:0:0:
192,192,199674,1,0,0:0:0:0:
320,192,199674,1,0,0:0:0:0:
192,192,199852,1,0,0:0:0:0:
320,192,199852,1,0,0:0:0:0:
448,192,199852,1,0,0:0:0:0:
448,192,200031,1,0,0:0:0:0:
64,192,200031,1,0,0:0:0:0:
192,192,200209,1,0,0:0:0:0:
64,192,200209,1,0,0:0:0:0:
448,192,200209,1,0,0:0:0:0:
320,192,200209,1,0,0:0:0:0:
192,192,200388,1,0,0:0:0:0:
320,192,200388,1,0,0:0:0:0:
64,192,200567,1,0,0:0:0:0:
192,192,200567,1,0,0:0:0:0:
448,192,200567,1,0,0:0:0:0:
320,192,200567,1,0,0:0:0:0:
64,192,200745,1,0,0:0:0:0:
448,192,200745,1,0,0:0:0:0:
192,192,200924,1,0,0:0:0:0:
320,192,200924,1,0,0:0:0:0:
320,192,201102,1,0,0:0:0:0:
192,192,201102,1,0,0:0:0:0:
192,192,201281,1,0,0:0:0:0:
64,192,201281,1,0,0:0:0:0:
448,192,201281,1,0,0:0:0:0:
320,192,201459,1,0,0:0:0:0:
448,192,201459,1,0,0:0:0:0:
64,192,201459,1,0,0:0:0:0:
448,192,201638,1,0,0:0:0:0:
192,192,201638,1,0,0:0:0:0:
64,192,201638,1,0,0:0:0:0:
448,192,201817,1,0,0:0:0:0:
320,192,201817,1,0,0:0:0:0:
64,192,201817,1,0,0:0:0:0:
448,192,201995,1,0,0:0:0:0:
192,192,201995,1,0,0:0:0:0:
64,192,201995,1,0,0:0:0:0:
320,192,202174,1,0,0:0:0:0:
448,192,202174,1,0,0:0:0:0:
64,192,202174,1,0,0:0:0:0:
320,192,202352,1,0,0:0:0:0:
192,192,202352,1,0,0:0:0:0:
64,192,202352,1,0,0:0:0:0:
448,192,202531,1,0,0:0:0:0:
320,192,202531,1,0,0:0:0:0:
192,192,202531,1,0,0:0:0:0:
448,192,202709,1,0,0:0:0:0:
320,192,202709,1,0,0:0:0:0:
64,192,202709,1,0,0:0:0:0:
192,192,202888,1,0,0:0:0:0:
64,192,202888,1,0,0:0:0:0:
448,192,202888,1,0,0:0:0:0:
320,192,203067,1,0,0:0:0:0:
192,192,203067,1,0,0:0:0:0:
64,192,203067,1,0,0:0:0:0:
448,192,203245,1,0,0:0:0:0:
320,192,203245,1,0,0:0:0:0:
192,192,203245,1,0,0:0:0:0:
64,192,203245,1,0,0:0:0:0:
64,192,203424,1,0,0:0:0:0:
448,192,203424,1,0,0:0:0:0:
320,192,203602,1,0,0:0:0:0:
192,192,203602,1,0,0:0:0:0:
448,192,203692,1,0,0:0:0:0:
64,192,203692,1,0,0:0:0:0:
320,192,203781,1,0,0:0:0:0:
192,192,203781,1,0,0:0:0:0:
448,192,203959,1,0,0:0:0:0:
64,192,203959,1,0,0:0:0:0:
192,192,204049,1,0,0:0:0:0:
320,192,204049,1,0,0:0:0:0:
448,192,204138,1,0,0:0:0:0:
64,192,204138,1,0,0:0:0:0:
192,192,204317,1,0,0:0:0:0:
320,192,204317,1,0,0:0:0:0:
448,192,204495,1,0,0:0:0:0:
64,192,204495,1,0,0:0:0:0:
448,192,204674,1,0,0:0:0:0:
320,192,204674,1,0,0:0:0:0:
192,192,204674,1,0,0:0:0:0:
64,192,204674,1,0,0:0:0:0:
192,192,205031,1,0,0:0:0:0:
64,192,205031,1,0,0:0:0:0:
448,192,205031,1,0,0:0:0:0:
320,192,205031,1,0,0:0:0:0:
320,192,205209,1,0,0:0:0:0:
448,192,205209,1,0,0:0:0:0:
64,192,205209,1,0,0:0:0:0:
192,192,205209,1,0,0:0:0:0:
64,192,205388,1,0,0:0:0:0:
448,192,205388,1,0,0:0:0:0:
320,192,205477,1,0,0:0:0:0:
448,192,205567,1,0,0:0:0:0:
64,192,205567,1,0,0:0:0:0:
192,192,205656,1,0,0:0:0:0:
64,192,205745,1,0,0:0:0:0:
448,192,205745,1,0,0:0:0:0:
320,192,205834,1,0,0:0:0:0:
448,192,205924,1,0,0:0:0:0:
192,192,205924,1,0,0:0:0:0:
64,192,205924,1,0,0:0:0:0:
448,192,206281,1,0,0:0:0:0:
320,192,206281,1,0,0:0:0:0:
64,192,206281,1,0,0:0:0:0:
192,192,206370,1,0,0:0:0:0:
320,192,206459,1,0,0:0:0:0:
448,192,206459,1,0,0:0:0:0:
64,192,206549,1,0,0:0:0:0:
448,192,206638,1,0,0:0:0:0:
320,192,206638,1,0,0:0:0:0:
192,192,206638,1,0,0:0:0:0:
64,192,206727,1,0,0:0:0:0:
320,192,206817,1,0,0:0:0:0:
192,192,206817,1,0,0:0:0:0:
448,192,206906,1,0,0:0:0:0:
64,192,206995,1,0,0:0:0:0:
192,192,206995,1,0,0:0:0:0:
448,192,207084,1,0,0:0:0:0:
192,192,207174,1,0,0:0:0:0:
320,192,207174,1,0,0:0:0:0:
64,192,207263,1,0,0:0:0:0:
192,192,207352,1,0,0:0:0:0:
448,192,207352,1,0,0:0:0:0:
320,192,207352,1,0,0:0:0:0:
64,192,207442,1,0,0:0:0:0:
320,192,207531,1,0,0:0:0:0:
448,192,207531,1,0,0:0:0:0:
192,192,207620,1,0,0:0:0:0:
64,192,207709,1,0,0:0:0:0:
448,192,207709,1,0,0:0:0:0:
320,192,207799,1,0,0:0:0:0:
64,192,207888,1,0,0:0:0:0:
192,192,207888,1,0,0:0:0:0:
448,192,207977,1,0,0:0:0:0:
192,192,208067,1,0,0:0:0:0:
64,192,208067,1,0,0:0:0:0:
320,192,208067,1,0,0:0:0:0:
448,192,208156,1,0,0:0:0:0:
192,192,208245,1,0,0:0:0:0:
320,192,208245,1,0,0:0:0:0:
64,192,208334,1,0,0:0:0:0:
192,192,208424,1,0,0:0:0:0:
448,192,208424,1,0,0:0:0:0:
320,192,208513,1,0,0:0:0:0:
64,192,208602,1,0,0:0:0:0:
448,192,208602,1,0,0:0:0:0:
192,192,208692,1,0,0:0:0:0:
448,192,208781,1,0,0:0:0:0:
320,192,208781,1,0,0:0:0:0:
192,192,208870,1,0,0:0:0:0:
64,192,208870,1,0,0:0:0:0:
448,192,208959,1,0,0:0:0:0:
320,192,208959,1,0,0:0:0:0:
192,192,209049,1,0,0:0:0:0:
64,192,209138,1,0,0:0:0:0:
448,192,209138,1,0,0:0:0:0:
320,192,209138,1,0,0:0:0:0:
192,192,209227,1,0,0:0:0:0:
320,192,209317,1,0,0:0:0:0:
64,192,209317,1,0,0:0:0:0:
448,192,209406,1,0,0:0:0:0:
192,192,209495,1,0,0:0:0:0:
64,192,209495,1,0,0:0:0:0:
320,192,209495,1,0,0:0:0:0:
448,192,209584,1,0,0:0:0:0:
192,192,209674,1,0,0:0:0:0:
64,192,209674,1,0,0:0:0:0:
320,192,209763,1,0,0:0:0:0:
64,192,209852,1,0,0:0:0:0:
448,192,209852,1,0,0:0:0:0:
192,192,209942,1,0,0:0:0:0:
448,192,210031,1,0,0:0:0:0:
320,192,210031,1,0,0:0:0:0:
192,192,210120,1,0,0:0:0:0:
320,192,210209,1,0,0:0:0:0:
448,192,210209,1,0,0:0:0:0:
64,192,210209,1,0,0:0:0:0:
192,192,210299,1,0,0:0:0:0:
64,192,210388,1,0,0:0:0:0:
320,192,210388,1,0,0:0:0:0:
448,192,210477,1,0,0:0:0:0:
192,192,210567,1,0,0:0:0:0:
64,192,210567,1,0,0:0:0:0:
448,192,210656,1,0,0:0:0:0:
320,192,210656,1,0,0:0:0:0:
64,192,210745,1,0,0:0:0:0:
192,192,210834,1,0,0:0:0:0:
320,192,210834,1,0,0:0:0:0:
448,192,210924,1,0,0:0:0:0:
64,192,210924,1,0,0:0:0:0:
320,192,211013,1,0,0:0:0:0:
64,192,211102,1,0,0:0:0:0:
192,192,211102,1,0,0:0:0:0:
320,192,211192,1,0,0:0:0:0:
448,192,211192,1,0,0:0:0:0:
192,192,211281,1,0,0:0:0:0:
448,192,211370,1,0,0:0:0:0:
64,192,211370,1,0,0:0:0:0:
192,192,211459,1,0,0:0:0:0:
320,192,211459,1,0,0:0:0:0:
64,192,211549,1,0,0:0:0:0:
320,192,211638,1,0,0:0:0:0:
192,192,211638,1,0,0:0:0:0:
448,192,211727,1,0,0:0:0:0:
64,192,211727,1,0,0:0:0:0:
192,192,211817,1,0,0:0:0:0:
320,192,211906,1,0,0:0:0:0:
64,192,211995,1,0,0:0:0:0:
192,192,211995,1,0,0:0:0:0:
448,192,211995,1,0,0:0:0:0:
320,192,212084,1,0,0:0:0:0:
64,192,212174,1,0,0:0:0:0:
448,192,212174,1,0,0:0:0:0:
192,192,212263,1,0,0:0:0:0:
448,192,212352,1,0,0:0:0:0:
64,192,212352,1,0,0:0:0:0:
320,192,212352,1,0,0:0:0:0:
192,192,212442,1,0,0:0:0:0:
448,192,212531,1,0,0:0:0:0:
320,192,212531,1,0,0:0:0:0:
192,192,212620,1,0,0:0:0:0:
64,192,212620,1,0,0:0:0:0:
320,192,212709,1,0,0:0:0:0:
448,192,212799,1,0,0:0:0:0:
64,192,212799,1,0,0:0:0:0:
192,192,212888,1,0,0:0:0:0:
320,192,212888,1,0,0:0:0:0:
448,192,212977,1,0,0:0:0:0:
320,192,213067,1,0,0:0:0:0:
64,192,213067,1,0,0:0:0:0:
192,192,213067,1,0,0:0:0:0:
448,192,213156,1,0,0:0:0:0:
192,192,213245,1,0,0:0:0:0:
64,192,213245,1,0,0:0:0:0:
320,192,213334,1,0,0:0:0:0:
448,192,213424,1,0,0:0:0:0:
64,192,213424,1,0,0:0:0:0:
192,192,213513,1,0,0:0:0:0:
320,192,213602,1,0,0:0:0:0:
64,192,213602,1,0,0:0:0:0:
448,192,213692,1,0,0:0:0:0:
320,192,213781,1,0,0:0:0:0:
192,192,213781,1,0,0:0:0:0:
64,192,213781,1,0,0:0:0:0:
448,192,213870,1,0,0:0:0:0:
64,192,213959,1,0,0:0:0:0:
192,192,213959,1,0,0:0:0:0:
448,192,214049,1,0,0:0:0:0:
320,192,214049,1,0,0:0:0:0:
192,192,214138,1,0,0:0:0:0:
448,192,214227,1,0,0:0:0:0:
64,192,214227,1,0,0:0:0:0:
320,192,214317,1,0,0:0:0:0:
192,192,214317,1,0,0:0:0:0:
448,192,214406,1,0,0:0:0:0:
64,192,214495,1,0,0:0:0:0:
320,192,214495,1,0,0:0:0:0:
448,192,214584,1,0,0:0:0:0:
192,192,214584,1,0,0:0:0:0:
320,192,214674,1,0,0:0:0:0:
192,192,214763,1,0,0:0:0:0:
64,192,214763,1,0,0:0:0:0:
448,192,214852,1,0,0:0:0:0:
320,192,214852,1,0,0:0:0:0:
64,192,214942,1,0,0:0:0:0:
320,192,215031,1,0,0:0:0:0:
192,192,215031,1,0,0:0:0:0:
448,192,215120,1,0,0:0:0:0:
192,192,215209,1,0,0:0:0:0:
320,192,215209,1,0,0:0:0:0:
64,192,215209,1,0,0:0:0:0:
448,192,215299,1,0,0:0:0:0:
192,192,215388,1,0,0:0:0:0:
64,192,215388,1,0,0:0:0:0:
320,192,215477,1,0,0:0:0:0:
64,192,215567,1,0,0:0:0:0:
448,192,215567,1,0,0:0:0:0:
192,192,215656,1,0,0:0:0:0:
64,192,215745,1,0,0:0:0:0:
320,192,215745,1,0,0:0:0:0:
448,192,215745,1,0,0:0:0:0:
192,192,215834,1,0,0:0:0:0:
64,192,215924,1,0,0:0:0:0:
448,192,215924,1,0,0:0:0:0:
320,192,216013,1,0,0:0:0:0:
448,192,216102,1,0,0:0:0:0:
192,192,216102,1,0,0:0:0:0:
64,192,216102,1,0,0:0:0:0:
320,192,216192,1,0,0:0:0:0:
192,192,216281,1,0,0:0:0:0:
448,192,216370,1,0,0:0:0:0:
64,192,216459,1,0,0:0:0:0:
320,192,216459,1,0,0:0:0:0:
192,192,216549,1,0,0:0:0:0:
320,192,216638,1,0,0:0:0:0:
448,192,216638,1,0,0:0:0:0:
64,192,216638,1,0,0:0:0:0:
192,192,216727,1,0,0:0:0:0:
448,192,216817,1,0,0:0:0:0:
192,192,216906,1,0,0:0:0:0:
64,192,216906,1,0,0:0:0:0:
448,192,216995,1,0,0:0:0:0:
320,192,216995,1,0,0:0:0:0:
64,192,217084,1,0,0:0:0:0:
192,192,217174,1,0,0:0:0:0:
320,192,217174,1,0,0:0:0:0:
448,192,217263,1,0,0:0:0:0:
192,192,217352,1,0,0:0:0:0:
64,192,217352,1,0,0:0:0:0:
448,192,217442,1,0,0:0:0:0:
320,192,217442,1,0,0:0:0:0:
64,192,217531,1,0,0:0:0:0:
192,192,217531,1,0,0:0:0:0:
320,192,217620,1,0,0:0:0:0:
64,192,217709,1,0,0:0:0:0:
192,192,217709,1,0,0:0:0:0:
448,192,217709,1,0,0:0:0:0:
320,192,217799,1,0,0:0:0:0:
192,192,217888,1,0,0:0:0:0:
64,192,217888,1,0,0:0:0:0:
448,192,217977,1,0,0:0:0:0:
64,192,218067,1,0,0:0:0:0:
192,192,218067,1,0,0:0:0:0:
320,192,218067,1,0,0:0:0:0:
448,192,218156,1,0,0:0:0:0:
192,192,218245,1,0,0:0:0:0:
320,192,218245,1,0,0:0:0:0:
64,192,218334,1,0,0:0:0:0:
448,192,218424,1,0,0:0:0:0:
320,192,218424,1,0,0:0:0:0:
64,192,218513,1,0,0:0:0:0:
320,192,218602,1,0,0:0:0:0:
192,192,218602,1,0,0:0:0:0:
448,192,218692,1,0,0:0:0:0:
320,192,218781,1,0,0:0:0:0:
64,192,218781,1,0,0:0:0:0:
192,192,218781,1,0,0:0:0:0:
448,192,218870,1,0,0:0:0:0:
192,192,218959,1,0,0:0:0:0:
64,192,218959,1,0,0:0:0:0:
320,192,219049,1,0,0:0:0:0:
448,192,219138,1,0,0:0:0:0:
64,192,219138,1,0,0:0:0:0:
192,192,219227,1,0,0:0:0:0:
448,192,219317,1,0,0:0:0:0:
320,192,219317,1,0,0:0:0:0:
64,192,219406,1,0,0:0:0:0:
320,192,219495,1,0,0:0:0:0:
448,192,219495,1,0,0:0:0:0:
192,192,219495,1,0,0:0:0:0:
64,192,219584,1,0,0:0:0:0:
320,192,219674,1,0,0:0:0:0:
192,192,219674,1,0,0:0:0:0:
448,192,219763,1,0,0:0:0:0:
320,192,219852,1,0,0:0:0:0:
64,192,219852,1,0,0:0:0:0:
192,192,219942,1,0,0:0:0:0:
448,192,220031,1,0,0:0:0:0:
64,192,220031,1,0,0:0:0:0:
320,192,220120,1,0,0:0:0:0:
64,192,220209,1,0,0:0:0:0:
192,192,220209,1,0,0:0:0:0:
320,192,220299,1,0,0:0:0:0:
448,192,220299,1,0,0:0:0:0:
192,192,220388,1,0,0:0:0:0:
320,192,220477,1,0,0:0:0:0:
64,192,220567,1,0,0:0:0:0:
192,192,220567,1,0,0:0:0:0:
448,192,220567,1,0,0:0:0:0:
320,192,220656,1,0,0:0:0:0:
192,192,220745,1,0,0:0:0:0:
448,192,220745,1,0,0:0:0:0:
64,192,220834,1,0,0:0:0:0:
320,192,220924,1,0,0:0:0:0:
448,192,220924,1,0,0:0:0:0:
192,192,220924,1,0,0:0:0:0:
64,192,221013,1,0,0:0:0:0:
320,192,221102,1,0,0:0:0:0:
448,192,221102,1,0,0:0:0:0:
192,192,221192,1,0,0:0:0:0:
448,192,221281,1,0,0:0:0:0:
64,192,221281,1,0,0:0:0:0:
320,192,221370,1,0,0:0:0:0:
64,192,221459,1,0,0:0:0:0:
192,192,221459,1,0,0:0:0:0:
320,192,221549,1,0,0:0:0:0:
192,192,221638,1,0,0:0:0:0:
64,192,221638,1,0,0:0:0:0:
448,192,221638,1,0,0:0:0:0:
320,192,221727,1,0,0:0:0:0:
448,192,221817,1,0,0:0:0:0:
192,192,221817,1,0,0:0:0:0:
64,192,221906,1,0,0:0:0:0:
320,192,221995,1,0,0:0:0:0:
448,192,221995,1,0,0:0:0:0:
64,192,222084,1,0,0:0:0:0:
192,192,222084,1,0,0:0:0:0:
448,192,222174,1,0,0:0:0:0:
320,192,222263,1,0,0:0:0:0:
192,192,222263,1,0,0:0:0:0:
64,192,222352,1,0,0:0:0:0:
448,192,222352,1,0,0:0:0:0:
192,192,222442,1,0,0:0:0:0:
448,192,222531,1,0,0:0:0:0:
320,192,222531,1,0,0:0:0:0:
192,192,222620,1,0,0:0:0:0:
64,192,222620,1,0,0:0:0:0:
448,192,222709,1,0,0:0:0:0:
192,192,222799,1,0,0:0:0:0:
320,192,222799,1,0,0:0:0:0:
64,192,222888,1,0,0:0:0:0:
448,192,222888,1,0,0:0:0:0:
192,192,222977,1,0,0:0:0:0:
448,192,223067,1,0,0:0:0:0:
320,192,223067,1,0,0:0:0:0:
192,192,223156,1,0,0:0:0:0:
64,192,223156,1,0,0:0:0:0:
320,192,223245,1,0,0:0:0:0:
192,192,223334,1,0,0:0:0:0:
448,192,223424,1,0,0:0:0:0:
320,192,223424,1,0,0:0:0:0:
64,192,223424,1,0,0:0:0:0:
192,192,223513,1,0,0:0:0:0:
448,192,223602,1,0,0:0:0:0:
64,192,223602,1,0,0:0:0:0:
320,192,223692,1,0,0:0:0:0:
64,192,223781,1,0,0:0:0:0:
448,192,223781,1,0,0:0:0:0:
192,192,223781,1,0,0:0:0:0:
320,192,223870,1,0,0:0:0:0:
64,192,223959,1,0,0:0:0:0:
192,192,223959,1,0,0:0:0:0:
320,192,224049,1,0,0:0:0:0:
448,192,224049,1,0,0:0:0:0:
192,192,224138,1,0,0:0:0:0:
64,192,224227,1,0,0:0:0:0:
448,192,224227,1,0,0:0:0:0:
320,192,224317,1,0,0:0:0:0:
192,192,224317,1,0,0:0:0:0:
64,192,224406,1,0,0:0:0:0:
192,192,224495,1,0,0:0:0:0:
448,192,224495,1,0,0:0:0:0:
320,192,224495,1,0,0:0:0:0:
64,192,224584,1,0,0:0:0:0:
320,192,224674,1,0,0:0:0:0:
448,192,224674,1,0,0:0:0:0:
192,192,224763,1,0,0:0:0:0:
64,192,224852,1,0,0:0:0:0:
448,192,224852,1,0,0:0:0:0:
320,192,224942,1,0,0:0:0:0:
192,192,225031,1,0,0:0:0:0:
448,192,225031,1,0,0:0:0:0:
64,192,225120,1,0,0:0:0:0:
192,192,225209,1,0,0:0:0:0:
320,192,225209,1,0,0:0:0:0:
448,192,225209,1,0,0:0:0:0:
64,192,225299,1,0,0:0:0:0:
448,192,225388,1,0,0:0:0:0:
320,192,225388,1,0,0:0:0:0:
192,192,225477,1,0,0:0:0:0:
320,192,225567,1,0,0:0:0:0:
64,192,225567,1,0,0:0:0:0:
448,192,225656,1,0,0:0:0:0:
192,192,225745,1,0,0:0:0:0:
64,192,225745,1,0,0:0:0:0:
320,192,225834,1,0,0:0:0:0:
192,192,225924,1,0,0:0:0:0:
448,192,225924,1,0,0:0:0:0:
64,192,225924,1,0,0:0:0:0:
320,192,226013,1,0,0:0:0:0:
64,192,226102,1,0,0:0:0:0:
448,192,226192,1,0,0:0:0:0:
64,192,226281,1,0,0:0:0:0:
192,192,226281,1,0,0:0:0:0:
320,192,226281,1,0,0:0:0:0:
448,192,226370,1,0,0:0:0:0:
192,192,226459,1,0,0:0:0:0:
320,192,226459,1,0,0:0:0:0:
64,192,226549,1,0,0:0:0:0:
320,192,226638,1,0,0:0:0:0:
192,192,226638,1,0,0:0:0:0:
448,192,226638,1,0,0:0:0:0:
64,192,226727,1,0,0:0:0:0:
320,192,226817,1,0,0:0:0:0:
448,192,226817,1,0,0:0:0:0:
64,192,226906,1,0,0:0:0:0:
192,192,226906,1,0,0:0:0:0:
448,192,226995,1,0,0:0:0:0:
320,192,226995,1,0,0:0:0:0:
64,192,227084,1,0,0:0:0:0:
448,192,227174,1,0,0:0:0:0:
192,192,227174,1,0,0:0:0:0:
320,192,227174,1,0,0:0:0:0:
64,192,227263,1,0,0:0:0:0:
192,192,227352,1,0,0:0:0:0:
320,192,227352,1,0,0:0:0:0:
448,192,227442,1,0,0:0:0:0:
64,192,227531,1,0,0:0:0:0:
320,192,227531,1,0,0:0:0:0:
192,192,227531,1,0,0:0:0:0:
448,192,227620,1,0,0:0:0:0:
64,192,227709,1,0,0:0:0:0:
320,192,227799,1,0,0:0:0:0:
192,192,227888,1,0,0:0:0:0:
64,192,227888,1,0,0:0:0:0:
448,192,227977,1,0,0:0:0:0:
192,192,228067,1,0,0:0:0:0:
64,192,228067,1,0,0:0:0:0:
320,192,228067,1,0,0:0:0:0:
448,192,228156,1,0,0:0:0:0:
192,192,228245,1,0,0:0:0:0:
320,192,228334,1,0,0:0:0:0:
64,192,228334,1,0,0:0:0:0:
448,192,228424,1,0,0:0:0:0:
192,192,228424,1,0,0:0:0:0:
64,192,228513,1,0,0:0:0:0:
320,192,228602,1,0,0:0:0:0:
192,192,228602,1,0,0:0:0:0:
448,192,228692,1,0,0:0:0:0:
192,192,228781,1,0,0:0:0:0:
320,192,228781,1,0,0:0:0:0:
64,192,228781,1,0,0:0:0:0:
448,192,228870,1,0,0:0:0:0:
320,192,228959,1,0,0:0:0:0:
192,192,229049,1,0,0:0:0:0:
448,192,229138,1,0,0:0:0:0:
320,192,229138,1,0,0:0:0:0:
64,192,229138,1,0,0:0:0:0:
192,192,229227,1,0,0:0:0:0:
448,192,229317,1,0,0:0:0:0:
320,192,229317,1,0,0:0:0:0:
64,192,229406,1,0,0:0:0:0:
448,192,229495,1,0,0:0:0:0:
320,192,229495,1,0,0:0:0:0:
192,192,229495,1,0,0:0:0:0:
64,192,229584,1,0,0:0:0:0:
320,192,229674,1,0,0:0:0:0:
192,192,229674,1,0,0:0:0:0:
448,192,229763,1,0,0:0:0:0:
64,192,229852,1,0,0:0:0:0:
192,192,229852,1,0,0:0:0:0:
320,192,229942,1,0,0:0:0:0:
64,192,230031,1,0,0:0:0:0:
448,192,230031,1,0,0:0:0:0:
192,192,230120,1,0,0:0:0:0:
64,192,230209,1,0,0:0:0:0:
448,192,230209,1,0,0:0:0:0:
320,192,230209,1,0,0:0:0:0:
192,192,230299,1,0,0:0:0:0:
320,192,230388,1,0,0:0:0:0:
192,192,230477,1,0,0:0:0:0:
64,192,230567,1,0,0:0:0:0:
448,192,230567,1,0,0:0:0:0:
320,192,230656,1,0,0:0:0:0:
64,192,230745,1,0,0:0:0:0:
192,192,230745,1,0,0:0:0:0:
448,192,230834,1,0,0:0:0:0:
64,192,230924,1,0,0:0:0:0:
192,192,230924,1,0,0:0:0:0:
320,192,230924,1,0,0:0:0:0:
448,192,231013,1,0,0:0:0:0:
192,192,231102,1,0,0:0:0:0:
320,192,231102,1,0,0:0:0:0:
64,192,231192,1,0,0:0:0:0:
448,192,231281,1,0,0:0:0:0:
320,192,231281,1,0,0:0:0:0:
192,192,231370,1,0,0:0:0:0:
448,192,231459,1,0,0:0:0:0:
64,192,231459,1,0,0:0:0:0:
320,192,231549,1,0,0:0:0:0:
448,192,231638,1,0,0:0:0:0:
64,192,231638,1,0,0:0:0:0:
192,192,231638,1,0,0:0:0:0:
320,192,231727,1,0,0:0:0:0:
192,192,231817,1,0,0:0:0:0:
320,192,231906,1,0,0:0:0:0:
448,192,231995,1,0,0:0:0:0:
192,192,231995,1,0,0:0:0:0:
64,192,231995,1,0,0:0:0:0:
320,192,232084,1,0,0:0:0:0:
192,192,232174,1,0,0:0:0:0:
64,192,232174,1,0,0:0:0:0:
448,192,232263,1,0,0:0:0:0:
320,192,232352,1,0,0:0:0:0:
192,192,232352,1,0,0:0:0:0:
64,192,232352,1,0,0:0:0:0:
448,192,232442,1,0,0:0:0:0:
320,192,232531,1,0,0:0:0:0:
192,192,232531,1,0,0:0:0:0:
64,192,232620,1,0,0:0:0:0:
320,192,232709,1,0,0:0:0:0:
448,192,232709,1,0,0:0:0:0:
192,192,232799,1,0,0:0:0:0:
64,192,232888,1,0,0:0:0:0:
448,192,232888,1,0,0:0:0:0:
320,192,232977,1,0,0:0:0:0:
192,192,233067,1,0,0:0:0:0:
64,192,233067,1,0,0:0:0:0:
448,192,233067,1,0,0:0:0:0:
320,192,233156,1,0,0:0:0:0:
192,192,233245,1,0,0:0:0:0:
320,192,233334,1,0,0:0:0:0:
64,192,233424,1,0,0:0:0:0:
448,192,233424,1,0,0:0:0:0:
192,192,233513,1,0,0:0:0:0:
320,192,233602,1,0,0:0:0:0:
448,192,233602,1,0,0:0:0:0:
64,192,233692,1,0,0:0:0:0:
192,192,233781,1,0,0:0:0:0:
320,192,233781,1,0,0:0:0:0:
448,192,233781,1,0,0:0:0:0:
64,192,233870,1,0,0:0:0:0:
192,192,233959,1,0,0:0:0:0:
320,192,233959,1,0,0:0:0:0:
448,192,234049,1,0,0:0:0:0:
192,192,234138,1,0,0:0:0:0:
64,192,234138,1,0,0:0:0:0:
320,192,234227,1,0,0:0:0:0:
448,192,234317,1,0,0:0:0:0:
64,192,234317,1,0,0:0:0:0:
192,192,234406,1,0,0:0:0:0:
320,192,234495,1,0,0:0:0:0:
448,192,234495,1,0,0:0:0:0:
64,192,234495,1,0,0:0:0:0:
192,192,234584,1,0,0:0:0:0:
320,192,234674,1,0,0:0:0:0:
192,192,234763,1,0,0:0:0:0:
448,192,234852,1,0,0:0:0:0:
320,192,234852,1,0,0:0:0:0:
64,192,234852,1,0,0:0:0:0:
192,192,234942,1,0,0:0:0:0:
448,192,235031,1,0,0:0:0:0:
320,192,235031,1,0,0:0:0:0:
64,192,235120,1,0,0:0:0:0:
448,192,235209,1,0,0:0:0:0:
320,192,235209,1,0,0:0:0:0:
192,192,235209,1,0,0:0:0:0:
64,192,235299,1,0,0:0:0:0:
192,192,235388,1,0,0:0:0:0:
448,192,235477,1,0,0:0:0:0:
320,192,235477,1,0,0:0:0:0:
64,192,235567,1,0,0:0:0:0:
320,192,235656,1,0,0:0:0:0:
192,192,235656,1,0,0:0:0:0:
64,192,235745,1,0,0:0:0:0:
448,192,235745,1,0,0:0:0:0:
192,192,235834,1,0,0:0:0:0:
64,192,235924,1,0,0:0:0:0:
448,192,235924,1,0,0:0:0:0:
320,192,235924,1,0,0:0:0:0:
192,192,236013,1,0,0:0:0:0:
320,192,236102,1,0,0:0:0:0:
192,192,236192,1,0,0:0:0:0:
64,192,236281,1,0,0:0:0:0:
448,192,236281,1,0,0:0:0:0:
320,192,236370,1,0,0:0:0:0:
64,192,236459,1,0,0:0:0:0:
192,192,236459,1,0,0:0:0:0:
448,192,236549,1,0,0:0:0:0:
64,192,236638,1,0,0:0:0:0:
192,192,236638,1,0,0:0:0:0:
320,192,236638,1,0,0:0:0:0:
448,192,236727,1,0,0:0:0:0:
320,192,236817,1,0,0:0:0:0:
64,192,236906,1,0,0:0:0:0:
192,192,236906,1,0,0:0:0:0:
448,192,236995,1,0,0:0:0:0:
192,192,237084,1,0,0:0:0:0:
320,192,237084,1,0,0:0:0:0:
448,192,237174,1,0,0:0:0:0:
64,192,237174,1,0,0:0:0:0:
320,192,237263,1,0,0:0:0:0:
448,192,237352,1,0,0:0:0:0:
64,192,237352,1,0,0:0:0:0:
320,192,237442,1,0,0:0:0:0:
192,192,237442,1,0,0:0:0:0:
64,192,237531,1,0,0:0:0:0:
320,192,237620,1,0,0:0:0:0:
448,192,237709,1,0,0:0:0:0:
192,192,237709,1,0,0:0:0:0:
64,192,237709,1,0,0:0:0:0:
320,192,237888,1,0,0:0:0:0:
448,192,237888,1,0,0:0:0:0:
192,192,237888,1,0,0:0:0:0:
64,192,238067,1,0,0:0:0:0:
192,192,238067,1,0,0:0:0:0:
448,192,238067,1,0,0:0:0:0:
320,192,238156,1,0,0:0:0:0:
192,192,238245,1,0,0:0:0:0:
64,192,238334,1,0,0:0:0:0:
448,192,238334,1,0,0:0:0:0:
192,192,238424,1,0,0:0:0:0:
320,192,238424,1,0,0:0:0:0:
64,192,238513,1,0,0:0:0:0:
448,192,238513,1,0,0:0:0:0:
320,192,238602,1,0,0:0:0:0:
192,192,238602,1,0,0:0:0:0:
448,192,238692,1,0,0:0:0:0:
64,192,238781,1,0,0:0:0:0:
192,192,238781,1,0,0:0:0:0:
320,192,238870,1,0,0:0:0:0:
448,192,238959,1,0,0:0:0:0:
64,192,238959,1,0,0:0:0:0:
192,192,238959,1,0,0:0:0:0:
320,192,239049,1,0,0:0:0:0:
448,192,239138,1,0,0:0:0:0:
64,192,239138,1,0,0:0:0:0:
192,192,239227,1,0,0:0:0:0:
448,192,239317,1,0,0:0:0:0:
320,192,239317,1,0,0:0:0:0:
64,192,239406,1,0,0:0:0:0:
448,192,239495,1,0,0:0:0:0:
320,192,239495,1,0,0:0:0:0:
192,192,239495,1,0,0:0:0:0:
64,192,239584,1,0,0:0:0:0:
192,192,239674,1,0,0:0:0:0:
448,192,239763,1,0,0:0:0:0:
320,192,239763,1,0,0:0:0:0:
64,192,239852,1,0,0:0:0:0:
320,192,239942,1,0,0:0:0:0:
192,192,239942,1,0,0:0:0:0:
64,192,240031,1,0,0:0:0:0:
448,192,240031,1,0,0:0:0:0:
192,192,240120,1,0,0:0:0:0:
64,192,240209,1,0,0:0:0:0:
448,192,240209,1,0,0:0:0:0:
192,192,240299,1,0,0:0:0:0:
320,192,240299,1,0,0:0:0:0:
448,192,240388,1,0,0:0:0:0:
320,192,240477,1,0,0:0:0:0:
448,192,240567,1,0,0:0:0:0:
192,192,240567,1,0,0:0:0:0:
64,192,240567,1,0,0:0:0:0:
320,192,240656,1,0,0:0:0:0:
192,192,240745,1,0,0:0:0:0:
64,192,240745,1,0,0:0:0:0:
448,192,240834,1,0,0:0:0:0:
320,192,240924,1,0,0:0:0:0:
192,192,240924,1,0,0:0:0:0:
64,192,240924,1,0,0:0:0:0:
448,192,241013,1,0,0:0:0:0:
320,192,241102,1,0,0:0:0:0:
192,192,241102,1,0,0:0:0:0:
64,192,241192,1,0,0:0:0:0:
320,192,241281,1,0,0:0:0:0:
448,192,241281,1,0,0:0:0:0:
192,192,241370,1,0,0:0:0:0:
64,192,241459,1,0,0:0:0:0:
448,192,241459,1,0,0:0:0:0:
320,192,241549,1,0,0:0:0:0:
192,192,241638,1,0,0:0:0:0:
64,192,241638,1,0,0:0:0:0:
448,192,241638,1,0,0:0:0:0:
320,192,241727,1,0,0:0:0:0:
192,192,241817,1,0,0:0:0:0:
320,192,241906,1,0,0:0:0:0:
64,192,241995,1,0,0:0:0:0:
448,192,241995,1,0,0:0:0:0:
192,192,242084,1,0,0:0:0:0:
320,192,242174,1,0,0:0:0:0:
448,192,242174,1,0,0:0:0:0:
64,192,242263,1,0,0:0:0:0:
192,192,242352,1,0,0:0:0:0:
320,192,242352,1,0,0:0:0:0:
448,192,242352,1,0,0:0:0:0:
64,192,242442,1,0,0:0:0:0:
192,192,242531,1,0,0:0:0:0:
320,192,242531,1,0,0:0:0:0:
448,192,242620,1,0,0:0:0:0:
192,192,242709,1,0,0:0:0:0:
64,192,242709,1,0,0:0:0:0:
320,192,242799,1,0,0:0:0:0:
448,192,242888,1,0,0:0:0:0:
64,192,242888,1,0,0:0:0:0:
192,192,242977,1,0,0:0:0:0:
320,192,243067,1,0,0:0:0:0:
448,192,243067,1,0,0:0:0:0:
64,192,243067,1,0,0:0:0:0:
192,192,243156,1,0,0:0:0:0:
320,192,243245,1,0,0:0:0:0:
192,192,243334,1,0,0:0:0:0:
448,192,243424,1,0,0:0:0:0:
320,192,243424,1,0,0:0:0:0:
64,192,243424,1,0,0:0:0:0:
192,192,243513,1,0,0:0:0:0:
448,192,243602,1,0,0:0:0:0:
320,192,243602,1,0,0:0:0:0:
64,192,243692,1,0,0:0:0:0:
448,192,243781,1,0,0:0:0:0:
320,192,243781,1,0,0:0:0:0:
192,192,243781,1,0,0:0:0:0:
64,192,243870,1,0,0:0:0:0:
320,192,243959,1,0,0:0:0:0:
192,192,243959,1,0,0:0:0:0:
448,192,244049,1,0,0:0:0:0:
64,192,244138,1,0,0:0:0:0:
192,192,244138,1,0,0:0:0:0:
320,192,244227,1,0,0:0:0:0:
64,192,244317,1,0,0:0:0:0:
448,192,244317,1,0,0:0:0:0:
192,192,244406,1,0,0:0:0:0:
64,192,244495,1,0,0:0:0:0:
448,192,244495,1,0,0:0:0:0:
320,192,244495,1,0,0:0:0:0:
192,192,244584,1,0,0:0:0:0:
320,192,244674,1,0,0:0:0:0:
192,192,244763,1,0,0:0:0:0:
64,192,244852,1,0,0:0:0:0:
448,192,244852,1,0,0:0:0:0:
320,192,244942,1,0,0:0:0:0:
64,192,245031,1,0,0:0:0:0:
192,192,245031,1,0,0:0:0:0:
448,192,245120,1,0,0:0:0:0:
64,192,245209,1,0,0:0:0:0:
192,192,245209,1,0,0:0:0:0:
320,192,245209,1,0,0:0:0:0:
448,192,245299,1,0,0:0:0:0:
192,192,245388,1,0,0:0:0:0:
320,192,245388,1,0,0:0:0:0:
64,192,245477,1,0,0:0:0:0:
448,192,245567,1,0,0:0:0:0:
320,192,245567,1,0,0:0:0:0:
192,192,245656,1,0,0:0:0:0:
448,192,245745,1,0,0:0:0:0:
64,192,245745,1,0,0:0:0:0:
320,192,245834,1,0,0:0:0:0:
448,192,245924,1,0,0:0:0:0:
64,192,245924,1,0,0:0:0:0:
192,192,245924,1,0,0:0:0:0:
320,192,246013,1,0,0:0:0:0:
192,192,246102,1,0,0:0:0:0:
320,192,246192,1,0,0:0:0:0:
448,192,246281,1,0,0:0:0:0:
192,192,246281,1,0,0:0:0:0:
64,192,246281,1,0,0:0:0:0:
320,192,246370,1,0,0:0:0:0:
192,192,246459,1,0,0:0:0:0:
64,192,246459,1,0,0:0:0:0:
448,192,246549,1,0,0:0:0:0:
320,192,246638,1,0,0:0:0:0:
192,192,246638,1,0,0:0:0:0:
64,192,246638,1,0,0:0:0:0:
448,192,246727,1,0,0:0:0:0:
320,192,246817,1,0,0:0:0:0:
192,192,246906,1,0,0:0:0:0:
64,192,246906,1,0,0:0:0:0:
448,192,246995,1,0,0:0:0:0:
320,192,247084,1,0,0:0:0:0:
192,192,247084,1,0,0:0:0:0:
64,192,247174,1,0,0:0:0:0:
448,192,247174,1,0,0:0:0:0:
320,192,247263,1,0,0:0:0:0:
192,192,247352,1,0,0:0:0:0:
64,192,247352,1,0,0:0:0:0:
448,192,247352,1,0,0:0:0:0:
320,192,247442,1,0,0:0:0:0:
192,192,247531,1,0,0:0:0:0:
320,192,247620,1,0,0:0:0:0:
64,192,247709,1,0,0:0:0:0:
448,192,247709,1,0,0:0:0:0:
192,192,247799,1,0,0:0:0:0:
320,192,247888,1,0,0:0:0:0:
448,192,247888,1,0,0:0:0:0:
64,192,247977,1,0,0:0:0:0:
192,192,248067,1,0,0:0:0:0:
320,192,248067,1,0,0:0:0:0:
448,192,248067,1,0,0:0:0:0:
64,192,248156,1,0,0:0:0:0:
192,192,248245,1,0,0:0:0:0:
320,192,248334,1,0,0:0:0:0:
448,192,248334,1,0,0:0:0:0:
64,192,248424,1,0,0:0:0:0:
192,192,248513,1,0,0:0:0:0:
320,192,248513,1,0,0:0:0:0:
448,192,248602,1,0,0:0:0:0:
64,192,248602,1,0,0:0:0:0:
192,192,248692,1,0,0:0:0:0:
448,192,248781,1,0,0:0:0:0:
64,192,248781,1,0,0:0:0:0:
320,192,248870,1,0,0:0:0:0:
192,192,248870,1,0,0:0:0:0:
448,192,248959,1,0,0:0:0:0:
192,192,249049,1,0,0:0:0:0:
448,192,249138,1,0,0:0:0:0:
320,192,249138,1,0,0:0:0:0:
64,192,249138,1,0,0:0:0:0:
192,192,249227,1,0,0:0:0:0:
64,192,249317,1,0,0:0:0:0:
448,192,249317,1,0,0:0:0:0:
320,192,249406,1,0,0:0:0:0:
64,192,249495,1,0,0:0:0:0:
192,192,249495,1,0,0:0:0:0:
448,192,249495,1,0,0:0:0:0:
320,192,249584,1,0,0:0:0:0:
64,192,249674,1,0,0:0:0:0:
192,192,249674,1,0,0:0:0:0:
320,192,249763,1,0,0:0:0:0:
448,192,249763,1,0,0:0:0:0:
192,192,249852,1,0,0:0:0:0:
64,192,249852,1,0,0:0:0:0:
448,192,249942,1,0,0:0:0:0:
320,192,250031,1,0,0:0:0:0:
192,192,250031,1,0,0:0:0:0:
64,192,250120,1,0,0:0:0:0:
320,192,250209,1,0,0:0:0:0:
448,192,250209,1,0,0:0:0:0:
192,192,250299,1,0,0:0:0:0:
320,192,250388,1,0,0:0:0:0:
448,192,250388,1,0,0:0:0:0:
64,192,250388,1,0,0:0:0:0:
448,192,250567,1,0,0:0:0:0:
192,192,250567,1,0,0:0:0:0:
64,192,250745,1,0,0:0:0:0:
192,192,250745,1,0,0:0:0:0:
320,192,250745,1,0,0:0:0:0:
320,192,250924,1,0,0:0:0:0:
192,192,250924,1,0,0:0:0:0:
448,192,250924,1,0,0:0:0:0:
448,192,251102,1,0,0:0:0:0:
192,192,251102,1,0,0:0:0:0:
64,192,251102,1,0,0:0:0:0:
64,192,251281,1,0,0:0:0:0:
448,192,251281,1,0,0:0:0:0:
320,192,251281,1,0,0:0:0:0:
64,192,251459,1,0,0:0:0:0:
192,192,251459,1,0,0:0:0:0:
320,192,251459,1,0,0:0:0:0:
192,192,251638,128,0,251995:0:0:0:0:
64,192,251638,128,0,251995:0:0:0:0:
448,192,251638,128,0,251995:0:0:0:0:
320,192,251638,128,0,251995:0:0:0:0:
192,192,252040,1,0,0:0:0:0:
64,192,252040,1,0,0:0:0:0:
448,192,252040,1,0,0:0:0:0:
320,192,252040,1,0,0:0:0:0:
