osu file format v14

[General]
AudioFilename: audio.mp3
AudioLeadIn: 0
PreviewTime: 150027
Countdown: 1
SampleSet: Soft
StackLeniency: 0.4
Mode: 0
LetterboxInBreaks: 0
WidescreenStoryboard: 0

[Editor]
Bookmarks: 670,41812,82098,151527,178955,247497,274955
DistanceSpacing: 0.6
BeatDivisor: 4
GridSize: 8
TimelineZoom: 1

[Metadata]
Title:Day After
TitleUnicode:Day After
Artist:FELT
ArtistUnicode:FELT
Creator:Asara
Version:Tomorrow
Source:東方花映塚
Tags:Touhou 舞花 Maika NAGI☆ Grow Color Yuuka Kazami Phantasmagoria of Flower View 東方花映塚 今昔幻想郷 Land Gensokyo, Past and Present
BeatmapID:1245299
BeatmapSetID:588186

[Difficulty]
HPDrainRate:5.8
CircleSize:4
OverallDifficulty:7.4
ApproachRate:8.7
SliderMultiplier:1.4
SliderTickRate:2

[Events]
//Background and Video events
0,0,"background1.jpg",0,0
//Break Periods
//Storyboard Layer 0 (Background)
//Storyboard Layer 1 (Fail)
//Storyboard Layer 2 (Pass)
//Storyboard Layer 3 (Foreground)
//Storyboard Sound Samples

[TimingPoints]
670,428.571428571429,4,2,1,40,1,0
6027,-100,4,2,1,40,0,0
6241,-100,4,2,1,5,0,0
6455,-100,4,2,1,40,0,0
6670,-100,4,2,1,5,0,0
6884,-100,4,2,1,40,0,0
7527,-100,4,2,1,40,0,0
12884,-100,4,2,1,40,0,0
13205,-100,4,2,1,5,0,0
13312,-100,4,2,1,40,0,0
13634,-100,4,2,1,5,0,0
13741,-100,4,2,1,40,0,0
14384,-83.3333333333333,4,2,1,45,0,0
34420,-83.3333333333333,4,2,1,60,0,0
34955,-83.3333333333333,4,2,1,45,0,0
41812,-83.3333333333333,4,2,1,50,0,0
43741,-83.3333333333333,4,2,1,35,0,0
44170,-83.3333333333333,4,2,1,50,0,0
57455,-83.3333333333333,4,2,1,50,0,0
57884,-83.3333333333333,4,2,1,35,0,0
66455,-83.3333333333333,4,2,1,20,0,0
67098,-83.3333333333333,4,2,1,50,0,0
69241,-83.3333333333333,4,2,1,60,0,0
81027,-66.6666666666667,4,2,1,80,0,0
81455,-66.6666666666667,4,2,1,5,0,0
82098,-83.3333333333333,4,2,1,80,0,0
82312,-76.9230769230769,4,2,1,80,0,0
82527,-71.4285714285714,4,2,1,80,0,0
82741,-66.6666666666667,4,2,1,80,0,0
82955,-66.6666666666667,4,2,1,80,0,1
96562,-66.6666666666667,4,2,1,80,0,0
96670,-66.6666666666667,4,2,1,80,0,1
110384,-83.3333333333333,4,2,1,30,0,0
112098,-125,4,2,1,40,0,0
113384,-125,4,2,1,5,0,0
113598,-83.3333333333333,4,2,1,40,0,0
117241,-125,4,2,1,40,0,0
118527,-125,4,2,1,5,0,0
118955,-100,4,2,1,40,0,0
120241,-125,4,2,1,5,0,0
120455,-83.3333333333333,4,2,1,60,0,0
124098,-83.3333333333333,4,2,1,60,0,0
137812,-83.3333333333333,4,2,1,65,0,0
149598,-66.6666666666667,4,2,1,65,0,0
150027,-66.6666666666667,4,2,1,5,0,0
150670,-83.3333333333333,4,2,1,80,0,0
150891,-76.9230769230769,4,2,1,80,0,0
151098,-71.4285714285714,4,2,1,80,0,0
151312,-66.6666666666667,4,2,1,80,0,0
151527,-66.6666666666667,4,2,1,80,0,1
165134,-66.6666666666667,4,2,1,80,0,0
165241,-66.6666666666667,4,2,1,80,0,1
178955,-100,4,2,1,55,0,0
179170,-100,4,2,1,20,0,0
186455,-83.3333333333333,4,2,1,30,0,0
188170,-111.111111111111,4,2,1,30,0,0
189241,-83.3333333333333,4,2,1,5,0,0
189884,-83.3333333333333,4,2,1,30,0,0
192670,-74.0740740740741,4,2,1,50,0,0
204670,-66.6666666666667,4,2,1,50,0,0
205312,-83.3333333333333,4,2,1,50,0,0
218170,-66.6666666666667,4,2,1,50,0,0
218598,-83.3333333333333,4,2,1,30,0,0
220098,-100,4,2,1,25,0,0
233812,-83.3333333333333,4,2,1,70,0,0
245598,-66.6666666666667,4,2,1,70,0,0
246027,-83.3333333333333,4,2,1,70,0,0
247527,-66.6666666666667,4,2,1,80,0,1
261134,-66.6666666666667,4,2,1,80,0,0
261241,-66.6666666666667,4,2,1,80,0,1
273670,-66.6666666666667,4,2,1,80,0,1
274955,-66.6666666666667,4,2,1,65,0,0
301955,500,4,2,1,55,1,0
301955,-62.5,4,2,1,50,0,0
302955,-62.5,4,2,1,45,0,0
303955,-62.5,4,2,1,40,0,0
304955,-62.5,4,2,1,35,0,0
305955,-62.5,4,2,1,30,0,0
306955,-62.5,4,2,1,25,0,0
307955,-62.5,4,2,1,10,0,0
308955,-62.5,4,2,1,15,0,0
309955,-62.5,4,2,1,10,0,0
310955,-62.5,4,2,1,5,0,0

[Colours]
Combo1 : 255,128,192
Combo2 : 128,255,255
Combo3 : 255,128,255
Combo4 : 128,128,255

[HitObjects]
96,102,670,6,0,P|147:94|200:95,1,105
287,109,1098,1,0,0:0:0:0:
449,192,1312,2,0,L|340:191,1,105
256,192,1741,1,0,0:0:0:0:
95,287,1955,2,0,P|147:295|200:293,1,105,0|0,0:0|0:0,0:0:0:0:
287,280,2384,5,0,0:0:0:0:
314,93,2598,1,0,0:0:0:0:
314,93,3027,6,0,B|362:77|362:77|450:93,1,140
483,188,3670,2,0,L|448:192,1,35
323,244,3884,2,0,L|357:248,1,35,0|0,0:0|0:0,0:0:0:0:
437,329,4098,6,0,L|333:345,1,105,8|0,0:0|0:0,0:0:0:0:
247,357,4527,1,0,0:0:0:0:
40,254,4741,2,0,L|145:254,1,105,0|0,0:0|0:0,0:0:0:0:
233,254,5170,1,0,0:0:0:0:
323,167,5384,2,0,L|219:151,1,105,0|0,0:0|0:0,0:0:0:0:
133,139,5812,5,0,0:0:0:0:
373,75,6027,2,0,P|340:64|305:65,1,70
426,184,6455,2,0,P|459:195|493:194,1,70
323,166,6884,2,0,P|309:222|327:321,1,140
319,303,7527,6,0,P|265:315|209:309,1,105,0|0,0:0|0:0,0:0:0:0:
132,285,7955,1,0,0:0:0:0:
218,166,8170,2,0,P|270:170|322:166,1,105
407,145,8598,1,0,0:0:0:0:
276,24,8812,2,0,P|222:12|166:18,1,105
89,42,9241,5,0,0:0:0:0:
53,237,9455,1,0,0:0:0:0:
53,237,9884,6,0,P|87:243|127:238,1,70,0|0,0:0|0:0,0:0:0:0:
205,212,10205,1,0,0:0:0:0:
228,204,10312,1,0,0:0:0:0:
309,275,10527,2,0,L|314:241,1,35,0|0,0:0|0:0,0:0:0:0:
334,97,10741,2,0,L|339:132,1,35,0|0,0:0|0:0,0:0:0:0:
408,253,10955,6,0,P|408:304|380:348,1,105,8|0,0:0|0:0,0:0:0:0:
297,377,11384,1,0,0:0:0:0:
183,251,11598,2,0,P|241:287|309:275,1,140,0|0,0:0|0:0,0:0:0:0:
260,184,12241,2,0,P|233:139|235:87,1,105,0|0,0:0|0:0,0:0:0:0:
294,21,12670,5,0,0:0:0:0:
83,43,12884,2,0,P|58:88|68:145,1,105,0|0,0:0|0:0,0:0:0:0:
5,198,13312,2,0,P|50:222|107:212,1,105,0|0,0:0|0:0,0:0:0:0:
151,143,13741,5,2,0:0:0:0:
83,43,13955,1,2,0:0:0:0:
234,87,14170,1,2,0:0:0:0:
179,235,14384,6,0,P|239:248|295:223,1,125.999996154785,4|0,0:0|0:0,0:0:0:0:
375,154,14812,1,0,0:0:0:0:
296,352,15027,2,0,P|348:319|370:261,1,125.999996154785,0|0,0:0|0:0,0:0:0:0:
375,154,15455,1,0,0:0:0:0:
456,350,15670,2,0,P|469:289|444:233,1,125.999996154785,0|0,0:0|0:0,0:0:0:0:
375,154,16098,5,0,0:0:0:0:
179,235,16312,1,0,0:0:0:0:
179,235,16741,6,0,B|171:187|171:187|179:155|179:155|171:107,1,125.999996154785,0|0,0:0|0:0,0:0:0:0:
152,7,17170,1,0,0:0:0:0:
51,143,17384,2,0,L|93:150,1,41.9999987182618,0|0,0:0|0:0,0:0:0:0:
220,228,17598,2,0,L|179:235,1,41.9999987182618
119,341,17812,6,0,L|275:311,1,125.999996154785,8|0,3:0|0:0,0:0:0:0:
346,295,18241,1,0,0:0:0:0:
155,182,18455,2,0,L|281:182,1,125.999996154785
384,182,18884,1,0,0:0:0:0:
230,44,19098,2,0,L|354:68,1,125.999996154785,0|0,0:0|0:0,0:0:0:0:
457,90,19527,5,0,0:0:0:0:
384,182,19741,1,0,0:0:0:0:
457,274,19955,1,0,0:0:0:0:
355,182,20170,1,0,0:0:0:0:
510,152,20384,5,6,0:0:0:0:
278,198,20598,1,0,0:0:0:0:
457,274,20812,1,0,0:0:0:0:
245,320,21027,1,0,3:0:0:0:
245,320,21241,6,0,B|189:332|189:332|79:320,1,167.999994873047,0|0,3:0|0:0,0:0:0:0:
56,187,21884,2,0,L|193:167,1,125.999996154785
284,154,22312,1,0,0:0:0:0:
122,38,22527,2,0,L|259:58,1,125.999996154785
350,71,22955,5,0,0:0:0:0:
181,169,23170,1,0,0:0:0:0:
180,169,23598,6,0,P|160:227|176:287,1,125.999996154785,0|0,0:0|0:0,0:0:0:0:
243,370,24027,1,0,0:0:0:0:
263,232,24241,2,0,L|305:239,1,41.9999987182618,0|0,0:0|0:0,0:0:0:0:
450,187,24455,2,0,L|408:194,1,41.9999987182618,0|0,0:0|0:0,0:0:0:0:
307,131,24670,6,0,P|256:94|193:94,1,125.999996154785,0|0,3:0|0:0,0:0:0:0:
96,129,25098,1,0,0:0:0:0:
282,15,25312,2,0,P|275:77|307:131,1,125.999996154785,0|0,0:0|0:0,0:0:0:0:
385,198,25741,1,0,0:0:0:0:
194,93,25955,1,0,0:0:0:0:
194,93,26384,5,0,0:0:0:0:
263,232,26598,1,0,0:0:0:0:
385,198,26812,1,0,0:0:0:0:
185,183,27027,1,0,0:0:0:0:
223,316,27241,5,2,0:0:0:0:
302,155,27455,1,2,0:0:0:0:
103,205,27670,1,6,0:0:0:0:
165,370,27884,1,8,3:0:0:0:
165,370,27991,1,0,3:0:0:0:
165,370,28098,6,0,B|221:382|221:382|331:370,1,167.999994873047,0|0,3:0|0:0,0:0:0:0:
456,356,28741,2,0,L|441:230,1,125.999996154785,0|0,0:0|0:0,0:0:0:0:
430,126,29170,1,0,0:0:0:0:
288,280,29384,2,0,L|302:154,1,125.999996154785,0|0,0:0|0:0,0:0:0:0:
314,51,29812,5,0,0:0:0:0:
55,51,30027,1,0,0:0:0:0:
55,51,30455,6,0,B|47:99|47:99|55:131|55:131|47:179,1,125.999996154785
28,279,30884,1,0,0:0:0:0:
151,98,31098,2,0,L|192:105,1,41.9999987182618,0|0,0:0|0:0,0:0:0:0:
343,146,31312,2,0,L|302:154,1,41.9999987182618,8|0,3:0|3:0,3:0:0:0:
173,223,31527,6,0,P|173:284|210:334,1,125.999996154785,0|0,3:0|0:0,0:0:0:0:
309,368,31955,1,0,0:0:0:0:
384,219,32170,2,0,P|331:252|270:250,1,125.999996154785,0|0,0:0|0:0,0:0:0:0:
172,222,32598,1,0,0:0:0:0:
119,46,32812,2,0,P|147:101|202:130,1,125.999996154785,0|0,0:0|0:0,0:0:0:0:
301,154,33241,5,0,0:0:0:0:
108,257,33455,1,0,0:0:0:0:
270,250,33670,1,0,0:0:0:0:
69,195,33884,1,0,0:0:0:0:
145,318,34098,5,0,3:0:0:0:
162,342,34205,1,0,3:0:0:0:
270,250,34420,1,2,3:0:0:0:
287,274,34527,1,0,3:0:0:0:
351,362,34741,1,8,3:0:0:0:
301,154,34955,6,0,P|219:160|171:226,1,167.999994873047,8|0,3:0|0:0,0:0:0:0:
394,253,35598,2,0,P|332:259|270:250,1,125.999996154785,0|0,0:0|0:0,0:0:0:0:
171,224,36027,1,0,0:0:0:0:
16,99,36241,2,0,P|78:104|140:95,1,125.999996154785,0|0,0:0|0:0,0:0:0:0:
239,69,36670,5,0,0:0:0:0:
171,224,36884,1,0,0:0:0:0:
171,224,37312,6,0,B|219:240|219:240|292:224,1,125.999996154785,0|0,0:0|0:0,0:0:0:0:
395,197,37741,1,0,0:0:0:0:
226,145,37955,2,0,L|266:135,1,41.9999987182618,0|0,0:0|0:0,0:0:0:0:
413,91,38170,2,0,L|373:82,1,41.9999987182618,0|0,0:0|0:0,0:0:0:0:
236,23,38384,6,0,P|216:82|225:144,1,125.999996154785,0|0,3:0|0:0,0:0:0:0:
264,242,38812,1,0,0:0:0:0:
96,80,39027,2,0,P|109:141|147:190,1,125.999996154785,0|0,0:0|0:0,0:0:0:0:
229,255,39455,1,0,0:0:0:0:
1,198,39670,2,0,P|43:244|101:268,1,125.999996154785,0|0,0:0|0:0,0:0:0:0:
204,283,40098,5,0,0:0:0:0:
225,144,40312,1,2,3:0:0:0:
300,303,40527,1,2,3:0:0:0:
147,190,40741,1,2,3:0:0:0:
147,190,41170,5,8,3:0:0:0:
300,303,41384,1,0,3:0:0:0:
145,384,41598,1,0,0:0:0:0:
254,191,41812,6,0,P|296:186|338:191,1,83.9999974365235,12|0,0:0|0:0,0:0:0:0:
464,205,42241,1,0,0:0:0:0:
382,109,42455,1,0,0:0:0:0:
426,290,42670,2,0,P|363:293|300:289,1,125.999996154785,0|0,0:0|0:0,0:0:0:0:
204,283,43098,1,0,0:0:0:0:
101,165,43312,6,0,P|152:102|234:94,2,167.999994873047
204,283,44384,2,0,P|210:242|206:200,1,83.9999974365235
0,123,44812,1,0,0:0:0:0:
55,275,45027,1,0,0:0:0:0:
55,275,45241,6,0,L|138:286,1,83.9999974365235,8|0,3:0|0:0,0:0:0:0:
263,303,45670,1,0,0:0:0:0:
185,154,45884,2,0,L|102:166,1,83.9999974365235
311,138,46312,1,0,0:0:0:0:
186,33,46527,2,0,L|270:33,1,83.9999974365235,0|0,0:0|0:0,0:0:0:0:
395,43,46955,5,0,0:0:0:0:
311,137,47170,2,0,B|305:179|305:179|311:221,1,83.9999974365235
168,354,47598,2,0,B|174:312|174:312|168:270,1,83.9999974365235
101,166,48027,1,0,0:0:0:0:
325,183,48241,1,2,3:0:0:0:
234,68,48455,1,8,3:0:0:0:
234,68,48670,6,0,L|317:56,1,83.9999974365235,4|0,3:0|0:0,0:0:0:0:
200,183,49098,1,0,0:0:0:0:
409,183,49312,2,0,L|326:183,1,83.9999974365235
434,328,49741,1,0,0:0:0:0:
234,299,49955,2,0,L|317:311,1,83.9999974365235
434,328,50384,5,0,0:0:0:0:
434,137,50598,2,0,P|371:131|309:136,1,125.999996154785
212,149,51027,1,0,0:0:0:0:
316,222,51241,1,0,0:0:0:0:
359,54,51455,1,0,0:0:0:0:
146,82,51670,1,0,0:0:0:0:
309,136,51884,1,8,3:0:0:0:
309,136,52098,5,8,3:0:0:0:
271,9,52312,2,0,P|208:6|146:11,1,125.999996154785
50,18,52741,2,0,P|50:66|43:119,1,83.9999974365235,0|0,0:0|0:0,0:0:0:0:
19,225,53170,1,0,0:0:0:0:
146,82,53384,2,0,P|146:130|153:183,1,83.9999974365235,0|0,0:0|0:0,0:0:0:0:
114,286,53812,5,0,0:0:0:0:
288,292,54027,2,0,L|204:301,1,83.9999974365235
344,179,54455,2,0,L|428:188,1,83.9999974365235,0|0,0:0|0:0,0:0:0:0:
218,171,54884,1,2,3:0:0:0:
218,171,54991,1,2,3:0:0:0:
218,171,55098,1,2,3:0:0:0:
288,292,55312,1,8,3:0:0:0:
382,99,55527,6,0,P|341:96|299:99,1,83.9999974365235,12|0,3:0|0:0,0:0:0:0:
172,108,55955,1,0,0:0:0:0:
257,15,56170,1,0,0:0:0:0:
343,178,56384,2,0,P|405:184|455:148,1,125.999996154785,0|0,0:0|0:0,0:0:0:0:
473,54,56812,1,0,0:0:0:0:
297,99,57027,6,0,P|252:166|278:242,2,167.999994873047,0|0|0,0:0|0:0|0:0,0:0:0:0:
455,148,58098,1,0,0:0:0:0:
343,178,58312,1,0,0:0:0:0:
473,54,58527,1,0,0:0:0:0:
430,255,58741,1,8,3:0:0:0:
430,255,58955,6,0,P|383:252|346:255,1,83.9999974365235,8|0,3:0|0:0,0:0:0:0:
225,293,59384,1,0,0:0:0:0:
49,207,59598,2,0,P|96:210|133:207,1,83.9999974365235,0|0,0:0|0:0,0:0:0:0:
253,169,60027,1,0,0:0:0:0:
123,23,60241,2,0,P|120:70|123:107,1,83.9999974365235,0|0,0:0|0:0,0:0:0:0:
132,207,60670,5,0,0:0:0:0:
228,64,60884,2,0,B|256:60|256:60|292:64|292:64|320:60,1,83.9999974365235,0|0,0:0|0:0,0:0:0:0:
455,195,61312,2,0,B|435:192|435:192|399:196|399:196|371:192,1,83.9999974365235
253,169,61741,1,0,0:0:0:0:
311,61,61955,1,4,0:0:0:0:
325,262,62170,1,8,3:0:0:0:
325,262,62384,6,0,L|242:276,1,83.9999974365235,4|0,3:0|0:0,0:0:0:0:
435,304,62812,1,0,0:0:0:0:
468,112,63027,2,0,L|454:195,1,83.9999974365235
435,304,63455,1,0,0:0:0:0:
253,169,63670,2,0,L|335:183,1,83.9999974365235
242,275,64098,5,0,0:0:0:0:
212,85,64312,2,0,P|253:77|294:86,1,83.9999974365235
468,112,64741,1,0,0:0:0:0:
253,169,64955,2,0,B|211:189|173:169|173:169|118:169,1,125.999996154785
28,191,65384,2,0,P|58:245|114:272,1,125.999996154785
243,275,65812,6,0,B|300:278|329:244|329:244|397:276|482:275,2,251.999992309571,0|0|0,3:0|0:0|0:0,0:0:0:0:
242,275,67527,5,0,3:0:0:0:
221,90,67741,1,2,3:0:0:0:
221,90,68170,6,0,B|180:77|180:77|98:90,1,125.999996154785,8|0,3:0|3:0,3:0:0:0:
4,111,68598,1,0,0:0:0:0:
173,182,68812,1,4,0:0:0:0:
253,22,69027,1,0,0:0:0:0:
90,166,69241,6,0,L|172:181,1,83.9999974365235,8|0,3:0|0:0,0:0:0:0:
271,202,69562,1,0,3:0:0:0:
300,208,69670,1,8,3:0:0:0:
421,172,69884,2,0,P|427:130|423:89,1,83.9999974365235,2|0,0:0|0:0,0:0:0:0:
220,88,70312,1,0,3:0:0:0:
310,296,70527,1,6,3:0:0:0:
310,296,70741,2,0,L|226:296,1,83.9999974365235
445,296,71170,5,0,3:0:0:0:
421,172,71384,1,0,3:0:0:0:
226,296,71598,2,8,P|182:254|168:193,1,125.999996154785,6|0,0:0|0:0,0:0:0:0:
190,94,72027,1,8,3:0:0:0:
104,307,72241,1,0,0:0:0:0:
90,281,72348,1,0,0:0:0:0:
81,253,72455,1,0,0:0:0:0:
78,224,72562,1,0,0:0:0:0:
84,195,72670,6,0,P|126:189|167:193,1,83.9999974365235,8|0,3:0|0:0,0:0:0:0:
271,202,72991,1,0,3:0:0:0:
300,207,73098,1,8,3:0:0:0:
421,172,73312,2,0,P|424:130|419:88,2,83.9999974365235,2|0|8,3:0|0:0|3:0,0:0:0:0:
394,291,73955,1,0,0:0:0:0:
292,102,74170,1,12,3:0:0:0:
292,102,74384,6,0,P|250:108|209:104,1,83.9999974365235,0|0,0:0|0:0,0:0:0:0:
84,195,74812,1,0,3:0:0:0:
112,203,74920,1,0,3:0:0:0:
140,209,75027,2,0,P|135:260|146:296,1,83.9999974365235,2|0,3:0|0:0,0:0:0:0:
236,248,75455,1,0,0:0:0:0:
272,237,75562,1,0,0:0:0:0:
310,237,75670,1,2,3:0:0:0:
346,247,75777,1,0,0:0:0:0:
376,269,75884,1,0,0:0:0:0:
485,145,76098,6,0,P|443:148|401:145,1,83.9999974365235,8|0,3:0|0:0,0:0:0:0:
300,138,76420,1,0,3:0:0:0:
271,134,76527,1,8,3:0:0:0:
411,26,76741,2,0,P|348:22|285:26,1,125.999996154785,2|0,3:0|0:0,0:0:0:0:
185,41,77170,1,0,0:0:0:0:
236,248,77384,1,2,3:0:0:0:
236,248,77598,2,0,P|228:206|234:165,1,83.9999974365235,0|0,0:0|0:0,0:0:0:0:
285,26,78027,5,4,0:0:0:0:
442,173,78241,1,4,0:0:0:0:
151,171,78455,2,0,P|168:112|222:81,1,125.999996154785,6|0,3:0|0:0,0:0:0:0:
323,95,78884,1,0,0:0:0:0:
336,253,79098,2,0,L|294:258,1,41.9999987182618,0|0,0:0|0:0,0:0:0:0:
129,268,79312,2,0,L|170:273,1,41.9999987182618
288,350,79527,6,0,L|160:350,1,125.999996154785
62,335,79955,1,0,0:0:0:0:
233,165,80170,1,2,3:0:0:0:
162,350,80384,1,2,3:0:0:0:
14,236,80598,1,2,3:0:0:0:
288,350,80812,1,2,3:0:0:0:
128,112,81027,6,0,P|135:34|169:104,1,210.000008010865,6|0,2:0|0:0,0:0:0:0:
141,72,82098,6,0,L|199:78,1,41.9999987182618,0|0,0:0|0:0,0:0:0:0:
308,120,82312,6,0,L|262:123,1,45.4999979171754
101,173,82527,6,0,L|150:177,1,48.9999985046387
342,219,82741,6,0,L|269:226,1,52.5000020027161
67,272,82955,6,0,L|187:283,1,105.000004005432,8|0,0:0|0:0,0:0:0:0:
277,292,83277,1,0,0:0:0:0:
305,295,83384,1,2,3:0:0:0:
262,123,83598,1,0,0:0:0:0:
150,177,83812,1,0,0:0:0:0:
150,177,83920,1,0,0:0:0:0:
150,177,84027,1,0,3:0:0:0:
342,219,84241,1,2,3:0:0:0:
212,41,84455,6,0,P|263:36|336:48,1,105.000004005432,0|0,0:0|3:0,0:0:0:0:
420,65,84777,1,0,0:0:0:0:
452,73,84884,1,0,0:0:0:0:
342,219,85098,1,2,3:0:0:0:
316,42,85312,1,0,0:0:0:0:
474,186,85527,1,0,0:0:0:0:
474,186,85634,1,0,0:0:0:0:
474,186,85741,1,0,3:0:0:0:
262,123,85955,2,0,P|285:129|315:129,1,52.5000020027161,2|0,3:0|0:0,0:0:0:0:
420,65,86170,2,0,P|397:59|367:59,1,52.5000020027161,0|0,3:0|0:0,0:0:0:0:
180,68,86384,6,8,B|168:116|168:116|179:223,1,157.500006008148,12|0,3:0|0:0,0:0:0:0:
190,328,86812,1,2,3:0:0:0:
342,219,87027,1,2,0:0:0:0:
334,174,87134,1,0,0:0:0:0:
305,139,87241,1,0,0:0:0:0:
262,123,87348,1,0,0:0:0:0:
217,133,87455,1,0,3:0:0:0:
297,314,87670,1,2,3:0:0:0:
396,110,87884,1,0,0:0:0:0:
342,219,88098,5,0,3:0:0:0:
375,233,88205,1,2,0:0:0:0:
411,231,88312,1,0,0:0:0:0:
447,222,88420,1,0,0:0:0:0:
478,202,88527,1,2,3:0:0:0:
217,133,88741,1,0,0:0:0:0:
217,133,88848,1,0,0:0:0:0:
217,133,88955,2,0,B|213:97|213:97|221:61|221:61|217:29,1,105.000004005432,0|0,0:0|3:0,0:0:0:0:
128,216,89384,2,0,B|132:252|132:252|124:288|124:288|128:320,1,105.000004005432,2|0,3:0|0:0,0:0:0:0:
226,355,89705,1,0,3:0:0:0:
251,362,89812,6,0,P|316:373|419:366,1,157.500006008148,12|0,3:0|0:0,0:0:0:0:
512,355,90241,1,2,3:0:0:0:
327,271,90455,1,0,0:0:0:0:
311,232,90562,1,0,0:0:0:0:
311,189,90670,1,0,0:0:0:0:
319,147,90777,1,0,0:0:0:0:
339,110,90884,1,0,3:0:0:0:
448,194,91098,1,2,3:0:0:0:
272,58,91312,1,0,0:0:0:0:
327,271,91527,5,0,3:0:0:0:
290,287,91634,1,0,0:0:0:0:
249,290,91741,1,0,0:0:0:0:
209,280,91848,1,0,0:0:0:0:
177,254,91955,1,2,3:0:0:0:
76,45,92170,2,0,B|84:101|84:101|76:157|76:157|84:209,1,157.500006008148,0|0,0:0|0:0,0:0:0:0:
100,319,92598,1,8,3:0:0:0:
192,149,92812,1,2,3:0:0:0:
249,290,93027,1,0,0:0:0:0:
249,290,93134,1,0,3:0:0:0:
249,290,93241,6,0,P|301:295|354:292,1,105.000004005432,4|0,3:0|0:0,0:0:0:0:
457,276,93562,1,0,0:0:0:0:
483,270,93670,1,2,3:0:0:0:
408,48,93884,1,0,3:0:0:0:
371,28,93991,1,0,0:0:0:0:
329,22,94098,1,0,0:0:0:0:
287,30,94205,1,0,0:0:0:0:
250,50,94312,2,0,L|145:38,1,105.000004005432,0|2,3:0|0:0,0:0:0:0:
331,149,94741,6,0,L|435:137,1,105.000004005432,6|0,3:0|0:0,0:0:0:0:
174,167,95170,1,2,3:0:0:0:
385,315,95384,1,6,3:0:0:0:
393,291,95491,1,0,0:0:0:0:
396,265,95598,1,0,0:0:0:0:
394,239,95705,1,0,0:0:0:0:
387,214,95812,1,0,0:0:0:0:
250,50,96027,1,0,3:0:0:0:
174,167,96241,2,0,L|250:176,1,52.5000020027161,0|0,0:0|0:0,0:0:0:0:
387,214,96455,2,0,L|311:223,1,52.5000020027161,0|0,3:0|0:0,0:0:0:0:
153,266,96670,6,0,P|89:224|74:148,1,157.500006008148,12|0,0:0|0:0,0:0:0:0:
135,68,97098,1,2,3:0:0:0:
231,332,97312,1,0,0:0:0:0:
231,332,97420,1,0,0:0:0:0:
231,332,97527,1,0,0:0:0:0:
334,220,97741,1,0,3:0:0:0:
174,167,97955,1,2,3:0:0:0:
307,299,98170,6,0,P|358:309|409:298,1,105.000004005432,0|0,0:0|3:0,0:0:0:0:
496,240,98491,1,0,0:0:0:0:
512,219,98598,1,0,0:0:0:0:
307,299,98812,1,2,3:0:0:0:
346,90,99027,1,0,0:0:0:0:
346,90,99134,1,0,0:0:0:0:
346,90,99241,1,0,0:0:0:0:
409,298,99455,1,0,3:0:0:0:
174,167,99670,2,0,P|199:173|225:174,1,52.5000020027161,2|0,3:0|0:0,0:0:0:0:
346,90,99884,2,0,P|320:83|294:82,1,52.5000020027161,0|0,3:0|0:0,0:0:0:0:
80,108,100098,6,0,B|72:164|72:164|80:220|80:220|72:272,1,157.500006008148,12|0,3:0|0:0,0:0:0:0:
57,368,100527,1,2,3:0:0:0:
321,308,100741,2,0,B|285:304|285:304|249:312|249:312|217:308,1,105.000004005432,2|0,0:0|0:0,0:0:0:0:
80,108,101170,2,0,B|116:112|116:112|152:104|152:104|184:108,1,105.000004005432,0|2,3:0|3:0,0:0:0:0:
367,121,101598,1,0,0:0:0:0:
367,121,101705,1,0,0:0:0:0:
367,121,101812,6,0,P|392:126|414:139,1,52.5000020027161,0|0,3:0|0:0,0:0:0:0:
257,240,102027,2,0,P|249:214|248:189,1,52.5000020027161,0|0,3:3|0:3,0:3:0:0:
415,275,102241,2,0,P|396:294|375:308,1,52.5000020027161,2|0,3:3|0:3,0:3:0:0:
169,267,102455,1,0,0:0:0:0:
157,227,102562,1,0,0:0:0:0:
154,185,102670,1,0,0:0:0:0:
165,145,102777,1,0,0:0:0:0:
183,107,102884,2,0,L|235:104,1,52.5000020027161,0|0,3:0|0:0,0:0:0:0:
335,22,103098,2,0,L|311:68,1,52.5000020027161,2|0,3:0|0:0,0:0:0:0:
332,197,103312,2,0,L|303:153,1,52.5000020027161,0|0,3:0|0:0,0:0:0:0:
205,32,103527,6,0,P|128:23|68:71,1,157.500006008148,12|0,3:0|0:0,0:0:0:0:
42,173,103955,1,2,3:0:0:0:
205,32,104170,1,0,0:0:0:0:
162,268,104384,1,0,0:0:0:0:
162,268,104491,1,0,0:0:0:0:
162,268,104598,1,0,3:0:0:0:
333,221,104812,1,2,3:0:0:0:
156,123,105027,1,0,0:0:0:0:
280,331,105241,6,0,P|332:336|384:333,1,105.000004005432,0|0,3:0|0:0,0:0:0:0:
487,311,105562,1,0,0:0:0:0:
512,302,105670,1,2,3:0:0:0:
362,25,105884,2,0,L|347:129,1,105.000004005432,0|0,0:0|0:0,0:0:0:0:
184,331,106312,2,0,L|170:227,1,105.000004005432,0|2,3:0|3:0,0:0:0:0:
87,44,106741,6,0,P|185:23|254:96,1,210.000008010865
185,332,107384,1,2,3:0:0:0:
163,130,107598,1,0,3:0:0:0:
163,130,107705,1,0,3:0:0:0:
163,130,107812,1,0,3:0:0:0:
378,384,108027,1,2,0:0:0:0:
93,308,108241,1,8,3:0:0:0:
378,384,108455,6,0,B|394:320|394:320|378:248|378:248|393:180,1,210.000008010865,6|0,3:0|3:0,0:0:0:0:
309,319,109098,1,2,3:0:0:0:
254,96,109312,1,0,3:0:0:0:
254,96,109420,1,0,3:0:0:0:
254,96,109527,1,0,3:0:0:0:
185,332,109741,1,8,3:0:0:0:
393,180,109955,1,6,3:0:0:0:
73,165,110170,1,0,0:0:0:0:
393,180,110384,6,0,L|476:183,2,83.9999974365235,8|0|0,0:0|0:0|0:0,0:0:0:0:
73,165,112098,6,0,B|153:125|233:173|233:173|313:221|393:181,1,336,2|0,0:0|0:0,0:0:0:0:
450,68,113598,1,0,3:0:0:0:
340,294,113812,1,0,3:0:0:0:
340,294,115741,5,0,0:0:0:0:
269,197,115955,1,0,0:0:0:0:
433,197,116170,1,0,0:0:0:0:
237,114,116384,1,0,0:0:0:0:
198,255,116598,1,0,0:0:0:0:
324,85,116812,1,2,3:0:0:0:
57,214,117027,1,0,3:0:0:0:
269,197,117241,6,0,P|235:338|108:268,1,336,0|0,3:0|0:0,0:0:0:0:
197,255,118955,2,0,P|45:179|197:103,1,420,0|0,0:0|0:0,0:0:0:0:
140,179,120455,1,0,3:0:0:0:
255,28,120670,1,0,3:0:0:0:
255,28,122598,5,0,0:0:0:0:
197,203,122812,1,0,0:0:0:0:
61,156,123027,1,0,0:0:0:0:
319,222,123241,1,0,0:0:0:0:
135,45,123455,1,0,3:0:0:0:
135,45,123562,1,0,3:0:0:0:
135,45,123670,1,0,3:0:0:0:
178,306,123884,1,8,3:0:0:0:
150,136,124098,6,0,P|195:129|260:139,1,83.9999974365235,12|0,3:0|0:0,0:0:0:0:
403,218,124527,2,0,P|361:225|320:223,1,83.9999974365235,0|0,0:0|0:0,0:0:0:0:
233,131,124955,1,0,0:0:0:0:
227,97,125062,1,0,0:0:0:0:
233,63,125170,1,0,0:0:0:0:
249,33,125277,1,0,0:0:0:0:
274,10,125384,1,0,0:0:0:0:
345,100,125598,6,0,B|401:84|401:84|457:100|457:100|506:85,2,167.999994873047,0|0|0,3:0|0:0|0:0,0:0:0:0:
233,131,126670,1,0,0:0:0:0:
411,192,126884,1,0,0:0:0:0:
411,192,126991,1,0,0:0:0:0:
411,192,127098,1,0,0:0:0:0:
280,64,127312,6,0,B|236:52|236:52|156:64,1,125.999996154785,0|0,3:0|0:0,0:0:0:0:
55,80,127741,2,0,P|63:143|59:206,1,125.999996154785
39,306,128170,1,0,0:0:0:0:
153,221,128384,1,0,0:0:0:0:
185,202,128491,1,0,0:0:0:0:
220,190,128598,1,0,0:0:0:0:
257,190,128705,1,0,0:0:0:0:
292,201,128812,1,0,0:0:0:0:
387,288,129027,1,8,3:0:0:0:
235,315,129241,5,8,3:0:0:0:
329,130,129455,1,0,0:0:0:0:
387,288,129670,1,0,0:0:0:0:
153,221,129884,1,0,0:0:0:0:
428,299,130098,2,0,L|414:259,1,41.9999987182618,0|0,3:0|3:0,3:0:0:0:
374,117,130312,2,0,L|360:156,1,41.9999987182618,0|0,3:0|3:0,3:0:0:0:
309,267,130527,1,2,3:0:0:0:
245,107,130741,1,8,3:0:0:0:
245,107,130848,1,0,3:0:0:0:
244,107,130955,6,0,P|203:113|161:111,1,83.9999974365235,4|0,3:0|0:0,0:0:0:0:
0,213,131384,2,0,P|40:206|82:209,1,83.9999974365235,0|0,0:0|0:0,0:0:0:0:
205,233,131812,1,0,0:0:0:0:
199,270,131920,1,0,0:0:0:0:
208,306,132027,1,0,0:0:0:0:
226,339,132134,1,0,0:0:0:0:
257,359,132241,1,0,0:0:0:0:
434,305,132455,1,8,3:0:0:0:
434,305,132670,6,0,B|450:265|434:225|434:225|418:185|432:140,1,167.999994873047,8|0,3:0|0:0,0:0:0:0:
485,26,133312,1,0,0:0:0:0:
340,97,133527,2,0,P|301:113|259:112,1,83.9999974365235
161,77,133848,1,0,0:0:0:0:
140,63,133955,1,0,0:0:0:0:
282,14,134170,1,8,3:0:0:0:
303,213,134384,6,0,P|240:215|179:200,1,125.999996154785
180,201,134812,1,0,0:0:0:0:
339,96,135027,2,0,P|384:120|409:153,1,83.9999974365235
419,176,135348,1,0,0:0:0:0:
425,208,135455,1,0,0:0:0:0:
422,241,135562,1,0,0:0:0:0:
410,272,135670,1,0,0:0:0:0:
323,359,135884,1,8,3:0:0:0:
180,201,136098,5,8,3:0:0:0:
180,201,136312,1,0,0:0:0:0:
323,359,136527,1,0,0:0:0:0:
408,140,136741,1,2,0:0:0:0:
322,329,136955,1,0,0:0:0:0:
180,201,137170,1,8,3:0:0:0:
419,285,137384,1,4,0:0:0:0:
230,326,137598,1,0,0:0:0:0:
230,326,137705,1,0,0:0:0:0:
230,326,137812,6,0,B|184:333|184:333|104:326,1,125.999996154785,0|0,3:0|0:0,0:0:0:0:
0,314,138241,1,0,3:0:0:0:
180,201,138455,2,0,P|242:192|301:214,1,125.999996154785,2|0,0:0|0:0,0:0:0:0:
368,298,138884,1,0,0:0:0:0:
468,118,139098,2,0,P|426:116|384:118,1,83.9999974365235,4|0,3:0|0:0,0:0:0:0:
300,213,139527,5,0,0:0:0:0:
384,118,139741,1,0,0:0:0:0:
181,118,139955,1,8,3:0:0:0:
181,118,140062,1,0,3:0:0:0:
181,118,140170,2,0,P|183:159|181:201,1,83.9999974365235,10|0,3:0|0:0,0:0:0:0:
163,305,140491,1,0,0:0:0:0:
156,329,140598,2,0,L|114:322,1,41.9999987182618,0|0,0:0|0:0,0:0:0:0:
11,306,140812,1,0,0:0:0:0:
0,267,140920,1,0,0:0:0:0:
5,228,141027,1,0,0:0:0:0:
26,195,141134,1,0,0:0:0:0:
61,177,141241,6,0,P|118:202|181:200,1,125.999996154785,8|0,3:0|0:0,0:0:0:0:
281,168,141670,1,8,3:0:0:0:
156,329,141884,2,0,P|213:304|276:306,1,125.999996154785,0|0,3:0|0:0,0:0:0:0:
376,338,142312,1,0,0:0:0:0:
434,150,142527,1,0,0:0:0:0:
275,305,142741,1,4,3:0:0:0:
275,305,142848,1,0,0:0:0:0:
275,305,142955,5,0,0:0:0:0:
281,168,143170,1,0,0:0:0:0:
450,255,143384,1,4,0:0:0:0:
156,329,143598,2,0,P|150:287|154:245,1,83.9999974365235,2|0,0:0|0:0,0:0:0:0:
167,104,144027,1,8,3:0:0:0:
189,74,144134,1,0,0:0:0:0:
219,51,144241,1,8,3:0:0:0:
255,39,144348,1,0,0:0:0:0:
292,36,144455,1,8,3:0:0:0:
326,50,144562,1,0,0:0:0:0:
355,74,144670,6,0,P|295:90|205:72,1,125.999996154785,8|0,3:0|0:0,0:0:0:0:
153,13,145098,1,0,0:0:0:0:
76,141,145312,2,0,P|64:202|77:264,1,125.999996154785,2|0,0:0|0:0,0:0:0:0:
156,329,145741,1,0,0:0:0:0:
207,162,145955,2,0,L|232:82,2,83.9999974365235,2|0|2,0:0|0:0|0:0,0:0:0:0:
156,329,146598,5,4,0:0:0:0:
425,215,146812,1,4,0:0:0:0:
206,161,147027,2,0,P|269:170|331:161,1,125.999996154785,2|0,0:0|0:0,0:0:0:0:
419,104,147455,1,0,0:0:0:0:
272,14,147670,2,0,L|266:56,1,41.9999987182618,0|0,0:0|0:0,0:0:0:0:
213,203,147884,2,0,L|206:161,1,41.9999987182618,0|0,0:0|0:0,0:0:0:0:
184,26,148098,5,0,0:0:0:0:
213,203,148312,1,0,0:0:0:0:
333,92,148527,1,0,0:0:0:0:
88,175,148741,1,2,3:0:0:0:
325,223,148955,1,2,3:0:0:0:
272,14,149170,1,2,3:0:0:0:
184,280,149384,1,2,3:0:0:0:
452,167,149598,6,0,P|527:188|452:209,1,210.000008010865,6|0,2:0|0:0,0:0:0:0:
452,167,150670,6,0,P|446:139|441:120,1,41.9999987182618
316,145,150884,6,0,P|336:154|352:167,1,41.9999987182618,0|0,0:0|0:0,0:0:0:0:
286,243,151098,6,0,P|261:246|234:261,1,48.9999985046387,0|0,0:0|0:0,0:0:0:0:
270,383,151312,6,0,P|279:359|295:338,1,52.5000020027161,0|0,0:0|0:0,0:0:0:0:
487,305,151527,5,8,0:0:0:0:
293,250,151741,1,0,0:0:0:0:
293,250,151848,1,0,0:0:0:0:
293,250,151955,1,2,3:0:0:0:
433,83,152170,1,0,0:0:0:0:
416,116,152277,1,0,0:0:0:0:
387,138,152384,1,0,0:0:0:0:
352,148,152491,1,0,0:0:0:0:
316,145,152598,1,0,3:0:0:0:
176,84,152812,1,2,3:0:0:0:
406,238,153027,6,0,L|391:358,1,105.000004005432,0|0,0:0|3:0,0:0:0:0:
189,188,153455,2,0,L|175:83,1,105.000004005432,0|2,0:0|3:0,0:0:0:0:
340,47,153884,1,0,0:0:0:0:
283,260,154098,1,0,0:0:0:0:
283,260,154205,1,0,0:0:0:0:
283,260,154312,1,0,3:0:0:0:
175,83,154527,2,0,L|226:72,1,52.5000020027161,2|0,3:0|0:0,0:0:0:0:
367,133,154741,2,0,L|316:144,1,52.5000020027161,0|0,3:0|0:0,0:0:0:0:
108,180,154955,6,0,P|64:117|66:39,1,157.500006008148,4|0,3:0|0:0,0:0:0:0:
175,6,155384,1,2,3:0:0:0:
367,133,155598,2,0,B|316:144|263:133,1,105.000004005432
33,252,156027,2,0,B|84:241|137:252,1,105.000004005432,0|2,3:0|3:0,0:0:0:0:
411,370,156455,6,0,B|358:359|307:370,1,105.000004005432,0|0,0:0|3:0,0:0:0:0:
137,252,156884,2,0,B|190:263|241:252,1,105.000004005432,0|2,0:0|3:0,0:0:0:0:
421,216,157312,1,0,0:0:0:0:
443,253,157420,1,0,0:0:0:0:
447,295,157527,1,0,0:0:0:0:
434,335,157634,1,0,0:0:0:0:
411,370,157741,1,0,3:0:0:0:
241,251,157955,1,0,3:0:0:0:
219,214,158062,1,0,0:0:0:0:
215,172,158170,1,0,0:0:0:0:
228,132,158277,1,0,0:0:0:0:
251,97,158384,6,0,B|309:86|309:86|358:92|412:97,1,157.500006008148,12|0,3:0|0:0,0:0:0:0:
512,106,158812,1,2,3:0:0:0:
260,7,159027,1,0,0:0:0:0:
218,13,159134,1,0,0:0:0:0:
184,38,159241,1,0,0:0:0:0:
166,76,159348,1,0,0:0:0:0:
165,117,159455,1,2,0:0:0:0:
325,183,159670,1,2,3:0:0:0:
76,79,159884,1,0,0:0:0:0:
230,293,160098,5,0,3:0:0:0:
272,287,160205,1,0,0:0:0:0:
306,261,160312,1,0,0:0:0:0:
324,224,160420,1,0,0:0:0:0:
325,183,160527,1,2,3:0:0:0:
257,11,160741,2,0,B|209:3|209:3|154:29|154:29|106:20,1,157.500006008148,0|0,0:0|0:0,0:0:0:0:
2,4,161170,1,0,3:0:0:0:
231,153,161384,2,0,L|222:102,1,52.5000020027161,2|0,3:0|0:0,0:0:0:0:
106,20,161598,2,0,L|96:71,1,52.5000020027161,0|0,3:0|0:0,0:0:0:0:
66,247,161812,6,0,P|118:242|170:247,1,105.000004005432,12|0,3:0|0:0,0:0:0:0:
285,271,162134,1,0,0:0:0:0:
310,278,162241,1,2,3:0:0:0:
445,136,162455,2,0,P|393:141|341:136,1,105.000004005432,0|0,0:0|0:0,0:0:0:0:
221,101,162777,1,0,0:0:0:0:
195,94,162884,2,0,P|142:89|90:94,1,105.000004005432,0|0,3:0|0:0,0:0:0:0:
258,341,163312,6,0,P|333:357|388:305,1,157.500006008148,4|0,0:0|0:0,0:0:0:0:
388,196,163741,1,0,3:0:0:0:
258,341,163955,1,6,3:0:0:0:
221,101,164170,1,0,0:0:0:0:
255,76,164277,1,0,0:0:0:0:
295,66,164384,2,0,P|321:66|360:74,1,52.5000020027161
388,196,164598,2,0,P|362:196|323:188,1,52.5000020027161,0|0,3:0|0:0,0:0:0:0:
205,140,164812,2,0,P|231:140|270:148,1,52.5000020027161,0|0,3:0|0:0,0:0:0:0:
298,270,165027,2,0,P|272:270|233:262,1,52.5000020027161,0|0,3:0|0:0,0:0:0:0:
92,207,165241,6,0,P|73:132|100:59,1,157.500006008148,12|0,0:0|0:0,0:0:0:0:
193,7,165670,1,2,3:0:0:0:
92,207,165884,1,0,0:0:0:0:
284,323,166098,2,0,B|239:315|239:315|178:331|178:331|130:323,1,157.500006008148,0|0,0:0|0:0,0:0:0:0:
11,297,166527,1,2,3:0:0:0:
205,140,166741,1,0,0:0:0:0:
205,140,166848,1,0,0:0:0:0:
205,140,166955,5,0,3:0:0:0:
129,322,167170,1,0,0:0:0:0:
99,59,167384,1,2,3:0:0:0:
311,223,167598,1,0,0:0:0:0:
92,207,167812,1,0,0:0:0:0:
276,91,168027,1,0,3:0:0:0:
317,88,168134,1,0,0:0:0:0:
357,97,168241,1,2,3:0:0:0:
393,117,168348,1,0,0:0:0:0:
421,147,168455,1,0,3:0:0:0:
174,286,168670,6,0,P|164:207|174:129,1,157.500006008148,12|0,3:0|0:0,0:0:0:0:
207,19,169098,1,2,3:0:0:0:
311,223,169312,2,0,B|347:227|347:227|383:219|383:219|415:223,1,105.000004005432,0|0,0:0|0:0,0:0:0:0:
174,286,169741,2,0,B|138:282|138:282|102:290|102:290|70:286,1,105.000004005432,0|2,3:0|3:0,0:0:0:0:
310,68,170170,6,0,B|318:113|318:113|302:174|302:174|310:222,1,157.500006008148,0|0,0:0|0:0,0:0:0:0:
333,335,170598,1,0,0:0:0:0:
174,286,170812,1,2,3:0:0:0:
403,183,171027,1,0,0:0:0:0:
439,202,171134,1,0,0:0:0:0:
460,237,171241,1,0,0:0:0:0:
465,278,171348,1,0,0:0:0:0:
448,316,171455,1,0,0:0:0:0:
256,344,171670,2,0,P|248:318|248:292,1,52.5000020027161,2|0,3:0|0:0,0:0:0:0:
302,170,171884,2,0,P|309:195|310:222,1,52.5000020027161,0|0,3:0|0:0,0:0:0:0:
173,286,172098,6,0,P|97:289|40:237,1,157.500006008148,4|0,3:0|0:0,0:0:0:0:
55,122,172527,1,2,3:0:0:0:
173,286,172741,1,0,0:0:0:0:
152,47,172955,2,0,B|196:39|196:39|250:55|312:46,1,157.500006008148,0|0,0:0|0:0,0:0:0:0:
423,35,173384,1,2,3:0:0:0:
201,147,173598,1,0,0:0:0:0:
201,147,173705,1,0,0:0:0:0:
201,147,173812,5,0,3:0:0:0:
403,183,174027,1,0,0:0:0:0:
307,46,174241,1,2,3:0:0:0:
244,225,174455,1,0,0:0:0:0:
469,106,174670,1,2,0:0:0:0:
494,140,174777,1,0,0:0:0:0:
506,181,174884,1,0,3:0:0:0:
498,223,174991,1,0,0:0:0:0:
477,260,175098,2,0,L|426:272,1,52.5000020027161,2|0,3:0|0:0,0:0:0:0:
244,225,175312,2,0,L|294:212,1,52.5000020027161,0|0,3:0|0:0,0:0:0:0:
469,106,175527,6,0,B|421:98|421:98|360:114|360:114|315:106,1,157.500006008148,4|0,3:0|0:0,0:0:0:0:
203,79,175955,1,2,3:0:0:0:
336,291,176170,1,0,0:0:0:0:
336,291,176277,1,0,0:0:0:0:
336,291,176384,1,0,0:0:0:0:
203,79,176598,1,0,3:0:0:0:
175,347,176812,1,0,0:0:0:0:
314,104,177027,6,0,P|274:22|202:78,1,210.000008010865,6|0,3:0|3:0,0:0:0:0:
175,347,177670,1,6,0:0:0:0:
403,183,177884,1,0,0:0:0:0:
403,183,177991,1,0,0:0:0:0:
403,183,178098,1,0,0:0:0:0:
202,78,178312,1,0,0:0:0:0:
336,291,178527,1,0,0:0:0:0:
409,48,178741,1,0,0:0:0:0:
409,48,178955,6,0,L|505:33,2,70
311,63,179598,1,0,0:0:0:0:
228,79,180027,1,0,0:0:0:0:
145,95,180455,1,0,0:0:0:0:
311,63,180884,1,0,0:0:0:0:
256,223,181312,1,0,0:0:0:0:
311,63,182384,5,0,0:0:0:0:
256,223,183027,5,0,0:0:0:0:
339,239,183455,1,0,0:0:0:0:
422,255,183884,1,0,0:0:0:0:
256,223,184312,1,0,0:0:0:0:
224,57,184741,1,0,0:0:0:0:
382,113,185170,1,0,0:0:0:0:
256,223,185598,1,0,0:0:0:0:
256,223,185705,1,0,0:0:0:0:
256,223,185812,1,2,0:0:0:0:
224,57,186455,5,0,0:0:0:0:
142,151,186670,1,0,0:0:0:0:
224,57,186884,1,0,0:0:0:0:
256,223,187098,1,0,0:0:0:0:
325,90,187312,2,0,P|368:99|407:106,1,83.9999974365235
460,258,187741,2,0,P|418:265|377:274,1,83.9999974365235
256,296,188170,2,0,P|194:183|323:191,1,314.999990386963
256,223,189884,5,0,0:0:0:0:
363,288,190098,1,0,0:0:0:0:
256,223,190312,1,0,0:0:0:0:
346,80,190527,1,0,0:0:0:0:
408,189,190741,2,0,P|450:183|497:187,1,83.9999974365235,0|0,0:0|0:0,0:0:0:0:
363,288,191170,2,0,P|321:293|274:290,1,83.9999974365235,0|0,0:0|0:0,0:0:0:0:
154,271,191598,2,0,P|161:209|154:147,1,125.999996154785,0|0,0:0|0:0,0:0:0:0:
139,51,192027,2,0,P|186:13|241:37,1,125.999996154785,0|0,0:0|0:0,0:0:0:0:
288,133,192455,5,0,0:0:0:0:
288,133,192562,1,0,0:0:0:0:
288,133,192670,2,0,B|356:113|356:113|472:133,1,189.000000720978,4|2,3:0|0:0,0:0:0:0:
512,269,193312,1,0,0:0:0:0:
358,215,193527,1,2,0:0:0:0:
324,205,193634,1,0,0:0:0:0:
288,201,193741,1,0,0:0:0:0:
250,205,193848,1,0,0:0:0:0:
216,215,193955,1,0,0:0:0:0:
162,361,194170,1,0,3:0:0:0:
48,193,194384,6,0,P|87:110|176:94,1,189.000000720978,4|0,3:0|0:0,0:0:0:0:
147,283,195027,2,0,P|141:236|147:189,1,94.5000003604889,2|0,0:0|0:0,0:0:0:0:
285,76,195455,1,0,0:0:0:0:
285,76,195562,1,0,0:0:0:0:
285,76,195670,1,0,0:0:0:0:
147,283,195884,1,0,3:0:0:0:
314,248,196098,6,0,P|399:230|526:258,1,189.000000720978,0|2,3:0|0:0,0:0:0:0:
407,364,196741,1,0,0:0:0:0:
264,381,196955,1,2,0:0:0:0:
236,384,197062,1,0,0:0:0:0:
207,381,197170,1,0,0:0:0:0:
179,375,197277,1,0,0:0:0:0:
152,365,197384,1,0,0:0:0:0:
314,248,197598,1,0,3:0:0:0:
60,297,197812,6,0,B|52:241|52:241|76:161|76:161|68:113,1,189.000000720978,0|0,3:0|0:0,0:0:0:0:
136,251,198455,1,0,0:0:0:0:
255,286,198670,1,2,0:0:0:0:
288,273,198777,1,0,0:0:0:0:
314,248,198884,1,0,0:0:0:0:
333,218,198991,1,0,0:0:0:0:
341,184,199098,1,0,0:0:0:0:
407,364,199312,1,0,3:0:0:0:
223,173,199527,6,0,P|287:73|356:62,1,189.000000720978,4|0,3:0|0:0,0:0:0:0:
454,171,200170,1,0,0:0:0:0:
361,289,200384,1,2,0:0:0:0:
335,301,200491,1,0,0:0:0:0:
307,304,200598,1,0,0:0:0:0:
279,299,200705,1,0,0:0:0:0:
255,286,200812,1,0,0:0:0:0:
339,148,201027,1,0,3:0:0:0:
255,286,201241,6,0,P|186:268|118:286,1,141.750000540733,0|0,3:0|0:0,0:0:0:0:
28,363,201670,1,2,0:0:0:0:
134,165,201884,2,0,P|137:117|133:70,1,94.5000003604889,0|2,0:0|0:0,0:0:0:0:
126,292,202312,1,0,0:0:0:0:
126,292,202420,1,0,0:0:0:0:
126,292,202527,1,0,0:0:0:0:
38,123,202741,1,0,3:0:0:0:
237,204,202955,6,0,B|290:222|290:222|349:191|419:204,1,189.000000720978,0|2,3:0|0:0,0:0:0:0:
286,115,203598,1,0,0:0:0:0:
134,165,203812,1,2,0:0:0:0:
121,189,203920,1,0,0:0:0:0:
116,217,204027,1,0,0:0:0:0:
119,245,204134,1,0,0:0:0:0:
131,271,204241,1,0,0:0:0:0:
237,370,204455,1,0,3:0:0:0:
286,115,204670,6,0,P|364:82|343:165,1,210.000008010865,0|0,3:0|0:0,0:0:0:0:
134,165,205312,1,6,3:0:0:0:
134,165,205741,1,0,3:0:0:0:
333,119,205955,1,2,3:0:0:0:
237,370,206170,1,0,0:0:0:0:
237,370,206277,1,0,0:0:0:0:
237,370,206384,5,0,3:0:0:0:
211,251,206598,1,0,0:0:0:0:
207,226,206705,1,0,3:0:0:0:
328,144,206920,1,0,3:0:0:0:
333,119,207027,2,0,B|286:109|286:109|205:119,1,125.999996154785,2|0,3:0|0:0,0:0:0:0:
106,139,207455,1,0,3:0:0:0:
106,139,207884,1,4,3:0:0:0:
355,29,208098,5,0,0:0:0:0:
384,45,208205,1,0,0:0:0:0:
407,68,208312,1,0,3:0:0:0:
421,98,208420,1,0,0:0:0:0:
422,131,208527,1,0,3:0:0:0:
412,163,208634,1,0,0:0:0:0:
390,188,208741,2,0,P|369:240|397:314,1,125.999996154785,6|0,3:0|0:0,0:0:0:0:
489,338,209170,1,0,3:0:0:0:
324,379,209384,1,0,0:0:0:0:
299,384,209491,1,2,0:0:0:0:
86,305,209705,1,0,0:0:0:0:
111,301,209812,5,4,3:0:0:0:
142,161,210027,1,0,0:0:0:0:
167,165,210134,1,0,3:0:0:0:
266,302,210348,1,0,3:0:0:0:
241,306,210455,2,0,P|229:244|240:182,1,125.999996154785,2|0,3:0|0:0,0:0:0:0:
279,84,210884,1,0,3:0:0:0:
279,84,211312,1,4,3:0:0:0:
173,363,211527,5,0,0:0:0:0:
158,333,211634,1,0,0:0:0:0:
152,301,211741,1,0,3:0:0:0:
160,269,211848,1,0,0:0:0:0:
179,241,211955,1,0,3:0:0:0:
207,223,212062,1,0,0:0:0:0:
239,216,212170,2,0,P|302:207|364:215,1,125.999996154785,2|0,3:0|0:0,0:0:0:0:
471,242,212598,1,0,3:0:0:0:
173,363,212812,1,2,3:0:0:0:
142,155,213027,1,0,3:0:0:0:
353,273,213241,6,0,P|302:309|240:305,1,125.999996154785,4|0,3:0|0:0,0:0:0:0:
139,277,213670,1,2,3:0:0:0:
277,208,213884,1,0,0:0:0:0:
299,196,213991,1,2,0:0:0:0:
353,273,214205,1,0,0:0:0:0:
343,296,214312,1,0,0:0:0:0:
411,142,214527,1,2,3:0:0:0:
477,316,214741,2,0,L|478:275,1,41.9999987182618,0|0,3:0|0:0,0:0:0:0:
477,202,214955,5,0,3:0:0:0:
477,177,215062,1,2,0:0:0:0:
345,108,215277,1,0,3:0:0:0:
345,83,215384,1,2,3:0:0:0:
277,207,215598,2,0,P|217:225|154:219,1,125.999996154785,0|2,0:0|3:0,0:0:0:0:
54,187,216027,1,0,0:0:0:0:
201,87,216241,2,0,L|242:82,1,41.9999987182618,2|0,3:0|0:0,0:0:0:0:
391,192,216455,2,0,L|349:187,1,41.9999987182618,0|0,3:0|0:0,0:0:0:0:
372,50,216670,6,0,P|412:42|454:50,1,83.9999974365235,0|0,3:0|0:0,0:0:0:0:
484,64,216991,1,0,0:0:0:0:
505,90,217098,1,2,3:0:0:0:
391,192,217312,2,0,L|412:192,4,20.9999993591309
201,87,217741,1,0,0:0:0:0:
479,156,217955,1,0,0:0:0:0:
146,199,218170,2,0,P|114:257|179:256,1,157.500006008148,4|0,0:0|0:0,0:0:0:0:
185,217,218598,5,0,0:0:0:0:
146,235,219241,5,0,0:0:0:0:
254,280,219455,1,0,0:0:0:0:
308,175,219670,1,0,0:0:0:0:
174,311,219884,1,0,0:0:0:0:
302,348,220098,6,0,P|371:353|441:347,1,140
458,243,220741,1,0,0:0:0:0:
435,140,220955,2,0,L|529:114,2,70,0|0|0,0:0|0:0|0:0,0:0:0:0:
308,175,221598,6,0,P|255:181|203:175,1,105,0|0,0:0|0:0,0:0:0:0:
203,175,222027,2,0,P|209:122|203:70,1,105,0|0,0:0|0:0,0:0:0:0:
196,37,222455,1,0,0:0:0:0:
103,162,222670,1,0,0:0:0:0:
287,103,222884,1,0,0:0:0:0:
202,254,223098,1,0,0:0:0:0:
112,76,223312,1,0,0:0:0:0:
308,175,223527,6,0,P|360:168|412:174,1,105,0|0,0:0|0:0,0:0:0:0:
446,183,223955,1,0,0:0:0:0:
359,272,224170,2,0,P|324:277|289:276,1,70,0|0,0:0|0:0,0:0:0:0:
120,316,224598,2,0,P|155:322|190:320,1,70,0|0,0:0|0:0,0:0:0:0:
158,236,224920,1,0,0:0:0:0:
153,212,225027,6,0,P|149:159|153:107,1,105
159,73,225455,1,0,0:0:0:0:
262,50,225670,1,0,0:0:0:0:
341,119,225884,1,0,0:0:0:0:
288,275,226098,2,0,P|284:241|284:206,1,70,0|0,0:0|0:0,0:0:0:0:
410,114,226527,2,0,P|375:118|340:118,1,70,0|0,0:0|0:0,0:0:0:0:
262,50,226955,6,0,B|224:43|224:43|158:50,1,105
123,57,227384,1,0,0:0:0:0:
145,200,227598,2,0,B|183:193|183:193|248:200,1,105,0|0,0:0|0:0,0:0:0:0:
284,206,228027,1,0,0:0:0:0:
430,233,228241,1,0,0:0:0:0:
430,233,228455,6,0,P|432:180|430:128,1,105,0|0,0:0|0:0,0:0:0:0:
429,93,228884,1,0,0:0:0:0:
221,121,229312,2,0,B|189:125|189:125|149:117|149:117|117:121,1,105,0|0,0:0|0:0,0:0:0:0:
82,126,229741,1,0,0:0:0:0:
192,38,229955,1,0,0:0:0:0:
148,228,230170,1,0,0:0:0:0:
148,228,230384,6,0,B|185:239|213:228|213:228|249:215|285:227,1,140,0|0,0:0|0:0,0:0:0:0:
384,265,231027,1,0,0:0:0:0:
384,97,231455,2,0,L|477:83,2,70,0|0|0,0:0|0:0|0:0,0:0:0:0:
256,115,232955,5,0,0:0:0:0:
256,115,233170,1,2,0:0:0:0:
370,296,233384,1,2,0:0:0:0:
217,251,233598,1,2,0:0:0:0:
420,114,233812,6,0,B|372:106|372:106|300:122|300:122|252:114,1,167.999994873047,12|0,3:0|0:0,0:0:0:0:
49,70,234455,1,0,3:0:0:0:
166,217,234670,2,0,L|251:208,1,83.9999974365235,2|0,3:0|0:0,0:0:0:0:
296,38,235098,1,0,0:0:0:0:
296,38,235205,1,0,0:0:0:0:
296,38,235312,6,0,B|355:51|355:51|420:40,1,125.999996154785,0|0,3:0|0:0,0:0:0:0:
503,106,235741,2,0,L|414:121,1,83.9999974365235,0|0,3:0|0:0,0:0:0:0:
249,205,236170,1,0,3:0:0:0:
76,108,236384,1,2,3:0:0:0:
176,290,236598,1,0,0:0:0:0:
276,108,236812,1,2,0:0:0:0:
176,315,237027,1,0,3:0:0:0:
152,106,237241,6,0,B|217:95|217:95|276:108,1,125.999996154785,4|0,3:0|0:0,0:0:0:0:
379,133,237670,1,0,0:0:0:0:
96,214,237884,1,0,3:0:0:0:
96,214,237991,1,0,0:0:0:0:
96,214,238098,1,2,3:0:0:0:
237,319,238312,2,0,P|232:278|238:237,1,83.9999974365235,0|0,0:0|0:0,0:0:0:0:
275,107,238741,6,0,L|193:92,1,83.9999974365235,0|0,3:0|0:0,0:0:0:0:
429,186,239170,2,0,L|512:171,1,83.9999974365235,0|0,3:0|0:0,0:0:0:0:
312,212,239598,1,0,3:0:0:0:
312,212,239705,1,0,0:0:0:0:
312,212,239812,1,2,3:0:0:0:
275,107,240027,1,0,0:0:0:0:
429,186,240241,1,6,0:0:0:0:
237,319,240455,1,0,3:0:0:0:
110,99,240670,6,0,B|154:87|194:103|194:103|234:119|274:107,1,167.999994873047,12|0,3:0|0:0,0:0:0:0:
393,62,241312,1,0,0:0:0:0:
151,200,241527,1,0,0:0:0:0:
151,200,241741,1,0,0:0:0:0:
239,8,241955,1,0,0:0:0:0:
429,186,242170,1,0,0:0:0:0:
274,106,242384,5,0,0:0:0:0:
274,106,242598,1,0,0:0:0:0:
183,293,242812,1,0,0:0:0:0:
183,293,243027,1,0,0:0:0:0:
7,257,243241,1,2,3:0:0:0:
274,106,243455,1,2,3:0:0:0:
140,384,243670,1,2,3:0:0:0:
187,47,243884,6,0,P|255:3|335:22,1,167.999994873047,12|0,3:0|0:0,0:0:0:0:
414,93,244420,1,0,0:0:0:0:
429,108,244527,1,2,3:0:0:0:
185,298,244741,1,8,3:0:0:0:
185,298,244848,1,0,0:0:0:0:
185,298,244955,1,2,3:0:0:0:
274,106,245170,1,0,3:0:0:0:
347,360,245384,1,0,0:0:0:0:
274,106,245598,6,0,P|216:74|217:139,1,157.500006008148,4|0,0:0|0:0,0:0:0:0:
256,145,246027,1,0,3:0:0:0:
429,108,246241,1,0,3:0:0:0:
203,11,246455,5,0,0:0:0:0:
167,33,246562,1,0,0:0:0:0:
143,68,246670,1,0,0:0:0:0:
136,109,246777,1,0,0:0:0:0:
150,157,246884,1,0,0:0:0:0:
184,193,246991,1,0,0:0:0:0:
245,210,247098,1,6,0:0:0:0:
512,87,247312,1,0,0:0:0:0:
236,107,247527,5,8,0:0:0:0:
277,109,247634,1,0,0:0:0:0:
312,130,247741,1,0,0:0:0:0:
338,162,247848,1,0,0:0:0:0:
348,202,247955,1,2,3:0:0:0:
305,355,248170,2,0,B|245:367|245:367|149:356,1,157.500006008148,0|0,0:0|0:0,0:0:0:0:
31,331,248598,1,0,3:0:0:0:
239,279,248812,1,2,3:0:0:0:
32,123,249027,1,0,0:0:0:0:
32,123,249134,1,0,0:0:0:0:
32,123,249241,6,0,P|84:117|136:122,1,105.000004005432,0|0,3:0|0:0,0:0:0:0:
331,157,249670,1,2,3:0:0:0:
149,356,249884,1,0,0:0:0:0:
136,122,250098,2,0,L|188:129,1,52.5000020027161,0|0,0:0|0:0,0:0:0:0:
331,157,250312,2,0,L|279:163,1,52.5000020027161,0|0,3:0|0:0,0:0:0:0:
88,215,250527,2,0,L|140:222,1,52.5000020027161,0|0,3:0|0:0,0:0:0:0:
297,271,250741,2,0,L|245:277,1,52.5000020027161,0|0,3:0|0:0,0:0:0:0:
34,282,250955,6,0,P|0:214|35:146,1,157.500006008148,4|0,3:0|0:0,0:0:0:0:
142,90,251384,1,2,3:0:0:0:
245,278,251598,2,0,P|297:284|349:277,1,105.000004005432,0|0,0:0|0:0,0:0:0:0:
468,249,251920,1,0,0:0:0:0:
493,241,252027,2,0,B|497:205|497:205|489:169|489:169|493:137,1,105.000004005432,0|2,3:0|3:0,0:0:0:0:
289,0,252455,1,0,0:0:0:0:
270,198,252670,5,0,3:0:0:0:
255,237,252777,1,0,0:0:0:0:
228,268,252884,1,0,0:0:0:0:
192,287,252991,1,0,0:0:0:0:
151,291,253098,1,2,3:0:0:0:
204,115,253312,1,0,0:0:0:0:
242,97,253420,1,0,0:0:0:0:
283,94,253527,1,0,0:0:0:0:
322,107,253634,1,0,0:0:0:0:
354,133,253741,2,0,P|379:137|405:133,1,52.5000020027161,0|0,3:0|0:0,0:0:0:0:
405,2,253955,2,0,P|388:22|378:46,1,52.5000020027161,0|0,3:0|0:0,0:0:0:0:
493,111,254170,2,0,P|483:87|467:66,1,52.5000020027161,0|0,3:0|0:0,0:0:0:0:
292,20,254384,6,0,B|238:15|238:15|190:27|190:27|137:23,1,157.500006008148,4|0,3:0|0:0,0:0:0:0:
16,9,254812,1,2,3:0:0:0:
247,121,255027,2,0,P|252:173|247:225,1,105.000004005432
104,384,255455,1,0,3:0:0:0:
104,384,255562,1,0,0:0:0:0:
104,384,255670,1,2,3:0:0:0:
169,174,255884,1,2,0:0:0:0:
256,352,256098,6,0,P|308:349|360:350,1,105.000004005432,0|0,3:0|0:0,0:0:0:0:
482,360,256420,1,0,0:0:0:0:
508,365,256527,1,2,3:0:0:0:
310,90,256741,2,0,B|294:130|310:162|310:162|326:194|310:243,1,157.500006008148,0|0,0:0|0:0,0:0:0:0:
256,352,257170,1,0,3:0:0:0:
386,130,257384,2,0,P|410:128|438:130,1,52.5000020027161,2|0,3:0|0:0,0:0:0:0:
309,243,257598,2,0,P|285:245|256:243,1,52.5000020027161,0|0,3:0|0:0,0:0:0:0:
154,92,257812,6,0,B|207:96|207:96|255:84|255:84|309:89,1,157.500006008148,12|0,3:0|0:0,0:0:0:0:
438,130,258241,1,0,0:0:0:0:
433,318,258455,2,0,P|381:323|329:318,1,105.000004005432
214,295,258777,1,0,0:0:0:0:
188,298,258884,2,0,L|83:308,1,105.000004005432,0|0,3:0|0:0,0:0:0:0:
401,217,259312,6,0,L|505:206,1,105.000004005432,6|0,3:0|0:0,0:0:0:0:
256,153,259741,1,0,3:0:0:0:
256,153,259848,1,0,0:0:0:0:
256,153,259955,1,4,3:0:0:0:
381,324,260170,1,0,0:0:0:0:
381,324,260277,1,0,0:0:0:0:
381,324,260384,2,0,L|450:317,1,52.5000020027161
505,205,260598,2,0,L|436:198,1,52.5000020027161,8|0,3:0|0:0,0:0:0:0:
256,153,260812,2,0,L|325:146,1,52.5000020027161,2|0,3:0|0:0,0:0:0:0:
380,34,261027,2,0,L|311:27,1,52.5000020027161,0|0,3:0|0:0,0:0:0:0:
156,17,261241,6,0,B|144:69|144:69|155:172,1,157.500006008148,12|0,0:0|0:0,0:0:0:0:
174,293,261670,1,2,3:0:0:0:
238,77,261884,1,0,0:0:0:0:
0,249,262098,1,0,0:0:0:0:
0,249,262205,1,0,0:0:0:0:
0,249,262312,1,0,3:0:0:0:
250,312,262527,1,2,3:0:0:0:
145,172,262741,1,0,0:0:0:0:
145,172,262848,1,0,0:0:0:0:
145,171,262955,6,0,P|197:167|249:172,1,105.000004005432,0|0,3:0|0:0,0:0:0:0:
369,192,263277,1,0,0:0:0:0:
394,200,263384,1,2,3:0:0:0:
250,312,263598,1,0,0:0:0:0:
193,90,263812,2,0,L|249:95,1,52.5000020027161,0|0,0:0|0:0,0:0:0:0:
369,192,264027,2,0,L|313:197,1,52.5000020027161,0|0,3:0|0:0,0:0:0:0:
118,210,264241,2,0,L|174:215,1,52.5000020027161,0|0,3:0|0:0,0:0:0:0:
302,307,264455,2,0,L|246:312,1,52.5000020027161,0|0,3:0|0:0,0:0:0:0:
39,341,264670,6,0,P|30:262|39:184,1,157.500006008148,12|0,3:0|0:0,0:0:0:0:
76,69,265098,1,2,3:0:0:0:
379,116,265312,2,0,B|415:120|415:120|451:112|451:112|483:116,1,105.000004005432,0|0,0:0|0:0,0:0:0:0:
249,311,265741,2,0,B|213:315|213:315|177:307|177:307|145:311,1,105.000004005432,0|2,3:0|3:0,0:0:0:0:
38,184,266170,6,0,B|91:188|91:188|139:176|139:176|193:181,1,157.500006008148,0|0,0:0|0:0,0:0:0:0:
315,194,266598,1,0,0:0:0:0:
145,310,266812,1,2,3:0:0:0:
77,79,267027,1,0,0:0:0:0:
116,63,267134,1,0,0:0:0:0:
157,63,267241,1,0,0:0:0:0:
196,75,267348,1,0,0:0:0:0:
226,103,267455,1,0,3:0:0:0:
249,311,267670,1,2,3:0:0:0:
288,327,267777,1,0,0:0:0:0:
329,327,267884,1,0,0:0:0:0:
367,314,267991,1,0,0:0:0:0:
398,287,268098,6,0,P|343:250|233:254,1,157.500006008148,12|0,3:0|0:0,0:0:0:0:
145,310,268527,1,2,3:0:0:0:
398,287,268741,1,0,0:0:0:0:
76,231,268955,2,0,P|61:155|76:78,1,157.500006008148,0|0,0:0|0:0,0:0:0:0:
147,0,269384,1,2,3:0:0:0:
253,246,269598,1,0,0:0:0:0:
76,78,269812,6,0,L|220:99,1,105.000004005432,0|0,3:0|0:0,0:0:0:0:
300,112,270134,1,0,0:0:0:0:
326,117,270241,1,2,3:0:0:0:
145,310,270455,1,0,0:0:0:0:
145,310,270562,1,0,0:0:0:0:
145,310,270670,1,0,0:0:0:0:
179,93,270884,1,0,3:0:0:0:
398,287,271098,1,2,3:0:0:0:
110,138,271312,6,0,P|113:40|208:15,1,210.000008010865,0|0,0:0|0:0,0:0:0:0:
324,54,271848,1,0,0:0:0:0:
348,64,271955,1,2,3:0:0:0:
257,311,272170,1,0,0:0:0:0:
257,311,272277,1,0,0:0:0:0:
257,311,272384,1,0,0:0:0:0:
179,93,272598,1,0,3:0:0:0:
489,192,272812,1,2,0:0:0:0:
105,269,273027,6,0,P|52:308|136:309,1,210.000008010865,4|0,0:0|0:0,0:0:0:0:
179,93,273670,1,2,3:0:0:0:
101,317,273884,1,0,0:0:0:0:
101,317,273991,1,0,0:0:0:0:
101,317,274098,1,0,0:0:0:0:
348,64,274312,1,0,3:0:0:0:
257,311,274527,1,2,0:0:0:0:
160,19,274741,1,0,0:0:0:0:
160,19,274848,1,0,0:0:0:0:
160,19,274955,6,0,B|211:7|211:7|327:19,1,157.500006008148,8|0,3:0|0:0,0:0:0:0:
436,35,275384,1,2,3:0:0:0:
479,188,275598,2,0,L|374:198,1,105.000004005432,0|0,0:0|0:0,0:0:0:0:
253,208,275920,1,0,0:0:0:0:
227,211,276027,1,0,3:0:0:0:
315,17,276241,1,2,3:0:0:0:
374,197,276455,1,0,0:0:0:0:
132,174,276670,5,0,3:0:0:0:
154,138,276777,1,0,0:0:0:0:
189,115,276884,1,0,0:0:0:0:
229,105,276991,1,0,0:0:0:0:
269,114,277098,1,2,3:0:0:0:
373,197,277312,2,0,P|386:275|373:352,1,157.500006008148
272,384,277741,1,0,3:0:0:0:
346,116,277955,2,0,P|372:111|398:115,1,52.5000020027161,2|0,3:0|0:0,0:0:0:0:
512,205,278170,2,0,P|486:209|460:205,1,52.5000020027161,0|0,3:0|0:0,0:0:0:0:
270,185,278384,6,0,P|243:112|274:42,1,157.500006008148,4|0,3:0|0:0,0:0:0:0:
374,11,278812,1,2,3:0:0:0:
270,185,279027,1,0,0:0:0:0:
231,202,279134,1,0,0:0:0:0:
189,204,279241,1,0,0:0:0:0:
148,193,279348,1,0,0:0:0:0:
114,168,279455,2,0,P|88:161|62:163,1,52.5000020027161,0|0,3:0|0:0,0:0:0:0:
92,282,279670,2,0,P|98:308|113:329,1,52.5000020027161,2|0,3:0|0:0,0:0:0:0:
201,245,279884,2,0,P|218:225|230:202,1,52.5000020027161
148,73,280098,6,0,P|228:64|313:73,1,157.500006008148,0|0,3:0|0:0,0:0:0:0:
409,91,280527,1,2,3:0:0:0:
189,204,280741,1,0,0:0:0:0:
171,241,280848,1,0,0:0:0:0:
167,282,280955,1,0,0:0:0:0:
179,322,281062,1,0,0:0:0:0:
206,353,281170,1,0,3:0:0:0:
452,349,281384,2,0,L|400:340,1,52.5000020027161,2|0,3:0|0:0,0:0:0:0:
268,271,281598,2,0,L|319:262,1,52.5000020027161,0|0,3:0|0:0,0:0:0:0:
472,237,281812,6,0,B|477:183|477:183|465:135|465:135|469:82,1,157.500006008148,12|0,3:0|0:0,0:0:0:0:
401,0,282241,1,2,3:0:0:0:
338,194,282455,1,0,0:0:0:0:
305,220,282562,1,0,0:0:0:0:
264,230,282670,1,0,0:0:0:0:
223,227,282777,1,0,0:0:0:0:
189,204,282884,1,0,3:0:0:0:
193,19,283098,1,2,3:0:0:0:
76,255,283312,1,0,0:0:0:0:
0,105,283527,6,0,P|77:92|156:104,1,157.500006008148,0|0,3:0|0:0,0:0:0:0:
258,127,283955,1,2,3:0:0:0:
167,331,284170,1,0,0:0:0:0:
167,331,284277,1,0,0:0:0:0:
167,331,284384,1,0,0:0:0:0:
154,103,284598,1,0,3:0:0:0:
304,325,284812,2,0,L|236:318,1,52.5000020027161,2|0,3:0|0:0,0:0:0:0:
76,255,285027,2,0,L|128:249,1,52.5000020027161,0|0,3:0|0:0,0:0:0:0:
363,218,285241,5,4,0:0:0:0:
158,99,285455,2,0,L|210:104,1,52.5000020027161,2|0,3:0|0:0,0:0:0:0:
352,118,285670,1,2,3:0:0:0:
276,300,285884,1,0,3:0:0:0:
304,325,285991,1,0,0:0:0:0:
338,341,286098,1,0,0:0:0:0:
375,345,286205,1,0,0:0:0:0:
411,337,286312,2,0,B|403:272|403:272|410:180,1,157.500006008148,8|0,3:0|0:0,0:0:0:0:
423,74,286741,1,2,3:0:0:0:
423,74,287170,5,0,3:0:0:0:
256,192,287384,1,6,3:0:0:0:
175,32,287598,1,0,0:0:0:0:
206,12,287705,1,0,0:0:0:0:
241,0,287812,1,0,0:0:0:0:
278,4,287920,1,0,0:0:0:0:
313,18,288027,2,0,L|365:13,1,52.5000020027161,0|0,3:0|0:0,0:0:0:0:
409,180,288241,2,0,L|336:186,1,52.5000020027161,0|0,3:0|0:0,0:0:0:0:
446,95,288455,2,0,L|519:101,1,52.5000020027161,0|0,3:0|0:0,0:0:0:0:
472,259,288670,6,0,B|417:296|371:273|371:273|347:282|321:281,1,157.500006008148,12|0,3:0|0:0,0:0:0:0:
190,279,289098,1,2,3:0:0:0:
49,103,289312,2,0,B|100:114|153:103,1,105.000004005432,4|0,0:0|0:0,0:0:0:0:
409,180,289741,2,0,B|358:169|305:180,1,105.000004005432,4|2,0:0|3:0,0:0:0:0:
33,279,290170,1,0,0:0:0:0:
33,279,290277,1,0,0:0:0:0:
33,279,290384,6,0,P|111:273|189:278,1,157.500006008148,8|0,3:0|0:0,0:0:0:0:
299,293,290812,1,2,3:0:0:0:
153,102,291027,1,0,0:0:0:0:
183,72,291134,1,0,0:0:0:0:
222,56,291241,1,0,0:0:0:0:
263,55,291348,1,0,0:0:0:0:
301,72,291455,2,0,L|377:64,1,52.5000020027161,0|0,3:0|0:0,0:0:0:0:
271,199,291670,2,0,L|241:157,1,52.5000020027161,2|0,3:0|0:0,0:0:0:0:
396,160,291884,2,0,L|374:207,1,52.5000020027161,0|0,3:0|0:0,0:0:0:0:
248,375,292098,6,0,B|302:380|302:380|350:368|350:368|403:372,1,157.500006008148,14|0,3:0|0:0,0:0:0:0:
509,379,292527,1,2,3:0:0:0:
293,274,292741,2,0,L|188:283,1,105.000004005432,0|0,0:0|0:0,0:0:0:0:
84,294,293062,1,0,0:0:0:0:
57,297,293170,1,0,3:0:0:0:
248,375,293384,1,2,3:0:0:0:
107,153,293598,1,0,0:0:0:0:
107,153,293705,1,0,0:0:0:0:
107,153,293812,6,0,P|97:75|192:21,1,157.500006008148,0|0,3:0|0:0,0:0:0:0:
255,17,294241,1,2,3:0:0:0:
178,237,294455,1,0,0:0:0:0:
211,265,294562,1,0,0:0:0:0:
251,280,294670,1,0,0:0:0:0:
293,274,294777,1,0,0:0:0:0:
329,254,294884,2,0,P|346:233|358:210,1,52.5000020027161,0|0,3:0|0:0,0:0:0:0:
207,174,295098,2,0,P|233:171|259:176,1,52.5000020027161,2|0,3:0|0:0,0:0:0:0:
336,109,295312,2,0,P|322:88|313:63,1,52.5000020027161,0|0,3:0|0:0,0:0:0:0:
433,138,295527,6,0,B|442:188|442:188|433:294,1,157.500006008148,4|0,3:0|0:0,0:0:0:0:
379,384,295955,1,2,3:0:0:0:
73,237,296170,2,0,B|124:248|177:237,1,105.000004005432,0|0,0:0|0:0,0:0:0:0:
280,216,296491,1,0,0:0:0:0:
305,208,296598,1,0,3:0:0:0:
127,374,296812,1,2,3:0:0:0:
128,112,297027,1,0,0:0:0:0:
128,112,297134,1,0,0:0:0:0:
128,112,297241,6,0,B|176:96|208:112|208:112|240:128|281:115,1,157.500006008148,0|0,3:0|0:0,0:0:0:0:
381,79,297670,1,2,3:0:0:0:
280,216,297884,2,0,P|270:292|316:353,1,157.500006008148,0|0,0:0|0:0,0:0:0:0:
417,384,298312,1,0,3:0:0:0:
512,297,298527,2,0,L|444:281,1,52.5000020027161,2|0,3:0|0:0,0:0:0:0:
280,216,298741,2,0,L|348:200,1,52.5000020027161,0|0,3:0|0:0,0:0:0:0:
493,173,298955,6,0,B|509:122|509:122|493:19,1,157.500006008148,4|0,3:0|0:0,0:0:0:0:
493,19,299384,1,2,3:0:0:0:
367,265,299598,1,0,3:0:0:0:
367,265,299705,1,0,0:0:0:0:
367,265,299812,1,2,0:0:0:0:
256,0,300027,1,0,3:0:0:0:
493,173,300241,1,2,0:0:0:0:
126,143,300455,6,0,P|93:84|158:85,1,157.500006008148,4|0,0:0|0:0,0:0:0:0:
163,128,300884,1,0,0:0:0:0:
58,360,301098,1,0,0:0:0:0:
367,265,301312,1,0,3:0:0:0:
125,104,301527,1,0,3:0:0:0:
259,351,301741,1,0,3:0:0:0:
326,5,301955,2,0,L|355:197,1,168
367,265,302455,5,4,0:0:0:0:
256,192,302580,12,0,310955,0:0:0:0:
