osu file format v14

[General]
AudioFilename: audio.mp3
AudioLeadIn: 0
PreviewTime: 73078
Countdown: 0
SampleSet: Soft
StackLeniency: 0.6
Mode: 0
LetterboxInBreaks: 0
WidescreenStoryboard: 1

[Editor]
Bookmarks: 75401
DistanceSpacing: 1
BeatDivisor: 4
GridSize: 8
TimelineZoom: 2.699999

[Metadata]
Title:crescent moon
TitleUnicode:crescent moon
Artist:FELT
ArtistUnicode:FELT
Creator:gary00737
Version:Normal
Source:東方心綺楼 ~ Hopeless Masquerade.
Tags:東方ボーカル [FELT-019] 19th Album Rebirth Story Ⅲ kanor walaowey DreaM117er m1223961117 Lobelia Abhor - matha - Petal MathaSAURUS 舞花 東方Project japanese pop Hata no Kokoro [_Abhor_] jpop j-pop [ Abhor ] 美歌 Mika Maika NAGI☆ Touhou Project Video Game 亡失のエモーション Boushitsu no Emotion lost emotion 秦のこころ -_Matha_-
BeatmapID:2535929
BeatmapSetID:1195435

[Difficulty]
HPDrainRate:4
CircleSize:2.5
OverallDifficulty:4
ApproachRate:6
SliderMultiplier:0.97
SliderTickRate:1

[Events]
//Background and Video events
0,0,"wallpaperbetter.com_1920x1080.jpg",0,0
//Break Periods
2,55387,64134
//Storyboard Layer 0 (Background)
//Storyboard Layer 1 (Fail)
//Storyboard Layer 2 (Pass)
//Storyboard Layer 3 (Foreground)
//Storyboard Layer 4 (Overlay)
//Storyboard Sound Samples

[TimingPoints]
0,320.855614973262,4,2,1,25,1,0
11550,-100,4,2,1,35,0,0
22780,-100,4,2,1,64,0,0
23021,-100,4,2,1,5,0,0
23101,-100,4,2,1,64,0,0
27834,-100,4,2,1,5,0,0
27914,-100,4,2,1,64,0,0
31042,-100,4,2,1,5,0,0
31122,-100,4,2,1,64,0,0
32085,-100,4,2,1,30,0,0
34652,-100,4,2,1,44,0,0
37139,-100,4,2,1,5,0,0
37219,-100,4,2,1,44,0,0
39705,-100,4,2,1,5,0,0
39786,-100,4,2,1,44,0,0
42272,-100,4,2,1,5,0,0
42352,-100,4,2,1,44,0,0
43877,-100,4,2,1,5,0,0
43957,-100,4,2,1,44,0,0
44197,-100,4,2,1,5,0,0
44278,-100,4,2,1,44,0,0
44518,-100,4,2,1,5,0,0
44598,-100,4,2,1,44,0,0
44839,-100,4,2,1,5,0,0
44919,-100,4,2,1,54,0,0
48529,-100,4,2,1,5,0,0
48609,-100,4,2,1,54,0,0
49652,-100,4,2,1,5,0,0
49732,-100,4,2,1,54,0,0
49973,-100,4,2,1,5,0,0
50053,-100,4,2,1,54,0,0
51096,-100,4,2,1,5,0,0
51176,-100,4,2,1,54,0,0
53502,-100,4,2,1,5,0,0
53582,-100,4,2,1,54,0,0
53663,-100,4,2,1,5,0,0
53743,-100,4,2,1,54,0,0
55187,-100,4,2,1,44,0,0
65374,-100,4,2,1,5,0,0
65454,-100,4,2,1,54,0,0
71631,-100,4,2,1,5,0,0
71711,-100,4,2,1,54,0,0
72272,-100,4,2,1,5,0,0
72352,-100,4,2,1,54,0,0
75401,-100,4,2,1,64,0,0
75641,-100,4,2,1,5,0,0
75721,-100,4,2,1,64,0,1
83021,-100,4,2,1,5,0,1
83101,-100,4,2,1,64,0,1
83663,-100,4,2,1,5,0,1
83743,-100,4,2,1,64,0,1
84946,-100,4,2,1,5,0,1
85026,-100,4,2,1,64,0,1
85106,-100,4,2,1,5,0,1
85187,-100,4,2,1,64,0,1
85909,-100,4,2,1,5,0,0
85989,-100,4,2,1,64,0,1
91363,-100,4,2,1,5,0,1
91443,-100,4,2,1,64,0,1
92326,-100,4,2,1,5,0,1
92406,-100,4,2,1,64,0,1
92486,-100,4,2,1,5,0,1
92566,-100,4,2,1,64,0,1
93288,-100,4,2,1,5,0,1
93368,-100,4,2,1,64,0,1
94812,-100,4,2,1,64,0,1
96256,-100,4,2,1,30,0,0

[Colours]
Combo1 : 0,255,255
Combo2 : 170,0,0
Combo3 : 255,0,128
Combo4 : 217,0,217

[HitObjects]
34,129,1283,6,0,P|93:79|169:87,1,145.5,4|2,0:3|0:0,0:0:0:0:
233,142,2085,1,0,0:0:0:0:
325,112,2406,2,0,P|377:108|432:104,1,97,2|0,0:0|0:0,0:0:0:0:
468,117,2887,2,0,P|516:184|471:307,1,194,2|2,0:0|0:0,0:0:0:0:
403,324,3850,6,0,B|327:301|338:374|245:344,1,145.5,2|2,0:0|0:0,0:0:0:0:
181,299,4652,1,0,0:0:0:0:
94,343,4973,2,0,P|83:298|100:244,1,97,2|0,0:0|0:0,0:0:0:0:
129,215,5454,2,0,B|186:199|186:199|247:222|247:222|327:197,1,194,2|2,0:0|0:0,0:0:0:0:
405,170,6417,6,0,P|397:257|392:326,2,145.5,2|2|0,0:0|0:0|0:0,0:0:0:0:
450,152,7540,2,0,P|473:73|426:11,1,145.5,2|2,0:0|0:0,0:0:0:0:
346,17,8342,2,0,P|297:20|249:24,1,97,0|0,0:0|0:0,0:0:0:0:
161,65,8983,6,0,P|112:61|64:57,1,97,2|0,0:0|0:0,0:0:0:0:
16,46,9465,2,0,B|28:112|28:112|9:169|9:169|24:242,1,194,2|2,0:0|0:0,0:0:0:0:
57,325,10427,2,0,P|119:285|190:299,1,145.5
273,344,11229,1,2,0:0:0:0:
278,248,11550,5,4,3:0:0:0:
359,301,11871,2,0,P|407:297|455:293,2,97,2|0|2,0:3|0:0|3:0,0:0:0:0:
273,344,12834,1,0,3:0:0:0:
187,297,13155,2,0,P|138:293|90:289,1,97,2|0,0:3|0:0,0:0:0:0:
2,248,13796,1,2,3:0:0:0:
14,153,14117,6,0,B|54:124|54:124|117:134,1,97,0|2,3:0|0:3,0:0:0:0:
189,90,14759,2,0,B|229:119|229:119|292:109,1,97,0|2,0:0|3:0,0:0:0:0:
350,48,15401,2,0,B|302:150|401:133|340:269,1,194,0|0,3:0|0:0,0:0:0:0:
281,300,16363,1,2,3:0:0:0:
189,267,16684,6,0,P|185:315|181:363,1,97,0|2,3:0|0:3,0:0:0:0:
84,357,17326,2,0,P|87:308|91:260,1,97,0|2,0:0|3:0,0:0:0:0:
37,179,17967,1,0,3:0:0:0:
97,103,18288,1,2,0:3:0:0:
188,137,18609,1,0,0:0:0:0:
184,234,18930,1,2,3:0:0:0:
184,234,19251,6,0,P|232:230|280:226,1,97,2|2,3:0|0:3,0:0:0:0:
374,199,19893,2,0,P|370:248|366:296,1,97,2|2,0:0|3:2,0:0:0:0:
361,345,20374,1,2,3:2:0:0:
256,192,20534,12,0,22139,0:0:0:0:
129,306,23101,6,0,P|118:213|112:168,1,97,4|8,1:0|0:0,0:0:0:0:
157,120,23743,2,0,P|250:109|295:103,1,97,0|8,1:0|0:0,0:0:0:0:
289,76,24224,1,0,0:0:0:0:
289,76,24385,2,0,P|337:81|385:87,1,97,0|8,1:0|0:0,0:0:0:0:
469,135,25026,2,0,P|485:182|477:238,1,97,0|8,1:0|0:0,0:0:0:0:
411,297,25668,6,0,P|362:291|314:285,1,97,4|8,1:3|0:0,0:0:0:0:
222,316,26310,1,0,1:0:0:0:
145,256,26631,2,0,P|147:231|150:207,1,48.5,8|0,0:0|1:0,0:0:0:0:
164,161,26951,2,0,P|115:166|67:172,1,97,0|8,1:0|0:0,0:0:0:0:
46,77,27593,2,0,P|94:71|142:65,1,97,0|12,1:0|0:0,0:0:0:0:
238,53,28235,5,4,1:3:0:0:
334,41,28556,1,8,0:0:0:0:
430,29,28877,1,0,1:0:0:0:
489,105,29197,2,0,P|486:129|483:153,1,48.5,8|0,0:0|0:0,0:0:0:0:
493,200,29518,2,0,P|444:194|396:188,1,97,0|8,1:0|0:0,0:0:0:0:
316,243,30160,2,0,B|272:222|272:222|224:231,1,97,0|8,1:0|0:0,0:0:0:0:
184,257,30641,1,0,0:0:0:0:
184,257,30802,6,0,P|178:208|172:160,1,97,4|8,1:3|0:0,0:0:0:0:
158,64,31443,2,0,P|182:66|206:69,2,48.5,0|8|0,1:0|0:0|1:0,0:0:0:0:
109,56,31925,1,8,0:0:0:0:
256,192,32085,12,0,33368,0:0:0:0:
114,142,34652,6,0,P|110:93|102:45,2,97,4|0|0,1:2|0:0|0:0,0:0:0:0:
113,239,35614,1,0,0:0:0:0:
198,192,35935,2,0,P|221:188|246:186,1,48.5,0|0,0:0|1:3,0:0:0:0:
323,127,36417,2,0,P|347:128|371:132,1,48.5,2|0,1:3|1:0,0:0:0:0:
459,173,36898,6,0,P|481:231|452:296,1,97,2|2,1:0|1:3,0:0:0:0:
392,316,37540,1,0,0:0:0:0:
297,338,37860,2,0,L|183:333,1,97,0|0,0:0|0:0,0:0:0:0:
108,366,38502,2,0,B|97:344|97:344|103:321,1,48.5,0|2,0:0|1:3,0:0:0:0:
162,244,38983,1,2,1:3:0:0:
162,244,39144,2,0,L|157:147,1,97,2|2,1:0|1:0,0:0:0:0:
151,49,39786,5,4,1:2:0:0:
238,91,40106,1,0,0:0:0:0:
238,91,40267,2,0,L|334:86,1,97,2|2,1:3|1:3,0:0:0:0:
365,48,40748,2,0,L|461:52,1,97,0|0,0:0|0:0,0:0:0:0:
510,54,41229,1,2,1:3:0:0:
472,145,41550,1,2,1:3:0:0:
472,145,41711,2,0,B|444:209|444:209|461:258,1,97,2|2,1:0|1:0,0:0:0:0:
481,327,42352,6,0,P|432:299|366:317,1,97,2|0,1:3|0:0,0:0:0:0:
348,321,42834,2,0,P|299:349|233:331,1,97,0|2,1:0|1:3,0:0:0:0:
220,317,43315,1,0,0:0:0:0:
166,243,43636,1,0,0:0:0:0:
166,243,43796,2,0,L|170:146,1,97,2|0,1:3|0:0,0:0:0:0:
175,97,44278,1,2,0:1:0:0:
183,0,44598,1,2,1:0:0:0:
97,45,44919,6,0,B|37:35|37:35|7:50|0:90,1,97,4|8,1:2|0:0,0:0:0:0:
31,154,45561,2,0,B|41:209|11:205|25:271,1,97,0|8,1:0|0:0,0:0:0:0:
70,333,46203,2,0,P|94:330|118:327,1,48.5,0|0,1:0|0:0,0:0:0:0:
208,285,46684,1,0,0:0:0:0:
208,285,46844,2,0,P|256:290|304:295,1,97
379,358,47486,6,0,P|401:305|387:244,1,97,0|8,1:0|0:0,0:0:0:0:
326,198,48128,1,0,1:0:0:0:
374,113,48449,2,0,P|372:88|367:64,1,48.5,8|0,0:0|0:0,0:0:0:0:
338,34,48770,1,0,1:0:0:0:
338,34,48930,2,0,B|261:19|276:75|191:52,1,145.5,0|0,1:0|1:0,0:0:0:0:
115,2,49732,1,12,0:0:0:0:
48,72,50053,6,0,P|24:67|0:65,2,48.5,0|0|0,1:0|1:0|1:0,0:0:0:0:
131,123,50695,2,0,B|123:173|123:173|140:217|140:217|127:282,1,145.5,12|8,0:0|0:0,0:0:0:0:
106,357,51497,1,8,0:0:0:0:
200,333,51818,1,0,1:0:0:0:
200,333,51978,2,0,B|250:325|250:325|294:342|294:342|359:329,1,145.5,12|0,0:0|0:0,0:0:0:0:
388,321,52620,6,0,P|383:344|381:369,2,48.5,12|12|12,1:2|1:2|1:2,0:0:0:0:
471,271,53262,2,0,P|491:221|469:155,1,97,4|8,1:2|0:0,0:0:0:0:
455,141,53743,1,0,1:0:0:0:
362,171,54064,1,0,3:0:0:0:
305,92,54385,2,0,P|306:67|311:43,2,48.5,0|12|4,3:0|1:2|1:0,0:0:0:0:
304,249,55187,5,2,0:0:0:0:
72,123,65454,6,0,B|176:89|156:186|283:143,1,194,4|0,1:3|1:0,0:0:0:0:
335,93,66417,1,0,1:0:0:0:
413,149,66737,2,0,P|409:191|408:213,1,48.5,0|10,1:0|0:0,0:0:0:0:
422,243,67058,2,0,B|318:209|338:306|211:263,1,194,0|8,1:0|0:0,0:0:0:0:
141,286,68021,6,0,B|96:315|49:291|49:291|80:240|64:172,1,194,0|0,1:0|1:0,0:0:0:0:
13,125,68983,1,0,1:0:0:0:
13,125,69144,2,0,B|75:146|75:146|133:121|133:121|224:148,1,194,10|2,0:0|0:0,0:0:0:0:
230,173,69946,2,0,L|330:142,1,97,0|8,1:0|0:0,0:0:0:0:
414,114,70588,5,0,1:0:0:0:
477,251,71069,1,0,1:0:0:0:
477,251,71229,2,0,B|403:236|423:295|334:276,1,145.5,10|2,0:0|1:2,0:0:0:0:
266,212,72032,1,8,0:0:0:0:
194,276,72352,1,0,1:0:0:0:
194,276,72513,2,0,L|97:264,1,97,8|8,0:0|0:0,0:0:0:0:
1,247,73155,5,12,0:0:0:0:
256,197,75401,5,0,1:0:0:0:
332,256,75721,6,0,P|350:215|342:153,1,97,4|8,1:0|0:0,0:0:0:0:
272,101,76363,1,0,1:0:0:0:
181,136,76684,2,0,L|113:131,1,48.5,8|2,0:0|0:0,0:0:0:0:
84,141,77005,2,0,P|65:181|74:244,1,97,2|8,1:2|0:0,0:0:0:0:
144,296,77647,1,0,1:0:0:0:
229,251,77967,2,0,L|277:254,1,48.5,8|8,0:0|0:0,0:0:0:0:
314,287,78288,6,0,P|390:279|442:274,1,97,4|12,1:3|0:0,0:0:0:0:
455,297,78770,1,2,0:0:0:0:
510,217,79090,1,2,1:2:0:0:
511,120,79411,2,0,P|435:128|383:133,1,97,2|2,0:0|0:0,0:0:0:0:
371,107,79893,1,12,0:0:0:0:
301,39,80213,1,0,1:0:0:0:
214,85,80534,1,12,0:0:0:0:
128,131,80855,6,0,B|119:166|119:166|75:177|59:216,1,97,4|8,1:3|0:0,0:0:0:0:
49,243,81336,2,0,P|56:290|94:332,1,97,2|2,0:0|1:2,0:0:0:0:
134,340,81818,2,0,P|182:331|215:295,1,97,8|0,0:0|1:0,0:0:0:0:
226,249,82299,1,2,0:0:0:0:
221,156,82620,1,2,0:0:0:0:
221,156,82780,2,0,P|272:162|352:158,1,97,0|8,1:0|0:0,0:0:0:0:
411,140,83422,5,4,1:3:0:0:
459,224,83743,1,12,0:0:0:0:
394,295,84064,2,0,L|387:381,2,48.5,0|10|0,1:0|0:0|1:0,0:0:0:0:
353,267,84545,2,0,P|301:300|238:276,1,97,14|2,0:0|1:2,0:0:0:0:
238,257,85026,2,0,P|200:227|153:227,1,97,14|10,1:2|1:2,0:0:0:0:
122,265,85508,1,10,1:2:0:0:
122,265,85668,1,8,1:2:0:0:
25,262,85989,6,0,B|21:207|65:178|65:178|53:124|53:124|85:63,1,194,4|0,1:0|1:0,0:0:0:0:
119,3,86951,1,8,0:0:0:0:
208,40,87272,2,0,P|268:31|327:26,1,97,0|8,1:0|0:0,0:0:0:0:
401,27,87914,1,0,1:0:0:0:
463,101,88235,2,0,L|456:161,1,48.5,8|8,0:0|0:0,0:0:0:0:
425,185,88556,6,0,P|450:230|428:290,1,97,4|8,1:3|0:0,0:0:0:0:
406,306,89037,1,2,0:0:0:0:
312,330,89358,2,0,L|252:323,1,48.5,2|8,1:2|0:0,0:0:0:0:
217,308,89679,2,0,B|171:321|171:321|123:302,1,97,2|0,0:0|1:0,0:0:0:0:
80,283,90160,1,8,0:0:0:0:
75,186,90481,1,0,1:0:0:0:
70,89,90802,1,12,0:0:0:0:
165,103,91122,6,0,P|202:62|259:77,1,97,4|12,1:3|0:0,0:0:0:0:
289,66,91604,2,0,P|344:51|384:89,1,97,2|2,0:0|1:2,0:0:0:0:
391,116,92085,2,0,L|322:211,1,97,12|0,0:0|1:0,0:0:0:0:
305,234,92566,2,0,B|290:247|290:247|210:202,1,97,2|2,1:2|0:0,0:0:0:0:
182,182,93048,1,0,1:0:0:0:
97,134,93368,1,12,0:0:0:0:
10,178,93689,6,0,L|4:126,2,48.5,4|0|12,1:3|0:0|0:0,0:0:0:0:
44,212,94171,1,2,1:0:0:0:
44,212,94331,2,0,L|30:317,1,97,12|12,0:0|0:0,0:0:0:0:
24,356,94812,1,10,1:2:0:0:
256,192,96256,5,4,0:3:0:0:
