osu file format v14

[General]
AudioFilename: audio.mp3
AudioLeadIn: 0
PreviewTime: 213467
Countdown: 0
SampleSet: Normal
StackLeniency: 0.2
Mode: 1
LetterboxInBreaks: 0
WidescreenStoryboard: 1

[Editor]
Bookmarks: 130,23231,34782,55317,75851,96386,119488,140023,160557,193926,214461,237563,258097
DistanceSpacing: 0.9
BeatDivisor: 8
GridSize: 8
TimelineZoom: 1.7

[Metadata]
Title:crescent moon
TitleUnicode:crescent moon
Artist:FELT
ArtistUnicode:FELT
Creator:Chromoxx
Version:Muzukashii
Source:東方心綺楼 ~ Hopeless Masquerade.
Tags:Midnaait MMzz video game Touhou vocal 東方Project japanese 舞花 maika nagi 美歌 mika rebirth story iii 3 亡失のエモーション the lost emotion hatano kokoro reiteisai 13
BeatmapID:2420504
BeatmapSetID:1155827

[Difficulty]
HPDrainRate:6
CircleSize:4
OverallDifficulty:5
ApproachRate:9
SliderMultiplier:1.4
SliderTickRate:1

[Events]
//Background and Video events
0,0,"45258873_p0.jpg",0,0
//Break Periods
2,160606,164940
//Storyboard Layer 0 (Background)
//Storyboard Layer 1 (Fail)
//Storyboard Layer 2 (Pass)
//Storyboard Layer 3 (Foreground)
//Storyboard Layer 4 (Overlay)
//Storyboard Sound Samples

[TimingPoints]
1262,320.855614973262,4,1,0,50,1,0
20473,-100,4,1,0,30,0,0
22599,-100,4,1,0,70,0,0
23040,-100,4,1,0,80,0,0
32024,-100,4,1,0,30,0,0
34591,-100,4,1,0,70,0,0
44858,-100,4,1,0,80,0,0
55326,-100,4,1,0,60,0,0
65393,-100,4,1,0,70,0,0
75660,-100,4,1,0,90,0,0
75700,-100,4,1,0,90,0,1
96155,-100,4,1,0,30,0,1
96235,-100,4,1,0,30,0,0
98120,-100,4,1,0,70,0,0
109029,-100,4,1,0,80,0,0
119497,-100,4,1,0,60,0,0
129564,-100,4,1,0,70,0,0
139551,-100,4,1,0,70,0,0
139831,-100,4,1,0,90,0,0
139871,-100,4,1,0,90,0,1
160406,-100,4,1,0,90,0,0
160567,-100,4,1,0,70,0,0
170634,-100,4,1,0,80,0,0
190005,-100,4,1,0,40,0,0
192933,-100,4,1,0,60,0,0
211703,-100,4,1,0,70,0,0
214270,-100,4,1,0,90,0,0
214310,-100,4,1,0,90,0,1
234644,-100,4,1,0,40,0,1
236890,-100,4,1,0,90,0,1
237411,-100,4,1,0,90,0,0
237572,-100,4,1,0,80,0,0
256663,-100,4,1,0,60,0,0
257906,-100,4,1,0,30,0,0

[Colours]
Combo1 : 85,170,255
Combo2 : 255,128,128
Combo3 : 255,255,255

[HitObjects]
321,160,1262,5,8,0:0:0:0:
280,178,1743,1,8,0:0:0:0:
280,178,2384,1,0,0:0:0:0:
280,178,2705,1,8,0:0:0:0:
280,178,3187,1,0,0:0:0:0:
323,239,3507,1,8,0:0:0:0:
323,239,3828,1,0,0:0:0:0:
323,239,4310,1,0,0:0:0:0:
232,224,4951,1,8,0:0:0:0:
232,224,5272,1,0,0:0:0:0:
216,193,5753,1,8,0:0:0:0:
216,193,6074,1,0,0:0:0:0:
216,193,6395,1,8,0:0:0:0:
216,193,6876,1,8,0:0:0:0:
216,193,7518,1,0,0:0:0:0:
216,193,7839,1,8,0:0:0:0:
216,193,8320,1,0,0:0:0:0:
216,193,8641,1,8,0:0:0:0:
216,193,8962,1,0,0:0:0:0:
216,193,9443,1,0,0:0:0:0:
216,193,10085,1,8,0:0:0:0:
216,193,10406,1,0,0:0:0:0:
216,193,10887,1,8,0:0:0:0:
216,193,11208,1,0,0:0:0:0:
197,158,11529,1,8,0:0:0:0:
255,204,11850,1,8,0:0:0:0:
255,204,12171,1,0,0:0:0:0:
255,204,12251,1,0,0:0:0:0:
189,164,12331,1,0,0:0:0:0:
255,204,12491,1,8,0:0:0:0:
100,247,12812,1,0,0:0:0:0:
100,247,13133,1,0,0:0:0:0:
100,247,13454,1,8,0:0:0:0:
140,50,13534,1,8,0:0:0:0:
100,247,13614,1,8,0:0:0:0:
140,50,13775,1,0,0:0:0:0:
140,50,14096,1,8,0:0:0:0:
221,138,14417,1,8,0:0:0:0:
221,138,14737,1,0,0:0:0:0:
221,138,14818,1,0,0:0:0:0:
113,76,14898,1,0,0:0:0:0:
113,76,15058,1,8,0:0:0:0:
113,76,15379,1,0,0:0:0:0:
113,76,15700,1,0,0:0:0:0:
108,157,16021,1,8,0:0:0:0:
108,157,16101,1,8,0:0:0:0:
148,209,16181,1,8,0:0:0:0:
108,157,16342,1,0,0:0:0:0:
254,219,16663,1,8,0:0:0:0:
255,162,16983,1,8,0:0:0:0:
167,55,17144,1,8,0:0:0:0:
167,55,17304,1,0,0:0:0:0:
141,155,17384,1,0,0:0:0:0:
80,110,17465,1,0,0:0:0:0:
80,110,17625,1,8,0:0:0:0:
80,110,17946,1,0,0:0:0:0:
175,196,18267,1,0,0:0:0:0:
175,196,18427,1,0,0:0:0:0:
175,196,18588,1,8,0:0:0:0:
151,183,18668,1,8,0:0:0:0:
175,196,18748,1,8,0:0:0:0:
151,183,18909,1,0,0:0:0:0:
151,183,19229,1,8,0:0:0:0:
257,236,19550,1,8,0:0:0:0:
257,236,19711,1,8,0:0:0:0:
257,236,19871,1,0,0:0:0:0:
166,140,19951,1,0,0:0:0:0:
154,135,20032,1,0,0:0:0:0:
154,135,20192,1,8,0:0:0:0:
154,135,20352,1,8,0:0:0:0:
256,192,20513,12,0,22438,0:0:0:0:
175,118,22759,5,8,0:0:0:0:
159,155,23080,1,4,0:0:0:0:
378,155,23401,1,8,0:0:0:0:
260,208,23721,1,0,0:0:0:0:
322,203,23882,1,0,0:0:0:0:
260,208,24042,1,8,0:0:0:0:
260,208,24203,1,0,0:0:0:0:
199,160,24524,1,0,0:0:0:0:
199,160,24684,1,8,0:0:0:0:
188,146,24844,1,0,0:0:0:0:
290,285,25005,1,8,0:0:0:0:
162,272,25085,1,8,0:0:0:0:
290,285,25165,1,8,0:0:0:0:
162,272,25326,1,0,0:0:0:0:
162,272,25647,1,8,0:0:0:0:
162,272,25967,1,0,0:0:0:0:
136,156,26288,1,8,0:0:0:0:
217,200,26449,1,8,0:0:0:0:
399,200,26609,1,0,0:0:0:0:
399,200,26770,1,8,0:0:0:0:
242,96,26930,1,0,0:0:0:0:
242,96,27010,1,0,0:0:0:0:
218,99,27090,1,0,0:0:0:0:
218,99,27251,1,8,0:0:0:0:
173,185,27411,1,8,0:0:0:0:
180,168,27491,1,8,0:0:0:0:
173,185,27572,1,8,0:0:0:0:
209,223,27893,1,8,0:0:0:0:
246,266,28213,1,4,0:0:0:0:
269,243,28534,1,8,0:0:0:0:
269,243,28855,1,0,0:0:0:0:
269,243,29016,1,0,0:0:0:0:
269,243,29176,1,8,0:0:0:0:
195,78,29336,1,0,0:0:0:0:
148,142,29497,1,8,0:0:0:0:
148,142,29577,1,8,0:0:0:0:
148,142,29657,1,8,0:0:0:0:
240,197,29818,1,0,0:0:0:0:
240,197,29978,1,8,0:0:0:0:
215,182,30139,1,0,0:0:0:0:
215,182,30219,1,0,0:0:0:0:
172,168,30299,1,0,0:0:0:0:
172,168,30459,1,8,0:0:0:0:
187,236,30780,1,0,0:0:0:0:
301,194,31101,1,8,0:0:0:0:
301,194,31261,1,0,0:0:0:0:
163,120,31342,1,0,0:0:0:0:
301,194,31422,1,0,0:0:0:0:
163,120,31582,1,0,0:0:0:0:
159,114,31743,1,8,0:0:0:0:
159,114,31903,1,0,0:0:0:0:
256,192,32064,12,0,34310,0:0:0:0:
15,117,34630,5,0,0:0:0:0:
274,167,34951,1,8,0:0:0:0:
274,167,35112,1,0,0:0:0:0:
105,154,35272,1,8,0:0:0:0:
187,139,35433,1,0,0:0:0:0:
195,193,35753,1,8,0:0:0:0:
22,192,36074,1,0,0:0:0:0:
187,217,36395,1,8,0:0:0:0:
187,216,36556,1,0,0:0:0:0:
171,124,36876,1,8,0:0:0:0:
171,124,37197,1,0,0:0:0:0:
171,124,37518,1,8,0:0:0:0:
243,156,37679,1,0,0:0:0:0:
243,156,37839,1,8,0:0:0:0:
243,156,37999,1,0,0:0:0:0:
220,188,38320,1,8,0:0:0:0:
220,188,38641,1,0,0:0:0:0:
211,173,38962,1,8,0:0:0:0:
211,173,39122,1,0,0:0:0:0:
127,151,39764,1,0,0:0:0:0:
127,151,40085,1,8,0:0:0:0:
127,151,40245,1,0,0:0:0:0:
127,151,40406,1,8,0:0:0:0:
127,151,40566,1,0,0:0:0:0:
121,145,40727,1,8,0:0:0:0:
120,145,41048,1,0,0:0:0:0:
120,145,41208,1,8,0:0:0:0:
120,145,41368,1,0,0:0:0:0:
120,145,41529,1,8,0:0:0:0:
121,145,41689,1,0,0:0:0:0:
333,223,42010,1,8,0:0:0:0:
333,223,42331,1,0,0:0:0:0:
226,189,42652,1,8,0:0:0:0:
226,189,42812,1,0,0:0:0:0:
226,189,42973,1,8,0:0:0:0:
170,139,43133,1,0,0:0:0:0:
170,139,43454,1,8,0:0:0:0:
141,105,43614,1,0,0:0:0:0:
141,105,43775,1,8,0:0:0:0:
222,124,44096,1,0,0:0:0:0:
222,124,44256,1,8,0:0:0:0:
218,221,44898,1,4,0:0:0:0:
311,114,45219,1,8,0:0:0:0:
313,213,45379,1,0,0:0:0:0:
313,213,45459,1,0,0:0:0:0:
219,162,45540,1,0,0:0:0:0:
439,199,45700,1,0,0:0:0:0:
439,199,45860,1,8,0:0:0:0:
414,179,46181,1,0,0:0:0:0:
317,275,46342,1,8,0:0:0:0:
215,188,46502,1,0,0:0:0:0:
147,110,46663,1,8,0:0:0:0:
147,110,46743,1,8,0:0:0:0:
134,78,46823,1,8,0:0:0:0:
134,78,46983,1,0,0:0:0:0:
134,78,47144,1,8,0:0:0:0:
266,128,47465,1,0,0:0:0:0:
148,59,47786,1,8,0:0:0:0:
130,168,47946,1,8,0:0:0:0:
117,156,48026,1,8,0:0:0:0:
115,141,48106,1,8,0:0:0:0:
140,178,48267,1,0,0:0:0:0:
140,178,48427,1,8,0:0:0:0:
140,178,48588,1,0,0:0:0:0:
245,196,48909,1,0,0:0:0:0:
245,196,49069,1,8,0:0:0:0:
101,190,49229,1,0,0:0:0:0:
101,190,49310,1,0,0:0:0:0:
101,190,49390,1,0,0:0:0:0:
220,179,49550,1,0,0:0:0:0:
220,179,49711,1,8,0:0:0:0:
189,203,50032,1,0,0:0:0:0:
189,203,50192,1,0,0:0:0:0:
189,203,50352,1,0,0:0:0:0:
217,147,50673,1,12,0:0:0:0:
346,209,51155,1,0,0:0:0:0:
346,209,51475,1,0,0:0:0:0:
346,209,51796,1,0,0:0:0:0:
303,116,51957,1,12,0:0:0:0:
221,109,52598,1,0,0:0:0:0:
221,109,52759,1,0,0:0:0:0:
221,109,52919,1,0,0:0:0:0:
208,137,53240,1,12,0:0:0:0:
283,206,53561,1,8,0:0:0:0:
197,262,53721,1,0,0:0:0:0:
283,206,54042,1,0,0:0:0:0:
225,197,54363,1,8,0:0:0:0:
225,197,54443,1,8,0:0:0:0:
159,136,54524,1,8,0:0:0:0:
159,136,54684,1,0,0:0:0:0:
225,197,55165,1,0,0:0:0:0:
257,178,55807,1,0,0:0:0:0:
195,174,56449,1,8,0:0:0:0:
289,221,57090,1,0,0:0:0:0:
195,174,57732,1,8,0:0:0:0:
247,132,59016,1,0,0:0:0:0:
149,187,60299,1,8,0:0:0:0:
266,239,60941,1,8,0:0:0:0:
266,239,61582,1,0,0:0:0:0:
266,239,62224,1,8,0:0:0:0:
149,187,62866,1,0,0:0:0:0:
215,188,64149,1,8,0:0:0:0:
303,188,65433,1,0,0:0:0:0:
303,188,65753,1,0,0:0:0:0:
303,188,66074,1,0,0:0:0:0:
303,188,66395,1,0,0:0:0:0:
303,188,66716,1,0,0:0:0:0:
303,188,66876,1,8,0:0:0:0:
303,188,67037,1,0,0:0:0:0:
169,164,67358,1,8,0:0:0:0:
212,270,67518,1,0,0:0:0:0:
147,206,67679,1,8,0:0:0:0:
170,199,67999,1,0,0:0:0:0:
170,199,68320,1,0,0:0:0:0:
170,199,68641,1,0,0:0:0:0:
170,199,68962,1,0,0:0:0:0:
170,199,69122,1,8,0:0:0:0:
170,199,69283,1,0,0:0:0:0:
177,160,69604,1,8,0:0:0:0:
177,160,69764,1,0,0:0:0:0:
177,160,69925,1,8,0:0:0:0:
177,160,70085,1,0,0:0:0:0:
177,160,70245,1,8,0:0:0:0:
159,166,70566,1,0,0:0:0:0:
220,184,71048,1,0,0:0:0:0:
220,184,71208,1,8,0:0:0:0:
220,184,71368,1,0,0:0:0:0:
229,128,71689,1,0,0:0:0:0:
229,128,72010,1,8,0:0:0:0:
229,128,72331,1,0,0:0:0:0:
229,128,72491,1,8,0:0:0:0:
211,170,72652,1,0,0:0:0:0:
211,170,72812,1,0,0:0:0:0:
243,179,73133,1,12,0:0:0:0:
241,179,75379,1,8,0:0:0:0:
230,201,75700,1,4,0:0:0:0:
118,203,76021,1,8,0:0:0:0:
132,87,76342,1,0,0:0:0:0:
132,87,76502,1,0,0:0:0:0:
132,87,76663,1,8,0:0:0:0:
132,87,76823,1,0,0:0:0:0:
286,170,77144,1,0,0:0:0:0:
286,170,77304,1,8,0:0:0:0:
195,109,77465,1,8,0:0:0:0:
195,109,77625,1,0,0:0:0:0:
139,119,77705,1,0,0:0:0:0:
195,109,77786,1,0,0:0:0:0:
139,119,77946,1,8,0:0:0:0:
161,112,78106,1,8,0:0:0:0:
161,112,78187,1,8,0:0:0:0:
160,174,78267,1,8,0:0:0:0:
160,136,78588,1,8,0:0:0:0:
160,136,78748,1,0,0:0:0:0:
255,234,79069,1,0,0:0:0:0:
255,234,79229,1,8,0:0:0:0:
360,294,79390,1,8,0:0:0:0:
168,202,79550,1,0,0:0:0:0:
117,196,79630,1,0,0:0:0:0:
168,202,79711,1,0,0:0:0:0:
117,196,79871,1,8,0:0:0:0:
253,130,80032,1,0,0:0:0:0:
253,130,80112,1,0,0:0:0:0:
253,130,80192,1,0,0:0:0:0:
170,207,80513,1,8,0:0:0:0:
224,228,80834,1,4,0:0:0:0:
172,226,81155,1,8,0:0:0:0:
164,240,81315,1,0,0:0:0:0:
187,192,81636,1,0,0:0:0:0:
187,192,81796,1,8,0:0:0:0:
181,180,82117,1,0,0:0:0:0:
181,180,82278,1,0,0:0:0:0:
181,180,82598,1,8,0:0:0:0:
181,180,82759,1,0,0:0:0:0:
170,240,82839,1,0,0:0:0:0:
170,240,82919,1,0,0:0:0:0:
31,154,83080,1,8,0:0:0:0:
286,213,83401,1,0,0:0:0:0:
297,159,83721,1,8,0:0:0:0:
225,201,84042,1,0,0:0:0:0:
207,190,84524,1,12,0:0:0:0:
207,190,85005,1,12,0:0:0:0:
170,251,85326,1,4,0:0:0:0:
281,212,85967,1,12,0:0:0:0:
275,284,86288,1,0,0:0:0:0:
275,284,86609,1,8,0:0:0:0:
275,284,86770,1,8,0:0:0:0:
275,284,86930,1,0,0:0:0:0:
275,284,87090,1,8,0:0:0:0:
408,276,87411,1,8,0:0:0:0:
423,282,87572,1,0,0:0:0:0:
423,282,87732,1,0,0:0:0:0:
421,280,87893,1,8,0:0:0:0:
421,280,87973,1,8,0:0:0:0:
421,280,88053,1,8,0:0:0:0:
421,280,88213,1,0,0:0:0:0:
384,248,88374,1,0,0:0:0:0:
384,248,88454,1,0,0:0:0:0:
384,248,88534,1,0,0:0:0:0:
289,163,88855,1,0,0:0:0:0:
255,156,89016,1,8,0:0:0:0:
220,140,89336,1,8,0:0:0:0:
220,140,89497,1,0,0:0:0:0:
220,140,89657,1,0,0:0:0:0:
220,140,89818,1,8,0:0:0:0:
220,140,89898,1,8,0:0:0:0:
220,140,89978,1,8,0:0:0:0:
220,140,90139,1,0,0:0:0:0:
220,140,90299,1,8,0:0:0:0:
220,140,90379,1,8,0:0:0:0:
220,140,90459,1,8,0:0:0:0:
220,140,90780,1,0,0:0:0:0:
220,140,91101,1,8,0:0:0:0:
220,140,91422,1,0,0:0:0:0:
220,140,91582,1,8,0:0:0:0:
220,140,91903,1,8,0:0:0:0:
220,140,92064,1,0,0:0:0:0:
220,140,92384,1,8,0:0:0:0:
223,159,92545,1,8,0:0:0:0:
224,177,92705,1,0,0:0:0:0:
224,177,92866,1,0,0:0:0:0:
224,177,93026,1,8,0:0:0:0:
224,177,93106,1,8,0:0:0:0:
224,177,93187,1,8,0:0:0:0:
224,177,93347,1,0,0:0:0:0:
335,279,93668,1,8,0:0:0:0:
302,294,93989,1,0,0:0:0:0:
302,294,94149,1,8,0:0:0:0:
302,294,94310,1,8,0:0:0:0:
302,294,94470,1,0,0:0:0:0:
212,242,94791,1,12,0:0:0:0:
256,192,96235,12,0,97839,0:0:0:0:
167,141,98160,5,8,0:0:0:0:
167,141,98320,1,0,0:0:0:0:
198,185,98802,1,0,0:0:0:0:
278,209,99122,1,8,0:0:0:0:
278,209,99283,1,8,0:0:0:0:
94,192,99363,1,8,0:0:0:0:
78,228,99443,1,8,0:0:0:0:
118,189,99604,1,0,0:0:0:0:
305,236,99925,1,8,0:0:0:0:
305,236,100245,1,8,0:0:0:0:
260,162,100566,1,0,0:0:0:0:
260,162,100727,1,8,0:0:0:0:
260,162,101048,1,8,0:0:0:0:
412,199,101368,1,0,0:0:0:0:
412,199,101609,1,8,0:0:0:0:
412,199,101850,1,8,0:0:0:0:
153,153,101930,1,8,0:0:0:0:
412,199,102010,1,8,0:0:0:0:
194,145,102171,1,0,0:0:0:0:
194,145,102491,1,8,0:0:0:0:
185,167,102812,1,8,0:0:0:0:
184,167,103133,1,0,0:0:0:0:
185,167,103294,1,8,0:0:0:0:
248,228,103935,1,0,0:0:0:0:
248,228,104256,1,8,0:0:0:0:
248,228,104417,1,0,0:0:0:0:
248,228,104577,1,8,0:0:0:0:
203,244,104737,1,0,0:0:0:0:
203,244,105058,1,8,0:0:0:0:
203,244,105219,1,0,0:0:0:0:
165,138,105379,1,8,0:0:0:0:
165,138,105700,1,0,0:0:0:0:
165,138,105860,1,8,0:0:0:0:
194,174,106181,1,8,0:0:0:0:
194,174,106502,1,0,0:0:0:0:
275,249,106743,1,8,0:0:0:0:
275,249,106983,1,8,0:0:0:0:
275,249,107064,1,8,0:0:0:0:
215,201,107144,1,8,0:0:0:0:
215,201,107304,1,0,0:0:0:0:
241,138,107625,1,8,0:0:0:0:
241,138,107786,1,0,0:0:0:0:
90,181,107946,1,8,0:0:0:0:
302,219,108267,1,0,0:0:0:0:
302,219,108427,1,8,0:0:0:0:
218,220,109069,1,4,0:0:0:0:
311,113,109390,1,8,0:0:0:0:
313,212,109550,1,0,0:0:0:0:
313,212,109630,1,0,0:0:0:0:
219,161,109711,1,0,0:0:0:0:
439,198,109871,1,0,0:0:0:0:
439,198,110032,1,8,0:0:0:0:
414,178,110352,1,0,0:0:0:0:
317,274,110513,1,8,0:0:0:0:
215,187,110673,1,0,0:0:0:0:
147,109,110834,1,8,0:0:0:0:
147,109,110914,1,8,0:0:0:0:
134,77,110994,1,8,0:0:0:0:
134,77,111155,1,0,0:0:0:0:
134,77,111315,1,8,0:0:0:0:
266,127,111636,1,0,0:0:0:0:
148,58,111957,1,8,0:0:0:0:
130,167,112117,1,8,0:0:0:0:
117,155,112197,1,8,0:0:0:0:
115,140,112278,1,8,0:0:0:0:
140,177,112438,1,0,0:0:0:0:
140,177,112598,1,8,0:0:0:0:
140,177,112759,1,0,0:0:0:0:
245,195,113080,1,0,0:0:0:0:
245,195,113240,1,8,0:0:0:0:
101,189,113401,1,0,0:0:0:0:
101,189,113481,1,0,0:0:0:0:
101,189,113561,1,0,0:0:0:0:
220,178,113721,1,0,0:0:0:0:
220,178,113882,1,8,0:0:0:0:
189,202,114203,1,0,0:0:0:0:
189,202,114363,1,0,0:0:0:0:
189,202,114524,1,0,0:0:0:0:
217,146,114844,1,12,0:0:0:0:
346,208,115326,1,0,0:0:0:0:
346,208,115647,1,0,0:0:0:0:
346,208,115967,1,0,0:0:0:0:
303,115,116128,1,12,0:0:0:0:
221,108,116770,1,0,0:0:0:0:
221,108,116930,1,0,0:0:0:0:
221,108,117090,1,0,0:0:0:0:
208,136,117411,1,12,0:0:0:0:
283,205,117732,1,8,0:0:0:0:
197,261,117893,1,0,0:0:0:0:
283,205,118213,1,0,0:0:0:0:
225,196,118534,1,8,0:0:0:0:
225,196,118614,1,8,0:0:0:0:
159,135,118695,1,8,0:0:0:0:
159,135,118855,1,0,0:0:0:0:
225,196,119336,1,0,0:0:0:0:
289,200,119978,1,0,0:0:0:0:
289,200,120620,1,8,0:0:0:0:
289,200,121261,1,0,0:0:0:0:
209,231,121903,1,8,0:0:0:0:
209,231,123187,1,0,0:0:0:0:
191,216,124470,1,8,0:0:0:0:
191,216,125112,1,8,0:0:0:0:
191,216,125753,1,0,0:0:0:0:
191,216,126395,1,8,0:0:0:0:
191,216,127037,1,0,0:0:0:0:
192,218,128320,1,8,0:0:0:0:
192,220,129604,1,0,0:0:0:0:
267,208,129925,1,0,0:0:0:0:
267,208,130245,1,0,0:0:0:0:
113,200,130406,1,8,0:0:0:0:
242,218,130566,1,0,0:0:0:0:
193,111,130727,1,8,0:0:0:0:
220,102,130887,1,0,0:0:0:0:
267,208,131208,1,0,0:0:0:0:
267,208,131368,1,8,0:0:0:0:
267,208,131529,1,0,0:0:0:0:
189,281,131850,1,8,0:0:0:0:
147,189,132171,1,0,0:0:0:0:
147,189,132491,1,0,0:0:0:0:
204,192,132812,1,0,0:0:0:0:
204,192,133133,1,0,0:0:0:0:
204,192,133294,1,8,0:0:0:0:
204,192,133454,1,0,0:0:0:0:
222,220,133775,1,8,0:0:0:0:
222,220,133935,1,0,0:0:0:0:
222,220,134096,1,8,0:0:0:0:
222,220,134256,1,0,0:0:0:0:
225,224,134417,1,8,0:0:0:0:
225,226,134737,1,0,0:0:0:0:
265,195,135219,1,0,0:0:0:0:
265,195,135379,1,8,0:0:0:0:
265,195,135540,1,0,0:0:0:0:
265,195,135860,1,0,0:0:0:0:
170,167,136181,1,8,0:0:0:0:
265,195,136502,1,0,0:0:0:0:
265,195,136663,1,8,0:0:0:0:
224,147,136823,1,0,0:0:0:0:
224,147,136983,1,0,0:0:0:0:
182,195,137304,1,12,0:0:0:0:
235,278,139550,1,8,0:0:0:0:
289,204,139871,1,4,0:0:0:0:
118,203,140192,1,8,0:0:0:0:
132,87,140513,1,0,0:0:0:0:
132,87,140673,1,0,0:0:0:0:
132,87,140834,1,8,0:0:0:0:
132,87,140994,1,0,0:0:0:0:
286,170,141315,1,0,0:0:0:0:
286,170,141475,1,8,0:0:0:0:
195,109,141636,1,8,0:0:0:0:
195,109,141796,1,0,0:0:0:0:
139,119,141876,1,0,0:0:0:0:
195,109,141957,1,0,0:0:0:0:
139,119,142117,1,8,0:0:0:0:
161,112,142278,1,8,0:0:0:0:
161,112,142358,1,8,0:0:0:0:
160,174,142438,1,8,0:0:0:0:
160,136,142759,1,8,0:0:0:0:
160,136,142919,1,0,0:0:0:0:
255,234,143240,1,0,0:0:0:0:
255,234,143401,1,8,0:0:0:0:
360,294,143561,1,8,0:0:0:0:
168,202,143721,1,0,0:0:0:0:
117,196,143802,1,0,0:0:0:0:
168,202,143882,1,0,0:0:0:0:
117,196,144042,1,8,0:0:0:0:
253,130,144203,1,0,0:0:0:0:
253,130,144283,1,0,0:0:0:0:
253,130,144363,1,0,0:0:0:0:
170,207,144684,1,8,0:0:0:0:
224,228,145005,1,4,0:0:0:0:
172,226,145326,1,8,0:0:0:0:
164,240,145486,1,0,0:0:0:0:
187,192,145807,1,0,0:0:0:0:
187,192,145967,1,8,0:0:0:0:
181,180,146288,1,0,0:0:0:0:
181,180,146449,1,0,0:0:0:0:
181,180,146770,1,8,0:0:0:0:
181,180,146930,1,0,0:0:0:0:
170,240,147010,1,0,0:0:0:0:
170,240,147090,1,0,0:0:0:0:
31,154,147251,1,8,0:0:0:0:
286,213,147572,1,0,0:0:0:0:
297,159,147893,1,8,0:0:0:0:
225,201,148213,1,0,0:0:0:0:
207,190,148695,1,12,0:0:0:0:
207,190,149176,1,12,0:0:0:0:
202,264,149497,1,4,0:0:0:0:
281,212,150139,1,12,0:0:0:0:
275,284,150459,1,0,0:0:0:0:
275,284,150780,1,8,0:0:0:0:
275,284,150941,1,8,0:0:0:0:
275,284,151101,1,0,0:0:0:0:
275,284,151261,1,8,0:0:0:0:
408,276,151582,1,8,0:0:0:0:
423,282,151743,1,0,0:0:0:0:
423,282,151903,1,0,0:0:0:0:
421,280,152064,1,8,0:0:0:0:
421,280,152144,1,8,0:0:0:0:
421,280,152224,1,8,0:0:0:0:
421,280,152384,1,0,0:0:0:0:
384,248,152545,1,0,0:0:0:0:
384,248,152625,1,0,0:0:0:0:
384,248,152705,1,0,0:0:0:0:
289,163,153026,1,0,0:0:0:0:
255,156,153187,1,8,0:0:0:0:
220,140,153507,1,8,0:0:0:0:
220,140,153668,1,0,0:0:0:0:
220,140,153828,1,0,0:0:0:0:
220,140,153989,1,8,0:0:0:0:
220,140,154069,1,8,0:0:0:0:
220,140,154149,1,8,0:0:0:0:
220,140,154310,1,0,0:0:0:0:
220,140,154470,1,8,0:0:0:0:
220,140,154550,1,8,0:0:0:0:
220,140,154630,1,8,0:0:0:0:
220,140,154951,1,0,0:0:0:0:
220,140,155272,1,8,0:0:0:0:
220,140,155593,1,0,0:0:0:0:
220,140,155753,1,8,0:0:0:0:
220,140,156074,1,8,0:0:0:0:
220,140,156235,1,0,0:0:0:0:
220,140,156556,1,8,0:0:0:0:
223,159,156716,1,8,0:0:0:0:
224,177,156876,1,0,0:0:0:0:
224,177,157037,1,0,0:0:0:0:
224,177,157197,1,8,0:0:0:0:
224,177,157278,1,8,0:0:0:0:
224,177,157358,1,8,0:0:0:0:
224,177,157518,1,0,0:0:0:0:
335,279,157839,1,8,0:0:0:0:
246,196,157999,1,0,0:0:0:0:
302,294,158160,1,8,0:0:0:0:
302,294,158320,1,0,0:0:0:0:
302,294,158481,1,8,0:0:0:0:
302,294,158641,1,0,0:0:0:0:
212,242,158962,1,12,0:0:0:0:
370,240,159283,1,8,0:0:0:0:
262,173,159443,1,8,0:0:0:0:
370,240,159604,1,8,0:0:0:0:
121,139,159684,1,8,0:0:0:0:
370,240,159764,1,8,0:0:0:0:
161,213,160085,1,8,0:0:0:0:
161,213,160406,1,0,0:0:0:0:
109,192,165540,5,0,0:0:0:0:
109,192,166021,1,0,0:0:0:0:
109,192,166181,1,8,0:0:0:0:
242,123,166663,1,0,0:0:0:0:
242,123,166983,1,0,0:0:0:0:
242,123,167304,1,0,0:0:0:0:
242,123,167465,1,8,0:0:0:0:
176,204,168106,1,0,0:0:0:0:
176,204,168267,1,0,0:0:0:0:
219,156,168588,1,0,0:0:0:0:
219,156,168748,1,8,0:0:0:0:
130,152,169229,1,0,0:0:0:0:
219,156,169310,1,0,0:0:0:0:
130,152,169390,1,0,0:0:0:0:
143,214,169550,1,8,0:0:0:0:
143,214,169871,1,0,0:0:0:0:
160,246,170032,1,12,0:0:0:0:
316,222,170673,1,0,0:0:0:0:
316,222,170994,1,8,0:0:0:0:
316,222,171155,1,0,0:0:0:0:
316,222,171475,1,0,0:0:0:0:
316,222,171636,1,8,0:0:0:0:
226,204,171957,1,0,0:0:0:0:
226,204,172117,1,8,0:0:0:0:
226,204,172278,1,8,0:0:0:0:
226,204,172438,1,0,0:0:0:0:
196,181,172598,1,8,0:0:0:0:
132,170,172679,1,8,0:0:0:0:
196,181,172759,1,8,0:0:0:0:
132,170,172919,1,0,0:0:0:0:
132,170,173240,1,8,0:0:0:0:
278,228,173561,1,0,0:0:0:0:
278,228,173721,1,8,0:0:0:0:
278,228,174042,1,8,0:0:0:0:
278,228,174203,1,0,0:0:0:0:
188,196,174524,1,8,0:0:0:0:
173,247,174604,1,8,0:0:0:0:
188,196,174684,1,8,0:0:0:0:
162,239,174844,1,0,0:0:0:0:
162,239,175005,1,8,0:0:0:0:
272,168,175085,1,8,0:0:0:0:
218,152,175165,1,8,0:0:0:0:
256,264,175326,1,8,0:0:0:0:
218,152,175486,1,0,0:0:0:0:
300,185,175807,1,12,0:0:0:0:
221,237,176449,1,4,0:0:0:0:
221,237,177090,1,12,0:0:0:0:
196,188,177732,1,12,0:0:0:0:
264,212,178374,1,0,0:0:0:0:
264,212,178534,1,0,0:0:0:0:
264,212,178855,1,0,0:0:0:0:
253,250,179016,1,12,0:0:0:0:
253,250,179336,1,0,0:0:0:0:
253,250,179497,1,0,0:0:0:0:
268,180,179818,1,0,0:0:0:0:
284,258,180139,1,0,0:0:0:0:
271,261,180299,1,12,0:0:0:0:
149,223,180941,1,8,0:0:0:0:
231,259,181261,1,0,0:0:0:0:
231,259,181422,1,8,0:0:0:0:
191,177,181502,1,8,0:0:0:0:
231,259,181582,1,8,0:0:0:0:
191,177,181743,1,8,0:0:0:0:
191,177,181903,1,0,0:0:0:0:
227,88,181983,1,0,0:0:0:0:
191,177,182064,1,0,0:0:0:0:
375,219,182224,1,8,0:0:0:0:
321,237,182384,1,8,0:0:0:0:
195,240,182705,1,0,0:0:0:0:
219,212,182866,1,8,0:0:0:0:
219,212,182946,1,8,0:0:0:0:
195,240,183026,1,8,0:0:0:0:
173,172,183187,1,0,0:0:0:0:
173,172,183507,1,8,0:0:0:0:
267,208,183828,1,0,0:0:0:0:
184,259,184149,1,8,0:0:0:0:
249,188,184310,1,8,0:0:0:0:
184,259,184470,1,0,0:0:0:0:
184,259,184630,1,8,0:0:0:0:
191,193,184791,1,0,0:0:0:0:
113,139,184871,1,0,0:0:0:0:
191,193,184951,1,0,0:0:0:0:
144,228,185112,1,0,0:0:0:0:
256,230,185272,1,8,0:0:0:0:
190,247,185352,1,8,0:0:0:0:
256,230,185433,1,8,0:0:0:0:
202,224,185753,1,8,0:0:0:0:
308,245,186074,1,0,0:0:0:0:
308,245,186556,1,0,0:0:0:0:
308,245,186716,1,8,0:0:0:0:
311,194,187197,1,8,0:0:0:0:
311,194,187518,1,8,0:0:0:0:
140,181,187839,1,8,0:0:0:0:
140,181,187999,1,0,0:0:0:0:
140,181,188320,1,8,0:0:0:0:
140,181,188641,1,0,0:0:0:0:
221,239,188962,1,8,0:0:0:0:
221,239,189122,1,8,0:0:0:0:
150,185,189203,1,8,0:0:0:0:
78,209,189283,1,8,0:0:0:0:
150,185,189443,1,0,0:0:0:0:
130,179,189764,1,12,0:0:0:0:
256,192,189925,12,8,192491,0:0:0:0:
268,269,192973,5,0,0:0:0:0:
268,269,193133,1,0,0:0:0:0:
268,269,193454,1,8,0:0:0:0:
268,269,193775,1,8,0:0:0:0:
144,227,196021,1,8,0:0:0:0:
170,290,196181,1,0,0:0:0:0:
170,290,196342,1,8,0:0:0:0:
170,290,196663,1,8,0:0:0:0:
170,290,196823,1,8,0:0:0:0:
170,290,197144,1,0,0:0:0:0:
170,290,197465,1,8,0:0:0:0:
170,290,197786,1,8,0:0:0:0:
238,180,198267,1,0,0:0:0:0:
238,180,198427,1,0,0:0:0:0:
238,180,198588,1,8,0:0:0:0:
238,180,198909,1,8,0:0:0:0:
156,200,199229,1,8,0:0:0:0:
156,200,199390,1,0,0:0:0:0:
156,200,199711,1,0,0:0:0:0:
156,200,199871,1,8,0:0:0:0:
165,243,200192,1,0,0:0:0:0:
165,243,200352,1,0,0:0:0:0:
165,243,200673,1,8,0:0:0:0:
165,243,200834,1,8,0:0:0:0:
165,243,201155,1,0,0:0:0:0:
165,243,201475,1,8,0:0:0:0:
125,190,201957,1,8,0:0:0:0:
125,190,202117,1,8,0:0:0:0:
125,190,202438,1,0,0:0:0:0:
125,190,202759,1,8,0:0:0:0:
229,188,203080,1,0,0:0:0:0:
222,207,203401,1,8,0:0:0:0:
222,207,204042,1,0,0:0:0:0:
222,207,204363,1,8,0:0:0:0:
222,207,205005,1,8,0:0:0:0:
222,207,205647,1,8,0:0:0:0:
184,200,206288,1,8,0:0:0:0:
222,207,206449,1,0,0:0:0:0:
222,207,206609,1,8,0:0:0:0:
145,224,206930,1,8,0:0:0:0:
6,176,207090,1,8,0:0:0:0:
118,262,207411,1,0,0:0:0:0:
238,246,207572,1,8,0:0:0:0:
238,246,207732,1,0,0:0:0:0:
118,262,208053,1,0,0:0:0:0:
238,246,208213,1,8,0:0:0:0:
238,246,208534,1,0,0:0:0:0:
238,246,208695,1,0,0:0:0:0:
238,246,208855,1,8,0:0:0:0:
15,162,209176,1,0,0:0:0:0:
267,181,209497,1,8,0:0:0:0:
267,181,209657,1,0,0:0:0:0:
268,169,209978,1,0,0:0:0:0:
267,170,210139,1,8,0:0:0:0:
148,139,210459,1,0,0:0:0:0:
148,139,210620,1,0,0:0:0:0:
148,139,210780,1,8,0:0:0:0:
150,131,210941,1,8,0:0:0:0:
148,139,211101,1,0,0:0:0:0:
145,166,211422,1,8,0:0:0:0:
146,165,211743,1,0,0:0:0:0:
195,157,213989,1,8,0:0:0:0:
289,204,214310,1,4,0:0:0:0:
118,203,214630,1,8,0:0:0:0:
132,87,214951,1,0,0:0:0:0:
132,87,215112,1,0,0:0:0:0:
132,87,215272,1,8,0:0:0:0:
132,87,215433,1,0,0:0:0:0:
286,170,215753,1,0,0:0:0:0:
286,170,215914,1,8,0:0:0:0:
195,109,216074,1,8,0:0:0:0:
195,109,216235,1,0,0:0:0:0:
139,119,216315,1,0,0:0:0:0:
195,109,216395,1,0,0:0:0:0:
139,119,216556,1,8,0:0:0:0:
161,112,216716,1,8,0:0:0:0:
161,112,216796,1,8,0:0:0:0:
160,174,216876,1,8,0:0:0:0:
160,136,217197,1,8,0:0:0:0:
160,136,217358,1,0,0:0:0:0:
255,234,217679,1,0,0:0:0:0:
255,234,217839,1,8,0:0:0:0:
360,294,217999,1,8,0:0:0:0:
168,202,218160,1,0,0:0:0:0:
117,196,218240,1,0,0:0:0:0:
168,202,218320,1,0,0:0:0:0:
117,196,218481,1,8,0:0:0:0:
253,130,218641,1,0,0:0:0:0:
253,130,218721,1,0,0:0:0:0:
253,130,218802,1,0,0:0:0:0:
170,207,219122,1,8,0:0:0:0:
224,228,219443,1,4,0:0:0:0:
172,226,219764,1,8,0:0:0:0:
164,240,219925,1,0,0:0:0:0:
187,192,220245,1,0,0:0:0:0:
187,192,220406,1,8,0:0:0:0:
181,180,220727,1,0,0:0:0:0:
181,180,220887,1,0,0:0:0:0:
181,180,221208,1,8,0:0:0:0:
181,180,221368,1,0,0:0:0:0:
170,240,221449,1,0,0:0:0:0:
170,240,221529,1,0,0:0:0:0:
31,154,221689,1,8,0:0:0:0:
286,213,222010,1,0,0:0:0:0:
297,159,222331,1,8,0:0:0:0:
225,201,222652,1,0,0:0:0:0:
207,190,223133,1,12,0:0:0:0:
207,190,223614,1,12,0:0:0:0:
202,264,223935,1,4,0:0:0:0:
281,212,224577,1,12,0:0:0:0:
275,284,224898,1,0,0:0:0:0:
275,284,225219,1,8,0:0:0:0:
275,284,225379,1,8,0:0:0:0:
275,284,225540,1,0,0:0:0:0:
275,284,225700,1,8,0:0:0:0:
408,276,226021,1,8,0:0:0:0:
423,282,226181,1,0,0:0:0:0:
423,282,226342,1,0,0:0:0:0:
421,280,226502,1,8,0:0:0:0:
421,280,226582,1,8,0:0:0:0:
421,280,226663,1,8,0:0:0:0:
421,280,226823,1,0,0:0:0:0:
384,248,226983,1,0,0:0:0:0:
384,248,227064,1,0,0:0:0:0:
384,248,227144,1,0,0:0:0:0:
289,163,227465,1,0,0:0:0:0:
255,156,227625,1,8,0:0:0:0:
220,140,227946,1,8,0:0:0:0:
220,140,228106,1,0,0:0:0:0:
220,140,228267,1,0,0:0:0:0:
220,140,228427,1,8,0:0:0:0:
220,140,228507,1,8,0:0:0:0:
220,140,228588,1,8,0:0:0:0:
220,140,228748,1,0,0:0:0:0:
220,140,228909,1,8,0:0:0:0:
220,140,228989,1,8,0:0:0:0:
220,140,229069,1,8,0:0:0:0:
220,140,229390,1,0,0:0:0:0:
220,140,229711,1,8,0:0:0:0:
10,179,229871,1,8,0:0:0:0:
306,249,230192,1,0,0:0:0:0:
306,249,230352,1,8,0:0:0:0:
306,249,230513,1,0,0:0:0:0:
217,212,230834,1,8,0:0:0:0:
217,212,231155,1,8,0:0:0:0:
209,207,231475,1,0,0:0:0:0:
209,207,231636,1,8,0:0:0:0:
203,175,231957,1,0,0:0:0:0:
203,175,232117,1,0,0:0:0:0:
203,175,232278,1,8,0:0:0:0:
210,170,232598,1,8,0:0:0:0:
209,170,232759,1,0,0:0:0:0:
209,170,232919,1,8,0:0:0:0:
177,210,233080,1,0,0:0:0:0:
177,210,233160,1,0,0:0:0:0:
38,87,233240,1,0,0:0:0:0:
38,87,233401,1,8,0:0:0:0:
329,295,233721,1,0,0:0:0:0:
329,295,234042,1,8,0:0:0:0:
52,109,234122,1,8,0:0:0:0:
329,295,234203,1,8,0:0:0:0:
256,231,234524,1,4,0:0:0:0:
256,192,234684,12,0,236770,0:0:0:0:
181,208,236930,5,8,0:0:0:0:
181,208,237010,1,8,0:0:0:0:
71,152,237090,1,8,0:0:0:0:
301,169,237411,1,4,0:0:0:0:
378,155,237732,1,8,0:0:0:0:
260,208,238053,1,0,0:0:0:0:
322,203,238213,1,0,0:0:0:0:
260,208,238374,1,8,0:0:0:0:
260,208,238534,1,0,0:0:0:0:
199,160,238855,1,0,0:0:0:0:
199,160,239016,1,8,0:0:0:0:
188,146,239176,1,0,0:0:0:0:
290,285,239336,1,8,0:0:0:0:
162,272,239417,1,8,0:0:0:0:
290,285,239497,1,8,0:0:0:0:
162,272,239657,1,0,0:0:0:0:
162,272,239978,1,8,0:0:0:0:
162,272,240299,1,0,0:0:0:0:
136,156,240620,1,8,0:0:0:0:
217,200,240780,1,8,0:0:0:0:
399,200,240941,1,0,0:0:0:0:
399,200,241101,1,8,0:0:0:0:
242,96,241261,1,0,0:0:0:0:
242,96,241342,1,0,0:0:0:0:
218,99,241422,1,0,0:0:0:0:
218,99,241582,1,8,0:0:0:0:
173,185,241743,1,8,0:0:0:0:
180,168,241823,1,8,0:0:0:0:
173,185,241903,1,8,0:0:0:0:
209,223,242224,1,8,0:0:0:0:
246,266,242545,1,4,0:0:0:0:
269,243,242866,1,8,0:0:0:0:
269,243,243187,1,0,0:0:0:0:
269,243,243347,1,0,0:0:0:0:
269,243,243507,1,8,0:0:0:0:
195,78,243668,1,0,0:0:0:0:
148,142,243828,1,8,0:0:0:0:
148,142,243909,1,8,0:0:0:0:
148,142,243989,1,8,0:0:0:0:
240,197,244149,1,0,0:0:0:0:
240,197,244310,1,8,0:0:0:0:
215,182,244470,1,0,0:0:0:0:
215,182,244550,1,0,0:0:0:0:
172,168,244630,1,0,0:0:0:0:
172,168,244791,1,8,0:0:0:0:
187,236,245112,1,0,0:0:0:0:
301,194,245433,1,8,0:0:0:0:
301,194,245593,1,0,0:0:0:0:
163,120,245673,1,0,0:0:0:0:
301,194,245753,1,0,0:0:0:0:
163,120,245914,1,0,0:0:0:0:
159,114,246074,1,8,0:0:0:0:
159,114,246235,1,0,0:0:0:0:
272,226,246556,1,8,0:0:0:0:
155,240,246716,1,0,0:0:0:0:
272,226,246876,1,8,0:0:0:0:
144,218,246957,1,8,0:0:0:0:
136,204,247037,1,8,0:0:0:0:
201,211,247197,1,0,0:0:0:0:
201,211,247358,1,8,0:0:0:0:
239,224,247679,1,4,0:0:0:0:
150,235,248160,1,0,0:0:0:0:
143,227,248320,1,8,0:0:0:0:
143,227,248481,1,0,0:0:0:0:
143,227,248802,1,0,0:0:0:0:
178,224,249122,1,8,0:0:0:0:
249,205,249443,1,0,0:0:0:0:
249,205,249604,1,8,0:0:0:0:
220,258,249925,1,0,0:0:0:0:
220,258,250245,1,0,0:0:0:0:
242,196,250727,1,0,0:0:0:0:
242,196,250887,1,8,0:0:0:0:
34,164,251048,1,0,0:0:0:0:
322,200,251368,1,0,0:0:0:0:
322,200,251689,1,8,0:0:0:0:
216,235,252010,1,0,0:0:0:0:
216,235,252171,1,8,0:0:0:0:
216,235,252491,1,0,0:0:0:0:
60,187,252812,1,0,0:0:0:0:
60,187,253294,1,0,0:0:0:0:
60,187,253454,1,8,0:0:0:0:
309,255,253614,1,8,0:0:0:0:
189,289,253695,1,8,0:0:0:0:
189,224,253775,1,8,0:0:0:0:
189,289,253935,1,0,0:0:0:0:
291,194,254256,1,8,0:0:0:0:
291,194,254577,1,0,0:0:0:0:
291,194,254737,1,8,0:0:0:0:
181,169,255058,1,0,0:0:0:0:
181,169,255379,1,0,0:0:0:0:
260,196,256502,1,0,0:0:0:0:
250,192,256823,1,8,0:0:0:0:
398,292,256983,1,8,0:0:0:0:
250,192,257144,1,8,0:0:0:0:
218,239,257224,1,8,0:0:0:0:
250,192,257304,1,8,0:0:0:0:
218,239,257625,1,8,0:0:0:0:
256,192,257946,12,8,261796,0:0:0:0:
