osu file format v14

[General]
AudioFilename: Closed Wings.mp3
AudioLeadIn: 0
PreviewTime: 50686
Countdown: 0
SampleSet: Normal
StackLeniency: 0.5
Mode: 1
LetterboxInBreaks: 0
WidescreenStoryboard: 1

[Editor]
Bookmarks: 7178,37841,77620,143918,149222
DistanceSpacing: 1
BeatDivisor: 4
GridSize: 4
TimelineZoom: 2.399999

[Metadata]
Title:Closed Wings
TitleUnicode:Closed Wings
Artist:FELT
ArtistUnicode:FELT
Creator:sendol
Version:Oni
Source:東方地霊殿 ~ Subterranean Animism.
Tags:FELT-011 Maika 舞花 Mika 美歌 NAGI☆ Abyss nova 霊知の太陽信仰 Solar Sect of Mystic Wisdom Nuclear Fusion touhou 東方Project th11 Chireiden 霊烏路空 Reiuji Utsuho stage 6 boss theme Video Game Japanese
BeatmapID:2085861
BeatmapSetID:997172

[Difficulty]
HPDrainRate:5.5
CircleSize:4
OverallDifficulty:6
ApproachRate:9.3
SliderMultiplier:1.4
SliderTickRate:1

[Events]
//Background and Video events
0,0,"Closed Wings.jpg",0,0
//Break Periods
2,88445,96973
2,162699,167249
//Storyboard Layer 0 (Background)
//Storyboard Layer 1 (Fail)
//Storyboard Layer 2 (Pass)
//Storyboard Layer 3 (Foreground)
//Storyboard Layer 4 (Overlay)
//Storyboard Sound Samples

[TimingPoints]
732,331.491712707182,4,1,0,40,1,0
732,-133.333333333333,4,1,0,40,0,0
2469,-133.333333333333,4,1,0,80,0,0
2552,-119.047619047619,4,1,0,80,0,0
2717,-114.942528735632,4,1,0,80,0,0
2883,-111.111111111111,4,1,0,80,0,0
3049,-107.52688172043,4,1,0,80,0,0
3215,-104.166666666667,4,1,0,80,0,0
3298,-102.040816326531,4,1,0,80,0,0
7193,-95.2380952380952,4,1,0,80,0,0
7358,-97.5609756097561,4,1,0,80,0,0
7524,-100,4,1,0,80,0,0
8353,-96.1538461538461,4,1,0,80,0,0
8519,-100,4,1,0,80,0,0
11833,-102.564102564103,4,1,0,80,0,0
11999,-105.263157894737,4,1,0,80,0,0
12165,-108.108108108108,4,1,0,80,0,0
12331,-111.111111111111,4,1,0,80,0,0
12496,-114.285714285714,4,1,0,80,0,0
12579,-117.647058823529,4,1,0,40,0,0
16557,-125,4,1,0,60,0,0
21447,-121.951219512195,4,1,0,60,0,0
21612,-119.047619047619,4,1,0,60,0,0
21778,-116.279069767442,4,1,0,60,0,0
21944,-111.111111111111,4,1,0,60,0,0
22275,-125,4,1,0,60,0,0
25839,-125,4,1,0,70,0,0
25922,-123.456790123457,4,1,0,70,0,0
26088,-120.481927710843,4,1,0,70,0,0
26253,-117.647058823529,4,1,0,70,0,0
26419,-114.942528735632,4,1,0,70,0,0
26585,-112.359550561798,4,1,0,70,0,0
26751,-109.89010989011,4,1,0,70,0,0
26916,-107.52688172043,4,1,0,70,0,0
27165,-95.2380952380952,4,1,0,80,0,0
27579,-106.382978723404,4,1,0,80,0,0
28408,-98.0392156862745,4,1,0,80,0,0
28574,-101.010101010101,4,1,0,80,0,0
28740,-104.166666666667,4,1,0,80,0,0
29071,-92.5925925925926,4,1,0,80,0,0
29403,-106.382978723404,4,1,0,80,0,0
29568,-105.263157894737,4,1,0,80,0,0
29734,-104.166666666667,4,1,0,80,0,0
29900,-96.1538461538461,4,1,0,80,0,0
30231,-106.382978723404,4,1,0,80,0,0
31060,-96.153846153846,4,1,0,80,0,0
31226,-101.010101010101,4,1,0,80,0,0
31391,-108.695652173913,4,1,0,80,0,0
31723,-103.092783505155,4,1,0,80,0,0
31889,-104.166666666667,4,1,0,80,0,0
32054,-105.263157894737,4,1,0,80,0,0
32220,-106.382978723404,4,1,0,80,0,0
32552,-95.2380952380952,4,1,0,80,0,0
32883,-106.382978723404,4,1,0,80,0,0
33712,-98.0392156862745,4,1,0,80,0,0
33878,-101.010101010101,4,1,0,80,0,0
34043,-104.166666666667,4,1,0,80,0,0
34375,-92.5925925925926,4,1,0,80,0,0
34706,-106.382978723404,4,1,0,80,0,0
36364,-92.5925925925926,4,1,0,80,0,0
36530,-99.009900990099,4,1,0,80,0,0
36695,-106.382978723404,4,1,0,80,0,0
36861,-105.263157894737,4,1,0,80,0,0
37027,-104.166666666667,4,1,0,80,0,0
37193,-103.092783505155,4,1,0,80,0,0
37358,-102.040816326531,4,1,0,80,0,0
37524,-101.010101010101,4,1,0,80,0,0
37856,-90.9090909090909,4,1,0,80,0,0
38021,-96.1538461538461,4,1,0,80,0,0
38353,-103.092783505155,4,1,0,80,0,0
40342,-101.010101010101,4,1,0,80,0,0
40508,-96.1538461538461,4,1,0,80,0,0
40673,-101.010101010101,4,1,0,80,0,0
41005,-102.040816326531,4,1,0,80,0,0
41668,-101.010101010101,4,1,0,80,0,0
41833,-100,4,1,0,80,0,0
41916,-99.009900990099,4,1,0,80,0,0
41999,-98.0392156862745,4,1,0,80,0,0
42165,-94.3396226415094,4,1,0,80,0,0
42331,-97.0873786407767,4,1,0,80,0,0
42496,-100,4,1,0,80,0,0
43159,-94.3396226415094,4,1,0,80,0,0
43408,-100,4,1,0,80,0,0
47966,-102.040816326531,4,1,0,80,0,0
48132,-104.166666666667,4,1,0,80,0,0
48298,-107.52688172043,4,1,0,80,0,0
48463,-111.111111111111,4,1,0,80,0,0
50452,-107.52688172043,4,1,0,80,0,0
50618,-104.166666666667,4,1,0,80,0,0
50673,-102.040816326531,4,1,0,80,0,0
50728,-100,4,1,0,80,0,0
50784,-98.0392156862745,4,1,0,80,0,0
51118,-89.2857142857143,4,1,0,80,0,1
51447,-95.2380952380952,4,1,0,80,0,1
60231,-89.2857142857143,4,1,0,80,0,1
60398,-95.2380952380952,4,1,0,80,0,1
61723,-86.9565217391304,4,1,0,80,0,1
62054,-95.2380952380952,4,1,0,80,0,1
66695,-86.9565217391304,4,1,0,80,0,1
66861,-88.4955752212389,4,1,0,80,0,1
66944,-89.2857142857143,4,1,0,80,0,1
67027,-90.0900900900901,4,1,0,80,0,1
67193,-92.5925925925926,4,1,0,80,0,1
67358,-93.4579439252336,4,1,0,80,0,1
67524,-95.2380952380952,4,1,0,80,0,1
69679,-90.9090909090909,4,1,0,80,0,1
70010,-100,4,1,0,80,0,1
70176,-102.040816326531,4,1,0,80,0,1
70342,-104.166666666667,4,1,0,80,0,1
70508,-106.382978723404,4,1,0,80,0,1
70673,-108.695652173913,4,1,0,80,0,1
70839,-111.111111111111,4,1,0,80,0,1
71008,-113.636363636364,4,1,0,80,0,0
72331,-100,4,1,0,80,0,0
74983,-96.1538461538461,4,1,0,80,0,0
75811,-100,4,1,0,80,0,0
75977,-102.040816326531,4,1,0,80,0,0
76143,-104.166666666667,4,1,0,80,0,0
76474,-106.382978723404,4,1,0,80,0,0
76806,-108.695652173913,4,1,0,80,0,0
77552,-113.636363636364,4,1,0,70,0,0
86751,-116.279069767442,4,1,0,70,0,0
86916,-119.047619047619,4,1,0,70,0,0
87082,-121.951219512195,4,1,0,70,0,0
87248,-125,4,1,0,70,0,0
87414,-128.205128205128,4,1,0,70,0,0
87579,-131.578947368421,4,1,0,70,0,0
87745,-135.135135135135,4,1,0,70,0,0
87828,-136.986301369863,4,1,0,70,0,0
87911,-138.888888888889,4,1,0,70,0,0
88077,-140.845070422535,4,1,0,70,0,0
88242,-142.857142857143,4,1,0,70,0,0
88325,-142.857142857143,4,1,0,40,0,0
97441,-120.481927710843,4,1,0,70,0,0
97690,-116.279069767442,4,1,0,80,0,0
97856,-112.359550561798,4,1,0,80,0,0
98021,-109.89010989011,4,1,0,80,0,0
98187,-106.382978723404,4,1,0,80,0,0
98353,-103.092783505155,4,1,0,80,0,0
98519,-100,4,1,0,80,0,0
98767,-100,4,1,0,80,0,0
98850,-90.9090909090909,4,1,0,80,0,0
99016,-96.1538461538461,4,1,0,80,0,0
99347,-103.092783505155,4,1,0,80,0,0
101336,-101.010101010101,4,1,0,80,0,0
101502,-96.1538461538461,4,1,0,80,0,0
101668,-101.010101010101,4,1,0,80,0,0
101999,-102.040816326531,4,1,0,80,0,0
102662,-101.010101010101,4,1,0,80,0,0
102828,-100,4,1,0,80,0,0
102911,-99.009900990099,4,1,0,80,0,0
102994,-98.0392156862745,4,1,0,80,0,0
103159,-94.3396226415094,4,1,0,80,0,0
103325,-97.0873786407767,4,1,0,80,0,0
103491,-100,4,1,0,80,0,0
104154,-94.3396226415094,4,1,0,80,0,0
104403,-100,4,1,0,80,0,0
108961,-102.040816326531,4,1,0,80,0,0
109126,-104.166666666667,4,1,0,80,0,0
109292,-107.52688172043,4,1,0,80,0,0
109458,-111.111111111111,4,1,0,80,0,0
111447,-107.52688172043,4,1,0,80,0,0
111612,-104.166666666667,4,1,0,80,0,0
111668,-102.040816326531,4,1,0,80,0,0
111723,-100,4,1,0,80,0,0
111778,-98.0392156862745,4,1,0,80,0,0
112113,-89.2857142857143,4,1,0,80,0,1
112441,-95.2380952380952,4,1,0,80,0,1
121226,-89.2857142857143,4,1,0,80,0,1
121392,-95.2380952380952,4,1,0,80,0,1
122717,-86.9565217391304,4,1,0,80,0,1
123049,-95.2380952380952,4,1,0,80,0,1
127690,-86.9565217391304,4,1,0,80,0,1
127856,-88.4955752212389,4,1,0,80,0,1
127938,-89.2857142857143,4,1,0,80,0,1
128021,-90.0900900900901,4,1,0,80,0,1
128187,-91.743119266055,4,1,0,80,0,1
128353,-93.4579439252336,4,1,0,80,0,1
128519,-95.2380952380952,4,1,0,80,0,1
130673,-90.9090909090909,4,1,0,80,0,1
131005,-100,4,1,0,80,0,1
131170,-102.040816326531,4,1,0,80,0,1
131336,-104.166666666667,4,1,0,80,0,1
131502,-106.382978723404,4,1,0,80,0,1
131668,-108.695652173913,4,1,0,80,0,1
131833,-111.111111111111,4,1,0,80,0,1
132002,-113.636363636364,4,1,0,80,0,0
133242,-116.279069767442,4,1,0,60,0,0
133657,-125,4,1,0,60,0,0
138298,-121.212121212121,4,1,0,60,0,0
138629,-116.279069767442,4,1,0,60,0,0
138961,-125,4,1,0,60,0,0
142607,-121.212121212121,4,1,0,60,0,0
142938,-117.647058823529,4,1,0,60,0,0
143270,-113.636363636364,4,1,0,60,0,0
143601,-106.382978723404,4,1,0,60,0,0
143684,-107.52688172043,4,1,0,70,0,0
143767,-102.040816326531,4,1,0,75,0,0
143933,-105.263157894737,4,1,0,75,0,0
144099,-107.52688172043,4,1,0,75,0,0
144264,-109.89010989011,4,1,0,75,0,0
144430,-112.359550561798,4,1,0,75,0,0
144596,-114.285714285714,4,1,0,75,0,0
144762,-116.279069767442,4,1,0,75,0,0
148740,-107.52688172043,4,1,0,75,0,0
148822,-105.820105820106,4,1,0,75,0,0
148905,-104.166666666667,4,1,0,75,0,0
149071,-101.010101010101,4,1,0,75,0,0
149154,-97.0873786407767,4,1,0,80,0,0
149485,-100,4,1,0,80,0,0
154375,-97.0873786407767,4,1,0,80,0,0
154541,-90.9090909090909,4,1,0,80,0,0
155369,-92.5925925925926,4,1,0,80,0,0
155535,-94.3396226415094,4,1,0,80,0,0
155701,-96.1538461538461,4,1,0,80,0,0
155867,-100.502512562814,4,1,0,80,0,0
156032,-100,4,1,0,80,0,0
156198,-99.009900990099,4,1,0,80,0,0
156364,-98.0392156862745,4,1,0,80,0,0
156530,-97.0873786407767,4,1,0,80,0,0
156695,-96.1538461538461,4,1,0,80,0,0
156861,-95.2380952380952,4,1,0,80,0,0
157027,-91.743119266055,4,1,0,80,0,0
157193,-102.040816326531,4,1,0,60,0,0
157358,-108.695652173913,4,1,0,60,0,0
157524,-109.89010989011,4,1,0,60,0,0
157773,-112.359550561798,4,1,0,60,0,0
158684,-114.942528735632,4,1,0,60,0,0
158850,-116.279069767442,4,1,0,60,0,0
159016,-117.647058823529,4,1,0,60,0,0
159182,-119.047619047619,4,1,0,60,0,0
159347,-120.481927710843,4,1,0,60,0,0
159513,-121.951219512195,4,1,0,60,0,0
159679,-123.456790123457,4,1,0,60,0,0
159762,-125,4,1,0,60,0,0
159845,-126.582278481013,4,1,0,60,0,0
159927,-128.205128205128,4,1,0,50,0,0
161170,-138.888888888889,4,1,0,50,0,0
162496,-151.515151515152,4,1,0,50,0,0
162579,-151.515151515152,4,1,0,40,0,0
167717,-133.333333333333,4,1,0,50,0,0
171530,-105.263157894737,4,1,0,80,0,0
171778,-101.010101010101,4,1,0,80,0,0
171861,-96.1538461538461,4,1,0,80,0,0
172275,-90.9090909090909,4,1,0,80,0,0
172441,-89.2857142857143,4,1,0,80,0,0
172607,-87.719298245614,4,1,0,80,0,0
172773,-83.3333333333333,4,1,0,80,0,0
173107,-86.9565217391304,4,1,0,80,0,1
173436,-95.2380952380952,4,1,0,80,0,1
178077,-86.2068965517241,4,1,0,80,0,1
178242,-89.2857142857143,4,1,0,80,0,1
178325,-90.0900900900901,4,1,0,80,0,1
178408,-90.9090909090909,4,1,0,80,0,1
178574,-86.9565217391304,4,1,0,80,0,1
178657,-87.719298245614,4,1,0,80,0,1
178740,-88.4955752212389,4,1,0,80,0,1
178905,-90.0900900900901,4,1,0,80,0,1
179071,-90.9090909090909,4,1,0,80,0,1
179734,-90.0900900900901,4,1,0,80,0,1
179817,-89.2857142857143,4,1,0,80,0,1
179900,-88.4955752212389,4,1,0,80,0,1
180066,-86.9565217391304,4,1,0,80,0,1
180231,-88.4955752212389,4,1,0,80,0,1
180314,-89.2857142857143,4,1,0,80,0,1
180397,-90.0900900900901,4,1,0,80,0,1
180480,-90.9090909090909,4,1,0,80,0,1
180563,-91.743119266055,4,1,0,80,0,1
180728,-93.4579439252336,4,1,0,80,0,1
180894,-95.2380952380952,4,1,0,80,0,1
181060,-97.0873786407767,4,1,0,80,0,1
181391,-100,4,1,0,80,0,1
181557,-102.040816326531,4,1,0,80,0,1
181723,-104.166666666667,4,1,0,80,0,1
181889,-106.382978723404,4,1,0,80,0,1
182054,-108.695652173913,4,1,0,80,0,1
182220,-111.111111111111,4,1,0,80,0,1
182389,-113.636363636364,4,1,0,80,0,0
183049,-108.695652173913,4,1,0,80,0,0
183215,-102.040816326531,4,1,0,80,0,0
183270,-101.010101010101,4,1,0,80,0,0
183325,-100,4,1,0,80,0,0
183380,-99.009900990099,4,1,0,80,0,0
183712,-89.2857142857143,4,1,0,80,0,0
183961,-94.3396226415094,4,1,0,80,0,0
184043,-96.1538461538461,4,1,0,80,0,0
184209,-98.0392156862745,4,1,0,80,0,0
184375,-100,4,1,0,80,0,0
192662,-96.1538461538461,4,1,0,80,0,0
192828,-90.9090909090909,4,1,0,80,0,0
192994,-96.1538461538461,4,1,0,80,0,0
193159,-100,4,1,0,80,0,0
193657,-90.0900900900901,4,1,0,80,0,0
193740,-91.743119266055,4,1,0,80,0,0
193822,-93.4579439252336,4,1,0,80,0,0
193988,-92.5925925925926,4,1,0,80,0,0
194071,-93.8967136150235,4,1,0,80,0,0
194154,-95.2380952380952,4,1,0,80,0,0
194320,-89.2857142857143,4,1,0,80,0,0
194568,-94.3396226415094,4,1,0,80,0,0
194651,-96.1538461538461,4,1,0,80,0,0
194817,-100,4,1,0,80,0,0
199126,-95.2380952380952,4,1,0,80,0,0
199292,-87.719298245614,4,1,0,80,0,0
199458,-89.2857142857143,4,1,0,80,0,0
199541,-90.0900900900901,4,1,0,80,0,0
199624,-90.9090909090909,4,1,0,80,0,0
199872,-94.3396226415094,4,1,0,80,0,0
201778,-95.2380952380952,4,1,0,80,0,0
201944,-96.1538461538461,4,1,0,80,0,0
202110,-97.0873786407767,4,1,0,80,0,0
202275,-98.0392156862745,4,1,0,80,0,0
202607,-101.010101010101,4,1,0,80,0,0
202773,-103.626943005181,4,1,0,80,0,0
202938,-106.382978723404,4,1,0,80,0,0
203104,-109.289617486339,4,1,0,80,0,0
203270,-112.359550561798,4,1,0,80,0,0
203436,-116.279069767442,4,1,0,80,0,0
203601,-125,4,1,0,80,0,0
203770,350.877192982456,4,1,0,80,1,8
203770,-128.205128205128,4,1,0,80,0,8
204122,351.00240436647,4,1,0,80,1,8
204122,-147.058823529412,4,1,0,80,0,0
204473,447.998566404588,4,1,0,80,1,8
204473,-128.205128205128,4,1,0,80,0,0
204920,666.666666666667,4,1,0,80,1,0
205000,-100,4,1,0,40,0,0

[HitObjects]
256,192,1063,12,0,2389,0:0:0:0:
273,199,2555,5,8,0:0:0:0:
282,212,2720,1,8,0:0:0:0:
273,199,2886,5,0,0:0:0:0:
246,197,3052,1,8,0:0:0:0:
273,199,3218,1,8,0:0:0:0:
273,199,3301,1,8,0:0:0:0:
262,190,3383,1,0,0:0:0:0:
121,147,3549,1,0,0:0:0:0:
262,190,3715,1,8,0:0:0:0:
262,190,4046,1,0,0:0:0:0:
121,147,4212,1,0,0:0:0:0:
121,147,4378,1,8,0:0:0:0:
262,190,4544,1,8,0:0:0:0:
262,190,4709,1,0,0:0:0:0:
121,147,4875,1,8,0:0:0:0:
121,147,5041,1,8,0:0:0:0:
262,190,5207,1,0,0:0:0:0:
121,147,5372,1,8,0:0:0:0:
304,167,5538,1,0,0:0:0:0:
304,167,5621,1,0,0:0:0:0:
266,183,5704,1,8,0:0:0:0:
121,147,5870,1,0,0:0:0:0:
237,229,6035,1,0,0:0:0:0:
237,229,6367,1,8,0:0:0:0:
237,229,6533,1,0,0:0:0:0:
237,229,6698,1,8,0:0:0:0:
237,229,6864,1,0,0:0:0:0:
237,229,7030,1,0,0:0:0:0:
237,229,7196,1,12,0:0:0:0:
237,229,7527,1,0,0:0:0:0:
237,229,7859,1,0,0:0:0:0:
237,229,8190,1,0,0:0:0:0:
237,229,8356,1,12,0:0:0:0:
304,167,8522,1,0,0:0:0:0:
304,167,8604,1,0,0:0:0:0:
121,147,8687,1,8,0:0:0:0:
121,147,8853,1,0,0:0:0:0:
237,229,9019,1,8,0:0:0:0:
237,229,9350,1,0,0:0:0:0:
237,229,9516,1,0,0:0:0:0:
237,229,9682,1,8,0:0:0:0:
237,229,9848,1,8,0:0:0:0:
237,229,10013,1,0,0:0:0:0:
121,147,10179,1,8,0:0:0:0:
237,229,10345,1,0,0:0:0:0:
237,229,10511,1,8,0:0:0:0:
121,147,10676,1,0,0:0:0:0:
237,229,10842,1,0,0:0:0:0:
304,167,10925,1,0,0:0:0:0:
237,229,11008,1,8,0:0:0:0:
161,114,11339,1,0,0:0:0:0:
161,114,11671,1,0,0:0:0:0:
161,114,11836,1,8,0:0:0:0:
161,114,12002,1,0,0:0:0:0:
161,114,12168,1,8,0:0:0:0:
161,114,12334,1,0,0:0:0:0:
227,136,12499,1,12,0:0:0:0:
256,192,12665,12,0,16477,0:0:0:0:
269,176,16643,5,12,0:0:0:0:
269,176,16975,1,0,0:0:0:0:
267,180,17306,1,8,0:0:0:0:
269,176,17638,1,0,0:0:0:0:
269,176,17969,1,8,0:0:0:0:
267,180,18301,1,0,0:0:0:0:
267,180,18632,1,0,0:0:0:0:
267,180,18964,1,0,0:0:0:0:
267,180,19129,1,0,0:0:0:0:
267,180,19295,1,8,0:0:0:0:
225,183,19627,1,0,0:0:0:0:
225,183,19792,1,8,0:0:0:0:
225,183,19958,1,0,0:0:0:0:
225,183,20290,1,8,0:0:0:0:
143,197,20455,1,8,0:0:0:0:
143,197,20621,1,0,0:0:0:0:
143,197,20952,1,0,0:0:0:0:
208,269,21118,1,8,0:0:0:0:
286,274,21284,1,0,0:0:0:0:
286,274,21450,1,8,0:0:0:0:
286,274,21615,1,0,0:0:0:0:
286,274,21781,1,0,0:0:0:0:
225,183,21947,1,12,0:0:0:0:
143,197,22278,1,0,0:0:0:0:
143,197,22610,1,8,0:0:0:0:
143,197,22941,1,0,0:0:0:0:
143,197,23273,1,8,0:0:0:0:
143,197,23604,1,0,0:0:0:0:
143,197,23770,1,8,0:0:0:0:
143,197,23936,1,0,0:0:0:0:
143,197,24102,1,8,0:0:0:0:
143,197,24267,1,0,0:0:0:0:
30,168,24599,1,8,0:0:0:0:
30,168,24930,1,0,0:0:0:0:
30,168,25096,1,0,0:0:0:0:
30,168,25262,1,8,0:0:0:0:
304,198,25593,1,8,0:0:0:0:
304,198,25759,1,8,0:0:0:0:
30,168,25925,1,0,0:0:0:0:
30,168,26091,1,8,0:0:0:0:
30,168,26256,1,0,0:0:0:0:
30,168,26422,1,8,0:0:0:0:
30,168,26588,1,0,0:0:0:0:
30,168,26754,1,0,0:0:0:0:
30,168,26919,1,8,0:0:0:0:
227,202,27251,5,4,0:0:0:0:
215,195,27582,1,0,0:0:0:0:
215,195,27748,1,8,0:0:0:0:
163,176,27914,1,0,0:0:0:0:
215,195,28080,1,0,0:0:0:0:
215,195,28411,1,4,0:0:0:0:
215,195,28743,1,0,0:0:0:0:
215,195,29074,1,12,0:0:0:0:
215,195,29406,1,8,0:0:0:0:
215,195,29571,1,0,0:0:0:0:
145,154,29737,1,0,0:0:0:0:
216,172,29903,1,12,0:0:0:0:
167,165,30234,1,0,0:0:0:0:
167,165,30400,1,8,0:0:0:0:
167,165,30731,1,0,0:0:0:0:
209,188,31063,1,4,0:0:0:0:
209,188,31394,1,0,0:0:0:0:
209,188,31726,1,8,0:0:0:0:
209,188,31892,1,8,0:0:0:0:
209,188,32057,1,0,0:0:0:0:
209,188,32223,1,0,0:0:0:0:
209,188,32555,1,4,0:0:0:0:
209,188,32886,1,0,0:0:0:0:
209,188,33052,1,8,0:0:0:0:
299,183,33218,1,0,0:0:0:0:
209,188,33383,1,0,0:0:0:0:
110,166,33715,5,4,0:0:0:0:
110,166,34046,1,0,0:0:0:0:
208,150,34378,1,12,0:0:0:0:
243,214,34709,5,8,0:0:0:0:
120,176,34875,1,0,0:0:0:0:
120,176,35041,1,0,0:0:0:0:
120,176,35207,1,0,0:0:0:0:
120,176,35372,1,0,0:0:0:0:
120,176,35538,1,8,0:0:0:0:
120,176,35704,1,0,0:0:0:0:
120,176,35870,1,8,0:0:0:0:
120,176,36035,1,0,0:0:0:0:
254,184,36367,1,12,0:0:0:0:
140,187,36698,1,0,0:0:0:0:
140,187,36864,1,0,0:0:0:0:
102,209,37030,1,0,0:0:0:0:
102,209,37196,1,8,0:0:0:0:
102,209,37361,1,8,0:0:0:0:
102,209,37527,1,0,0:0:0:0:
261,234,37859,5,4,0:0:0:0:
261,234,38024,1,0,0:0:0:0:
258,230,38356,1,8,0:0:0:0:
258,230,38687,1,0,0:0:0:0:
258,230,38853,1,8,0:0:0:0:
258,230,39019,1,0,0:0:0:0:
258,230,39185,1,0,0:0:0:0:
258,230,39350,1,8,0:0:0:0:
195,212,39682,1,0,0:0:0:0:
195,212,40013,1,0,0:0:0:0:
258,230,40179,1,8,0:0:0:0:
258,230,40345,1,0,0:0:0:0:
258,230,40511,1,4,0:0:0:0:
178,192,40676,1,0,0:0:0:0:
178,192,41008,1,8,0:0:0:0:
290,183,41339,1,0,0:0:0:0:
290,183,41505,1,8,0:0:0:0:
290,183,41671,1,0,0:0:0:0:
178,192,41836,1,0,0:0:0:0:
178,192,41919,1,0,0:0:0:0:
178,192,42002,1,8,0:0:0:0:
178,192,42168,1,12,0:0:0:0:
178,192,42334,1,0,0:0:0:0:
178,192,42499,1,8,0:0:0:0:
178,192,42582,1,8,0:0:0:0:
178,192,42665,1,0,0:0:0:0:
178,192,42831,1,8,0:0:0:0:
197,205,42997,1,0,0:0:0:0:
257,229,43162,1,4,0:0:0:0:
257,229,43411,1,0,0:0:0:0:
257,229,43494,1,8,0:0:0:0:
257,229,43660,1,0,0:0:0:0:
257,229,43825,1,8,0:0:0:0:
257,229,43991,1,0,0:0:0:0:
257,229,44074,1,0,0:0:0:0:
257,229,44157,1,8,0:0:0:0:
257,229,44323,1,0,0:0:0:0:
257,229,44488,1,0,0:0:0:0:
257,229,44737,1,0,0:0:0:0:
257,229,44820,1,8,0:0:0:0:
257,229,44986,1,0,0:0:0:0:
257,229,45151,1,0,0:0:0:0:
257,229,45317,1,0,0:0:0:0:
257,229,45400,1,0,0:0:0:0:
257,229,45483,1,8,0:0:0:0:
257,229,45814,1,0,0:0:0:0:
257,229,46063,1,0,0:0:0:0:
257,229,46146,1,8,0:0:0:0:
257,229,46312,1,0,0:0:0:0:
257,229,46477,1,8,0:0:0:0:
257,229,46643,1,8,0:0:0:0:
257,229,46809,1,0,0:0:0:0:
257,229,46975,1,0,0:0:0:0:
257,229,47140,1,8,0:0:0:0:
257,229,47306,1,0,0:0:0:0:
257,229,47389,1,0,0:0:0:0:
257,229,47472,1,8,0:0:0:0:
257,229,47638,1,0,0:0:0:0:
257,229,47803,1,8,0:0:0:0:
257,229,47969,1,0,0:0:0:0:
257,229,48135,1,8,0:0:0:0:
165,200,48301,5,0,0:0:0:0:
165,200,48632,1,0,0:0:0:0:
165,200,48964,1,8,0:0:0:0:
165,200,49295,1,0,0:0:0:0:
241,199,49627,1,0,0:0:0:0:
241,199,49958,1,0,0:0:0:0:
241,199,50290,1,0,0:0:0:0:
220,212,50455,1,8,0:0:0:0:
241,199,50621,1,0,0:0:0:0:
212,197,50676,1,0,0:0:0:0:
212,197,50731,1,0,0:0:0:0:
241,199,50787,1,8,0:0:0:0:
241,199,51118,1,4,0:0:0:0:
215,237,51450,1,8,0:0:0:0:
215,237,51615,1,8,0:0:0:0:
215,237,51781,1,0,0:0:0:0:
215,237,51947,1,0,0:0:0:0:
215,237,52030,1,0,0:0:0:0:
215,237,52113,1,8,0:0:0:0:
215,237,52278,1,8,0:0:0:0:
215,237,52444,1,0,0:0:0:0:
215,237,52693,1,0,0:0:0:0:
215,237,52776,1,8,0:0:0:0:
215,237,52941,1,8,0:0:0:0:
215,237,53107,1,0,0:0:0:0:
215,237,53273,1,0,0:0:0:0:
215,237,53356,1,0,0:0:0:0:
215,237,53439,1,8,0:0:0:0:
215,237,53604,1,8,0:0:0:0:
215,237,53770,1,4,0:0:0:0:
215,237,54102,1,8,0:0:0:0:
215,237,54267,1,0,0:0:0:0:
152,190,54433,1,8,0:0:0:0:
152,190,54599,1,0,0:0:0:0:
152,190,54682,1,0,0:0:0:0:
152,190,54765,1,8,0:0:0:0:
152,190,54930,1,8,0:0:0:0:
152,190,55096,1,0,0:0:0:0:
152,190,55262,1,8,0:0:0:0:
152,190,55345,1,0,0:0:0:0:
152,190,55428,1,0,0:0:0:0:
152,190,55593,1,8,0:0:0:0:
186,173,55925,1,0,0:0:0:0:
186,173,56091,1,8,0:0:0:0:
186,173,56256,1,0,0:0:0:0:
186,173,56339,1,0,0:0:0:0:
186,173,56422,1,8,0:0:0:0:
186,173,56754,1,8,0:0:0:0:
186,173,56919,1,0,0:0:0:0:
186,173,57085,1,8,0:0:0:0:
186,173,57251,1,0,0:0:0:0:
186,173,57334,1,0,0:0:0:0:
186,173,57417,1,8,0:0:0:0:
186,173,57582,1,8,0:0:0:0:
186,173,57748,1,0,0:0:0:0:
186,173,57914,1,8,0:0:0:0:
186,173,58080,1,0,0:0:0:0:
186,173,58245,1,8,0:0:0:0:
172,180,58577,1,8,0:0:0:0:
172,180,58660,1,8,0:0:0:0:
172,180,58743,1,0,0:0:0:0:
172,180,58908,1,8,0:0:0:0:
293,155,59074,1,4,0:0:0:0:
293,155,59240,1,8,0:0:0:0:
272,122,59323,1,0,0:0:0:0:
272,122,59406,1,0,0:0:0:0:
272,122,59571,1,8,0:0:0:0:
293,155,59737,1,8,0:0:0:0:
293,155,59903,1,0,0:0:0:0:
293,155,59986,1,0,0:0:0:0:
293,155,60069,1,8,0:0:0:0:
275,183,60234,1,4,0:0:0:0:
272,186,60566,1,0,0:0:0:0:
272,186,60731,1,8,0:0:0:0:
272,186,60897,1,0,0:0:0:0:
272,186,61063,1,8,0:0:0:0:
272,186,61146,1,8,0:0:0:0:
272,186,61229,1,0,0:0:0:0:
272,186,61394,1,8,0:0:0:0:
272,186,61477,1,8,0:0:0:0:
272,186,61560,1,0,0:0:0:0:
272,186,61726,1,4,0:0:0:0:
193,197,62057,1,8,0:0:0:0:
193,197,62223,1,8,0:0:0:0:
193,197,62389,1,0,0:0:0:0:
193,197,62555,1,0,0:0:0:0:
193,197,62638,1,0,0:0:0:0:
193,197,62720,1,8,0:0:0:0:
193,197,62886,1,8,0:0:0:0:
193,197,63052,1,0,0:0:0:0:
193,197,63301,1,0,0:0:0:0:
193,197,63383,1,8,0:0:0:0:
193,197,63549,1,0,0:0:0:0:
193,197,63715,1,8,0:0:0:0:
193,197,63798,1,0,0:0:0:0:
193,197,63881,1,0,0:0:0:0:
193,197,64046,1,8,0:0:0:0:
193,197,64212,1,8,0:0:0:0:
193,197,64378,1,4,0:0:0:0:
193,197,64627,1,0,0:0:0:0:
193,197,64709,1,8,0:0:0:0:
193,197,64875,1,0,0:0:0:0:
193,197,65041,1,8,0:0:0:0:
193,197,65207,1,0,0:0:0:0:
193,197,65290,1,0,0:0:0:0:
193,197,65372,1,8,0:0:0:0:
193,197,65538,1,0,0:0:0:0:
356,249,65870,1,8,0:0:0:0:
356,249,66035,1,0,0:0:0:0:
211,140,66201,1,8,0:0:0:0:
356,249,66533,1,0,0:0:0:0:
216,165,66698,1,12,0:0:0:0:
216,165,66864,1,0,0:0:0:0:
216,165,66947,1,0,0:0:0:0:
216,165,67030,1,0,0:0:0:0:
155,181,67278,1,0,0:0:0:0:
155,181,67361,1,8,0:0:0:0:
270,239,67527,1,8,0:0:0:0:
216,165,67859,1,8,0:0:0:0:
257,202,67941,1,8,0:0:0:0:
257,202,68024,1,0,0:0:0:0:
216,165,68190,1,8,0:0:0:0:
216,165,68356,1,0,0:0:0:0:
216,165,68522,1,8,0:0:0:0:
216,165,68687,1,8,0:0:0:0:
216,165,68853,1,0,0:0:0:0:
216,165,69019,1,8,0:0:0:0:
216,165,69185,1,0,0:0:0:0:
216,165,69267,1,0,0:0:0:0:
258,205,69350,1,8,0:0:0:0:
216,165,69516,1,0,0:0:0:0:
270,204,69682,1,4,0:0:0:0:
270,204,70013,1,0,0:0:0:0:
270,204,70179,1,0,0:0:0:0:
270,204,70345,1,8,0:0:0:0:
270,204,70511,1,0,0:0:0:0:
224,210,70676,1,8,0:0:0:0:
224,210,70842,1,0,0:0:0:0:
224,210,71008,1,12,0:0:0:0:
244,194,72334,1,4,0:0:0:0:
244,194,72582,1,0,0:0:0:0:
244,194,72665,1,8,0:0:0:0:
244,194,72831,1,0,0:0:0:0:
244,194,72997,1,8,0:0:0:0:
244,194,73162,1,0,0:0:0:0:
245,259,73245,1,0,0:0:0:0:
244,194,73328,1,8,0:0:0:0:
245,259,73494,1,0,0:0:0:0:
245,259,73660,1,8,0:0:0:0:
244,194,73908,1,8,0:0:0:0:
244,194,73991,1,0,0:0:0:0:
244,194,74157,1,8,0:0:0:0:
244,194,74323,1,0,0:0:0:0:
244,194,74406,1,8,0:0:0:0:
244,194,74488,1,0,0:0:0:0:
244,194,74654,1,8,0:0:0:0:
244,194,74820,1,0,0:0:0:0:
226,214,74986,5,4,0:0:0:0:
226,214,75151,1,8,0:0:0:0:
226,214,75317,1,0,0:0:0:0:
226,214,75483,1,12,0:0:0:0:
278,219,75814,1,4,0:0:0:0:
278,219,75980,1,8,0:0:0:0:
226,214,76146,1,4,0:0:0:0:
278,219,76477,1,8,0:0:0:0:
278,219,76809,1,0,0:0:0:0:
278,219,76975,1,8,0:0:0:0:
161,149,77140,1,0,0:0:0:0:
161,149,77306,1,0,0:0:0:0:
220,164,77638,1,4,0:0:0:0:
220,164,78135,1,0,0:0:0:0:
140,163,78218,1,0,0:0:0:0:
220,164,78301,1,8,0:0:0:0:
140,163,78798,1,8,0:0:0:0:
140,163,79129,1,8,0:0:0:0:
220,164,79461,1,0,0:0:0:0:
220,164,79627,1,8,0:0:0:0:
130,174,79792,1,0,0:0:0:0:
130,174,79875,1,0,0:0:0:0:
130,174,79958,1,0,0:0:0:0:
257,171,80290,1,4,0:0:0:0:
257,171,80787,1,0,0:0:0:0:
257,171,80870,1,0,0:0:0:0:
257,171,80952,1,8,0:0:0:0:
257,171,81284,1,0,0:0:0:0:
257,171,81450,1,8,0:0:0:0:
257,171,81781,1,8,0:0:0:0:
257,171,81947,1,0,0:0:0:0:
257,171,82113,1,0,0:0:0:0:
257,171,82278,1,8,0:0:0:0:
130,174,82444,1,0,0:0:0:0:
130,174,82527,1,0,0:0:0:0:
257,171,82610,1,0,0:0:0:0:
257,171,82941,1,4,0:0:0:0:
257,171,83439,1,0,0:0:0:0:
257,171,83522,1,0,0:0:0:0:
257,171,83604,1,8,0:0:0:0:
268,181,84102,1,8,0:0:0:0:
268,181,84433,1,8,0:0:0:0:
268,181,84765,1,0,0:0:0:0:
268,181,84930,1,8,0:0:0:0:
378,145,85096,1,0,0:0:0:0:
378,145,85179,1,0,0:0:0:0:
378,145,85262,1,0,0:0:0:0:
213,228,85593,1,4,0:0:0:0:
213,228,86091,1,0,0:0:0:0:
213,228,86173,1,0,0:0:0:0:
213,228,86256,1,8,0:0:0:0:
213,228,86588,1,0,0:0:0:0:
213,228,86754,1,8,0:0:0:0:
233,205,86919,1,0,0:0:0:0:
213,228,87085,1,8,0:0:0:0:
213,228,87251,1,0,0:0:0:0:
213,228,87417,1,0,0:0:0:0:
213,159,87582,5,8,0:0:0:0:
213,159,87748,1,0,0:0:0:0:
213,159,87831,1,0,0:0:0:0:
213,159,87914,1,0,0:0:0:0:
164,173,88080,1,0,0:0:0:0:
229,183,88245,5,12,0:0:0:0:
230,227,97527,5,0,0:0:0:0:
230,227,97693,1,8,0:0:0:0:
230,227,97859,1,8,0:0:0:0:
230,227,98024,5,0,0:0:0:0:
230,227,98190,1,8,0:0:0:0:
230,227,98356,1,0,0:0:0:0:
230,227,98522,1,8,0:0:0:0:
261,234,98853,5,4,0:0:0:0:
261,234,99019,1,0,0:0:0:0:
258,230,99350,1,8,0:0:0:0:
258,230,99682,1,0,0:0:0:0:
258,230,99848,1,8,0:0:0:0:
258,230,100013,1,0,0:0:0:0:
258,230,100179,1,0,0:0:0:0:
258,230,100345,1,8,0:0:0:0:
195,212,100676,1,0,0:0:0:0:
195,212,101008,1,0,0:0:0:0:
258,230,101173,1,8,0:0:0:0:
258,230,101339,1,0,0:0:0:0:
258,230,101505,1,4,0:0:0:0:
208,191,101671,1,0,0:0:0:0:
178,192,102002,1,8,0:0:0:0:
290,183,102334,1,0,0:0:0:0:
290,183,102499,1,8,0:0:0:0:
290,183,102665,1,0,0:0:0:0:
178,192,102831,1,0,0:0:0:0:
178,192,102914,1,0,0:0:0:0:
178,192,102997,1,8,0:0:0:0:
178,192,103162,1,12,0:0:0:0:
178,192,103328,1,0,0:0:0:0:
178,192,103494,1,8,0:0:0:0:
178,192,103577,1,8,0:0:0:0:
178,192,103660,1,0,0:0:0:0:
178,192,103825,1,8,0:0:0:0:
197,205,103991,1,0,0:0:0:0:
257,229,104157,1,4,0:0:0:0:
257,229,104406,1,0,0:0:0:0:
257,229,104488,1,8,0:0:0:0:
257,229,104654,1,0,0:0:0:0:
257,229,104820,1,8,0:0:0:0:
257,229,104986,1,0,0:0:0:0:
257,229,105069,1,0,0:0:0:0:
257,229,105151,1,8,0:0:0:0:
257,229,105317,1,0,0:0:0:0:
257,229,105483,1,0,0:0:0:0:
257,229,105731,1,0,0:0:0:0:
257,229,105814,1,8,0:0:0:0:
257,229,105980,1,0,0:0:0:0:
257,229,106146,1,0,0:0:0:0:
257,229,106312,1,0,0:0:0:0:
257,229,106394,1,0,0:0:0:0:
257,229,106477,1,8,0:0:0:0:
257,229,106809,1,0,0:0:0:0:
257,229,107057,1,0,0:0:0:0:
257,229,107140,1,8,0:0:0:0:
257,229,107306,1,0,0:0:0:0:
257,229,107472,1,8,0:0:0:0:
257,229,107638,1,8,0:0:0:0:
257,229,107803,1,0,0:0:0:0:
257,229,107969,1,0,0:0:0:0:
257,229,108135,1,8,0:0:0:0:
257,229,108301,1,0,0:0:0:0:
257,229,108383,1,0,0:0:0:0:
257,229,108466,1,8,0:0:0:0:
257,229,108632,1,0,0:0:0:0:
257,229,108798,1,8,0:0:0:0:
257,229,108964,1,0,0:0:0:0:
257,229,109129,1,8,0:0:0:0:
165,200,109295,5,0,0:0:0:0:
165,200,109627,1,0,0:0:0:0:
165,200,109958,1,8,0:0:0:0:
165,200,110290,1,0,0:0:0:0:
241,199,110621,1,0,0:0:0:0:
241,199,110952,1,0,0:0:0:0:
241,199,111284,1,0,0:0:0:0:
220,212,111450,1,8,0:0:0:0:
241,199,111615,5,0,0:0:0:0:
212,197,111671,1,0,0:0:0:0:
212,197,111726,1,0,0:0:0:0:
241,199,111781,1,8,0:0:0:0:
241,199,112113,5,4,0:0:0:0:
215,237,112444,1,8,0:0:0:0:
215,237,112610,1,8,0:0:0:0:
215,237,112776,1,0,0:0:0:0:
215,237,112941,1,0,0:0:0:0:
215,237,113024,1,0,0:0:0:0:
215,237,113107,1,8,0:0:0:0:
215,237,113273,1,8,0:0:0:0:
215,237,113439,1,0,0:0:0:0:
215,237,113687,1,0,0:0:0:0:
215,237,113770,1,8,0:0:0:0:
215,237,113936,1,8,0:0:0:0:
215,237,114102,1,0,0:0:0:0:
215,237,114267,1,0,0:0:0:0:
215,237,114350,1,0,0:0:0:0:
215,237,114433,1,8,0:0:0:0:
215,237,114599,1,8,0:0:0:0:
215,237,114765,1,4,0:0:0:0:
215,237,115096,1,8,0:0:0:0:
215,237,115262,1,0,0:0:0:0:
152,190,115428,1,8,0:0:0:0:
152,190,115593,1,0,0:0:0:0:
152,190,115676,1,0,0:0:0:0:
152,190,115759,1,8,0:0:0:0:
152,190,115925,1,8,0:0:0:0:
152,190,116091,1,0,0:0:0:0:
152,190,116256,1,8,0:0:0:0:
152,190,116339,1,0,0:0:0:0:
152,190,116422,1,0,0:0:0:0:
152,190,116588,1,8,0:0:0:0:
186,173,116919,1,0,0:0:0:0:
186,173,117085,1,8,0:0:0:0:
186,173,117251,1,0,0:0:0:0:
186,173,117334,1,0,0:0:0:0:
186,173,117417,1,8,0:0:0:0:
186,173,117748,1,8,0:0:0:0:
186,173,117914,1,0,0:0:0:0:
186,173,118080,1,8,0:0:0:0:
186,173,118245,1,0,0:0:0:0:
186,173,118328,1,0,0:0:0:0:
186,173,118411,1,8,0:0:0:0:
186,173,118577,1,8,0:0:0:0:
186,173,118743,1,0,0:0:0:0:
186,173,118908,1,8,0:0:0:0:
186,173,119074,1,0,0:0:0:0:
186,173,119240,1,8,0:0:0:0:
172,180,119571,1,8,0:0:0:0:
172,180,119654,1,8,0:0:0:0:
172,180,119737,1,0,0:0:0:0:
172,180,119903,1,8,0:0:0:0:
293,155,120069,1,4,0:0:0:0:
293,155,120234,1,8,0:0:0:0:
272,122,120317,1,0,0:0:0:0:
272,122,120400,1,0,0:0:0:0:
272,122,120566,1,8,0:0:0:0:
226,226,120731,1,8,0:0:0:0:
226,226,120897,1,0,0:0:0:0:
293,155,120980,1,0,0:0:0:0:
293,155,121063,1,8,0:0:0:0:
275,183,121229,1,4,0:0:0:0:
272,186,121560,1,0,0:0:0:0:
272,186,121726,1,8,0:0:0:0:
272,186,121892,1,0,0:0:0:0:
272,186,122057,1,0,0:0:0:0:
272,186,122140,1,8,0:0:0:0:
272,186,122223,1,0,0:0:0:0:
272,186,122389,1,8,0:0:0:0:
272,186,122472,1,8,0:0:0:0:
272,186,122555,1,0,0:0:0:0:
272,186,122720,1,4,0:0:0:0:
193,197,123052,1,8,0:0:0:0:
193,197,123218,1,8,0:0:0:0:
193,197,123383,1,0,0:0:0:0:
193,197,123549,1,0,0:0:0:0:
193,197,123632,1,0,0:0:0:0:
193,197,123715,1,8,0:0:0:0:
193,197,123881,1,8,0:0:0:0:
193,197,124046,1,0,0:0:0:0:
193,197,124295,1,0,0:0:0:0:
193,197,124378,1,8,0:0:0:0:
193,197,124544,1,0,0:0:0:0:
193,197,124709,1,8,0:0:0:0:
193,197,124792,1,0,0:0:0:0:
193,197,124875,1,0,0:0:0:0:
193,197,125041,1,8,0:0:0:0:
193,197,125207,1,8,0:0:0:0:
193,197,125372,1,4,0:0:0:0:
193,197,125621,1,0,0:0:0:0:
193,197,125704,1,8,0:0:0:0:
193,197,125870,1,0,0:0:0:0:
193,197,126035,1,8,0:0:0:0:
193,197,126201,1,0,0:0:0:0:
193,197,126284,1,0,0:0:0:0:
193,197,126367,1,8,0:0:0:0:
193,197,126533,1,0,0:0:0:0:
356,249,126864,1,8,0:0:0:0:
356,249,127030,1,0,0:0:0:0:
211,140,127196,1,8,0:0:0:0:
356,249,127527,1,0,0:0:0:0:
216,165,127693,1,12,0:0:0:0:
216,165,127859,1,0,0:0:0:0:
216,165,127941,1,0,0:0:0:0:
216,165,128024,1,0,0:0:0:0:
216,165,128273,1,0,0:0:0:0:
223,164,128356,1,8,0:0:0:0:
216,165,128522,1,0,0:0:0:0:
216,165,128687,1,8,0:0:0:0:
216,165,128853,1,0,0:0:0:0:
223,164,128936,1,0,0:0:0:0:
223,164,129019,1,8,0:0:0:0:
266,197,129185,1,0,0:0:0:0:
216,165,129350,1,8,0:0:0:0:
266,197,129516,1,8,0:0:0:0:
124,164,129599,1,0,0:0:0:0:
266,197,129682,1,8,0:0:0:0:
266,197,129848,1,8,0:0:0:0:
318,127,130013,1,0,0:0:0:0:
216,165,130179,1,0,0:0:0:0:
216,165,130262,1,0,0:0:0:0:
216,165,130345,1,8,0:0:0:0:
216,165,130511,1,0,0:0:0:0:
270,204,130676,1,4,0:0:0:0:
270,204,131008,1,0,0:0:0:0:
270,204,131173,1,0,0:0:0:0:
270,204,131339,1,8,0:0:0:0:
270,204,131505,1,0,0:0:0:0:
224,210,131671,1,8,0:0:0:0:
224,210,131836,1,0,0:0:0:0:
224,210,132002,1,12,0:0:0:0:
240,186,133328,1,12,0:0:0:0:
240,186,133660,1,0,0:0:0:0:
240,186,133991,1,0,0:0:0:0:
240,186,134323,1,0,0:0:0:0:
240,186,134654,1,0,0:0:0:0:
240,186,134986,1,0,0:0:0:0:
240,186,135317,1,0,0:0:0:0:
240,186,135649,1,0,0:0:0:0:
249,209,135980,1,8,0:0:0:0:
240,186,136312,1,0,0:0:0:0:
240,186,136643,1,0,0:0:0:0:
240,186,136975,1,0,0:0:0:0:
249,209,137306,1,0,0:0:0:0:
240,186,137638,1,0,0:0:0:0:
249,209,137969,1,8,0:0:0:0:
240,186,138301,1,0,0:0:0:0:
240,186,138632,1,12,0:0:0:0:
240,186,138964,1,0,0:0:0:0:
258,158,139295,1,0,0:0:0:0:
240,186,139627,1,0,0:0:0:0:
240,186,139958,1,0,0:0:0:0:
240,186,140290,1,0,0:0:0:0:
240,186,140621,1,0,0:0:0:0:
240,186,140952,1,0,0:0:0:0:
240,186,141284,1,8,0:0:0:0:
240,186,141615,1,0,0:0:0:0:
240,186,141947,1,0,0:0:0:0:
240,186,142278,1,0,0:0:0:0:
249,209,142610,1,0,0:0:0:0:
240,186,142941,1,0,0:0:0:0:
240,186,143273,1,0,0:0:0:0:
212,162,143604,5,0,0:0:0:0:
212,162,143770,1,12,0:0:0:0:
209,134,144102,1,0,0:0:0:0:
137,166,144267,1,8,0:0:0:0:
209,134,144433,1,8,0:0:0:0:
229,128,144599,1,0,0:0:0:0:
137,166,144765,1,0,0:0:0:0:
137,166,144930,1,8,0:0:0:0:
137,166,145096,1,0,0:0:0:0:
137,166,145262,1,8,0:0:0:0:
137,166,145428,1,8,0:0:0:0:
137,166,145759,1,0,0:0:0:0:
137,166,145925,1,8,0:0:0:0:
229,128,146091,1,0,0:0:0:0:
229,128,146256,1,8,0:0:0:0:
261,159,146422,1,8,0:0:0:0:
261,159,146754,1,0,0:0:0:0:
261,159,146919,1,8,0:0:0:0:
261,159,147085,1,0,0:0:0:0:
261,159,147251,1,8,0:0:0:0:
261,159,147417,1,8,0:0:0:0:
253,132,147582,1,0,0:0:0:0:
280,113,147748,1,0,0:0:0:0:
280,113,147914,1,8,0:0:0:0:
261,159,148080,1,0,0:0:0:0:
280,113,148245,1,8,0:0:0:0:
280,113,148411,1,8,0:0:0:0:
261,159,148743,1,0,0:0:0:0:
334,248,148825,1,0,0:0:0:0:
334,248,148908,1,8,0:0:0:0:
233,237,149074,1,0,0:0:0:0:
233,237,149240,1,4,0:0:0:0:
233,237,149488,1,0,0:0:0:0:
233,237,149571,1,8,0:0:0:0:
373,208,149737,1,8,0:0:0:0:
373,208,149903,1,0,0:0:0:0:
373,208,149986,1,0,0:0:0:0:
373,208,150069,1,8,0:0:0:0:
373,208,150234,1,8,0:0:0:0:
373,208,150400,1,0,0:0:0:0:
233,237,150566,1,0,0:0:0:0:
233,237,150731,1,8,0:0:0:0:
233,237,150814,1,0,0:0:0:0:
233,237,150897,1,8,0:0:0:0:
233,237,151063,1,8,0:0:0:0:
233,237,151229,1,0,0:0:0:0:
233,237,151312,1,8,0:0:0:0:
233,237,151394,1,0,0:0:0:0:
233,237,151560,1,8,0:0:0:0:
233,237,151726,1,0,0:0:0:0:
233,237,151892,1,12,0:0:0:0:
265,158,152140,1,0,0:0:0:0:
250,194,152223,1,8,0:0:0:0:
250,194,152389,1,8,0:0:0:0:
250,194,152555,1,0,0:0:0:0:
250,194,152638,1,0,0:0:0:0:
250,194,152720,1,8,0:0:0:0:
233,237,152886,1,8,0:0:0:0:
233,237,153052,1,0,0:0:0:0:
233,237,153218,1,0,0:0:0:0:
233,237,153383,1,8,0:0:0:0:
233,237,153466,1,0,0:0:0:0:
233,237,153549,1,8,0:0:0:0:
233,237,153715,1,8,0:0:0:0:
233,237,153881,1,0,0:0:0:0:
233,237,153964,1,8,0:0:0:0:
233,237,154046,1,0,0:0:0:0:
233,237,154212,1,8,0:0:0:0:
233,237,154378,1,0,0:0:0:0:
272,184,154544,1,4,0:0:0:0:
272,184,154709,1,8,0:0:0:0:
272,184,154875,1,0,0:0:0:0:
272,184,155041,1,12,0:0:0:0:
323,241,155372,1,8,0:0:0:0:
323,241,155538,1,0,0:0:0:0:
323,241,155704,1,4,0:0:0:0:
252,194,156035,1,8,0:0:0:0:
252,194,156201,1,0,0:0:0:0:
252,194,156367,1,0,0:0:0:0:
252,194,156533,1,8,0:0:0:0:
252,194,156698,1,8,0:0:0:0:
252,194,156864,1,0,0:0:0:0:
224,189,157030,1,4,0:0:0:0:
224,189,157361,1,0,0:0:0:0:
224,189,157527,1,8,0:0:0:0:
224,189,157776,1,8,0:0:0:0:
224,189,157859,1,0,0:0:0:0:
224,189,158024,1,0,0:0:0:0:
224,189,158190,1,8,0:0:0:0:
224,189,158356,1,0,0:0:0:0:
211,195,158687,1,0,0:0:0:0:
211,195,158853,1,8,0:0:0:0:
211,195,159019,1,8,0:0:0:0:
211,195,159185,1,8,0:0:0:0:
211,195,159350,1,0,0:0:0:0:
211,195,159516,1,0,0:0:0:0:
253,226,159682,1,0,0:0:0:0:
253,226,159765,1,0,0:0:0:0:
253,226,159848,1,8,0:0:0:0:
256,192,160013,12,0,162499,0:0:0:0:
272,151,167803,5,0,0:0:0:0:
272,151,168135,1,0,0:0:0:0:
272,151,168301,1,8,0:0:0:0:
272,151,168798,1,8,0:0:0:0:
272,151,169461,1,0,0:0:0:0:
272,151,169627,1,8,0:0:0:0:
201,228,170124,1,8,0:0:0:0:
201,228,170290,1,0,0:0:0:0:
268,179,171615,1,4,0:0:0:0:
268,179,171947,1,4,0:0:0:0:
268,179,172278,1,4,0:0:0:0:
268,179,172444,1,8,0:0:0:0:
268,179,172610,1,0,0:0:0:0:
266,140,172776,1,12,0:0:0:0:
272,186,173107,1,4,0:0:0:0:
193,197,173439,1,8,0:0:0:0:
193,197,173604,1,8,0:0:0:0:
193,197,173770,1,0,0:0:0:0:
193,197,173936,1,0,0:0:0:0:
193,197,174019,1,0,0:0:0:0:
193,197,174102,1,8,0:0:0:0:
193,197,174267,1,8,0:0:0:0:
193,197,174433,1,0,0:0:0:0:
193,197,174682,1,0,0:0:0:0:
193,197,174765,1,8,0:0:0:0:
193,197,174930,1,0,0:0:0:0:
193,197,175096,1,8,0:0:0:0:
193,197,175179,1,0,0:0:0:0:
193,197,175262,1,0,0:0:0:0:
193,197,175428,1,8,0:0:0:0:
193,197,175593,1,8,0:0:0:0:
193,197,175759,1,4,0:0:0:0:
193,197,176008,1,0,0:0:0:0:
193,197,176091,1,8,0:0:0:0:
193,197,176256,1,0,0:0:0:0:
193,197,176422,1,8,0:0:0:0:
193,197,176588,1,0,0:0:0:0:
193,197,176671,1,0,0:0:0:0:
193,197,176754,1,8,0:0:0:0:
193,197,176919,1,0,0:0:0:0:
356,249,177251,1,8,0:0:0:0:
356,249,177417,1,0,0:0:0:0:
211,140,177582,1,8,0:0:0:0:
356,249,177914,1,0,0:0:0:0:
216,165,178080,1,12,0:0:0:0:
216,165,178245,1,0,0:0:0:0:
216,165,178328,1,0,0:0:0:0:
216,165,178411,1,0,0:0:0:0:
234,190,178577,1,8,0:0:0:0:
234,190,178660,1,0,0:0:0:0:
234,190,178743,1,0,0:0:0:0:
234,190,178908,1,0,0:0:0:0:
234,190,179074,1,8,0:0:0:0:
234,190,179240,1,0,0:0:0:0:
234,190,179323,1,8,0:0:0:0:
234,190,179406,1,0,0:0:0:0:
234,190,179571,1,8,0:0:0:0:
234,190,179737,1,0,0:0:0:0:
234,190,179820,1,0,0:0:0:0:
234,190,179903,1,8,0:0:0:0:
245,243,180069,1,8,0:0:0:0:
245,243,180234,1,0,0:0:0:0:
245,243,180317,1,0,0:0:0:0:
245,243,180400,1,8,0:0:0:0:
245,243,180483,1,8,0:0:0:0:
245,243,180566,1,0,0:0:0:0:
245,243,180731,1,8,0:0:0:0:
245,243,180897,1,0,0:0:0:0:
270,204,181063,1,4,0:0:0:0:
270,204,181394,1,0,0:0:0:0:
270,204,181560,1,0,0:0:0:0:
270,204,181726,1,8,0:0:0:0:
270,204,181892,1,0,0:0:0:0:
224,210,182057,1,8,0:0:0:0:
224,210,182223,1,0,0:0:0:0:
224,210,182389,1,12,0:0:0:0:
222,136,183052,1,8,0:0:0:0:
220,155,183218,1,0,0:0:0:0:
254,178,183273,1,0,0:0:0:0:
220,155,183328,1,0,0:0:0:0:
220,155,183383,1,8,0:0:0:0:
253,209,183715,1,4,0:0:0:0:
294,189,183964,1,0,0:0:0:0:
294,189,184046,1,8,0:0:0:0:
294,189,184212,1,0,0:0:0:0:
294,189,184378,1,8,0:0:0:0:
294,189,184544,1,0,0:0:0:0:
294,189,184627,1,0,0:0:0:0:
294,189,184709,1,8,0:0:0:0:
294,189,184875,1,0,0:0:0:0:
294,189,185041,1,8,0:0:0:0:
294,189,185290,1,8,0:0:0:0:
294,189,185372,1,0,0:0:0:0:
294,189,185538,1,8,0:0:0:0:
294,189,185704,1,0,0:0:0:0:
294,189,185787,1,8,0:0:0:0:
294,189,185870,1,0,0:0:0:0:
294,189,186035,1,8,0:0:0:0:
294,189,186201,1,8,0:0:0:0:
294,189,186367,1,0,0:0:0:0:
294,189,186533,1,0,0:0:0:0:
294,189,186615,1,0,0:0:0:0:
294,189,186698,1,8,0:0:0:0:
294,189,186864,1,0,0:0:0:0:
294,189,187030,1,8,0:0:0:0:
294,189,187196,1,0,0:0:0:0:
294,189,187361,1,8,0:0:0:0:
294,189,187527,1,0,0:0:0:0:
294,189,187859,1,8,0:0:0:0:
277,189,188024,1,0,0:0:0:0:
203,203,188190,1,0,0:0:0:0:
294,189,188356,1,8,0:0:0:0:
294,189,188522,1,0,0:0:0:0:
294,189,188604,1,0,0:0:0:0:
294,189,188687,1,8,0:0:0:0:
294,189,188853,1,0,0:0:0:0:
294,189,189019,1,0,0:0:0:0:
267,194,189267,1,0,0:0:0:0:
267,194,189350,1,8,0:0:0:0:
267,194,189516,1,0,0:0:0:0:
267,194,189682,1,8,0:0:0:0:
267,194,189848,1,0,0:0:0:0:
267,194,189930,1,0,0:0:0:0:
267,194,190013,1,8,0:0:0:0:
267,194,190179,1,0,0:0:0:0:
267,194,190345,1,0,0:0:0:0:
267,194,190593,1,8,0:0:0:0:
267,194,190676,1,0,0:0:0:0:
267,194,190842,1,8,0:0:0:0:
267,194,190925,1,8,0:0:0:0:
267,194,191008,1,0,0:0:0:0:
267,194,191173,1,8,0:0:0:0:
267,194,191339,1,0,0:0:0:0:
267,194,191505,1,8,0:0:0:0:
267,194,191671,1,4,0:0:0:0:
229,184,191836,1,8,0:0:0:0:
288,146,191919,1,0,0:0:0:0:
229,184,192002,1,0,0:0:0:0:
229,184,192168,1,0,0:0:0:0:
229,184,192334,1,8,0:0:0:0:
201,131,192417,1,0,0:0:0:0:
229,184,192499,1,8,0:0:0:0:
229,184,192665,1,0,0:0:0:0:
229,184,192831,1,12,0:0:0:0:
265,132,193162,1,0,0:0:0:0:
265,132,193328,1,8,0:0:0:0:
265,132,193494,1,0,0:0:0:0:
265,132,193660,1,8,0:0:0:0:
265,132,193743,1,8,0:0:0:0:
265,132,193825,1,0,0:0:0:0:
265,132,193991,1,8,0:0:0:0:
265,132,194074,1,8,0:0:0:0:
265,132,194157,1,0,0:0:0:0:
250,168,194323,1,4,0:0:0:0:
288,218,194571,1,0,0:0:0:0:
288,218,194654,1,8,0:0:0:0:
288,218,194820,1,0,0:0:0:0:
288,218,195151,1,0,0:0:0:0:
288,218,195317,1,8,0:0:0:0:
288,218,195483,1,0,0:0:0:0:
288,218,195649,1,0,0:0:0:0:
288,218,195814,1,8,0:0:0:0:
288,218,195897,1,0,0:0:0:0:
288,218,195980,1,0,0:0:0:0:
288,218,196146,1,8,0:0:0:0:
288,218,196312,1,0,0:0:0:0:
288,218,196394,1,0,0:0:0:0:
288,218,196477,1,8,0:0:0:0:
288,218,196643,1,8,0:0:0:0:
288,218,196809,1,0,0:0:0:0:
217,185,196975,1,4,0:0:0:0:
217,185,197223,1,8,0:0:0:0:
217,185,197306,1,0,0:0:0:0:
217,185,197472,1,8,0:0:0:0:
335,229,197803,1,8,0:0:0:0:
335,229,197886,1,8,0:0:0:0:
335,229,197969,1,0,0:0:0:0:
335,229,198135,1,8,0:0:0:0:
335,229,198301,1,0,0:0:0:0:
335,229,198466,1,8,0:0:0:0:
335,229,198632,1,0,0:0:0:0:
335,229,198798,1,0,0:0:0:0:
213,180,199129,1,0,0:0:0:0:
213,180,199295,1,12,0:0:0:0:
333,250,199461,1,8,0:0:0:0:
333,250,199544,1,8,0:0:0:0:
333,250,199627,1,0,0:0:0:0:
333,250,199875,1,0,0:0:0:0:
333,250,199958,1,8,0:0:0:0:
333,250,200124,1,0,0:0:0:0:
333,250,200290,1,8,0:0:0:0:
333,250,200455,1,0,0:0:0:0:
333,250,200538,1,0,0:0:0:0:
333,250,200621,1,8,0:0:0:0:
333,250,200787,1,0,0:0:0:0:
333,250,200952,1,8,0:0:0:0:
333,250,201118,1,8,0:0:0:0:
333,250,201284,1,0,0:0:0:0:
333,250,201450,1,8,0:0:0:0:
333,250,201781,1,8,0:0:0:0:
333,250,201947,1,0,0:0:0:0:
251,139,202113,1,8,0:0:0:0:
232,200,202278,5,4,0:0:0:0:
216,187,202610,1,0,0:0:0:0:
216,187,202776,1,0,0:0:0:0:
216,187,202941,1,8,0:0:0:0:
216,187,203107,1,0,0:0:0:0:
216,187,203273,1,0,0:0:0:0:
215,187,203439,1,12,0:0:0:0:
209,242,203770,1,0,0:0:0:0:
209,242,204122,1,8,0:0:0:0:
209,242,204473,1,0,0:0:0:0:
239,169,204920,1,12,0:0:0:0:
256,192,205253,12,0,212920,0:0:0:0:
