osu file format v14

[General]
AudioFilename: Closed Wings.mp3
AudioLeadIn: 0
PreviewTime: 50686
Countdown: 0
SampleSet: Normal
StackLeniency: 0.5
Mode: 1
LetterboxInBreaks: 0
WidescreenStoryboard: 1

[Editor]
Bookmarks: 7178,77620
DistanceSpacing: 1
BeatDivisor: 4
GridSize: 32
TimelineZoom: 0.5999988

[Metadata]
Title:Closed Wings
TitleUnicode:Closed Wings
Artist:FELT
ArtistUnicode:FELT
Creator:sendol
Version:Kantan
Source:東方地霊殿 ~ Subterranean Animism.
Tags:FELT-011 Maika 舞花 Mika 美歌 NAGI☆ Abyss nova 霊知の太陽信仰 Solar Sect of Mystic Wisdom Nuclear Fusion touhou 東方Project th11 Chireiden 霊烏路空 Reiuji Utsuho stage 6 boss theme Video Game Japanese
BeatmapID:2085859
BeatmapSetID:997172

[Difficulty]
HPDrainRate:7
CircleSize:4
OverallDifficulty:3
ApproachRate:9.3
SliderMultiplier:1.4
SliderTickRate:1

[Events]
//Background and Video events
0,0,"Closed Wings.jpg",0,0
//Break Periods
2,88445,96973
2,162481,167249
//Storyboard Layer 0 (Background)
//Storyboard Layer 1 (Fail)
//Storyboard Layer 2 (Pass)
//Storyboard Layer 3 (Foreground)
//Storyboard Layer 4 (Overlay)
//Storyboard Sound Samples

[TimingPoints]
732,331.491712707182,4,1,0,40,1,0
2718,-100,4,1,0,80,0,0
12580,-100,4,1,0,40,0,0
16558,-100,4,1,0,60,0,0
25840,-100,4,1,0,70,0,0
27166,-100,4,1,0,80,0,0
51118,-100,4,1,0,80,0,1
71008,-100,4,1,0,80,0,0
77553,-100,4,1,0,70,0,0
88326,-100,4,1,0,40,0,0
97442,-100,4,1,0,70,0,0
98768,-100,4,1,0,80,0,0
112113,-100,4,1,0,80,0,1
132002,-100,4,1,0,80,0,0
133243,-100,4,1,0,60,0,0
143685,-100,4,1,0,70,0,0
149155,-100,4,1,0,80,0,0
157194,-100,4,1,0,60,0,0
159928,-100,4,1,0,50,0,0
162580,-100,4,1,0,40,0,0
167718,-100,4,1,0,50,0,0
171531,-100,4,1,0,80,0,0
173107,-100,4,1,0,80,0,1
182389,-100,4,1,0,80,0,0
203770,350.877192982456,4,1,0,80,1,8
204122,351.00240436647,4,1,0,80,1,8
204122,-113.636363636364,4,1,0,80,0,0
204473,447.998566404588,4,1,0,80,1,8
204473,-96.1538461538461,4,1,0,80,0,0
204920,666.666666666667,4,1,0,80,1,0
204920,-76.9230769230769,4,1,0,80,0,0
205001,-76.9230769230769,4,1,0,40,0,0

[HitObjects]
256,192,1063,12,0,3052,0:0:0:0:
249,190,3383,5,0,0:0:0:0:
249,190,3715,1,0,0:0:0:0:
249,190,4212,1,0,0:0:0:0:
249,190,4709,1,0,0:0:0:0:
218,200,5207,1,0,0:0:0:0:
249,190,5704,1,8,0:0:0:0:
249,190,6035,1,0,0:0:0:0:
245,184,7196,1,8,0:0:0:0:
228,203,8687,1,0,0:0:0:0:
228,203,9019,1,0,0:0:0:0:
228,203,9516,1,0,0:0:0:0:
228,203,10013,1,0,0:0:0:0:
244,208,10511,1,0,0:0:0:0:
228,203,11008,1,8,0:0:0:0:
228,203,11339,1,0,0:0:0:0:
253,196,12499,1,12,0:0:0:0:
256,192,12831,12,0,15980,0:0:0:0:
237,189,16643,5,12,0:0:0:0:
237,189,17306,1,0,0:0:0:0:
237,189,17969,1,8,0:0:0:0:
237,189,19295,1,0,0:0:0:0:
258,175,19958,1,8,0:0:0:0:
258,175,20621,1,0,0:0:0:0:
258,175,21947,1,12,0:0:0:0:
258,175,22610,1,0,0:0:0:0:
258,175,23273,1,8,0:0:0:0:
258,175,23936,1,0,0:0:0:0:
258,175,24599,1,8,0:0:0:0:
258,175,25262,1,8,0:0:0:0:
258,175,25925,1,0,0:0:0:0:
209,206,27251,1,4,0:0:0:0:
209,206,27914,1,0,0:0:0:0:
209,206,28577,1,8,0:0:0:0:
197,215,29074,1,12,0:0:0:0:
209,206,29571,1,0,0:0:0:0:
209,206,29903,1,0,0:0:0:0:
209,206,30400,1,8,0:0:0:0:
209,206,31063,1,4,0:0:0:0:
224,207,32555,1,12,0:0:0:0:
235,200,32886,1,0,0:0:0:0:
235,200,33218,1,8,0:0:0:0:
226,201,33881,1,0,0:0:0:0:
227,201,34378,1,12,0:0:0:0:
227,201,35207,1,0,0:0:0:0:
227,201,35538,1,8,0:0:0:0:
227,201,35870,1,8,0:0:0:0:
251,186,36367,1,4,0:0:0:0:
277,192,37859,1,4,0:0:0:0:
277,192,38522,1,0,0:0:0:0:
277,192,39185,1,0,0:0:0:0:
277,192,39848,1,8,0:0:0:0:
277,192,40511,1,4,0:0:0:0:
277,192,41008,1,8,0:0:0:0:
242,191,41836,1,0,0:0:0:0:
277,192,42168,1,12,0:0:0:0:
258,187,43162,1,12,0:0:0:0:
258,187,43825,1,0,0:0:0:0:
258,187,44488,1,8,0:0:0:0:
258,187,45151,1,8,0:0:0:0:
258,187,45814,1,0,0:0:0:0:
258,187,47969,5,8,0:0:0:0:
179,235,48301,5,0,0:0:0:0:
179,235,48632,1,0,0:0:0:0:
179,235,48964,1,8,0:0:0:0:
179,235,49295,1,0,0:0:0:0:
179,235,49627,1,0,0:0:0:0:
179,235,50787,1,12,0:0:0:0:
257,206,51118,1,4,0:0:0:0:
257,206,52113,1,8,0:0:0:0:
202,169,52444,1,0,0:0:0:0:
202,169,53107,1,8,0:0:0:0:
202,169,53770,1,4,0:0:0:0:
202,169,54433,1,8,0:0:0:0:
202,169,54930,1,0,0:0:0:0:
235,166,55262,1,0,0:0:0:0:
235,166,55593,1,8,0:0:0:0:
231,187,56422,1,4,0:0:0:0:
231,187,57085,1,8,0:0:0:0:
231,187,57748,1,0,0:0:0:0:
231,187,58245,1,0,0:0:0:0:
231,187,58577,1,0,0:0:0:0:
231,187,59074,1,4,0:0:0:0:
231,187,59571,1,8,0:0:0:0:
231,187,60234,1,4,0:0:0:0:
209,237,61394,1,0,0:0:0:0:
266,210,61726,1,12,0:0:0:0:
257,206,62720,1,8,0:0:0:0:
202,169,63052,1,0,0:0:0:0:
202,169,63715,1,8,0:0:0:0:
202,169,64378,1,4,0:0:0:0:
202,169,65041,1,8,0:0:0:0:
202,169,65538,1,0,0:0:0:0:
237,211,65870,1,0,0:0:0:0:
248,210,66201,1,8,0:0:0:0:
345,181,66698,1,12,0:0:0:0:
221,205,67030,1,4,0:0:0:0:
221,205,68356,1,8,0:0:0:0:
221,205,69019,1,0,0:0:0:0:
221,205,69350,1,8,0:0:0:0:
85,205,69682,1,8,0:0:0:0:
85,205,70345,1,0,0:0:0:0:
85,205,71008,1,12,0:0:0:0:
254,189,72334,1,4,0:0:0:0:
197,171,73660,1,0,0:0:0:0:
229,167,74986,1,4,0:0:0:0:
229,167,75483,1,8,0:0:0:0:
252,177,75814,1,8,0:0:0:0:
252,177,76146,1,4,0:0:0:0:
269,185,77638,5,12,0:0:0:0:
269,185,78301,1,0,0:0:0:0:
269,185,78964,1,8,0:0:0:0:
269,186,80290,1,0,0:0:0:0:
269,186,80952,1,8,0:0:0:0:
269,186,81450,1,0,0:0:0:0:
269,186,81781,1,0,0:0:0:0:
269,186,82278,1,8,0:0:0:0:
260,194,82941,1,12,0:0:0:0:
260,194,83604,1,0,0:0:0:0:
260,194,84267,1,8,0:0:0:0:
260,194,85593,1,0,0:0:0:0:
266,198,86256,1,8,0:0:0:0:
260,194,86754,1,0,0:0:0:0:
260,194,87085,1,0,0:0:0:0:
260,194,87582,1,8,0:0:0:0:
263,194,88245,1,12,0:0:0:0:
186,171,97527,5,0,0:0:0:0:
186,171,97859,1,8,0:0:0:0:
186,171,98190,1,8,0:0:0:0:
245,187,98853,1,4,0:0:0:0:
277,192,99516,1,0,0:0:0:0:
277,192,100179,1,0,0:0:0:0:
277,192,100842,1,8,0:0:0:0:
277,192,101505,1,4,0:0:0:0:
277,192,102002,1,8,0:0:0:0:
242,184,102831,1,0,0:0:0:0:
265,183,103162,1,12,0:0:0:0:
258,187,104157,5,12,0:0:0:0:
258,187,104820,1,0,0:0:0:0:
258,187,105483,1,8,0:0:0:0:
258,187,106146,1,8,0:0:0:0:
258,187,106809,1,0,0:0:0:0:
258,187,108964,5,8,0:0:0:0:
179,235,109295,5,0,0:0:0:0:
179,235,109627,1,0,0:0:0:0:
179,235,109958,1,8,0:0:0:0:
179,235,110290,1,0,0:0:0:0:
179,235,110621,1,0,0:0:0:0:
179,235,111781,1,12,0:0:0:0:
257,206,112113,1,4,0:0:0:0:
257,206,113107,1,8,0:0:0:0:
202,169,113439,1,0,0:0:0:0:
202,169,114102,1,8,0:0:0:0:
202,169,114765,1,4,0:0:0:0:
202,169,115428,1,8,0:0:0:0:
202,169,115925,1,0,0:0:0:0:
202,169,116256,1,0,0:0:0:0:
202,169,116588,1,8,0:0:0:0:
231,187,117417,1,4,0:0:0:0:
231,187,118080,1,8,0:0:0:0:
231,187,118743,1,0,0:0:0:0:
231,187,119240,1,0,0:0:0:0:
231,187,119571,1,0,0:0:0:0:
231,187,120069,1,4,0:0:0:0:
231,187,120566,1,8,0:0:0:0:
231,187,121229,1,4,0:0:0:0:
209,237,122389,1,0,0:0:0:0:
266,210,122720,1,12,0:0:0:0:
257,206,123715,1,8,0:0:0:0:
202,169,124046,1,0,0:0:0:0:
202,169,124709,1,8,0:0:0:0:
202,169,125372,1,4,0:0:0:0:
202,169,126035,1,8,0:0:0:0:
202,169,126533,1,0,0:0:0:0:
322,205,126864,1,0,0:0:0:0:
322,205,127196,1,8,0:0:0:0:
240,185,127693,1,12,0:0:0:0:
221,205,128024,1,4,0:0:0:0:
221,205,129350,1,8,0:0:0:0:
221,205,130013,1,0,0:0:0:0:
85,205,130345,1,8,0:0:0:0:
221,205,130676,5,8,0:0:0:0:
85,205,131339,1,0,0:0:0:0:
85,205,132002,1,12,0:0:0:0:
257,196,133328,1,4,0:0:0:0:
235,161,135980,5,0,0:0:0:0:
235,161,137306,1,0,0:0:0:0:
235,161,137969,1,0,0:0:0:0:
235,161,138632,1,12,0:0:0:0:
167,123,141284,5,8,0:0:0:0:
266,167,143770,5,4,0:0:0:0:
273,163,144102,1,0,0:0:0:0:
273,163,144433,1,8,0:0:0:0:
273,163,145096,1,0,0:0:0:0:
273,163,145759,1,8,0:0:0:0:
273,163,146422,1,0,0:0:0:0:
273,163,147085,1,8,0:0:0:0:
273,163,147748,1,0,0:0:0:0:
263,150,148080,1,0,0:0:0:0:
263,150,148411,1,8,0:0:0:0:
273,163,149240,1,4,0:0:0:0:
272,182,150400,1,0,0:0:0:0:
263,150,151063,1,8,0:0:0:0:
263,150,151394,1,8,0:0:0:0:
261,184,151892,1,4,0:0:0:0:
301,162,153052,1,0,0:0:0:0:
301,162,153715,1,8,0:0:0:0:
263,150,154046,1,8,0:0:0:0:
260,169,154544,5,4,0:0:0:0:
260,168,155041,1,8,0:0:0:0:
260,168,155704,1,4,0:0:0:0:
260,168,156367,1,8,0:0:0:0:
206,153,156698,1,8,0:0:0:0:
260,168,157030,1,4,0:0:0:0:
224,177,158853,1,8,0:0:0:0:
162,220,159185,1,8,0:0:0:0:
268,166,159848,1,12,0:0:0:0:
250,220,167803,5,0,0:0:0:0:
255,209,168301,1,8,0:0:0:0:
226,182,168798,1,8,0:0:0:0:
226,182,169627,1,8,0:0:0:0:
226,182,170290,1,0,0:0:0:0:
226,182,171615,1,4,0:0:0:0:
226,182,171947,1,4,0:0:0:0:
222,192,172776,1,12,0:0:0:0:
266,210,173107,1,4,0:0:0:0:
257,206,174102,1,8,0:0:0:0:
202,169,174433,1,0,0:0:0:0:
202,169,175096,1,8,0:0:0:0:
202,169,175759,1,4,0:0:0:0:
202,169,176422,1,8,0:0:0:0:
202,169,176919,1,0,0:0:0:0:
322,205,177251,1,0,0:0:0:0:
322,205,177582,1,8,0:0:0:0:
259,194,178080,1,12,0:0:0:0:
221,205,178411,1,4,0:0:0:0:
155,160,179074,1,8,0:0:0:0:
140,184,179737,1,0,0:0:0:0:
140,184,180069,1,8,0:0:0:0:
140,184,180400,1,0,0:0:0:0:
140,184,180731,1,8,0:0:0:0:
85,205,181063,5,0,0:0:0:0:
85,205,181726,1,0,0:0:0:0:
85,205,182389,1,12,0:0:0:0:
232,210,183383,1,12,0:0:0:0:
275,174,183715,1,4,0:0:0:0:
275,174,184212,1,8,0:0:0:0:
275,174,185041,1,0,0:0:0:0:
275,174,185538,1,8,0:0:0:0:
275,174,186367,1,0,0:0:0:0:
275,174,187030,1,8,0:0:0:0:
276,193,187693,1,0,0:0:0:0:
276,193,188356,1,0,0:0:0:0:
276,193,188687,1,8,0:0:0:0:
276,193,189019,1,0,0:0:0:0:
276,193,190345,1,0,0:0:0:0:
276,193,190842,1,8,0:0:0:0:
279,196,191339,1,8,0:0:0:0:
244,146,191671,5,4,0:0:0:0:
244,146,192168,1,0,0:0:0:0:
241,147,192831,1,12,0:0:0:0:
241,147,193660,1,8,0:0:0:0:
241,147,193991,1,8,0:0:0:0:
241,147,194323,1,4,0:0:0:0:
242,160,195649,1,0,0:0:0:0:
242,160,196146,1,8,0:0:0:0:
223,166,196643,1,8,0:0:0:0:
242,160,196975,5,4,0:0:0:0:
223,166,197472,1,8,0:0:0:0:
242,160,198135,1,0,0:0:0:0:
242,160,198466,1,8,0:0:0:0:
242,160,198798,1,0,0:0:0:0:
277,203,199295,1,12,0:0:0:0:
294,160,199627,1,0,0:0:0:0:
294,160,200290,1,8,0:0:0:0:
294,160,200952,1,8,0:0:0:0:
294,160,201284,1,8,0:0:0:0:
294,160,201947,1,0,0:0:0:0:
261,192,202278,5,4,0:0:0:0:
265,193,202941,1,8,0:0:0:0:
278,198,203439,1,12,0:0:0:0:
278,198,204920,1,12,0:0:0:0:
256,192,205253,12,12,212920,0:0:0:0:
