osu file format v14

[General]
AudioFilename: audio.mp3
AudioLeadIn: 0
PreviewTime: 50778
Countdown: 0
SampleSet: Soft
StackLeniency: 0.7
Mode: 0
LetterboxInBreaks: 0
WidescreenStoryboard: 1

[Editor]
Bookmarks: 88226,98834,109452,135961,143751,162490,171606,204911
DistanceSpacing: 1.1
BeatDivisor: 4
GridSize: 4
TimelineZoom: 1.800001

[Metadata]
Title:Closed Wings
TitleUnicode:Closed Wings
Artist:FELT
ArtistUnicode:FELT
Creator:Ultima Fox
Version:Normal
Source:東方地霊殿 ~ Subterranean Animism
Tags:美歌 舞花 霊知の太陽信仰 Solar Sect of Mystic Wisdom ~ Nuclear Fusion 東方Project Touhou Chireiden Utsuho Reiuji Okuu FELT-011 Comiket 84 C84 Abyss nova maika mika nagi
BeatmapID:1002687
BeatmapSetID:468832

[Difficulty]
HPDrainRate:3
CircleSize:3
OverallDifficulty:3
ApproachRate:4
SliderMultiplier:1.1
SliderTickRate:1

[Events]
//Background and Video events
0,0,"26071329_p0.jpg",0,0
//Break Periods
2,88436,97524
2,136171,142441
2,162690,171778
//Storyboard Layer 0 (Background)
//Storyboard Layer 1 (Fail)
//Storyboard Layer 2 (Pass)
//Storyboard Layer 3 (Foreground)
//Storyboard Sound Samples

[TimingPoints]
2049,331.491013780343,4,2,1,45,1,0
2877,-100,4,2,1,87,0,0
15640,-100,4,2,1,5,0,0
15971,-100,4,2,1,5,0,0
16634,-100,4,2,1,87,0,0
16800,-100,4,2,2,87,0,0
21938,-100,4,2,1,51,0,0
22269,-100,4,2,2,87,0,0
27242,-100,4,2,1,87,0,0
51109,-100,4,2,1,87,0,1
70999,-100,4,2,1,87,0,0
72325,-100,4,2,1,87,0,0
88236,-100,4,2,1,27,0,0
98181,-100,4,2,1,87,0,0
112104,-100,4,2,1,87,0,1
131993,-100,4,2,1,87,0,0
173098,-100,4,2,1,87,0,1
182380,-100,4,2,1,87,0,0
183706,-100,4,2,1,87,0,1
203595,342.857142857143,4,2,1,87,1,1
204880,-100,4,2,1,87,0,0
212794,-100,4,2,1,5,0,0

[Colours]
Combo1 : 66,160,255
Combo2 : 255,176,216
Combo3 : 255,128,128
Combo4 : 91,0,0

[HitObjects]
248,244,3374,6,0,P|360:264|440:176,1,220
324,144,4368,1,0,0:0:0:0:
204,136,4700,2,0,B|160:128|160:128|92:144|92:144|28:136,2,165,0|0|8,0:0|0:0|0:0,0:0:0:0:
172,252,6026,6,0,P|216:296|220:360,1,110,0|8,0:0|0:0,0:0:0:0:
284,340,6523,2,0,P|295:287|335:250,1,110
444,200,7187,2,0,P|468:148|448:68,2,110,8|0|0,0:0|0:0|0:0,0:0:0:0:
348,128,8181,2,0,L|264:136,1,55,0|8,0:0|0:0,0:0:0:0:
208,220,8678,6,0,P|140:200|68:220,1,110,0|8,0:0|0:0,0:0:0:0:
220,344,9507,1,0,0:0:0:0:
324,280,9839,1,8,0:0:0:0:
384,264,10004,2,0,P|472:200|484:144,2,165,0|0|8,0:0|0:0|0:0,0:0:0:0:
368,144,11330,6,0,P|300:124|248:132,2,110
488,160,12325,1,0,0:0:0:0:
256,192,12490,12,0,15640,0:0:0:0:
100,200,16634,6,0,P|136:268|288:276,2,220,4|0|4,0:2|0:0|0:0,0:0:0:0:
220,176,18292,1,0,0:0:0:0:
340,180,18623,2,0,P|412:196|472:176,1,110
412,304,19286,6,0,P|344:284|240:336,2,165,4|0|0,0:0|0:0|0:0,0:0:0:0:
488,208,20612,1,4,0:0:0:0:
412,112,20943,2,0,B|340:132|340:132|292:128,2,110
472,216,21938,6,0,B|412:212|412:212|340:228|340:228|240:220,2,220,4|0|4,0:0|0:0|0:0,0:0:0:0:
404,316,23595,1,0,0:0:0:0:
284,328,23927,2,0,P|196:328|152:292,1,110
64,276,24590,6,0,P|132:204|260:224,1,220,4|0,0:0|0:0,0:0:0:0:
284,328,25584,1,0,0:0:0:0:
388,264,25916,2,0,P|432:228|448:156,1,110,4|0,0:0|0:0,0:0:0:0:
412,64,26579,1,0,0:0:0:0:
336,156,26910,1,0,0:0:0:0:
272,260,27242,6,0,P|219:245|165:256,1,110
100,156,27905,2,0,P|152:170|206:159,1,110
300,84,28568,2,0,P|207:31|110:72,1,220
84,192,29562,1,0,0:0:0:0:
148,296,29894,6,0,B|196:303|196:303|252:327|252:327|308:331,1,165,0|8,0:0|0:0,0:0:0:0:
424,360,30723,1,0,0:0:0:0:
500,264,31054,2,0,P|464:200|368:184,1,165
264,216,31883,2,0,P|160:168|144:56,1,220,8|0,0:0|0:0,0:0:0:0:
256,96,32877,5,0,0:0:0:0:
360,156,33209,2,0,P|388:220|348:292,1,110
284,332,33872,2,0,B|235:325|235:325|167:332|167:332|85:320,2,165
404,336,35198,5,0,0:0:0:0:
348,228,35529,2,8,P|328:188|236:148,1,110
92,164,36358,2,0,P|96:236|200:304,1,165
264,236,37187,1,8,0:0:0:0:
360,308,37518,1,0,0:0:0:0:
420,208,37850,6,0,P|416:144|324:76,2,165,0|8|8,0:0|0:0|0:0,0:0:0:0:
360,308,39175,2,0,P|288:328|228:308,1,110
148,380,39838,2,0,P|128:320|164:252,1,110,0|8,0:0|0:0,0:0:0:0:
220,188,40501,6,0,B|256:196|288:172|288:172|340:160|400:192,2,165,0|8|8,0:0|0:0|0:0,0:0:0:0:
100,184,41827,2,0,P|132:272|272:296,1,220,0|8,0:0|0:0,0:0:0:0:
364,284,42822,1,0,0:0:0:0:
440,188,43153,6,0,P|456:128|440:64,1,110,0|8,0:0|0:0,0:0:0:0:
332,116,43816,2,0,P|316:176|332:236,1,110,0|8,0:0|0:0,0:0:0:0:
356,340,44479,2,0,P|292:292|148:320,1,220
40,332,45474,1,8,0:0:0:0:
96,224,45805,6,0,B|128:180|116:120|116:120|180:128|228:100,1,220
344,76,46800,1,8,0:0:0:0:
416,172,47131,2,0,L|412:296,1,110,0|8,0:0|0:0,0:0:0:0:
308,344,47794,1,0,0:0:0:0:
208,272,48125,5,0,0:0:0:0:
172,224,48291,2,0,B|176:352,2,110,0|0|8,0:0|0:0|0:0,0:0:0:0:
84,140,49286,1,0,0:0:0:0:
184,68,49618,1,0,0:0:0:0:
58,37,50777,5,0,0:0:0:0:
96,152,51109,2,0,P|172:188|236:172,1,110,0|8,0:0|0:0,0:0:0:0:
256,172,51606,2,0,P|344:164|420:228,1,165,0|8,0:0|0:0,0:0:0:0:
312,276,52435,2,0,P|308:320|220:360,1,110,0|8,0:0|0:0,0:0:0:0:
200,348,52932,2,0,P|152:312|92:312,1,110
48,332,53430,1,8,0:0:0:0:
64,212,53761,6,0,P|136:204|196:168,1,110,0|8,0:0|0:0,0:0:0:0:
268,284,54424,2,0,P|344:276|416:308,1,110,0|8,0:0|0:0,0:0:0:0:
436,164,55087,1,0,0:0:0:0:
348,80,55419,2,0,L|268:60,1,55,8|0,0:0|0:0,0:0:0:0:
176,44,55916,2,0,L|92:68,1,55,0|8,0:0|0:0,0:0:0:0:
208,144,56413,6,0,P|216:220|156:268,1,110,0|8,0:0|0:0,0:0:0:0:
244,356,57076,1,0,0:0:0:0:
344,296,57407,2,0,B|384:296|384:296|416:300|416:300|488:296,1,110,8|0,0:0|0:0,0:0:0:0:
456,176,58070,1,8,0:0:0:0:
396,180,58236,2,0,P|300:204|256:188,1,110
232,192,58733,2,0,P|184:188|112:248,1,110,8|0,0:0|0:0,0:0:0:0:
208,312,59396,5,8,0:0:0:0:
320,268,59728,2,0,P|384:252|456:276,1,110,0|8,0:0|0:0,0:0:0:0:
476,292,60225,2,0,P|440:212|464:116,1,165,0|8,0:0|0:0,0:0:0:0:
332,120,61054,2,8,B|272:136|272:136|192:144,1,110
112,100,61717,6,0,P|100:160|132:220,1,110,4|8,0:0|0:0,0:0:0:0:
168,312,62380,2,0,P|240:256|288:252,1,110
376,280,63043,1,0,0:0:0:0:
416,164,63374,2,0,P|344:128|312:72,1,110,8|0,0:0|0:0,0:0:0:0:
236,28,64037,1,8,0:0:0:0:
140,100,64369,6,0,B|136:156|92:224,1,110,0|8,0:0|0:0,0:0:0:0:
164,196,64866,2,0,P|292:252|296:360,1,220,0|8,0:0|0:0,0:0:0:0:
184,316,65861,1,8,0:0:0:0:
64,300,66192,2,0,B|36:240|68:176,1,110
96,144,66690,1,0,0:0:0:0:
256,192,67021,12,0,69010,0:0:0:0:
232,140,69674,6,0,P|288:144|356:56,1,165
380,124,70336,2,0,P|364:200|400:304,1,165,8|0,0:0|0:0,0:0:0:0:
424,328,70999,2,0,B|368:280|272:324|272:324|192:304|192:304|148:328|96:328,1,330,0|0,0:0|2:0,0:0:0:0:
112,208,72325,5,4,0:0:0:0:
256,192,72490,12,0,74314,0:0:0:0:
336,204,74976,6,0,P|424:220|500:144,2,165,0|0|8,0:0|0:0|0:0,0:0:0:0:
292,160,76137,2,0,P|180:108|72:232,1,275,0|8,0:0|0:0,0:0:0:0:
192,228,77297,1,0,0:0:0:0:
280,312,77629,6,0,P|344:324|416:300,1,110
336,204,78291,2,0,P|272:192|196:216,1,110,8|0,0:0|0:0,0:0:0:0:
112,232,78954,2,0,P|48:236|-8:220,2,110,0|0|8,0:0|0:0|0:0,0:0:0:0:
172,124,79948,1,0,0:0:0:0:
256,212,80280,6,0,P|288:296|364:332,2,165
376,212,81606,2,0,P|316:104|212:96,1,220,0|8,0:0|0:0,0:0:0:0:
132,164,82600,1,0,0:0:0:0:
172,276,82932,6,0,B|172:300|144:344|144:344|204:304|324:340,2,220,0|8|0,0:0|0:0|0:0,0:0:0:0:
280,224,84590,1,0,0:0:0:0:
164,188,84921,2,0,P|96:196|52:176,1,110,8|0,0:0|0:0,0:0:0:0:
124,80,85584,6,0,P|192:72|236:96,2,110,0|0|8,0:0|0:0|0:0,0:0:0:0:
56,180,86579,1,0,0:0:0:0:
172,184,86911,2,0,P|248:196|332:52,1,220,0|8,0:0|0:0,0:0:0:0:
240,24,87905,1,0,0:0:0:0:
120,44,88236,1,2,0:0:0:0:
368,216,98844,6,0,P|392:152|360:52,2,165,0|8|8,0:0|0:0|0:0,0:0:0:0:
272,292,100170,2,0,P|216:316|132:284,1,110
100,208,100833,2,0,P|156:184|240:216,1,110,0|8,0:0|0:0,0:0:0:0:
272,292,101496,6,0,P|328:304|432:240,2,165,0|8|8,0:0|0:0|0:0,0:0:0:0:
180,372,102822,2,0,P|144:316|164:252,1,110
208,172,103485,2,0,P|204:104|80:28,1,220,8|0,0:0|0:0,0:0:0:0:
96,148,104479,5,8,0:0:0:0:
164,248,104811,2,0,P|232:260|288:228,1,110,0|8,0:0|0:0,0:0:0:0:
388,272,105474,2,0,P|388:212|256:124,2,220
284,336,107131,5,8,0:0:0:0:
180,276,107463,2,0,P|120:268|56:280,1,110,0|8,0:0|0:0,0:0:0:0:
12,168,108126,2,0,P|72:176|136:164,1,110,0|8,0:0|0:0,0:0:0:0:
240,180,108789,1,0,0:0:0:0:
348,236,109121,5,0,0:0:0:0:
404,264,109286,2,0,P|432:208|332:64,2,220,0|8|0,0:0|0:0|0:0,0:0:0:0:
404,264,111772,5,4,0:0:0:0:
332,168,112104,2,0,P|264:188|224:176,1,110,0|8,0:0|0:0,0:0:0:0:
172,200,112601,2,0,P|108:188|56:204,1,110
32,252,113098,1,8,0:0:0:0:
144,296,113429,2,0,P|200:296|268:272,1,110,0|8,0:0|0:0,0:0:0:0:
304,312,113926,2,0,P|364:292|456:332,1,165,0|8,0:0|0:0,0:0:0:0:
420,212,114755,6,0,P|412:152|452:76,1,110,0|8,0:0|0:0,0:0:0:0:
368,128,115253,2,0,P|300:168|200:140,1,165,0|8,0:0|0:0,0:0:0:0:
100,132,116081,1,0,0:0:0:0:
112,252,116413,2,0,L|136:316,1,55,8|0,0:0|0:0,0:0:0:0:
252,296,116910,2,0,L|232:244,1,55,0|8,0:0|0:0,0:0:0:0:
344,200,117407,6,0,P|368:268|472:316,2,165,0|0|8,0:0|0:0|0:0,0:0:0:0:
464,192,118733,1,0,0:0:0:0:
392,96,119065,1,8,0:0:0:0:
276,132,119396,2,0,P|196:136|128:104,1,110,0|8,0:0|0:0,0:0:0:0:
92,224,120059,6,0,P|172:220|240:252,1,110,0|8,0:0|0:0,0:0:0:0:
252,256,120557,2,0,P|340:280|436:244,1,165,0|8,0:0|0:0,0:0:0:0:
488,172,121385,1,0,0:0:0:0:
368,148,121717,1,8,0:0:0:0:
252,176,122048,2,0,B|224:176|224:176|196:176,2,55,8|0|8,0:0|0:0|0:0,0:0:0:0:
348,252,122711,6,0,P|324:328|256:376,2,165,4|0|8,0:0|0:0|0:0,0:0:0:0:
228,260,124037,2,0,P|176:260|120:240,1,110,0|8,0:0|0:0,0:0:0:0:
68,208,124534,1,0,0:0:0:0:
48,88,124866,2,0,L|112:112,1,55,0|8,0:0|0:0,0:0:0:0:
220,104,125363,6,0,P|284:124|344:104,1,110,0|8,0:0|0:0,0:0:0:0:
444,112,126026,2,0,P|388:164|372:224,1,110,0|8,0:0|0:0,0:0:0:0:
368,256,126523,2,0,B|360:288|384:336|368:376,2,110
252,220,127518,2,0,L|252:280,1,55
256,192,128015,12,0,129341,0:0:0:0:
288,104,130004,6,0,P|240:148|184:172,1,110,0|8,0:0|0:0,0:0:0:0:
100,236,130667,2,0,P|168:240|280:360,1,220,0|8,0:0|0:0,0:0:0:0:
440,164,131993,1,0,0:0:0:0:
256,192,133319,5,0,0:0:0:0:
256,192,133485,12,0,135971,0:0:0:0:
256,240,143761,6,0,P|360:220|404:108,2,220,0|8|0,0:0|0:0|0:0,0:0:0:0:
288,124,145418,1,0,0:0:0:0:
172,164,145750,2,0,P|144:224|160:300,1,110
236,348,146413,6,0,P|300:308|424:336,2,165
136,280,147739,2,0,P|80:300|20:284,2,110
288,20,149231,6,0,P|344:12|424:48,1,110,0|8,0:0|0:0,0:0:0:0:
440,140,149893,2,0,P|384:148|304:112,1,110,0|8,0:0|0:0,0:0:0:0:
232,200,150556,2,0,P|156:192|88:260,2,165,0|0|8,0:0|0:0|0:0,0:0:0:0:
320,284,151882,6,0,P|360:308|444:304,1,110,0|8,0:0|0:0,0:0:0:0:
400,176,152545,2,0,P|416:136|408:68,1,110,0|8,0:0|0:0,0:0:0:0:
288,112,153208,2,0,P|216:88|120:132,2,165,0|0|8,0:0|0:0|0:0,0:0:0:0:
216,212,154534,6,0,B|200:256|200:256|195:326|195:326|180:384,1,165,0|8,0:0|0:0,0:0:0:0:
300,340,155363,1,0,0:0:0:0:
420,348,155695,2,0,P|400:260|332:220,1,165
220,208,156523,1,8,0:0:0:0:
160,228,156689,2,8,L|107:243,2,55
288,100,157518,5,8,0:0:0:0:
300,340,158181,1,8,0:0:0:0:
64,296,158844,2,8,P|36:240|44:200,1,55
60,192,159175,2,0,P|72:152|64:112,2,55,8|0|0,0:0|0:0|0:0,0:0:0:0:
256,192,159838,12,2,162490,0:0:0:0:
248,328,173098,6,0,P|216:272|240:192,1,110,4|8,0:0|0:0,0:0:0:0:
252,176,173595,2,0,P|276:96|236:12,1,165,0|8,0:0|0:0,0:0:0:0:
156,100,174424,1,0,0:0:0:0:
92,204,174755,1,8,0:0:0:0:
144,312,175087,2,0,P|200:332|288:312,1,110,0|8,0:0|0:0,0:0:0:0:
296,212,175750,6,0,P|352:252|368:364,2,165,0|0|8,0:0|0:0|0:0,0:0:0:0:
240,196,176910,2,8,P|176:164|152:120,1,110
264,76,177573,2,0,B|328:72|328:72|376:84|376:84|452:76,1,165,8|0,0:0|0:0,0:0:0:0:
368,184,178402,6,0,P|420:232|392:384,2,220,0|8|0,0:0|0:0|0:0,0:0:0:0:
316,292,180059,1,0,0:0:0:0:
204,340,180391,2,0,P|140:356|60:332,1,110,0|8,0:0|0:0,0:0:0:0:
144,240,181054,6,0,B|204:240|244:204|244:204|304:180|376:236,2,220,0|8|4,0:0|0:0|0:0,0:0:0:0:
144,240,183705,6,0,P|208:236|268:180,1,110,0|8,0:0|0:0,0:0:0:0:
292,172,184203,2,0,P|352:160|452:228,1,165,0|8,0:0|0:0,0:0:0:0:
344,280,185032,1,0,0:0:0:0:
224,308,185363,2,0,L|168:328,1,55,8|0,0:0|0:0,0:0:0:0:
108,224,185860,2,0,L|36:208,1,55,0|8,0:0|0:0,0:0:0:0:
144,116,186358,6,0,P|200:148|228:244,2,165,0|0|8,0:0|0:0|0:0,0:0:0:0:
108,232,187684,2,0,P|108:280|168:344,1,110,0|8,0:0|0:0,0:0:0:0:
260,352,188346,1,0,0:0:0:0:
303,243,188677,1,8,0:0:0:0:
400,320,189009,6,0,P|432:264|412:176,1,110,0|8,0:0|0:0,0:0:0:0:
336,143,189672,2,0,P|304:199|324:287,1,110,0|8,0:0|0:0,0:0:0:0:
272,360,190335,2,0,P|232:308|144:296,1,110,0|8,0:0|0:0,0:0:0:0:
132,284,190833,2,0,P|64:248|28:168,1,165,0|8,0:0|0:0,0:0:0:0:
152,160,191661,6,0,B|212:152|212:152|276:156,1,110,0|8,0:0|0:0,0:0:0:0:
316,180,192159,2,0,B|376:188|376:188|448:184,2,110
220,256,193153,1,0,0:0:0:0:
152,160,193485,2,0,P|148:124|156:88,1,55,0|8,0:0|0:0,0:0:0:0:
260,56,193982,1,8,0:0:0:0:
348,140,194313,6,0,P|372:200|340:280,1,110,4|8,0:0|0:0,0:0:0:0:
328,292,194811,2,0,P|268:256|164:284,1,165,0|8,0:0|0:0,0:0:0:0:
68,328,195639,2,0,P|48:276|92:172,2,165,0|0|8,0:0|0:0|0:0,0:0:0:0:
172,264,196966,5,0,0:0:0:0:
268,340,197297,1,8,0:0:0:0:
328,336,197462,2,0,P|360:304|364:220,1,110,0|8,0:0|0:0,0:0:0:0:
392,124,198125,2,0,P|380:60|400:12,2,110
296,200,199120,1,0,0:0:0:0:
128,136,199617,6,0,P|60:152|4:296,1,220
120,260,200612,1,8,0:0:0:0:
228,300,200943,2,0,P|288:324|352:308,1,110,0|8,0:0|0:0,0:0:0:0:
300,200,201606,2,0,P|344:184|376:124,1,110,0|8,0:0|0:0,0:0:0:0:
260,88,202269,6,0,B|200:88|200:88|124:108|124:108|32:104,2,220,0|8|0,0:0|0:0|0:0,0:0:0:0:
316,112,203766,2,0,P|376:120|456:96,2,110,0|8|0,0:0|0:0|0:0,0:0:0:0:
208,256,204880,1,4,0:0:0:0:
256,192,204966,12,0,212852,0:0:0:0:
