osu file format v14

[General]
AudioFilename: audio.mp3
AudioLeadIn: 0
PreviewTime: 50778
Countdown: 0
SampleSet: Soft
StackLeniency: 0.7
Mode: 0
LetterboxInBreaks: 0
WidescreenStoryboard: 0

[Editor]
Bookmarks: 50861,88226,98834,109452,135961,143751,162490,171606,204911
DistanceSpacing: 1.1
BeatDivisor: 4
GridSize: 4
TimelineZoom: 2.7

[Metadata]
Title:Closed Wings
TitleUnicode:Closed Wings
Artist:FELT
ArtistUnicode:FELT
Creator:Ultima Fox
Version:Lunatic
Source:東方地霊殿 ~ Subterranean Animism
Tags:美歌 舞花 霊知の太陽信仰 Solar Sect of Mystic Wisdom ~ Nuclear Fusion 東方Project Touhou Chireiden Utsuho Reiuji Okuu FELT-011 Comiket 84 C84 Abyss nova maika mika nagi
BeatmapID:1002686
BeatmapSetID:468832

[Difficulty]
HPDrainRate:6
CircleSize:4
OverallDifficulty:7.5
ApproachRate:8.5
SliderMultiplier:1.8
SliderTickRate:1

[Events]
//Background and Video events
0,0,"26071329_p0.jpg",0,0
//Break Periods
2,136171,141961
2,162690,169806
//Storyboard Layer 0 (Background)
//Storyboard Layer 1 (Fail)
//Storyboard Layer 2 (Pass)
//Storyboard Layer 3 (Foreground)
//Storyboard Sound Samples

[TimingPoints]
2049,331.491013780343,4,2,1,45,1,0
2877,-125,4,2,1,87,0,0
16303,-125,4,2,1,5,0,0
16385,-125,4,2,1,87,0,0
16800,-125,4,2,2,87,0,0
21275,-125,4,2,1,87,0,0
21938,-125,4,2,1,51,0,0
22269,-125,4,2,1,87,0,0
23264,-125,4,2,2,87,0,0
27242,-125,4,2,1,87,0,0
51109,-100,4,2,1,87,0,1
70999,-133.333333333333,4,2,1,87,0,0
72325,-125,4,2,1,87,0,0
88236,-200,4,2,1,26,0,0
97518,-125,4,2,1,87,0,0
112104,-100,4,2,1,87,0,1
131993,-125,4,2,1,87,0,0
173098,-100,4,2,1,87,0,1
182380,-100,4,2,1,87,0,0
183706,-100,4,2,1,87,0,1
203595,342.857142857143,4,2,1,87,1,1
204921,-100,4,2,1,87,0,0
212794,-100,4,2,1,5,0,0

[Colours]
Combo1 : 66,160,255
Combo2 : 255,176,216
Combo3 : 255,128,128
Combo4 : 91,0,0

[HitObjects]
28,216,2711,5,0,0:0:0:0:
28,216,2877,2,0,P|68:216|120:196,1,72,0|8,0:0|0:0,0:0:0:0:
158,131,3209,1,0,0:0:0:0:
158,131,3292,1,0,0:0:0:0:
158,131,3374,6,0,P|240:112|308:180,1,144,4|8,0:0|0:0,0:0:0:0:
216,224,3872,1,0,0:0:0:0:
120,292,4037,2,0,P|108:328|116:368,2,72
216,224,4535,1,8,0:0:0:0:
336,272,4700,6,0,P|416:296|488:236,1,144
400,180,5198,2,0,P|320:156|248:216,1,144
192,264,5695,2,0,P|160:268|108:248,1,72,8|0,0:0|0:0,0:0:0:0:
168,156,6026,5,0,0:0:0:0:
292,284,6192,1,0,0:0:0:0:
352,132,6358,2,0,P|356:96|308:32,1,72,8|0,0:0|0:0,0:0:0:0:
199,250,6689,2,0,P|187:284|192:320,1,72
344,216,7021,1,0,0:0:0:0:
120,224,7187,5,8,0:0:0:0:
196,168,7518,1,0,0:0:0:0:
284,160,7850,1,0,0:0:0:0:
340,100,8181,1,0,0:0:0:0:
56,176,8347,2,0,P|100:188|180:148,1,72,8|0,0:0|0:0,0:0:0:0:
248,60,8678,6,0,P|224:120|280:224,1,144,0|8,0:0|0:0,0:0:0:0:
388,280,9176,1,0,0:0:0:0:
388,280,9258,1,0,0:0:0:0:
388,280,9341,1,0,0:0:0:0:
364,156,9507,1,0,0:0:0:0:
264,308,9673,2,0,P|200:320|164:304,1,72,0|8,0:0|0:0,0:0:0:0:
140,208,10004,6,0,P|204:196|240:212,2,72
80,308,10502,1,0,0:0:0:0:
184,116,10833,1,0,0:0:0:0:
80,308,10999,2,0,P|36:316|4:312,1,72,8|0,0:0|0:0,0:0:0:0:
209,197,11330,6,0,P|269:181|357:221,1,144
436,300,11827,1,8,0:0:0:0:
464,176,11993,2,0,P|464:128|480:76,1,72
343,208,12325,1,0,0:0:0:0:
436,300,12490,1,4,0:0:0:0:
256,192,12656,12,0,16303,0:0:0:0:
256,256,16634,6,0,P|304:280|400:252,1,144,4|0,0:0|0:0,0:0:0:0:
256,128,17297,2,0,P|208:104|112:132,1,144
188,192,17794,1,0,0:0:0:0:
136,280,17960,6,0,P|128:312|140:364,1,72,4|0,0:0|0:0,0:0:0:0:
248,348,18292,2,0,P|256:316|244:264,1,72
188,192,18623,2,0,P|144:176|48:224,1,144
133,350,19120,1,0,0:0:0:0:
256,296,19286,6,0,P|308:312|388:260,1,144,4|0,0:0|0:0,0:0:0:0:
308,220,19783,2,0,B|292:204|268:204|268:204|296:144|264:84,1,144
180,152,20281,1,0,0:0:0:0:
140,232,20446,6,0,P|136:280|156:324,2,72,0|4|0,0:0|0:0|0:0,0:0:0:0:
224,72,20943,2,0,P|228:24|208:-20,1,72
128,36,21275,5,0,0:0:0:0:
316,112,21441,1,8,0:0:0:0:
224,72,21606,1,0,0:0:0:0:
412,40,21772,1,0,0:0:0:0:
316,112,21938,6,0,P|288:152|164:156,1,144
224,72,22435,1,0,0:0:0:0:
376,48,22601,2,0,P|404:96|396:140,1,72
296,16,22932,1,0,0:0:0:0:
363,186,23098,1,0,0:0:0:0:
248,156,23264,6,0,P|192:144|120:204,1,144,4|0,0:0|0:0,0:0:0:0:
192,304,23761,2,0,P|208:248|192:208,2,72
112,276,24258,1,0,0:0:0:0:
292,280,24424,1,0,0:0:0:0:
124,184,24590,6,0,P|72:184|24:100,1,144,4|0,0:0|0:0,0:0:0:0:
196,244,25087,1,0,0:0:0:0:
104,108,25253,2,0,P|120:76|172:56,1,72
196,244,25584,1,0,0:0:0:0:
184,132,25750,6,0,B|224:112|288:164|340:132,1,144
468,188,26247,2,0,P|428:200|384:188,1,72
424,104,26579,1,0,0:0:0:0:
304,228,26745,1,0,0:0:0:0:
352,40,26910,1,0,0:0:0:0:
400,204,27076,1,0,0:0:0:0:
280,124,27242,6,0,P|228:120|184:136,1,72
84,160,27573,2,0,L|96:64,1,72,0|8,0:0|0:0,0:0:0:0:
172,36,27905,1,0,0:0:0:0:
248,208,28071,1,0,0:0:0:0:
132,244,28236,2,0,P|88:260|44:248,1,72
200,132,28568,6,0,P|244:116|288:128,1,72
100,160,28899,1,0,0:0:0:0:
208,288,29065,1,0,0:0:0:0:
344,188,29231,1,0,0:0:0:0:
408,280,29397,2,0,P|416:316|400:360,2,72,8|0|0,0:0|0:2|0:2,0:0:0:0:
260,188,29894,6,0,P|280:132|360:108,1,144
320,288,30391,1,8,0:0:0:0:
344,188,30557,1,0,0:0:0:0:
224,276,30722,2,0,P|188:292|152:316,2,72
416,236,31220,6,0,P|464:216|496:188,1,72
260,192,31551,1,0,0:0:0:0:
344,292,31717,1,0,0:0:0:0:
340,132,31883,2,0,P|344:96|320:48,2,72,8|0|0,0:0|0:0|0:0,0:0:0:0:
104,116,32546,6,0,P|172:92|256:120,1,144
176,212,33043,1,8,0:0:0:0:
160,320,33209,2,0,P|124:352|72:360,1,72
84,256,33540,1,0,0:0:0:0:
232,304,33706,1,0,0:0:0:0:
328,200,33872,6,0,P|376:184|412:188,1,72
380,292,34203,1,0,0:0:0:0:
240,164,34369,2,0,P|208:180|152:176,2,72,0|0|8,0:0|0:0|0:0,0:0:0:0:
328,104,34866,1,0,0:0:0:0:
244,284,35032,1,0,0:0:0:0:
364,208,35198,6,0,P|424:192|492:248,1,144,0|8,0:0|0:0,0:0:0:0:
244,284,35695,1,0,0:0:0:0:
416,268,35861,1,8,0:0:0:0:
172,232,36026,1,0,0:0:0:0:
172,232,36358,6,0,P|220:200|308:224,1,144
384,348,36855,1,0,0:0:0:0:
328,128,37021,1,0,0:0:0:0:
244,284,37187,1,8,0:0:0:0:
408,196,37352,1,0,0:0:0:0:
228,108,37518,1,0,0:0:0:0:
228,108,37850,6,0,P|200:148|196:184,1,72
248,292,38181,1,0,0:0:0:0:
288,176,38347,1,8,0:0:0:0:
152,272,38513,2,0,P|80:288|16:244,1,144,0|8,0:0|0:0,0:0:0:0:
40,56,39010,1,0,0:0:0:0:
92,136,39175,6,0,P|100:196|92:220,1,72
208,184,39507,2,0,P|248:176|292:192,1,72
372,168,39838,2,0,P|372:212|272:280,1,144,0|8,0:0|0:0,0:0:0:0:
312,96,40336,1,0,0:0:0:0:
216,268,40501,6,0,L|200:344,2,72
220,96,40999,2,0,P|172:56|88:76,1,144,8|0,0:0|0:0,0:0:0:0:
320,72,41496,1,8,0:0:0:0:
148,136,41662,1,0,0:0:0:0:
388,120,41827,6,0,P|432:120|464:144,2,72
296,192,42325,2,0,P|256:208|200:200,1,72,0|8,0:0|0:0,0:0:0:0:
244,104,42656,1,0,0:0:0:0:
388,208,42822,1,0,0:0:0:0:
292,312,42988,1,0,0:0:0:0:
227,208,43153,6,0,P|175:196|103:232,1,108
84,232,43485,2,0,P|40:240|12:236,1,72,8|0,0:0|0:0,0:0:0:0:
44,140,43816,1,0,0:0:0:0:
180,284,43982,1,0,0:0:0:0:
320,200,44148,2,0,P|360:200|412:232,1,72,8|0,0:0|0:0,0:0:0:0:
224,176,44479,6,0,P|256:120|320:108,1,108
340,108,44811,1,8,0:0:0:0:
256,264,44977,1,0,0:0:0:0:
132,132,45142,2,0,P|120:184|144:228,1,72
336,304,45474,2,0,P|348:260|324:212,1,72,8|0,0:0|0:0,0:0:0:0:
236,172,45805,5,0,0:0:0:0:
412,112,45971,1,0,0:0:0:0:
412,112,46054,1,0,0:0:0:0:
412,112,46137,1,8,0:0:0:0:
184,88,46303,2,0,P|136:84|88:104,2,72
324,212,46800,2,0,P|372:216|412:204,1,72,8|0,0:0|0:0,0:0:0:0:
352,88,47131,5,0,0:0:0:0:
248,268,47297,2,0,L|248:312,2,36,0|0|8,0:0|0:0|0:0,0:0:0:0:
260,120,47629,1,0,0:0:0:0:
336,304,47794,2,0,P|328:348|300:376,1,72
160,208,48126,1,8,0:0:0:0:
336,164,48291,6,0,L|436:156,1,72
184,112,48623,2,0,L|92:100,1,72
340,68,48954,1,8,0:0:0:0:
152,192,49120,1,0,0:0:0:0:
344,244,49286,2,0,L|420:264,1,72
256,192,49617,1,4,0:0:0:0:
256,192,49700,12,0,50778,0:0:0:0:
88,216,51109,6,0,P|144:240|228:212,1,135,4|0,0:0|0:0,0:0:0:0:
260,196,51441,2,0,P|304:180|364:192,1,90,8|0,0:0|0:0,0:0:0:0:
416,280,51772,1,0,0:0:0:0:
156,144,51938,2,0,P|140:96|152:40,2,90,0|8|0,0:0|0:0|0:0,0:0:0:0:
316,272,52435,5,0,0:0:0:0:
248,88,52601,1,0,0:0:0:0:
352,184,52767,1,8,0:0:0:0:
160,120,52932,2,0,P|100:104|-4:176,1,180
192,292,53430,1,8,0:0:0:0:
104,220,53595,1,0,0:0:0:0:
292,260,53761,6,0,P|336:276|388:260,1,90
379,265,54010,1,0,0:0:0:0:
379,265,54093,1,8,0:0:0:0:
212,176,54258,1,0,0:0:0:0:
288,356,54424,1,0,0:0:0:0:
340,192,54590,2,0,P|344:140|296:84,2,90,0|8|0,0:0|0:0|0:0,0:0:0:0:
200,296,55087,5,0,0:0:0:0:
368,288,55253,2,0,L|464:272,1,90,0|8,0:0|0:0,0:0:0:0:
176,212,55584,2,0,L|72:192,1,90
344,192,55916,1,0,0:0:0:0:
256,312,56082,1,8,0:0:0:0:
240,116,56247,1,0,0:0:0:0:
424,132,56413,6,0,P|448:184|396:272,1,135
376,284,56745,1,8,0:0:0:0:
200,304,56910,2,0,P|148:308|92:300,2,90
304,352,57407,1,8,0:0:0:0:
348,200,57573,6,0,P|332:144|296:108,1,90
128,164,57905,2,0,P|184:184|236:172,1,90,0|8,0:0|0:0,0:0:0:0:
312,120,58236,1,0,0:0:0:0:
300,256,58402,2,0,P|300:304|328:348,2,90,0|0|8,0:0|0:0|0:0,0:0:0:0:
156,204,58899,1,0,0:0:0:0:
248,56,59065,5,0,0:0:0:0:
368,148,59231,2,0,L|424:148,2,45,0|0|8,0:0|0:0|0:0,0:0:0:0:
216,272,59562,1,0,0:0:0:0:
348,60,59728,1,0,0:0:0:0:
384,240,59894,1,0,0:0:0:0:
212,168,60059,1,8,0:0:0:0:
412,136,60225,6,0,L|504:104,1,90
382,239,60557,2,0,L|296:216,1,90,0|8,0:0|0:0,0:0:0:0:
284,104,60888,1,0,0:0:0:0:
208,280,61054,5,8,0:0:0:0:
180,280,61137,1,8,0:0:0:0:
152,280,61220,1,0,0:0:0:0:
48,148,61385,1,8,0:0:0:0:
72,132,61468,1,8,0:0:0:0:
96,124,61551,1,0,0:0:0:0:
124,124,61634,1,0,0:0:0:0:
148,132,61717,6,0,P|200:156|276:148,1,135
316,124,62048,1,8,0:0:0:0:
480,184,62214,2,0,P|436:176|376:196,1,90
328,260,62546,1,0,0:0:0:0:
404,96,62711,1,8,0:0:0:0:
236,80,62877,1,0,0:0:0:0:
160,192,63043,6,0,P|108:172|56:192,1,90
192,328,63374,1,8,0:0:0:0:
232,152,63540,2,0,P|284:176|356:76,1,180
108,248,64037,1,8,0:0:0:0:
288,104,64203,1,0,0:0:0:0:
392,244,64369,6,0,P|436:272|484:280,1,90
472,279,64617,1,0,0:0:0:0:
472,279,64700,1,8,0:0:0:0:
468,172,64866,1,0,0:0:0:0:
324,176,65032,2,0,P|296:212|316:284,1,90
392,348,65363,1,8,0:0:0:0:
456,164,65529,2,0,L|464:60,1,90,8|0,0:0|0:0,0:0:0:0:
332,16,65861,2,0,L|352:116,1,90,8|0,0:0|0:0,0:0:0:0:
260,176,66192,6,0,P|224:228|104:200,1,180,8|0,0:0|0:0,0:0:0:0:
160,64,66689,2,0,P|180:116|168:164,1,90,8|0,0:0|0:0,0:0:0:0:
175,148,66938,1,0,0:0:0:0:
175,148,67021,1,0,0:0:0:0:
272,304,67186,5,0,0:0:0:0:
380,232,67352,2,0,P|444:224|496:264,1,90,8|0,0:0|0:0,0:0:0:0:
156,344,67684,2,0,P|92:352|40:312,1,90
184,212,68015,1,8,0:0:0:0:
340,336,68181,1,0,0:0:0:0:
296,224,68347,6,0,P|276:164|280:96,1,90
312,44,68678,1,8,0:0:0:0:
416,32,68844,1,0,0:0:0:0:
212,100,69010,2,0,P|164:88|100:108,1,90
352,156,69341,2,0,P|400:168|464:148,1,90,8|0,0:0|0:0,0:0:0:0:
288,236,69673,6,0,P|240:200|264:276,1,180
352,344,70170,1,0,0:0:0:0:
444,288,70336,2,0,P|460:232|432:176,1,90,8|0,0:0|0:0,0:0:0:0:
328,68,70667,2,0,P|316:128|344:184,1,90
456,76,70999,1,0,0:0:0:0:
328,180,72325,6,0,P|272:208|216:188,1,108,4|0,0:0|0:0,0:0:0:0:
204,184,72656,1,8,0:0:0:0:
340,96,72822,2,0,P|404:132|400:224,1,144
264,128,73319,1,8,0:0:0:0:
200,268,73485,1,0,0:0:0:0:
104,168,73651,6,0,P|88:124|108:76,1,72
104,72,73899,1,0,0:0:0:0:
124,52,73982,1,8,0:0:0:0:
196,120,74148,2,0,B|240:100|288:144|352:112,1,144
340,212,74645,2,0,P|296:220|252:208,1,72,8|0,0:0|0:0,0:0:0:0:
300,44,74977,5,0,0:0:0:0:
429,146,75142,1,8,0:0:0:0:
343,296,75308,1,0,0:0:0:0:
193,209,75474,1,0,0:0:0:0:
184,208,75805,5,0,0:0:0:0:
344,104,75971,1,8,0:0:0:0:
343,296,76137,1,0,0:0:0:0:
256,192,76220,12,0,77628,0:0:0:0:
132,184,78126,5,0,0:0:0:0:
132,184,78209,1,0,0:0:0:0:
132,184,78291,2,0,P|176:168|280:220,1,144,8|0,0:0|0:0,0:0:0:0:
336,304,78789,1,0,0:0:0:0:
384,184,78954,6,0,P|400:144|392:84,1,72
320,40,79286,2,0,P|304:80|312:140,1,72
424,272,79617,1,8,0:0:0:0:
424,272,79949,2,0,P|380:264|340:272,1,72
256,304,80280,6,0,P|176:320|92:288,1,144
276,192,80778,1,0,0:0:0:0:
276,192,80860,1,0,0:0:0:0:
276,192,80943,1,8,0:0:0:0:
368,276,81109,2,0,P|376:328|372:368,2,72
344,144,81606,1,0,0:0:0:0:
456,92,81772,5,0,0:0:0:0:
492,200,81938,2,0,P|452:204|396:188,1,72
268,208,82269,2,0,B|224:192|160:244|96:200,1,144,8|0,0:0|0:0,0:0:0:0:
144,104,82767,1,0,0:0:0:0:
256,116,82932,6,0,P|328:140|352:224,1,144
268,312,83430,1,0,0:0:0:0:
136,272,83595,2,0,P|106:291|72:308,2,72,8|0|0,0:0|0:0|0:0,0:0:0:0:
232,160,84093,1,0,0:0:0:0:
348,200,84258,6,0,P|408:192|448:204,1,72
272,328,84590,2,0,P|204:328|176:308,1,72
240,224,84921,1,8,0:0:0:0:
384,320,85253,1,0,0:0:0:0:
260,220,85584,6,0,P|212:208|140:264,1,144
296,312,86081,1,0,0:0:0:0:
296,312,86164,1,0,0:0:0:0:
296,312,86247,2,0,P|340:320|384:308,1,72,8|0,0:0|0:0,0:0:0:0:
448,236,86579,1,0,0:0:0:0:
368,156,86744,6,0,P|328:152|280:164,2,72
336,240,87242,1,0,0:0:0:0:
212,156,87407,1,0,0:0:0:0:
372,72,87573,2,0,P|432:96|448:188,1,144,8|0,0:0|0:0,0:0:0:0:
454,167,88236,6,0,B|423:215|463:299|463:299|399:275|315:307,1,270,2|0,0:0|0:0,0:0:0:0:
236,264,89562,6,0,P|192:288|80:144,1,270,2|0,0:0|0:0,0:0:0:0:
168,192,90888,6,0,P|208:172|264:176,1,90,2|0,0:0|0:0,0:0:0:0:
320,232,91385,2,0,P|340:196|304:100,1,135
416,224,92214,6,0,P|428:272|468:308,1,90,2|0,0:0|0:0,0:0:0:0:
376,344,92711,2,0,P|312:328|240:336,1,135
256,236,93540,6,0,B|208:232|172:264|172:264|132:216|132:216|88:260|24:240,1,270,2|0,0:0|0:0,0:0:0:0:
244,152,94866,6,0,P|312:168|344:244,2,135,2|0|0,0:0|0:0|0:0,0:0:0:0:
164,124,96192,6,0,P|112:144|40:104,1,135,2|0,0:0|0:0,0:0:0:0:
220,68,97021,1,0,0:0:0:0:
224,168,97352,6,0,P|212:244|224:272,1,90
276,352,97849,1,0,0:0:0:0:
312,220,98015,1,0,0:0:0:0:
180,336,98181,1,8,0:0:0:0:
360,296,98347,1,0,0:0:0:0:
260,128,98512,1,0,0:0:0:0:
120,220,98844,6,0,P|168:232|212:220,1,72
312,192,99175,2,0,P|352:184|400:200,2,72,0|8|0,0:0|0:0|0:0,0:0:0:0:
172,148,99673,1,0,0:0:0:0:
348,264,99838,1,8,0:0:0:0:
356,72,100004,1,0,0:0:0:0:
224,244,100170,6,0,P|204:284|160:308,1,72
176,140,100501,2,0,P|196:100|240:76,1,72
280,176,100833,1,0,0:0:0:0:
104,208,100999,1,0,0:0:0:0:
280,176,101164,2,0,P|324:164|372:184,1,72,8|0,0:0|0:0,0:0:0:0:
416,360,101496,5,4,0:0:0:0:
332,272,101662,1,0,0:0:0:0:
208,248,101827,2,0,L|140:208,1,72,0|8,0:0|0:0,0:0:0:0:
280,176,102159,1,0,0:0:0:0:
264,336,102325,1,0,0:0:0:0:
200,120,102490,1,8,0:0:0:0:
344,256,102656,6,0,P|384:300|484:288,1,144
424,148,103153,2,0,L|424:232,1,72
464,301,103485,1,8,0:0:0:0:
336,172,103650,1,0,0:0:0:0:
280,356,103816,1,0,0:0:0:0:
208,240,103982,1,0,0:0:0:0:
144,332,104148,6,0,P|76:344|32:316,1,108
20,304,104479,1,8,0:0:0:0:
196,192,104645,1,0,0:0:0:0:
116,144,104811,2,0,P|96:88|108:48,1,72
292,216,105142,2,0,P|308:247|310:283,1,72,8|0,0:0|0:0,0:0:0:0:
116,232,105474,5,0,0:0:0:0:
264,140,105639,1,0,0:0:0:0:
264,140,105722,1,0,0:0:0:0:
264,140,105805,1,8,0:0:0:0:
316,296,105971,1,0,0:0:0:0:
156,144,106137,2,0,L|132:72,1,72
348,196,106468,2,0,P|400:240|404:336,1,144,8|0,0:0|0:0,0:0:0:0:
308,296,106965,6,0,L|260:304,2,36,0|0|8,0:0|0:0|0:0,0:0:0:0:
200,232,107297,1,0,0:0:0:0:
344,196,107463,2,0,P|388:224|432:220,1,72
256,152,107794,1,8,0:0:0:0:
188,328,107960,1,0,0:0:0:0:
408,132,108126,6,0,P|424:92|424:56,1,72
424,63,108374,1,0,0:0:0:0:
424,63,108457,1,8,0:0:0:0:
288,64,108623,1,0,0:0:0:0:
200,172,108789,2,0,B|192:212|220:260,1,72
316,320,109120,1,0,0:0:0:0:
192,72,109286,5,0,0:0:0:0:
220,316,109452,1,0,0:0:0:0:
320,148,109617,1,0,0:0:0:0:
116,240,109783,1,0,0:0:0:0:
356,236,109949,2,0,L|440:252,1,72,8|0,0:0|0:0,0:0:0:0:
124,144,110280,2,0,L|20:152,1,72
256,200,110612,1,0,0:0:0:0:
256,192,110695,12,4,111772,0:0:0:0:
336,184,112104,6,0,P|280:168|192:196,1,135
172,208,112435,2,0,P|128:224|64:208,1,90,8|0,0:0|0:0,0:0:0:0:
272,256,112766,1,0,0:0:0:0:
120,128,112932,1,0,0:0:0:0:
192,352,113098,1,8,0:0:0:0:
364,184,113264,6,0,P|392:124|320:36,1,180
280,256,113761,1,8,0:0:0:0:
300,120,113927,1,0,0:0:0:0:
216,180,114092,1,0,0:0:0:0:
208,64,114258,1,0,0:0:0:0:
280,256,114424,1,8,0:0:0:0:
128,208,114590,6,0,P|84:236|104:356,1,180
144,360,115004,2,0,P|172:360|200:348,1,45,0|8,0:0|0:0,0:0:0:0:
260,180,115253,1,0,0:0:0:0:
320,324,115418,2,0,P|360:352|432:348,1,90
400,228,115750,1,8,0:0:0:0:
260,180,115916,6,0,L|160:164,1,90,8|0,0:0|0:0,0:0:0:0:
372,128,116247,2,0,L|472:112,1,90,8|0,0:0|0:0,0:0:0:0:
244,68,116579,1,0,0:0:0:0:
352,220,116744,1,0,0:0:0:0:
336,20,116910,1,0,0:0:0:0:
254,186,117076,1,8,0:0:0:0:
160,20,117242,1,0,0:0:0:0:
168,152,117407,6,0,P|172:212|132:272,1,135
100,296,117739,1,8,0:0:0:0:
52,184,117905,1,0,0:0:0:0:
256,160,118070,2,0,L|368:156,1,90
180,64,118402,1,8,0:0:0:0:
260,272,118568,1,0,0:0:0:0:
296,96,118733,5,0,0:0:0:0:
76,140,118899,2,0,P|52:144|24:136,2,45,0|0|8,0:0|0:0|0:0,0:0:0:0:
192,48,119231,2,0,P|180:92|204:160,1,90
304,220,119562,1,0,0:0:0:0:
152,236,119728,1,8,0:0:0:0:
272,96,119894,1,0,0:0:0:0:
368,156,120059,6,0,P|392:200|380:272,1,90
376,276,120308,1,0,0:0:0:0:
344,300,120391,1,8,0:0:0:0:
188,248,120557,1,0,0:0:0:0:
296,216,120722,1,0,0:0:0:0:
124,328,120888,2,0,P|68:352|8:340,1,90,0|8,0:0|0:0,0:0:0:0:
228,152,121220,5,0,0:0:0:0:
256,320,121385,1,0,0:0:0:0:
320,128,121551,2,0,L|320:28,1,90,0|8,0:0|0:0,0:0:0:0:
152,248,121883,1,0,0:0:0:0:
376,224,122048,5,8,0:0:0:0:
416,212,122131,1,8,0:0:0:0:
456,224,122214,1,0,0:0:0:0:
316,144,122380,1,8,0:0:0:0:
280,164,122463,1,8,0:0:0:0:
240,176,122545,1,0,0:0:0:0:
200,180,122628,1,0,0:0:0:0:
160,180,122711,6,0,P|84:164|32:88,1,135,4|0,0:0|0:0,0:0:0:0:
60,204,123043,2,0,P|68:264|52:300,1,90,8|0,0:0|0:0,0:0:0:0:
136,92,123374,1,0,0:0:0:0:
168,264,123540,2,0,L|192:368,2,90,0|8|0,0:0|0:0|0:0,0:0:0:0:
48,112,124037,5,0,0:0:0:0:
224,184,124203,1,0,0:0:0:0:
224,184,124286,1,0,0:0:0:0:
224,184,124369,2,0,P|280:200|352:192,1,90,8|0,0:0|0:0,0:0:0:0:
384,84,124700,2,0,P|328:68|256:76,1,90
176,88,125032,1,8,0:0:0:0:
124,224,125197,1,0,0:0:0:0:
224,328,125363,6,0,P|272:336|336:308,1,90
352,316,125612,1,0,0:0:0:0:
392,320,125695,1,8,0:0:0:0:
264,232,125860,1,0,0:0:0:0:
128,320,126026,1,0,0:0:0:0:
264,184,126192,1,0,0:0:0:0:
392,320,126358,1,8,0:0:0:0:
264,136,126523,6,0,L|156:116,1,90,8|0,0:0|0:0,0:0:0:0:
264,232,126855,2,0,L|372:252,1,90,8|0,0:0|0:0,0:0:0:0:
184,204,127186,2,0,P|128:208|84:332,1,180,8|0,0:0|0:0,0:0:0:0:
200,362,127684,2,0,P|184:318|140:270,1,90,8|0,0:0|0:0,0:0:0:0:
158,285,127932,1,0,0:0:0:0:
158,285,128015,1,0,0:0:0:0:
228,148,128181,5,0,0:0:0:0:
280,240,128347,2,0,P|296:284|340:332,1,90,8|0,0:0|0:0,0:0:0:0:
152,200,128678,1,0,0:0:0:0:
376,236,128844,2,0,P|408:268|472:288,2,90,0|8|0,0:0|0:0|0:0,0:0:0:0:
328,116,129341,5,0,0:0:0:0:
460,184,129507,1,0,0:0:0:0:
460,184,129590,1,0,0:0:0:0:
460,184,129673,1,8,0:0:0:0:
360,20,129838,1,0,0:0:0:0:
368,220,130004,2,0,P|368:280|348:320,1,90
212,320,130336,2,0,P|212:260|232:220,1,90,8|0,0:0|0:0,0:0:0:0:
308,120,130667,5,0,0:0:0:0:
368,220,130833,1,0,0:0:0:0:
352,32,130999,1,0,0:0:0:0:
280,224,131164,1,0,0:0:0:0:
428,104,131330,5,8,0:0:0:0:
224,136,131496,1,0,0:0:0:0:
460,200,131661,1,0,0:0:0:0:
324,40,131827,1,0,0:0:0:0:
360,292,131993,5,4,0:0:0:0:
256,192,133319,5,4,0:0:0:0:
256,192,133402,12,0,135971,0:0:0:0:
256,160,143761,6,0,P|300:144|392:176,1,144
316,232,144258,1,0,0:0:0:0:
216,248,144424,2,0,L|132:268,2,72,8|0|0,0:0|0:0|0:0,0:0:0:0:
412,240,144921,1,0,0:0:0:0:
172,176,145087,1,0,0:0:0:0:
348,152,145253,6,0,L|448:140,1,72
256,128,145584,1,0,0:0:0:0:
340,236,145750,1,0,0:0:0:0:
332,64,145916,1,0,0:0:0:0:
260,292,146081,1,0,0:0:0:0:
400,144,146247,1,8,0:0:0:0:
200,208,146413,6,0,P|156:220|108:204,1,72
212,84,146744,2,0,P|188:120|148:136,1,72
116,44,147076,1,8,0:0:0:0:
276,156,147242,1,0,0:0:0:0:
372,76,147407,2,0,P|432:56|472:60,2,72
260,168,147905,5,0,0:0:0:0:
428,140,148070,2,0,P|464:144|500:172,1,72
280,80,148402,1,0,0:0:0:0:
440,232,148568,1,0,0:0:0:0:
364,80,148733,1,0,0:0:0:0:
368,280,148899,1,8,0:0:0:0:
268,168,149065,1,0,0:0:0:0:
204,292,149231,6,0,L|108:308,1,72
100,308,149479,1,0,0:0:0:0:
68,316,149562,1,8,0:0:0:0:
240,200,149728,2,0,P|276:228|280:348,1,144
344,164,150225,2,0,P|324:120|336:68,1,72,8|0,0:0|0:0,0:0:0:0:
293,320,150556,5,0,0:0:0:0:
412,112,150722,2,0,L|448:128,2,36,0|0|8,0:0|0:0|0:0,0:0:0:0:
252,208,151054,2,0,P|208:224|152:212,2,72
296,104,151551,1,8,0:0:0:0:
388,280,151717,1,0,0:0:0:0:
416,152,151882,6,0,P|460:132|504:140,1,72
482,132,152131,1,0,0:0:0:0:
482,132,152214,1,8,0:0:0:0:
332,216,152380,2,0,P|296:232|200:172,1,144
284,132,152877,1,8,0:0:0:0:
432,176,153043,6,0,P|444:232|424:264,1,72
352,316,153374,1,0,0:0:0:0:
364,116,153540,1,8,0:0:0:0:
444,340,153706,1,0,0:0:0:0:
444,340,154037,1,0,0:0:0:0:
340,192,154203,2,0,L|356:96,1,72,8|0,0:0|0:0,0:0:0:0:
428,252,154534,5,0,0:0:0:0:
256,132,154700,1,8,0:0:0:0:
348,336,154866,1,0,0:0:0:0:
436,164,155032,2,0,P|448:104|376:36,1,144,8|0,0:0|0:0,0:0:0:0:
252,288,155529,5,0,0:0:0:0:
352,120,155695,2,0,P|308:100|208:144,1,144
260,304,156192,5,0,0:0:0:0:
292,188,156358,1,8,0:0:0:0:
152,296,156523,1,8,0:0:0:0:
380,240,156689,1,8,0:0:0:0:
200,124,156855,1,8,0:0:0:0:
352,344,157021,1,0,0:0:0:0:
352,344,157352,5,0,0:0:0:0:
360,312,157435,1,0,0:0:0:0:
368,280,157518,2,0,P|372:228|356:188,1,72,8|0,0:0|0:0,0:0:0:0:
240,156,157849,2,0,P|236:208|252:248,1,72
336,120,158181,5,8,0:0:0:0:
192,56,158347,1,0,0:0:0:0:
192,56,158678,1,0,0:0:0:0:
236,224,158844,2,0,L|248:320,1,72,8|8,0:0|0:0,0:0:0:0:
328,148,159175,1,8,0:0:0:0:
132,152,159341,1,0,0:0:0:0:
331,252,159507,2,0,L|400:232,1,72
173,302,159838,1,0,0:0:0:0:
256,192,159921,12,2,162490,0:0:0:0:
276,216,171606,5,0,0:0:0:0:
404,184,171938,1,0,0:0:0:0:
164,152,172269,1,8,0:0:0:0:
348,256,172435,2,0,P|392:272|432:272,1,72,8|0,0:0|0:0,0:0:0:0:
264,96,172766,1,8,0:0:0:0:
192,264,172932,1,0,0:0:0:0:
408,192,173098,6,0,P|336:168|260:184,1,135
232,180,173429,2,0,P|180:188|136:176,1,90,8|0,0:0|0:0,0:0:0:0:
332,276,173761,1,0,0:0:0:0:
192,96,173927,1,0,0:0:0:0:
192,264,174092,2,0,P|192:312|216:364,1,90,8|0,0:0|0:0,0:0:0:0:
404,216,174424,5,0,0:0:0:0:
292,152,174590,1,0,0:0:0:0:
248,156,174672,1,0,0:0:0:0:
204,164,174755,2,0,P|136:180|100:172,1,90,8|0,0:0|0:0,0:0:0:0:
260,64,175087,1,0,0:0:0:0:
344,272,175253,1,0,0:0:0:0:
292,152,175418,1,8,0:0:0:0:
272,336,175584,1,0,0:0:0:0:
380,184,175750,6,0,P|384:120|356:84,1,90
247,159,175998,2,0,L|295:151,1,45,0|8,0:0|0:0,0:0:0:0:
460,56,176247,1,0,0:0:0:0:
284,64,176413,1,0,0:0:0:0:
496,188,176579,1,0,0:0:0:0:
360,12,176744,1,8,0:0:0:0:
352,176,176910,6,0,L|376:280,1,90,8|0,0:0|0:0,0:0:0:0:
208,316,177242,2,0,L|224:212,1,90,8|0,0:0|0:0,0:0:0:0:
304,76,177573,1,0,0:0:0:0:
304,76,177904,1,0,0:0:0:0:
248,320,178070,1,8,0:0:0:0:
316,160,178236,5,0,0:0:0:0:
360,144,178319,1,0,0:0:0:0:
404,128,178402,2,0,P|444:120|504:116,1,90
208,256,178733,1,0,0:0:0:0:
232,148,178899,1,0,0:0:0:0:
332,252,179065,2,0,L|344:352,1,90,8|0,0:0|0:0,0:0:0:0:
342,341,179313,1,0,0:0:0:0:
342,341,179396,1,0,0:0:0:0:
232,148,179562,5,8,0:0:0:0:
136,204,179728,2,0,P|96:216|44:216,1,90,0|8,0:0|0:0,0:0:0:0:
232,280,180059,1,0,0:0:0:0:
132,100,180225,1,0,0:0:0:0:
288,152,180391,2,0,P|344:148|400:152,1,90
424,272,180722,2,0,P|368:276|312:272,1,90,8|0,0:0|0:0,0:0:0:0:
220,252,181054,6,0,P|184:200|236:88,1,180
336,264,181551,1,0,0:0:0:0:
276,176,181717,1,8,0:0:0:0:
272,348,181882,1,0,0:0:0:0:
372,168,182048,2,0,P|356:120|296:88,1,90
192,336,182380,5,4,0:0:0:0:
192,336,183706,6,0,P|240:296|244:220,1,135,4|0,0:0|0:0,0:0:0:0:
244,184,184037,2,0,P|232:128|248:72,1,90,8|0,0:0|0:0,0:0:0:0:
164,248,184369,1,0,0:0:0:0:
328,136,184534,1,0,0:0:0:0:
152,48,184700,1,8,0:0:0:0:
384,220,184866,1,0,0:0:0:0:
192,164,185032,6,0,P|144:160|100:184,1,90
72,204,185280,1,0,0:0:0:0:
52,244,185363,1,8,0:0:0:0:
280,224,185529,2,0,P|304:164|216:64,1,180
180,256,186026,1,8,0:0:0:0:
376,152,186192,1,0,0:0:0:0:
144,88,186358,5,0,0:0:0:0:
264,304,186523,2,0,L|272:356,2,45,0|0|8,0:0|0:0|0:0,0:0:0:0:
292,80,186855,2,0,P|300:136|288:184,1,90
180,272,187186,1,0,0:0:0:0:
212,128,187352,1,8,0:0:0:0:
352,244,187518,1,0,0:0:0:0:
180,272,187683,6,0,P|124:284|68:248,1,90
296,136,188015,1,8,0:0:0:0:
136,196,188181,1,0,0:0:0:0:
356,216,188346,2,0,P|404:212|464:252,1,90
248,240,188678,1,8,0:0:0:0:
248,240,189009,6,0,P|264:288|240:344,1,90
254,324,189258,1,0,0:0:0:0:
254,324,189341,1,8,0:0:0:0:
224,136,189507,1,0,0:0:0:0:
328,192,189672,2,0,L|388:272,1,90
152,220,190004,1,8,0:0:0:0:
316,92,190170,1,0,0:0:0:0:
340,344,190335,5,0,0:0:0:0:
264,268,190501,2,0,L|220:256,1,45
192,328,190667,2,0,L|96:348,1,90,8|0,0:0|0:0,0:0:0:0:
16,256,190998,1,0,0:0:0:0:
136,196,191164,2,0,L|240:176,2,90,0|8|0,0:0|0:0|0:0,0:0:0:0:
32,152,191661,5,0,0:0:0:0:
180,100,191827,1,0,0:0:0:0:
212,84,191910,1,0,0:0:0:0:
244,68,191993,1,8,0:0:0:0:
432,160,192159,2,0,L|332:140,1,90
216,252,192490,2,0,L|308:224,1,90,0|8,0:0|0:0,0:0:0:0:
356,52,192822,6,0,P|296:60|268:176,1,180
344,316,193319,1,8,0:0:0:0:
344,140,193485,2,0,L|400:152,1,45
468,216,193650,2,0,L|412:224,1,45,8|0,0:0|0:0,0:0:0:0:
340,236,193816,1,0,0:0:0:0:
196,152,193982,2,0,L|240:163,1,45,8|0,0:0|0:0,0:0:0:0:
168,240,194148,2,0,L|116:256,1,45
104,160,194313,6,0,P|120:100|220:72,1,135
228,76,194645,2,0,P|280:84|336:72,1,90,8|0,0:0|0:0,0:0:0:0:
452,92,194976,1,0,0:0:0:0:
360,180,195142,2,0,L|312:172,1,45
216,196,195308,1,8,0:0:0:0:
448,280,195474,1,0,0:0:0:0:
320,284,195639,6,0,B|276:284|276:284|260:292|256:296|200:296,1,90
231,295,195888,1,0,0:0:0:0:
231,295,195971,1,8,0:0:0:0:
356,204,196136,2,0,P|404:240|364:356,1,180
272,208,196634,1,8,0:0:0:0:
452,152,196799,1,0,0:0:0:0:
212,128,196965,6,0,P|160:124|96:152,1,90
92,148,197214,2,0,P|56:152|32:148,1,45,0|8,0:0|0:0,0:0:0:0:
172,216,197462,1,0,0:0:0:0:
324,112,197628,1,0,0:0:0:0:
296,220,197794,2,0,L|284:272,2,45,0|0|8,0:0|0:0|0:0,0:0:0:0:
204,132,198125,6,0,P|152:128|104:156,1,90
384,256,198457,2,0,P|436:260|484:232,1,90,0|8,0:0|0:0,0:0:0:0:
328,116,198788,1,0,0:0:0:0:
172,208,198954,2,0,P|148:252|164:312,1,90
260,260,199286,2,0,B|328:220|388:304|456:244,1,180,8|0,0:0|0:0,0:0:0:0:
376,140,199783,6,0,L|392:184,1,45
304,64,199949,2,0,L|288:164,1,90,8|0,0:0|0:0,0:0:0:0:
336,248,200280,1,0,0:0:0:0:
396,48,200446,1,0,0:0:0:0:
204,84,200612,2,0,P|152:96|92:84,1,90,8|0,0:0|0:0,0:0:0:0:
192,192,200943,5,0,0:0:0:0:
268,344,201109,1,0,0:0:0:0:
288,168,201275,1,8,0:0:0:0:
160,300,201440,1,0,0:0:0:0:
344,260,201606,5,0,0:0:0:0:
176,216,201772,1,0,0:0:0:0:
352,352,201938,1,8,0:0:0:0:
296,184,202103,1,0,0:0:0:0:
332,60,202269,6,0,P|380:84|408:232,1,180
240,320,202766,1,0,0:0:0:0:
236,200,202932,2,0,L|328:160,1,90,8|0,0:0|0:0,0:0:0:0:
428,60,203264,1,0,0:0:0:0:
332,268,203429,1,0,0:0:0:0:
216,100,203595,5,0,0:0:0:0:
392,156,203766,2,0,L|484:180,1,90
240,212,204109,2,0,L|140:244,1,90,8|0,0:0|0:0,0:0:0:0:
356,264,204452,1,0,0:0:0:0:
256,192,204880,5,4,0:0:0:0:
256,192,204966,12,0,212852,0:0:0:0:
