osu file format v14

[General]
AudioFilename: audio.mp3
AudioLeadIn: 0
PreviewTime: 119724
Countdown: 0
SampleSet: Soft
StackLeniency: 0.5
Mode: 0
LetterboxInBreaks: 0
WidescreenStoryboard: 0

[Editor]
Bookmarks: 23885,46880,58377,81371,84245,107239,143167,154664,164544,178017,200652,248077,259574,264784
DistanceSpacing: 1.3
BeatDivisor: 4
GridSize: 32
TimelineZoom: 3.899999

[Metadata]
Title:ALONE
TitleUnicode:ALONE
Artist:FELT
ArtistUnicode:FELT
Creator:Cami
Version:FAINT
Source:東方紺珠伝 ~ Legacy of Lunatic Kingdom.
Tags:舞花 美歌 Maika Mika Maurits"禅"Cornelis Star Piece ピュアヒューリーズ 心の在処 Pure Furies ~Whereabouts of the Heart comiket 96 c96 junko zun kokoro no arika touhou toho project 東方Project video game jrock rock
BeatmapID:2160189
BeatmapSetID:1033176

[Difficulty]
HPDrainRate:5
CircleSize:4
OverallDifficulty:7
ApproachRate:8.6
SliderMultiplier:1.38
SliderTickRate:1

[Events]
//Background and Video events
0,0,"62001700_p0_master1200_waifu2x_art_noise2_scale_tta_1.png",0,0
//Break Periods
//Storyboard Layer 0 (Background)
//Storyboard Layer 1 (Fail)
//Storyboard Layer 2 (Pass)
//Storyboard Layer 3 (Foreground)
//Storyboard Layer 4 (Overlay)
//Storyboard Sound Samples

[TimingPoints]
892,359.281437125748,4,2,1,45,1,0
892,-166.666666666667,4,2,1,45,0,0
15263,-163.934426229508,4,2,1,45,0,0
23886,-133.333333333333,4,2,1,45,0,0
46341,-133.333333333333,4,2,1,55,0,0
46880,-142.857142857143,4,2,0,40,0,0
58377,-90.9090909090909,4,2,1,60,0,1
58466,-90.9090909090909,4,2,1,60,0,0
68257,-83.3333333333333,4,2,1,60,0,0
81371,-133.333333333333,4,2,0,40,0,0
84245,-111.111111111111,4,2,1,45,0,0
95742,-105.263157894737,4,2,1,50,0,0
107239,-86.9565217391306,4,2,1,55,0,0
108317,-117.647058823529,4,2,1,55,0,0
110652,-117.647058823529,4,2,1,40,0,0
112808,-117.647058823529,4,2,1,60,0,0
112987,-117.647058823529,4,2,1,45,0,0
115862,-100,4,2,1,55,0,0
120173,-84.7457627118644,4,2,1,70,0,1
131670,-92.5925925925926,4,2,1,70,0,1
140293,-84.7457627118644,4,2,1,70,0,1
141550,-100,4,2,1,70,0,0
142628,-100,4,2,1,60,0,0
143167,-90.9090909090909,4,2,1,60,0,1
143257,-90.9090909090909,4,2,1,60,0,0
153047,-83.3333333333333,4,2,1,60,0,0
154664,-111.111111111111,4,2,1,45,0,0
164544,-111.111111111111,4,2,1,55,0,0
166161,-105.263157894737,4,2,1,50,0,0
177658,-80.0000000000001,4,2,1,50,0,0
178017,-74.0740740740741,4,2,1,60,0,0
181969,-117.647058823529,4,2,1,30,0,0
182508,-117.647058823529,4,2,1,90,0,0
182868,-133.333333333333,4,2,1,40,0,0
183406,-117.647058823529,4,2,1,60,0,0
183586,-117.647058823529,4,2,1,40,0,0
185023,-117.647058823529,4,2,1,80,0,0
185383,-117.647058823529,4,2,1,40,0,0
185742,-117.647058823529,4,2,1,90,0,0
185921,-117.647058823529,4,2,1,40,0,0
186999,-117.647058823529,4,2,1,65,0,0
187179,-117.647058823529,4,2,1,40,0,0
187718,-117.647058823529,4,2,1,55,0,0
189874,-117.647058823529,4,2,1,60,0,0
194903,-100,4,2,1,60,0,0
197778,-100,4,2,1,70,0,1
198856,-100,4,2,1,40,0,0
201011,-142.857142857143,4,2,1,40,0,0
206400,-137.931034482759,4,2,1,40,0,0
212149,-111.111111111111,4,2,1,45,0,0
213406,-111.111111111111,4,2,1,65,0,0
213586,-111.111111111111,4,2,1,45,0,0
214844,-111.111111111111,4,2,1,65,0,0
215023,-111.111111111111,4,2,1,45,0,0
217718,-111.111111111111,4,2,1,65,0,0
217897,-100,4,2,1,55,0,0
220772,-100,4,2,1,60,0,0
222029,-100,4,2,1,65,0,1
222119,-100,4,2,1,65,0,0
224409,-76.9230769230769,4,2,1,65,0,0
225083,-83.3333333333333,4,2,1,70,0,1
236580,-90.9090909090909,4,2,1,70,0,1
246460,-100,4,2,1,65,0,0
247359,-100,4,2,1,60,0,0
248077,-90.9090909090909,4,2,1,60,0,1
248167,-90.9090909090909,4,2,1,60,0,0
259574,-133.333333333333,4,2,1,60,0,0
260113,-133.333333333333,4,2,0,50,0,0
264424,-86.9565217391303,4,2,1,60,0,0
264604,-133.333333333333,4,2,0,70,0,0
264784,-100,4,2,1,70,0,1
264874,-100,4,2,1,60,0,0

[Colours]
Combo1 : 114,220,220
Combo2 : 200,196,155
Combo3 : 84,73,184
Combo4 : 219,162,119

[HitObjects]
98,329,892,6,0,L|104:369,3,41.3999987365723,2|0|0|0,0:0|0:0|0:0|0:0,0:0:0:0:
125,248,1790,2,0,L|157:222,3,41.3999987365723
42,265,2868,1,0,0:0:0:0:
42,265,3047,2,0,L|3:249,2,41.3999987365723
177,316,3766,6,0,L|215:331,3,41.3999987365723,2|0|0|0,0:0|0:0|0:0|0:0,0:0:0:0:
283,251,4664,2,0,L|289:291,3,41.3999987365723
392,310,5742,1,0,0:0:0:0:
392,310,5921,2,0,L|359:335,2,41.3999987365723
464,175,6640,6,0,L|496:149,3,41.3999987365723,2|0|0|0,0:0|0:0|0:0|0:0,0:0:0:0:
372,105,7538,2,0,L|378:145,3,41.3999987365723
478,60,8616,1,0,0:0:0:0:
478,60,8796,2,0,L|439:44,2,41.3999987365723
378,145,9514,6,0,L|339:160,3,41.3999987365723,2|0|0|0,0:0|0:0|0:0|0:0,0:0:0:0:
328,262,10412,2,0,L|295:236,3,41.3999987365723
201,277,11490,1,0,0:0:0:0:
201,277,11670,2,0,L|207:236,2,41.3999987365723
13,100,12389,6,0,L|7:59,3,41.3999987365723,2|0|0|0,0:0|0:0|0:0|0:0,0:0:0:0:
83,142,13287,2,0,L|98:103,3,41.3999987365723
122,213,14365,1,0,0:0:0:0:
122,213,14544,2,0,L|197:153,1,82.7999974731446,0|2,0:0|0:0,0:0:0:0:
367,179,15263,6,0,L|326:213,3,42.0899982659455,2|0|0|0,0:0|0:0|0:0|0:0,0:0:0:0:
443,154,16161,2,0,L|451:206,3,42.0899982659455
459,75,17239,2,0,L|508:93,2,42.0899982659455
384,44,17778,1,2,0:0:0:0:
384,44,18137,6,0,B|294:145|373:289,1,252.539989595673,2|2,0:0|0:0,0:0:0:0:
367,278,19754,2,0,B|281:270|281:270|239:296|239:296|157:287,1,210.449991329728,2|0,0:0|0:0,0:0:0:0:
41,189,21011,2,0,L|295:170,1,252.539989595673,2|2,0:0|0:0,0:0:0:0:
256,192,22179,12,0,23706,0:0:0:0:
400,68,23886,5,2,3:0:0:0:
476,323,24604,1,4,0:3:0:0:
476,323,24649,1,4,0:3:0:0:
510,229,25323,5,0,3:0:0:0:
254,305,26041,1,4,0:3:0:0:
254,305,26086,1,4,0:3:0:0:
348,339,26760,5,0,3:0:0:0:
272,84,27478,1,4,0:3:0:0:
272,84,27523,1,4,0:3:0:0:
238,178,28197,5,0,3:0:0:0:
493,101,28915,1,4,0:3:0:0:
493,101,28960,1,4,0:3:0:0:
418,166,29634,5,0,3:0:0:0:
412,248,30353,1,4,0:3:0:0:
412,248,30397,1,4,0:3:0:0:
412,248,31071,5,0,3:0:0:0:
330,242,31790,1,4,0:3:0:0:
330,242,31835,1,4,0:3:0:0:
330,242,32508,5,0,3:0:0:0:
336,160,33227,1,4,0:3:0:0:
336,160,33272,1,4,0:3:0:0:
336,160,33945,5,0,3:0:0:0:
418,166,34664,1,4,0:3:0:0:
418,166,34709,1,4,0:3:0:0:
371,234,35383,5,4,3:1:0:0:
155,167,36101,1,4,0:3:0:0:
155,167,36146,1,4,0:3:0:0:
110,239,36640,5,0,3:0:0:0:
236,188,36820,2,0,L|244:122,1,51.7500019741059,0|0,3:0|0:0,0:0:0:0:
246,140,37359,1,4,0:3:0:0:
246,140,37403,1,4,0:3:0:0:
309,92,37538,1,0,3:0:0:0:
388,90,37718,1,0,3:0:0:0:
461,143,37897,1,4,0:3:0:0:
461,143,37942,1,4,0:3:0:0:
461,143,38257,5,2,3:2:0:0:
417,209,38436,1,8,0:3:0:0:
452,280,38616,1,4,0:3:0:0:
337,203,38975,1,8,0:3:0:0:
337,203,39020,1,4,0:3:0:0:
337,203,39514,5,4,0:3:0:0:
290,267,39694,1,0,3:0:0:0:
207,186,39874,2,0,L|215:238,1,51.7500019741059,8|0,0:3|0:0,0:0:0:0:
105,347,40233,5,4,0:3:0:0:
105,347,40278,1,4,0:3:0:0:
65,277,40413,1,0,3:0:0:0:
134,237,40593,1,0,3:0:0:0:
181,313,40772,1,8,0:3:0:0:
181,313,40817,1,8,0:3:0:0:
181,313,41131,5,2,3:2:0:0:
252,114,41490,1,4,0:3:0:0:
252,114,41535,1,4,0:3:0:0:
245,260,41850,5,0,3:0:0:0:
207,186,42029,1,4,0:3:0:0:
207,186,42568,5,0,0:0:0:0:
297,197,42748,1,4,0:3:0:0:
297,197,42793,1,4,0:3:0:0:
297,197,43107,5,0,3:0:0:0:
166,260,43287,1,8,0:3:0:0:
166,260,43332,1,8,0:3:0:0:
166,260,44005,5,0,3:0:0:0:
418,329,44365,1,4,0:3:0:0:
418,329,44409,1,4,0:3:0:0:
217,327,44724,5,0,3:0:0:0:
349,273,44903,1,4,0:3:0:0:
268,258,45263,5,8,0:3:0:0:
303,343,45442,1,0,3:0:0:0:
233,173,45622,5,4,3:1:0:0:
39,291,46161,1,4,0:3:0:0:
39,291,46206,1,4,0:3:0:0:
180,245,46341,1,0,1:0:0:0:
48,202,46520,1,0,0:0:0:0:
131,366,46700,1,0,1:0:0:0:
131,366,46880,6,0,P|178:358|226:352,1,96.599997052002,2|0,0:3|0:0,0:0:0:0:
327,272,47598,1,2,0:3:0:0:
327,272,47778,2,0,P|296:279|269:280,2,48.299998526001,0|0|0,0:3|0:0|0:0,0:0:0:0:
412,291,48317,6,0,B|395:246|407:179,1,96.599997052002,2|0,0:3|0:0,0:0:0:0:
456,135,48856,2,0,L|502:123,2,48.299998526001,2|0|0,0:3|0:0|0:0,0:0:0:0:
344,95,49394,2,0,L|298:83,1,48.299998526001,2|0,0:3|0:0,0:0:0:0:
237,31,49754,5,2,0:3:0:0:
94,114,50113,1,2,0:3:0:0:
166,73,50472,1,2,0:3:0:0:
166,73,50652,2,0,P|170:93|174:130,2,48.299998526001
237,31,51191,6,0,P|250:83|254:177,2,144.899995578003,2|2|2,0:3|0:3|0:3,0:0:0:0:
332,200,52628,6,0,P|335:248|346:295,1,96.599997052002,2|0,0:3|0:0,0:0:0:0:
478,354,53347,1,2,0:3:0:0:
478,354,53526,2,0,L|487:300,2,48.299998526001
419,257,54065,6,0,L|405:151,1,96.599997052002,2|0,0:3|0:0,0:0:0:0:
469,102,54604,2,0,P|474:78|480:55,2,48.299998526001,2|0|0,0:3|0:0|0:0,0:0:0:0:
341,51,55143,2,0,P|335:27|329:4,1,48.299998526001,2|0,0:3|0:3,0:0:0:0:
258,45,55502,6,0,P|210:38|107:29,1,144.899995578003,2|0,0:3|0:0,0:0:0:0:
114,29,56400,2,0,P|118:56|121:89,2,48.299998526001,2|0|0,0:3|0:0|0:0,0:0:0:0:
47,116,56939,6,0,L|29:216,1,96.599997052002,2|0,0:3|0:0,0:0:0:0:
121,292,57478,2,0,P|85:284|60:279,1,48.299998526001,2|0,0:3|0:0,0:0:0:0:
84,366,57838,5,2,0:0:0:0:
199,268,58017,1,2,0:0:0:0:
341,318,58197,1,2,0:0:0:0:
250,333,58377,6,0,B|234:256|262:172,1,151.800004632568,4|2,3:2|1:3,0:0:0:0:
325,135,58915,1,0,0:0:0:0:
471,219,59095,1,2,3:0:0:0:
471,219,59275,1,0,3:0:0:0:
387,234,59454,2,0,P|395:194|402:147,1,75.9000023162842,2|0,1:3|3:0,0:0:0:0:
239,20,59814,5,2,0:3:0:0:
172,69,59993,1,0,3:0:0:0:
248,103,60173,1,2,1:3:0:0:
400,159,60353,5,2,0:2:0:0:
500,232,60532,1,2,3:0:0:0:
386,283,60712,1,2,3:2:0:0:
286,210,60891,2,0,P|194:194|152:184,1,113.850003474426,2|0,1:3|0:0,0:0:0:0:
174,189,61251,6,0,P|185:242|190:274,1,75.9000023162842,6|0,3:2|0:0,0:0:0:0:
43,362,61610,2,0,P|32:309|27:277,1,75.9000023162842,2|0,1:3|0:0,0:0:0:0:
93,160,61969,1,2,3:0:0:0:
93,160,62149,1,0,3:0:0:0:
22,13,62329,1,2,1:3:0:0:
56,87,62508,6,0,B|142:53|113:130|220:90,1,151.800004632568,2|0,3:2|3:0,0:0:0:0:
391,168,63047,1,4,1:0:0:0:
310,153,63227,1,2,0:0:0:0:
363,90,63406,5,2,3:0:0:0:
338,231,63586,1,0,3:0:0:0:
473,183,63766,2,0,P|481:144|492:103,1,75.9000023162842,2|0,1:3|0:0,0:0:0:0:
441,44,64035,1,0,1:0:0:0:
441,44,64125,6,0,P|337:51|280:54,1,151.800004632568,6|2,3:2|1:3,0:0:0:0:
206,63,64664,1,0,0:0:0:0:
89,188,64844,1,2,3:0:0:0:
89,188,65023,1,0,3:0:0:0:
231,145,65203,1,2,1:3:0:0:
64,106,65383,6,0,B|68:183|44:261,1,151.800004632568,2|0,3:2|3:0,0:0:0:0:
183,356,65921,2,0,P|194:298|205:260,1,75.9000023162842,2|0,1:3|0:0,0:0:0:0:
198,281,66191,1,0,1:0:0:0:
198,281,66281,1,2,3:0:0:0:
307,196,66460,1,0,3:0:0:0:
392,304,66640,2,0,L|313:315,1,75.9000023162842,2|0,1:3|0:0,0:0:0:0:
371,145,66999,5,2,3:0:0:0:
490,278,67179,1,2,0:0:0:0:
316,314,67359,1,2,1:3:0:0:
433,212,67538,1,2,0:0:0:0:
462,364,67718,5,2,3:0:0:0:
344,230,67897,2,0,P|306:235|260:240,1,75.9000023162842,2|2,3:2|1:3,0:0:0:0:
30,86,68257,6,0,L|53:263,1,165.599994946289,4|0,3:1|3:0,0:0:0:0:
51,250,68706,1,0,3:0:0:0:
51,250,68796,1,2,1:3:0:0:
130,205,68975,1,2,0:0:0:0:
193,272,69155,1,2,1:3:0:0:
193,272,69245,1,0,1:0:0:0:
193,272,69335,5,4,0:3:0:0:
293,156,69514,1,2,1:3:0:0:
396,287,69694,1,2,0:0:0:0:
396,287,69784,1,0,1:0:0:0:
396,287,69874,6,0,B|297:273|327:341|237:332,1,165.599994946289,6|2,3:2|1:3,0:0:0:0:
419,208,70592,1,2,3:3:0:0:
452,346,70772,1,2,3:2:0:0:
316,306,70951,1,2,1:3:0:0:
396,287,71131,6,0,B|407:200|386:113,1,165.599994946289,2|0,3:2|3:0,0:0:0:0:
211,14,71670,2,0,B|201:52|205:113,1,82.7999974731446,2|2,1:3|0:0,0:0:0:0:
204,96,71939,1,2,0:0:0:0:
204,96,72029,1,2,3:3:0:0:
123,46,72209,1,2,3:2:0:0:
203,191,72389,1,2,1:3:0:0:
287,50,72568,1,2,0:2:0:0:
124,134,72748,6,0,B|61:122|-7:120|-7:120,1,124.199996209717,2|0,3:0|3:0,0:0:0:0:
0,120,73107,2,0,L|11:217,1,82.7999974731446,2|0,1:3|0:0,0:0:0:0:
193,366,73466,1,2,3:3:0:0:
220,243,73646,1,2,3:2:0:0:
97,216,73826,1,2,1:3:0:0:
70,339,74005,6,0,P|121:331|172:327,1,82.7999974731446,6|2,3:2|3:0,0:0:0:0:
362,343,74365,1,2,3:2:0:0:
269,153,74544,2,0,B|227:162|174:166,1,82.7999974731446,4|2,1:1|0:0,0:0:0:0:
187,164,74814,1,0,0:0:0:0:
187,164,74903,5,2,3:3:0:0:
277,73,75083,1,2,3:2:0:0:
382,198,75263,1,2,1:3:0:0:
512,40,75442,1,2,1:2:0:0:
512,40,75532,1,0,1:0:0:0:
512,40,75622,6,0,B|469:121|491:230,1,165.599994946289,6|2,3:2|1:3,0:0:0:0:
298,302,76341,1,2,3:0:0:0:
267,219,76520,1,2,3:2:0:0:
384,316,76700,1,2,1:3:0:0:
241,368,76880,6,0,B|157:363|75:359,1,165.599994946289,2|0,3:2|3:0,0:0:0:0:
104,184,77418,2,0,P|145:187|186:188,1,82.7999974731446,2|0,1:3|0:0,0:0:0:0:
100,267,77778,5,2,3:3:0:0:
21,180,77957,1,2,3:2:0:0:
107,101,78137,1,2,1:3:0:0:
186,188,78317,1,2,0:2:0:0:
290,130,78496,6,0,B|295:64|291:5,1,124.199996209717,4|0,3:2|3:0,0:0:0:0:
292,6,78856,1,2,1:3:0:0:
408,148,79035,2,0,B|403:189|408:248,1,82.7999974731446,2|2,0:0|3:0,0:0:0:0:
268,301,79394,1,2,3:2:0:0:
320,209,79574,1,2,1:3:0:0:
163,302,79754,6,0,P|81:315|0:324,1,165.599994946289,4|0,3:1|1:0,0:0:0:0:
0,324,80203,2,0,L|6:282,1,41.3999987365723,0|0,1:0|3:0,0:0:0:0:
59,222,80383,1,0,1:0:0:0:
59,222,80472,2,0,L|109:231,1,41.3999987365723,2|0,3:2|3:0,0:0:0:0:
209,227,80652,1,0,1:0:0:0:
214,222,80742,1,0,1:0:0:0:
219,217,80832,6,0,L|211:184,6,20.6999993682862,2|2|2|2|2|2|2,3:2|0:2|3:2|0:2|1:2|0:0|3:2,0:0:0:0:
275,289,81191,1,2,0:0:0:0:
275,289,81371,6,0,P|268:311|261:346,2,51.7500019741059,2|0|0,0:3|0:0|0:0,0:0:0:0:
367,232,81909,2,0,P|373:254|381:289,2,51.7500019741059,2|0|0,0:3|0:0|0:0,0:0:0:0:
253,186,82448,2,0,P|226:183|188:176,2,51.7500019741059,2|0|0,0:3|0:0|0:0,0:0:0:0:
333,91,82987,2,0,P|360:88|398:81,2,51.7500019741059,2|0|0,0:3|0:0|0:0,0:0:0:0:
176,84,83526,5,2,0:3:0:0:
197,9,83706,1,2,0:3:0:0:
272,30,83886,1,2,0:3:0:0:
251,105,84065,1,2,0:3:0:0:
123,144,84245,6,0,B|56:148|0:156,1,124.199996209717,4|2,3:1|1:3,0:0:0:0:
90,229,84784,1,2,0:0:0:0:
90,229,84963,2,0,P|143:242|165:252,1,62.0999981048585,2|0,3:3|3:0,0:0:0:0:
305,195,85323,1,2,1:3:0:0:
224,183,85502,6,0,B|235:246|236:314,1,124.199996209717,2|2,3:2|3:2,0:0:0:0:
368,352,86041,1,2,1:3:0:0:
368,352,86221,2,0,P|374:312|379:281,1,62.0999981048585,2|2,0:0|3:0,0:0:0:0:
512,245,86580,2,0,P|460:237|432:232,1,62.0999981048585,2|2,3:2|1:3,0:0:0:0:
301,137,86939,6,0,B|370:105|433:169,1,124.199996209717,2|2,0:0|0:0,0:0:0:0:
416,154,87478,1,2,1:3:0:0:
306,237,87658,2,0,P|183:227|101:221,1,186.299994314575,2|2,0:0|1:3,0:0:0:0:
38,241,88377,1,0,3:0:0:0:
38,241,88556,2,0,P|43:204|46:169,1,62.0999981048585,2|0,0:3|3:0,0:0:0:0:
176,77,88915,2,0,P|171:114|168:149,1,62.0999981048585,2|0,1:3|0:0,0:0:0:0:
228,205,89275,1,2,3:0:0:0:
370,168,89454,5,2,3:2:0:0:
288,146,89634,1,2,1:3:0:0:
315,235,89814,1,2,0:0:0:0:
315,235,89903,1,0,0:0:0:0:
315,235,89993,6,0,B|378:208|365:265|452:239,1,124.199996209717,2|2,3:0|1:3,0:0:0:0:
344,358,90532,2,0,P|312:317|231:325,1,124.199996209717,2|0,0:0|3:0,0:0:0:0:
62,258,91071,1,2,1:3:0:0:
132,180,91251,6,0,P|141:239|158:321,1,124.199996209717,2|0,3:2|3:0,0:0:0:0:
241,190,91790,1,2,1:3:0:0:
241,190,91969,2,0,B|236:152|228:116,1,62.0999981048585,2|0,0:0|3:0,0:0:0:0:
100,84,92329,2,0,B|137:78|182:66,1,62.0999981048585,2|2,3:2|1:3,0:0:0:0:
285,0,92688,6,0,P|324:19|319:106,1,124.199996209717,2|0,0:0|0:0,0:0:0:0:
452,185,93227,1,2,1:3:0:0:
452,185,93406,2,0,P|459:59|464:-3,1,186.299994314575,2|2,0:0|1:3,0:0:0:0:
463,0,94125,1,0,3:0:0:0:
382,68,94305,6,0,P|346:74|311:82,1,62.0999981048585,2|0,0:3|3:0,0:0:0:0:
452,185,94664,2,0,P|386:173|362:168,1,62.0999981048585,4|0,1:0|0:0,0:0:0:0:
390,173,94933,1,0,0:0:0:0:
390,173,95023,1,2,1:3:0:0:
476,106,95203,1,0,1:0:0:0:
477,292,95383,1,2,1:3:0:0:
477,292,95472,1,4,0:3:0:0:
477,292,95562,1,0,1:0:0:0:
315,199,95742,6,0,B|249:202|157:213,1,131.099996499252,4|2,3:1|1:3,0:0:0:0:
82,271,96281,1,2,0:0:0:0:
163,298,96460,1,0,3:0:0:0:
99,354,96640,2,0,L|23:360,1,65.5499982496262,2|2,3:2|1:3,0:0:0:0:
152,211,96999,6,0,B|152:141|142:74,1,131.099996499252,2|2,3:2|3:2,0:0:0:0:
277,106,97538,1,2,1:3:0:0:
277,106,97718,2,0,P|277:141|278:182,1,65.5499982496262,2|0,0:0|3:0,0:0:0:0:
200,286,98077,2,0,P|259:276|291:273,1,65.5499982496262,2|2,3:2|1:3,0:0:0:0:
446,260,98436,6,0,P|418:221|330:244,1,131.099996499252,2|2,0:0|0:0,0:0:0:0:
258,355,98975,1,2,1:3:0:0:
264,275,99155,2,0,P|257:239|248:205,1,65.5499982496262,2|0,0:0|3:0,0:0:0:0:
135,119,99514,2,0,L|126:199,1,65.5499982496262,2|2,3:2|1:3,0:0:0:0:
44,287,99874,6,0,P|135:267|184:257,1,131.099996499252,2|0,3:2|3:0,0:0:0:0:
271,131,100412,1,2,1:3:0:0:
271,131,100772,1,2,3:2:0:0:
222,195,100951,1,2,3:2:0:0:
240,56,101131,1,2,1:3:0:0:
351,142,101311,6,0,B|344:178|341:234,1,65.5499982496262,2|0,0:0|3:0,0:0:0:0:
489,299,101670,2,0,B|487:270|480:234,1,65.5499982496262,2|2,0:0|1:3,0:0:0:0:
283,268,102029,2,0,B|346:224|409:283,1,131.099996499252,2|2,0:0|3:2,0:0:0:0:
338,335,102568,1,0,1:0:0:0:
197,260,102748,6,0,L|210:101,1,131.099996499252,2|2,3:2|3:2,0:0:0:0:
82,56,103287,1,2,1:3:0:0:
82,56,103466,2,0,P|87:91|95:123,1,65.5499982496262,2|0,0:0|3:0,0:0:0:0:
289,174,103826,2,0,L|298:88,1,65.5499982496262,2|2,3:2|1:3,0:2:0:0:
476,75,104185,6,0,B|405:104|347:45,1,131.099996499252,2|0,0:0|0:0,0:0:0:0:
182,60,104724,1,2,1:3:0:0:
232,124,104903,2,0,P|288:110|313:105,1,65.5499982496262,2|0,0:0|3:0,0:0:0:0:
121,232,105263,2,0,P|65:218|40:213,1,65.5499982496262,2|2,3:2|1:3,0:0:0:0:
193,316,105622,6,0,B|298:280|274:362|388:330,1,196.649994748879,2|2,0:0|1:3,0:0:0:0:
477,202,106341,1,0,0:0:0:0:
477,202,106430,1,0,1:0:0:0:
477,202,106520,1,2,1:2:0:0:
300,241,106700,1,0,1:0:0:0:
461,360,106880,2,0,L|467:302,1,32.7749991248131,0|0,1:0|1:0,0:0:0:0:
385,165,107059,1,2,1:2:0:0:
293,324,107239,6,0,P|254:315|211:309,2,79.3500015134812,6|0|0,3:2|3:0|3:0,0:0:0:0:
467,155,107778,2,0,P|463:96|378:81,1,158.700003026962,6|0,1:2|3:0,0:0:0:0:
174,200,108317,6,0,B|249:181|233:244|312:226,1,146.62500279665,6|0,3:2|0:0,0:0:0:0:
312,226,108856,2,0,B|336:267|336:267|324:328,2,87.97500167799,0|0|2,1:0|1:0|1:2,0:0:0:0:
208,159,109664,1,8,0:3:0:0:
304,92,109933,1,4,0:3:0:0:
256,32,110113,5,4,3:2:0:0:
208,159,110652,2,0,L|195:207,2,29.32500055933,2|2|4,0:0|0:0|0:3,0:0:0:0:
222,262,111550,6,0,P|198:218|81:225,1,175.95000335598,2|0,0:0|0:0,0:0:0:0:
26,286,112269,2,0,P|84:280|143:277,1,117.30000223732,2|0,0:0|0:0,0:0:0:0:
279,330,112808,1,2,0:3:0:0:
279,330,112987,6,0,P|282:281|292:192,1,117.30000223732,2|0,3:2|3:0,0:0:0:0:
438,181,113526,2,0,P|435:233|361:251,1,117.30000223732,2|0,0:0|0:0,0:0:0:0:
306,130,114065,2,0,P|339:124|373:118,1,58.65000111866,2|0,3:2|0:0,0:0:0:0:
428,48,114424,5,2,3:2:0:0:
428,48,114604,2,0,P|372:38|302:27,1,117.30000223732,2|0,0:0|0:0,0:0:0:0:
234,9,115143,1,2,3:2:0:0:
234,9,115323,1,0,0:0:0:0:
123,116,115502,2,0,B|107:163|133:205|133:205,1,87.97500167799,2|0,3:2|0:0,0:0:0:0:
130,201,115862,6,0,P|96:208|62:214,2,69,6|0|0,3:2|0:0|1:0,0:0:0:0:
244,338,116400,2,0,P|192:323|166:318,2,69,2|0|0,1:2|3:0|3:0,0:0:0:0:
369,171,116939,5,2,1:2:0:0:
265,136,117119,1,0,0:0:0:0:
265,136,117209,1,0,0:0:0:0:
265,136,117299,2,0,P|270:184|274:252,2,103.5,2|8|4,1:2|0:3|0:3,0:0:0:0:
121,45,118017,5,6,1:2:0:0:
8,201,118287,1,4,1:2:0:0:
139,277,118556,1,4,3:2:0:0:
344,160,119634,1,0,3:0:0:0:
281,76,119814,5,2,1:2:0:0:
339,259,119993,1,2,0:0:0:0:
266,181,120173,6,0,B|310:166|367:156,1,81.4199971425477,4|0,3:2|0:0,0:0:0:0:
260,316,120532,2,0,P|191:301|87:284,1,162.839994285095,2|2,1:2|3:0,0:0:0:0:
25,110,121071,1,2,3:2:0:0:
165,216,121251,1,2,1:3:0:0:
21,324,121430,6,0,P|15:266|94:200,1,162.839994285095,2|0,0:0|3:0,0:0:0:0:
286,155,121969,2,0,P|241:146|186:136,1,81.4199971425477,2|0,1:3|0:0,0:0:0:0:
25,110,122329,1,2,3:0:0:0:
76,11,122508,1,2,3:2:0:0:
174,63,122688,1,2,1:3:0:0:
123,161,122868,1,2,0:2:0:0:
99,86,123047,6,0,B|177:64|165:131|268:103,1,162.839994285095,2|2,3:0|1:3,0:0:0:0:
437,49,123586,1,2,0:0:0:0:
352,25,123766,2,0,P|358:64|368:127,1,81.4199971425477,2|0,3:0|3:0,0:0:0:0:
258,215,124125,1,2,1:3:0:0:
389,266,124305,6,0,P|376:185|363:105,1,162.839994285095,2|2,3:2|3:2,0:0:0:0:
226,19,124844,1,4,1:0:0:0:
175,92,125023,2,0,P|215:98|255:105,2,81.4199971425477,2|2|0,0:0|3:0|3:0,0:0:0:0:
68,184,125562,5,2,1:3:0:0:
237,238,125742,1,2,0:0:0:0:
237,238,125832,1,0,1:0:0:0:
237,238,125921,6,0,P|234:279|232:336,1,81.4199971425477,4|0,1:2|0:0,0:0:0:0:
58,346,126281,2,0,P|63:264|67:183,1,162.839994285095,2|2,1:3|3:0,0:0:0:0:
175,92,126820,1,2,3:2:0:0:
117,28,126999,1,2,1:3:0:0:
149,171,127179,6,0,B|231:196|318:153,1,162.839994285095,2|0,0:0|3:0,0:0:0:0:
461,265,127718,2,0,B|420:252|381:271,1,81.4199971425477,2|0,1:3|0:0,0:0:0:0:
381,270,128077,1,2,3:0:0:0:
296,349,128257,1,2,3:2:0:0:
233,209,128436,1,2,1:3:0:0:
79,312,128616,1,2,0:0:0:0:
167,349,128796,6,0,B|157:312|166:243,1,81.4199971425477,4|2,3:2|0:0,0:0:0:0:
307,157,129155,1,2,1:3:0:0:
208,79,129335,1,2,0:0:0:0:
208,79,129424,1,0,1:0:0:0:
208,79,129514,1,2,3:0:0:0:
152,196,129694,2,0,P|192:201|232:208,1,81.4199971425477,2|2,3:2|1:3,0:0:0:0:
507,160,130053,6,0,B|461:135|381:153|372:240,1,162.839994285095,6|0,3:2|3:0,0:0:0:0:
376,216,130502,1,0,3:0:0:0:
376,216,130592,1,2,1:3:0:0:
339,335,130772,1,8,0:3:0:0:
232,208,130951,6,0,L|235:158,2,40.7099985712739,2|0|4,1:3|1:0|0:3,0:0:0:0:
377,135,131311,1,2,1:3:0:0:
194,84,131490,1,0,1:0:0:0:
194,84,131580,1,0,1:0:0:0:
194,84,131670,6,0,B|103:64|139:134|46:109,1,149.040003638672,6|2,3:2|1:3,0:0:0:0:
225,255,132389,1,2,3:3:0:0:
315,203,132568,1,2,3:2:0:0:
173,164,132748,1,2,1:3:0:0:
134,306,132927,6,0,B|187:303|187:303|222:326|222:326|289:324,1,149.040003638672,4|0,3:2|3:0,0:0:0:0:
399,203,133466,2,0,B|394:277|418:356,1,149.040003638672,2|2,1:3|3:0,0:0:0:0:
485,225,134005,1,2,0:0:0:0:
361,122,134185,1,2,1:3:0:0:
444,70,134365,1,2,0:0:0:0:
402,277,134544,6,0,B|331:254|236:263,1,149.040003638672,4|2,3:2|1:3,0:0:0:0:
109,100,135263,2,0,B|144:111|192:107,1,74.520001819336,2|0,3:3|3:0,0:0:0:0:
253,58,135622,1,2,1:3:0:0:
138,193,135802,6,0,P|143:253|151:362,1,149.040003638672,6|2,3:2|3:2,0:0:0:0:
254,261,136341,1,2,1:3:0:0:
254,261,136520,1,2,0:0:0:0:
58,192,136700,1,4,3:1:0:0:
58,192,136880,1,2,3:2:0:0:
182,107,137059,1,2,1:3:0:0:
182,107,137149,1,0,1:0:0:0:
182,107,137239,1,4,0:3:0:0:
194,257,137418,6,0,B|117:246|40:285,1,149.040003638672,6|2,3:2|1:3,0:0:0:0:
278,184,138137,1,2,3:0:0:0:
268,341,138317,1,2,3:2:0:0:
351,267,138496,1,2,1:3:0:0:
194,257,138676,6,0,B|151:186|199:100,1,149.040003638672,4|0,3:1|3:0,0:0:0:0:
370,37,139215,2,0,B|412:107|364:193,1,149.040003638672,2|2,1:3|3:0,0:0:0:0:
504,321,139754,1,2,3:2:0:0:
453,201,139933,1,2,1:3:0:0:
333,252,140113,1,2,0:2:0:0:
333,252,140203,1,0,0:0:0:0:
333,252,140293,6,0,B|268:282|196:238,1,122.129995713822,6|0,3:2|0:0,0:0:0:0:
215,248,140652,2,0,P|222:293|229:337,1,81.4199971425477,2|0,1:3|3:0,0:0:0:0:
84,172,141011,1,2,1:3:0:0:
222,66,141191,1,0,1:0:0:0:
278,176,141371,1,0,1:0:0:0:
139,40,141550,1,4,3:2:0:0:
139,40,142628,5,0,3:0:0:0:
19,126,142808,2,0,L|34:238,1,103.5,10|0,0:3|0:0,0:0:0:0:
32,228,143167,6,0,B|113:196|96:276|187:240,1,151.800004632568,6|2,3:2|1:3,0:0:0:0:
244,198,143706,1,0,0:0:0:0:
353,297,143886,1,2,3:0:0:0:
353,297,144065,1,0,3:0:0:0:
268,354,144245,2,0,P|269:311|270:274,1,75.9000023162842,2|0,1:3|3:0,0:0:0:0:
384,131,144604,5,2,0:3:0:0:
436,192,144784,1,2,3:2:0:0:
357,206,144963,1,2,1:3:0:0:
170,163,145143,5,2,0:2:0:0:
91,71,145323,1,2,3:0:0:0:
210,50,145502,1,2,3:2:0:0:
289,142,145682,2,0,B|267:199|261:268,1,113.850003474426,2|0,1:3|0:0,0:0:0:0:
262,252,146041,6,0,B|245:198|198:162|123:181,1,151.800004632568,6|2,3:2|1:3,0:0:0:0:
78,229,146580,1,2,0:0:0:0:
13,92,146760,1,2,3:0:0:0:
13,92,146939,1,0,3:0:0:0:
169,103,147119,1,2,1:3:0:0:
78,149,147299,6,0,B|93:227|84:319,1,151.800004632568,2|0,3:2|3:0,0:0:0:0:
270,333,147838,2,0,B|269:294|278:256,1,75.9000023162842,4|0,1:0|0:0,0:0:0:0:
373,216,148197,1,2,3:0:0:0:
373,216,148377,1,0,3:0:0:0:
235,121,148556,2,0,B|236:160|227:198,1,75.9000023162842,2|0,1:3|0:0,0:0:0:0:
202,275,148826,1,0,1:0:0:0:
202,275,148915,6,0,B|283:248|268:318|376:290,1,151.800004632568,6|2,3:2|1:3,0:0:0:0:
428,275,149454,1,2,0:0:0:0:
399,137,149634,1,2,3:0:0:0:
373,216,149814,1,2,3:2:0:0:
454,196,149993,1,2,1:3:0:0:
317,157,150173,6,0,B|242:167|152:168,1,151.800004632568,2|2,3:2|3:2,0:0:0:0:
40,34,150712,2,0,B|77:29|122:28,1,75.9000023162842,2|2,1:3|0:2,0:0:0:0:
115,28,150981,1,0,1:0:0:0:
115,28,151071,1,2,3:0:0:0:
165,167,151251,1,2,3:2:0:0:
26,216,151430,2,0,B|21:180|11:132,1,75.9000023162842,2|0,1:3|0:0,0:0:0:0:
218,62,151790,5,2,3:2:0:0:
161,246,151969,1,2,0:0:0:0:
281,182,152149,1,2,1:3:0:0:
97,125,152329,1,2,0:0:0:0:
79,212,152508,5,2,3:0:0:0:
290,98,152688,2,0,B|326:107|382:97,1,75.9000023162842,2|2,3:2|1:3,0:0:0:0:
432,334,153047,6,0,L|453:169,1,165.599994946289,6|0,3:2|3:0,0:0:0:0:
453,170,153496,1,0,3:0:0:0:
453,170,153586,1,2,1:3:0:0:
359,235,153766,1,4,0:3:0:0:
290,98,153945,1,2,1:3:0:0:
152,232,154125,1,2,1:3:0:0:
152,232,154215,1,0,1:0:0:0:
152,232,154305,1,2,1:3:0:0:
34,61,154484,1,0,1:0:0:0:
34,61,154574,1,0,1:0:0:0:
34,61,154664,6,0,B|108:41|78:93|165:93,1,124.199996209717,4|0,3:2|3:0,0:0:0:0:
219,50,155203,1,2,0:0:0:0:
219,50,155383,1,2,3:2:0:0:
281,100,155562,2,0,P|276:130|270:187,1,62.0999981048585,2|2,0:0|3:0,0:0:0:0:
226,224,155921,6,0,P|273:205|334:238,1,124.199996209717,2|2,0:0|0:0,0:0:0:0:
333,237,156460,1,2,3:0:0:0:
410,288,156640,2,0,P|415:252|420:222,1,62.0999981048585,2|0,0:0|3:0,0:0:0:0:
499,162,156999,2,0,P|494:131|489:100,1,62.0999981048585,2|2,0:0|3:0,0:0:0:0:
360,61,157359,6,0,P|405:51|438:43,1,62.0999981048585,2|0,0:0|3:0,0:0:0:0:
289,13,157718,1,2,0:0:0:0:
289,13,157897,1,2,3:0:0:0:
225,67,158077,2,0,B|209:157|220:264,1,186.299994314575,2|2,0:0|3:0,0:0:0:0:
72,310,158975,6,0,B|72:254|53:176,2,124.199996209717,0|2|0,3:0|3:0|3:0,0:0:0:0:
137,358,159874,1,2,0:0:0:0:
218,359,160053,1,2,3:0:0:0:
284,313,160233,6,0,B|348:291|338:340|410:311,1,124.199996209717,2|0,0:0|0:0,0:0:0:0:
446,175,160772,1,2,3:0:0:0:
446,175,160951,2,0,B|454:113|453:43,1,124.199996209717,2|0,0:0|0:0,0:0:0:0:
326,24,161490,1,2,3:0:0:0:
326,24,161670,2,0,B|342:85|348:161,1,124.199996209717,2|0,0:0|0:0,0:0:0:0:
280,220,162209,1,2,3:0:0:0:
280,220,162389,2,0,P|246:214|217:210,1,62.0999981048585,2|0,0:0|3:0,0:0:0:0:
129,138,162748,2,0,P|160:132|190:126,1,62.0999981048585,2|2,0:0|3:0,0:0:0:0:
234,54,163107,1,2,0:0:0:0:
234,54,163287,5,0,3:0:0:0:
190,126,163466,1,2,0:0:0:0:
218,210,163646,1,2,3:0:0:0:
174,282,163826,2,0,P|207:289|238:297,2,62.0999981048585,2|0|0,0:0|3:0|0:0,0:0:0:0:
102,324,164365,1,2,3:0:0:0:
67,159,164544,5,2,1:3:0:0:
67,159,165442,6,0,L|58:195,2,20.6999993682862,0|8|8,1:0|0:3|0:3,0:0:0:0:
33,92,165622,2,0,L|6:66,2,20.6999993682862,8|8|8,0:3|0:3|0:3,0:0:0:0:
108,95,165802,5,4,0:3:0:0:
147,73,165921,1,4,0:3:0:0:
191,78,166041,1,4,0:3:0:0:
223,108,166161,6,0,B|216:176|218:255,1,131.099996499252,4|2,3:1|1:3,0:0:0:0:
371,309,166700,1,2,0:0:0:0:
331,217,166880,1,2,3:2:0:0:
272,298,167059,2,0,P|271:329|269:371,1,65.5499982496262,2|2,3:2|1:3,0:0:0:0:
126,288,167418,6,0,P|156:233|218:239,1,131.099996499252,2|2,3:2|3:2,0:0:0:0:
111,162,167957,1,2,1:3:0:0:
111,162,168137,2,0,P|57:151|42:148,1,65.5499982496262,2|0,0:0|3:0,0:0:0:0:
179,57,168496,2,0,P|125:68|110:71,1,65.5499982496262,2|2,3:2|1:3,0:0:0:0:
193,197,168856,6,0,P|258:186|331:174,1,131.099996499252,2|2,0:0|0:0,0:0:0:0:
421,280,169394,1,2,1:3:0:0:
346,321,169574,2,0,P|340:285|338:250,1,65.5499982496262,2|0,0:0|3:0,0:0:0:0:
431,134,169933,2,0,P|437:170|439:205,1,65.5499982496262,2|2,0:0|1:3,0:0:0:0:
322,175,170293,6,0,P|329:112|338:36,1,131.099996499252,2|0,3:2|3:0,0:0:0:0:
218,10,170832,1,2,1:3:0:0:
218,10,171191,1,2,3:2:0:0:
184,129,171371,1,2,3:2:0:0:
303,163,171550,1,2,1:3:0:0:
337,44,171730,6,0,P|284:63|260:72,1,65.5499982496262,2|0,0:0|3:0,0:0:0:0:
389,152,172089,2,0,P|442:171|466:180,1,65.5499982496262,2|2,0:0|1:3,0:0:0:0:
294,288,172448,2,0,B|264:222|307:156,1,131.099996499252,2|2,0:0|3:2,0:0:0:0:
381,287,172987,1,2,1:3:0:0:
244,361,173167,6,0,L|103:347,1,131.099996499252,2|2,3:2|3:2,0:0:0:0:
19,221,173706,1,2,1:3:0:0:
19,221,173886,2,0,P|25:255|32:301,1,65.5499982496262,2|0,0:0|3:0,0:0:0:0:
163,183,174245,2,0,P|168:150|173:118,1,65.5499982496262,2|2,3:2|1:3,0:0:0:0:
310,256,174604,6,0,B|237:231|260:289|161:266,1,131.099996499252,2|0,0:0|0:0,0:0:0:0:
91,140,175143,1,2,1:3:0:0:
173,118,175323,2,0,P|209:125|241:131,1,65.5499982496262,2|0,0:0|3:0,0:0:0:0:
377,58,175682,2,0,P|409:51|441:45,1,65.5499982496262,2|2,3:2|1:3,0:0:0:0:
511,202,176041,6,0,B|407:208|296:246,1,196.649994748879,2|2,3:2|1:3,0:0:0:0:
154,328,176760,1,0,0:0:0:0:
154,328,176850,1,0,1:0:0:0:
154,328,176939,1,2,1:2:0:0:
201,151,177119,1,2,1:3:0:0:
273,310,177299,1,2,1:2:0:0:
103,240,177478,2,0,L|49:230,1,32.7749991248131,0|4,1:0|0:3,0:0:0:0:
63,224,177658,6,0,L|201:249,1,129.375,2|0,0:0|0:0,0:0:0:0:
230,176,178017,6,0,B|238:241|238:241|308:232|385:228|385:228|379:154,1,279.450001066017,6|6,3:2|3:2,0:0:0:0:
256,192,178646,12,2,181430,0:3:0:0:
69,298,181969,6,0,L|45:98,1,175.95000335598,2|2,0:3|0:3,0:0:0:0:
225,116,182868,2,0,L|232:167,2,51.7500019741059,2|4|2,0:0|0:3|0:0,0:0:0:0:
173,45,183406,6,0,P|269:28|363:9,1,175.95000335598,4|0,3:1|3:0,0:0:0:0:
414,63,184125,2,0,P|390:47|315:141,1,175.95000335598,2|2,0:0|0:3,0:0:0:0:
309,130,184844,1,0,3:0:0:0:
374,197,185023,6,0,L|362:333,2,117.30000223732,2|0|2,0:3|3:0|0:3,0:0:0:0:
298,212,185921,2,0,P|250:200|223:194,1,58.65000111866,2|0,0:0|0:0,0:0:0:0:
145,278,186281,6,0,B|131:233|163:202|211:202|257:223|226:283|227:290,1,175.95000335598,2|0,3:2|0:0,0:0:0:0:
230,280,186909,1,2,0:3:0:0:
230,280,186999,1,4,0:1:0:0:
238,288,187718,5,0,1:0:0:0:
313,346,187897,1,8,0:3:0:0:
313,346,188257,1,4,0:3:0:0:
326,253,188436,2,0,P|358:247|389:240,1,58.65000111866,2|4,0:0|0:3,0:0:0:0:
435,169,188796,1,4,0:3:0:0:
375,105,188975,1,2,0:0:0:0:
419,28,189155,5,4,3:2:0:0:
419,28,189514,2,0,P|458:31|501:34,1,58.65000111866,2|0,0:0|3:0,0:0:0:0:
375,105,189874,1,4,1:2:0:0:
302,55,190053,2,0,P|250:65|170:79,1,117.30000223732,2|0,0:0|0:0,0:0:0:0:
57,187,190592,5,4,3:2:0:0:
108,47,190772,1,0,1:0:0:0:
108,47,191131,1,2,3:2:0:0:
173,225,191311,5,4,1:2:0:0:
57,187,191490,1,0,1:0:0:0:
195,138,191670,1,4,0:3:0:0:
244,276,191850,1,0,3:3:0:0:
164,311,192029,6,0,B|218:281|294:298|320:371,1,175.95000335598,4|0,3:2|3:0,0:0:0:0:
448,192,192748,1,4,1:2:0:0:
448,192,193466,6,0,P|416:186|378:178,1,58.65000111866,4|0,3:2|0:0,0:0:0:0:
301,110,193826,2,0,P|311:154|315:175,1,58.65000111866,2|0,0:0|3:0,0:0:0:0:
115,194,194185,5,6,1:2:0:0:
229,168,194364,1,2,0:0:0:0:
255,282,194544,1,2,0:0:0:0:
141,308,194723,1,2,0:0:0:0:
185,238,194903,6,0,P|235:246|262:248,1,69,4|0,3:2|1:0,0:0:0:0:
386,144,195263,1,2,1:2:0:0:
282,11,195442,2,0,P|277:42|268:86,1,69,2|0,1:2|3:3,0:0:0:0:
319,195,195802,1,2,1:2:0:0:
188,92,195981,1,2,1:2:0:0:
359,68,196161,1,0,1:0:0:0:
253,247,196341,6,0,P|212:251|172:258,1,69,2|0,1:2|1:0,0:0:0:0:
31,141,196700,2,0,P|71:136|112:130,1,69,2|0,1:2|1:0,0:0:0:0:
202,13,197059,1,0,1:0:0:0:
321,140,197239,5,2,1:2:0:0:
253,247,197418,2,0,P|247:211|237:164,1,69,2|0,1:2|1:0,0:0:0:0:
473,67,197778,5,6,1:2:0:0:
458,154,197957,1,0,3:0:0:0:
443,241,198137,1,0,3:0:0:0:
158,209,198317,5,6,1:2:0:0:
173,122,198496,1,0,3:0:0:0:
188,35,198676,1,0,3:0:0:0:
359,272,198856,5,4,1:2:0:0:
256,192,198945,12,4,200652,0:1:0:0:
36,323,201011,6,0,P|25:210|21:169,1,144.899995578003,2|0,0:0|0:0,0:0:0:0:
116,96,201909,1,2,0:0:0:0:
116,96,202269,6,0,P|118:120|122:149,2,48.299998526001
174,40,202808,1,2,0:0:0:0:
174,40,202987,1,0,0:0:0:0:
238,92,203167,1,2,0:0:0:0:
238,92,203347,2,0,P|304:88|391:84,1,144.899995578003,0|2,0:0|0:0,0:0:0:0:
382,84,204065,1,0,0:0:0:0:
449,139,204245,6,0,P|446:185|443:246,1,96.599997052002,2|0,0:0|0:0,0:0:0:0:
439,313,204784,1,2,0:0:0:0:
327,255,205143,2,0,P|303:258|277:261,1,48.299998526001,2|0,0:0|0:0,0:0:0:0:
218,314,205502,2,0,P|170:305|112:296,1,96.599997052002,2|0,0:0|0:0,0:0:0:0:
86,224,206041,2,0,P|111:221|139:217,1,48.299998526001,2|0,0:0|0:0,0:0:0:0:
228,146,206400,5,2,0:0:0:0:
228,146,206760,2,0,P|239:83|249:38,1,100.050003053284,2|0,0:0|0:0,0:0:0:0:
318,11,207299,1,2,0:0:0:0:
443,68,207658,2,0,B|420:91|380:103|334:77,1,100.050003053284,2|0,0:0|0:0,0:0:0:0:
350,84,208197,2,0,L|362:145,2,50.0250015266419,0|0|2,0:0|0:0|0:0,0:0:0:0:
294,178,208736,5,2,0:0:0:0:
294,178,208915,2,0,L|279:233,1,50.0250015266419,2|0,0:0|0:0,0:0:0:0:
351,265,209275,2,0,L|366:210,2,50.0250015266419,2|0|2,0:0|0:0|0:0,0:0:0:0:
324,341,209814,1,2,0:0:0:0:
448,257,210173,1,2,0:0:0:0:
359,133,210532,6,0,P|286:122|241:113,1,100.050003053284,2|0,0:0|0:0,0:0:0:0:
200,58,211071,1,2,0:0:0:0:
200,58,211251,2,0,L|139:67,2,50.0250015266419,2|0|0,0:0|0:0|0:0,0:0:0:0:
260,117,211790,2,0,P|254:141|250:172,1,50.0250015266419,2|0,0:0|0:0,0:0:0:0:
116,266,212149,5,4,3:2:0:0:
116,266,212508,2,0,P|151:235|238:258,1,124.199996209717,2|0,3:2|3:0,0:0:0:0:
286,294,213047,2,0,L|347:286,1,62.0999981048585,2|0,0:0|3:0,0:0:0:0:
471,211,213406,6,0,P|350:196|266:187,1,186.299994314575,2|0,0:3|3:0,0:0:0:0:
150,65,214305,1,2,3:2:0:0:
228,83,214484,1,2,0:0:0:0:
210,161,214664,1,2,3:2:0:0:
132,143,214844,2,0,P|138:189|141:214,1,62.0999981048585,2|0,0:3|3:0,0:0:0:0:
272,313,215383,5,2,3:0:0:0:
272,313,215562,1,2,0:0:0:0:
272,313,215742,2,0,P|249:279|164:287,1,124.199996209717,2|2,3:0|3:0,0:0:0:0:
102,329,216281,6,0,P|96:295|89:262,1,62.0999981048585,2|0,0:0|3:0,0:0:0:0:
26,167,216640,2,0,B|88:213|139:134,1,124.199996209717,2|2,0:0|0:0,0:0:0:0:
171,72,217179,1,0,3:0:0:0:
349,149,217538,1,2,3:2:0:0:
221,201,217718,1,2,0:3:0:0:
285,106,217897,6,0,B|312:177|291:256,1,138,4|2,3:2|3:2,0:0:0:0:
394,295,218436,2,0,B|380:259|391:220,1,69,2|0,0:2|3:2,0:0:0:0:
503,164,218796,2,0,L|429:155,1,69,2|0,0:0|3:0,0:0:0:0:
285,106,219155,6,0,B|321:29|417:67,1,138,2|2,0:3|0:0,0:0:0:0:
400,61,219694,1,0,3:0:0:0:
302,183,220053,1,2,3:2:0:0:
223,192,220233,5,2,0:0:0:0:
285,106,220412,1,2,3:2:0:0:
199,44,220592,1,2,0:3:0:0:
137,130,220772,5,4,3:2:0:0:
274,269,221131,1,2,3:2:0:0:
166,313,221311,2,0,P|161:265|154:230,1,69,2|0,1:2|1:0,0:0:0:0:
346,71,221670,2,0,P|351:119|358:154,1,69,2|0,1:2|1:0,0:0:0:0:
64,32,222029,5,6,3:2:0:0:
256,192,222119,12,0,223466,0:0:0:0:
233,143,223646,5,0,1:0:0:0:
233,143,223736,1,0,1:0:0:0:
135,259,223915,1,4,0:3:0:0:
135,259,224035,6,0,L|137:289,2,23,2|0|0,0:0|0:0|0:0,0:0:0:0:
119,245,224185,2,0,L|123:214,2,23,2|0|0,0:2|0:0|0:0,0:0:0:0:
97,258,224409,6,0,P|176:246|222:243,1,112.124994867325,4|0,0:1|0:0,0:0:0:0:
208,243,224724,5,2,1:2:0:0:
428,262,224903,1,2,0:0:0:0:
319,303,225083,6,0,B|313:260|334:208,1,82.7999974731446,4|0,3:2|0:0,0:0:0:0:
159,115,225442,2,0,B|203:75|280:84|318:148,1,165.599994946289,2|2,1:3|3:0,0:0:0:0:
428,262,225981,1,2,3:2:0:0:
394,160,226161,1,2,1:3:0:0:
319,303,226341,6,0,L|129:289,1,165.599994946289,2|0,3:2|3:0,0:0:0:0:
76,147,226880,2,0,B|66:189|64:250,1,82.7999974731446,2|0,1:3|0:0,0:0:0:0:
319,303,227239,1,2,3:0:0:0:
268,204,227418,1,2,3:2:0:0:
170,256,227598,1,2,1:3:0:0:
221,354,227778,1,2,0:2:0:0:
245,279,227957,6,0,B|147:258|174:337|76:307,1,165.599994946289,2|2,3:0|1:3,0:0:0:0:
176,162,228496,1,2,0:0:0:0:
264,121,228676,2,0,P|265:161|269:217,1,82.7999974731446,2|0,3:0|3:0,0:0:0:0:
471,152,229035,1,2,1:3:0:0:
364,77,229215,6,0,P|369:160|372:243,1,165.599994946289,2|2,3:2|3:2,0:0:0:0:
251,361,229754,1,4,1:0:0:0:
251,361,229933,2,0,P|201:354|159:350,2,82.7999974731446,2|2|0,0:0|3:0|3:0,0:0:0:0:
171,232,230472,6,0,B|122:236|96:259|87:320,1,124.199996209717,2|0,1:3|0:0,0:0:0:0:
88,309,230832,6,0,P|82:260|76:224,1,82.7999974731446,4|0,3:2|0:0,0:0:0:0:
251,79,231191,2,0,B|241:159|255:254,1,165.599994946289,2|2,1:3|3:0,0:0:0:0:
425,319,231730,1,2,3:2:0:0:
463,197,231909,1,2,1:3:0:0:
341,159,232089,6,0,B|352:244|345:329,1,165.599994946289,2|0,3:2|3:0,0:0:0:0:
171,255,232628,2,0,P|212:251|257:243,1,82.7999974731446,2|0,1:3|0:0,0:0:0:0:
252,243,232987,1,2,3:0:0:0:
179,170,233167,1,2,3:2:0:0:
309,80,233347,1,2,1:3:0:0:
117,18,233526,1,2,0:0:0:0:
228,5,233706,6,0,P|221:44|213:97,1,82.7999974731446,4|2,3:2|0:0,0:0:0:0:
326,204,234065,1,2,1:3:0:0:
391,73,234245,2,0,P|350:75|309:80,1,82.7999974731446,2|2,0:0|3:0,0:0:0:0:
171,255,234604,1,2,3:2:0:0:
171,255,234784,1,2,1:3:0:0:
34,66,234963,6,0,B|72:102|91:161|43:246,1,165.599994946289,6|2,3:2|3:2,0:0:0:0:
199,333,235502,1,2,1:3:0:0:
241,204,235682,1,2,0:0:0:0:
331,304,235862,2,0,P|393:298|431:296,1,82.7999974731446,2|0,3:0|3:0,0:0:0:0:
432,69,236221,2,0,P|340:77|284:80,1,124.199996209717,2|0,1:3|0:0,0:0:0:0:
308,79,236580,6,0,B|219:46|250:129|149:90,1,151.800004632568,6|2,3:2|1:3,0:0:0:0:
23,250,237299,1,2,3:0:0:0:
84,122,237478,1,2,3:2:0:0:
212,183,237658,1,2,1:3:0:0:
151,311,237838,6,0,P|76:318|0:327,1,151.800004632568,6|0,3:2|3:0,0:0:0:0:
136,190,238377,2,0,P|173:186|211:182,1,75.9000023162842,2|0,1:3|0:0,0:0:0:0:
211,182,238736,1,2,3:0:0:0:
170,111,238915,1,2,0:0:0:0:
64,238,239095,1,2,1:3:0:0:
227,266,239275,1,2,0:0:0:0:
63,131,239454,6,0,P|55:70|49:42,1,75.9000023162842,4|0,3:2|0:0,0:0:0:0:
259,18,239814,2,0,P|273:114|280:154,1,113.850003474426,2|0,1:3|0:0,0:0:0:0:
275,130,240173,2,0,L|352:117,1,75.9000023162842,2|0,3:0|3:0,0:0:0:0:
479,218,240532,1,2,1:3:0:0:
316,357,240712,6,0,P|319:288|322:203,1,151.800004632568,6|2,3:2|3:2,0:0:0:0:
192,107,241251,1,2,1:3:0:0:
192,107,241430,1,2,0:0:0:0:
94,238,241610,1,4,3:1:0:0:
94,238,241790,1,2,0:0:0:0:
224,336,241969,1,2,1:3:0:0:
224,336,242059,1,4,0:3:0:0:
224,336,242149,1,4,0:3:0:0:
208,222,242329,6,0,B|217:140|244:56,1,151.800004632568,4|2,3:2|1:3,0:0:0:0:
439,262,243047,1,2,3:0:0:0:
305,305,243227,1,2,0:0:0:0:
350,216,243406,1,2,1:3:0:0:
393,350,243586,6,0,P|276:346|208:346,1,151.800004632568,4|0,3:1|3:0,0:0:0:0:
84,211,244125,2,0,P|200:214|268:214,1,151.800004632568,2|2,1:3|3:0,0:0:0:0:
366,144,244664,1,2,0:0:0:0:
257,27,244844,1,2,1:3:0:0:
77,135,245023,1,2,0:0:0:0:
77,135,245113,1,0,3:0:0:0:
77,135,245203,6,0,P|82:184|84:216,1,75.9000023162842,6|0,3:2|0:0,0:0:0:0:
256,320,245562,5,0,1:0:0:0:
256,320,245742,1,2,3:0:0:0:
384,192,245921,5,0,1:0:0:0:
210,146,246101,1,2,1:3:0:0:
256,64,246281,5,0,1:2:0:0:
324,258,246460,1,4,3:1:0:0:
324,258,247359,5,2,0:0:0:0:
263,201,247538,1,2,3:2:0:0:
190,281,247718,1,2,1:2:0:0:
104,169,247897,1,2,0:0:0:0:
0,302,248077,6,0,B|96:283|67:360|164:337,1,151.800004632568,6|2,3:2|1:3,0:0:0:0:
190,281,248616,1,0,0:0:0:0:
382,317,248796,5,2,3:0:0:0:
272,369,248975,2,0,P|277:331|281:293,1,75.9000023162842,2|2,3:2|1:3,0:0:0:0:
356,167,249335,2,0,P|366:233|382:319,1,151.800004632568,2|0,3:2|3:0,0:0:0:0:
452,219,249874,1,2,1:3:0:0:
274,214,250053,1,2,0:0:0:0:
274,214,250143,1,2,0:0:0:0:
274,214,250233,5,2,3:0:0:0:
356,167,250412,1,2,3:2:0:0:
200,118,250592,1,2,1:3:0:0:
360,6,250772,1,2,0:0:0:0:
280,62,250951,6,0,P|277:153|273:226,1,151.800004632568,2|2,3:0|1:3,0:0:0:0:
82,298,251670,1,2,3:0:0:0:
93,213,251850,1,2,3:2:0:0:
150,350,252029,1,2,1:3:0:0:
2,330,252209,6,0,P|7:287|9:250,1,75.9000023162842,2|2,3:2|0:3,0:0:0:0:
200,118,252568,2,0,P|202:80|206:42,1,75.9000023162842,2|2,3:2|1:3,0:0:0:0:
206,42,252927,1,0,0:0:0:0:
281,96,253107,1,2,3:0:0:0:
178,196,253287,1,2,3:2:0:0:
320,266,253466,1,2,1:3:0:0:
150,350,253646,1,2,3:2:0:0:
253,319,253826,6,0,B|339:286|316:362|422:316,1,151.800004632568,6|2,3:2|1:3,0:0:0:0:
414,98,254544,1,2,3:0:0:0:
343,151,254724,1,2,3:2:0:0:
467,169,254903,1,2,1:3:0:0:
485,45,255083,6,0,B|445:13|382:10|330:35,1,151.800004632568,2|0,3:2|3:0,0:0:0:0:
189,158,255622,2,0,B|209:174|240:175|266:163,1,75.9000023162842,2|0,1:3|0:0,0:0:0:0:
229,92,255981,1,2,3:0:0:0:
158,230,256161,1,2,3:2:0:0:
288,317,256341,1,2,1:3:0:0:
87,368,256520,1,2,0:0:0:0:
87,368,256700,6,0,P|79:285|69:193,1,151.800004632568,2|2,3:0|1:3,0:0:0:0:
178,82,257239,2,0,P|187:146|190:168,1,75.9000023162842,2|2,0:0|3:0,0:0:0:0:
188,157,257598,1,0,3:0:0:0:
358,269,257778,1,2,1:3:0:0:
167,252,257957,6,0,P|260:222|333:197,2,151.800004632568,4|0|4,3:2|1:0|0:3,0:0:0:0:
26,75,259035,1,4,0:3:0:0:
98,31,259215,1,4,0:3:0:0:
98,31,259305,1,4,0:3:0:0:
98,31,259394,1,4,0:3:0:0:
162,84,259574,6,0,P|156:116|153:155,2,51.7500019741059,6|0|0,3:2|0:0|0:0,0:0:0:0:
234,36,260113,2,0,P|240:65|246:99,2,51.7500019741059,2|0|0,0:3|0:0|0:0,0:0:0:0:
329,122,260652,1,2,0:3:0:0:
329,122,260832,2,0,L|314:242,1,103.500003948212,2|0,0:3|0:0,0:0:0:0:
433,313,261550,1,0,0:0:0:0:
365,360,261730,1,2,0:3:0:0:
365,360,261909,1,2,0:3:0:0:
365,360,262448,6,0,P|336:355|307:350,2,51.7500019741059,2|0|0,0:3|0:0|0:0,0:0:0:0:
299,269,262987,2,0,P|270:274|241:279,2,51.7500019741059,2|0|0,0:3|0:0|0:0,0:0:0:0:
381,192,263526,1,2,0:3:0:0:
381,192,263706,2,0,P|385:99|388:66,1,103.500003948212,2|2,0:3|0:3,0:0:0:0:
385,88,264245,1,0,0:0:0:0:
285,181,264424,6,0,L|234:173,1,39.6750007567406,0|0,1:2|3:0,0:0:0:0:
142,67,264604,1,2,0:3:0:0:
26,291,264784,1,6,1:2:0:0:
