osu file format v14

[General]
AudioFilename: audio.mp3
AudioLeadIn: 0
PreviewTime: 60630
Countdown: 0
SampleSet: Drum
StackLeniency: 0.7
Mode: 2
LetterboxInBreaks: 0
WidescreenStoryboard: 0

[Editor]
DistanceSpacing: 0.8
BeatDivisor: 4
GridSize: 8
TimelineZoom: 2.2

[Metadata]
Title:Scars in my Life
TitleUnicode:Scars in my Life
Artist:FATE GEAR
ArtistUnicode:FATE GEAR
Creator:Daletto
Version:Reminiscence
Source:
Tags:kukkai [_-kukkai-_] japanese symphonic melodic female vocal metal rock j-metal j-rock OZ -Rebellion-
BeatmapID:3087343
BeatmapSetID:1507375

[Difficulty]
HPDrainRate:6
CircleSize:4.3
OverallDifficulty:9.6
ApproachRate:9.6
SliderMultiplier:2.1
SliderTickRate:2

[Events]
//Background and Video events
0,0,"90904448_p0.jpg",0,0
//Break Periods
2,6558,7849
2,28012,28939
2,30922,31849
2,33831,34758
2,96558,98758
2,99467,101667
2,212921,220939
2,265467,266758
//Storyboard Layer 0 (Background)
//Storyboard Layer 1 (Fail)
//Storyboard Layer 2 (Pass)
//Storyboard Layer 3 (Foreground)
//Storyboard Layer 4 (Overlay)
//Storyboard Sound Samples

[TimingPoints]
358,363.636363636364,4,3,3,80,1,0
721,-100,4,3,3,50,0,0
2903,-100,4,3,3,40,0,0
3267,-100,4,3,3,80,0,0
3630,-100,4,3,3,50,0,0
5812,-100,4,3,3,40,0,0
6176,-100,4,3,3,60,0,0
8358,-100,4,3,3,50,0,0
9085,-100,4,3,3,70,0,0
10539,-100,4,3,3,75,0,0
11994,-95.2380952380952,4,3,1,85,0,0
12085,-95.2380952380952,4,3,2,85,0,0
22176,-95.2380952380952,4,3,3,80,0,0
23539,-95.2380952380952,4,3,1,5,0,0
23630,-100,4,3,1,60,0,0
25085,-100,4,3,2,70,0,0
26448,-100,4,3,1,5,0,0
26539,-100,4,3,3,75,0,0
26721,-100,4,3,3,65,0,0
29448,-100,4,3,3,75,0,0
29630,-100,4,3,3,65,0,0
32358,-100,4,3,3,75,0,0
32539,-100,4,3,3,65,0,0
35267,-100,4,3,3,75,0,0
35448,-100,4,3,3,65,0,0
38176,-95.2380952380952,4,3,3,75,0,0
49812,-95.2380952380952,4,3,3,70,0,0
54903,-95.2380952380952,4,3,2,75,0,0
55176,-95.2380952380952,4,3,1,5,0,0
55267,-95.2380952380952,4,3,2,75,0,0
55539,-95.2380952380952,4,3,1,5,0,0
55630,-95.2380952380952,4,3,3,80,0,0
60721,-95.2380952380952,4,2,1,69,0,0
61358,-95.2380952380952,4,3,1,5,0,0
61448,-83.3333333333333,4,3,1,90,0,1
61539,-83.3333333333333,4,3,2,90,0,1
67267,-83.3333333333333,4,3,2,85,0,1
72994,-90.9090909090909,4,3,1,85,0,0
73085,-83.3333333333333,4,3,1,90,0,1
73176,-83.3333333333333,4,3,2,90,0,1
78903,-90.9090909090909,4,3,3,80,0,0
84721,-95.2380952380952,4,3,3,70,0,0
90448,-95.2380952380952,4,3,1,5,0,0
90539,-95.2380952380952,4,3,3,75,0,0
95630,-95.2380952380952,4,3,3,70,0,0
95994,-95.2380952380952,4,3,3,65,0,0
96358,-95.2380952380952,4,3,2,60,0,0
102176,-95.2380952380952,4,3,3,70,0,0
107994,-95.2380952380952,4,3,3,75,0,0
119630,-95.2380952380952,4,3,3,70,0,0
124721,-95.2380952380952,4,3,2,75,0,0
124994,-95.2380952380952,4,3,1,5,0,0
125085,-95.2380952380952,4,3,2,75,0,0
125358,-95.2380952380952,4,3,1,5,0,0
125448,-95.2380952380952,4,3,3,80,0,0
130539,-95.2380952380952,4,2,1,69,0,0
131176,-95.2380952380952,4,3,1,5,0,0
131267,-83.3333333333333,4,3,1,90,0,1
131358,-83.3333333333333,4,3,2,90,0,1
137085,-83.3333333333333,4,3,2,85,0,1
142812,-90.9090909090909,4,3,1,85,0,0
142903,-83.3333333333333,4,3,1,90,0,1
142994,-83.3333333333333,4,3,2,90,0,1
148721,-90.9090909090909,4,3,3,80,0,0
154539,-90.9090909090909,4,3,3,75,0,0
156176,-90.9090909090909,4,3,3,5,0,0
156267,-90.9090909090909,4,3,3,75,0,0
156448,-90.9090909090909,4,3,3,5,0,0
156539,-90.9090909090909,4,3,3,75,0,0
160539,-90.9090909090909,4,3,3,5,0,0
160630,-90.9090909090909,4,3,3,75,0,0
160812,-90.9090909090909,4,3,3,5,0,0
160903,-90.9090909090909,4,3,3,75,0,0
162085,-90.9090909090909,4,3,3,5,0,0
162176,-90.9090909090909,4,3,3,75,0,0
166176,-83.3333333333333,4,3,3,80,0,0
171903,-83.3333333333333,4,3,3,5,0,0
171994,-83.3333333333333,4,3,3,75,0,0
175176,-83.3333333333333,4,3,3,5,0,0
175267,-83.3333333333333,4,3,3,75,0,0
177812,-83.3333333333333,4,3,3,80,0,0
182358,-83.3333333333333,4,3,3,5,0,0
182448,-83.3333333333333,4,3,3,80,0,0
182630,-83.3333333333333,4,3,3,5,0,0
182721,-83.3333333333333,4,3,3,80,0,0
183630,-83.3333333333333,4,3,3,75,0,0
189448,-83.3333333333333,4,3,3,80,0,0
193812,-83.3333333333333,4,3,3,70,0,0
195267,-83.3333333333333,4,3,3,75,0,0
196267,-83.3333333333333,4,3,3,5,0,0
196358,-83.3333333333333,4,3,3,75,0,0
198176,-83.3333333333333,4,3,3,80,0,0
199630,-83.3333333333333,4,3,3,75,0,0
201085,-90.9090909090909,4,3,3,60,0,0
206903,-90.9090909090909,4,3,3,65,0,0
209812,-90.9090909090909,4,3,3,70,0,0
209903,-90.9090909090909,4,3,3,60,0,0
211267,-90.9090909090909,4,3,3,70,0,0
211358,-90.9090909090909,4,3,3,60,0,0
211994,-90.9090909090909,4,3,3,55,0,0
212721,-90.9090909090909,4,2,2,50,0,0
221448,-90.9090909090909,4,3,3,65,0,0
222903,-90.9090909090909,4,3,3,70,0,0
223630,-90.9090909090909,4,2,1,69,0,0
223721,-90.9090909090909,4,2,1,50,0,0
224267,-90.9090909090909,4,3,1,5,0,0
224358,-83.3333333333333,4,3,1,90,0,1
224448,-83.3333333333333,4,3,2,90,0,1
230176,-83.3333333333333,4,3,2,85,0,1
235903,-90.9090909090909,4,3,1,85,0,0
235994,-90.9090909090909,4,3,1,90,0,1
236085,-90.9090909090909,4,3,2,80,0,0
247630,-90.9090909090909,4,3,1,85,0,0
247721,-90.9090909090909,4,3,2,80,0,0
253448,-90.9090909090909,4,3,2,85,0,0
253539,-90.9090909090909,4,3,2,75,0,0
257812,-90.9090909090909,4,3,2,80,0,0
258539,-90.9090909090909,4,3,2,75,0,0
258903,-90.9090909090909,4,3,2,70,0,0
259267,-100,4,3,1,80,0,0
259630,-100,4,3,1,50,0,0
261812,-100,4,3,1,40,0,0
262176,-100,4,3,1,80,0,0
262539,-100,4,3,1,50,0,0
264721,-100,4,3,1,40,0,0
265085,-100,4,3,1,60,0,0
267267,-100,4,3,3,50,0,0
267994,-100,4,3,3,70,0,0
269448,-100,4,3,3,75,0,0
270903,-100,4,3,3,65,0,0
271448,-100,4,3,3,80,0,0
271812,-100,4,3,3,65,0,0
272176,-100,4,3,3,80,0,0
272358,-100,4,3,3,70,0,0
273085,-100,4,3,3,60,0,0
273812,-100,4,3,3,50,0,0
274539,-100,4,3,3,40,0,0
275267,-100,4,3,3,30,0,0
275994,-100,4,3,3,20,0,0
276721,-100,4,2,0,10,0,0

[Colours]
Combo1 : 95,95,95
Combo2 : 255,128,64
Combo3 : 128,64,64
Combo4 : 191,0,0
Combo5 : 0,234,234
Combo6 : 185,185,185

[HitObjects]
248,184,358,5,4,0:0:0:0:
256,192,721,12,0,2903,0:0:0:0:
264,200,3267,5,4,0:0:0:0:
256,192,3630,12,0,5812,0:0:0:0:
176,112,6176,5,8,0:0:0:0:
336,272,6358,1,8,0:0:0:0:
208,152,8358,6,0,L|152:152,1,52.5,10|8,0:0|0:0,0:0:0:0:
352,152,8539,2,0,L|344:96,1,52.5,8|8,0:0|0:0,0:0:0:0:
144,288,8721,1,2,0:0:0:0:
80,288,8812,1,0,0:0:0:0:
56,288,8903,2,0,L|64:232,1,52.5
264,304,9085,6,0,P|256:56|248:304,1,735,4|0,0:0|0:0,0:0:0:0:
464,272,10539,6,0,L|456:168,1,105,6|0,0:0|0:0,0:0:0:0:
304,200,10903,2,0,L|312:96,1,105,2|0,0:0|0:0,0:0:0:0:
224,136,11176,1,0,0:0:0:0:
136,184,11267,2,0,L|128:80,1,105,2|0,0:0|0:0,0:0:0:0:
280,80,11630,2,0,L|384:80,1,105,2|0,0:0|0:0,0:0:0:0:
144,208,11994,6,0,L|72:208,1,55.1249983177186,6|0,0:0|0:0,0:0:0:0:
304,200,12176,2,0,L|368:200,1,55.1249983177186,8|0,0:0|0:0,0:0:0:0:
144,136,12358,2,0,L|136:72,1,55.1249983177186,2|0,0:0|0:0,0:0:0:0:
232,104,12539,2,0,L|240:32,1,55.1249983177186,8|0,0:0|0:0,0:0:0:0:
144,40,12721,2,0,L|80:40,1,55.1249983177186,2|0,0:0|0:0,0:0:0:0:
304,152,12903,6,0,L|312:88,1,55.1249983177186,8|0,0:0|0:0,0:0:0:0:
216,80,13085,2,0,L|168:32,1,55.1249983177186,2|0,0:0|0:0,0:0:0:0:
80,64,13267,2,0,L|16:64,1,55.1249983177186,8|0,0:0|0:0,0:0:0:0:
256,168,13448,2,0,L|336:168,1,55.1249983177186,2|0,0:0|0:0,0:0:0:0:
216,128,13630,2,0,L|208:64,1,55.1249983177186,8|0,0:0|0:0,0:0:0:0:
304,72,13812,2,0,L|312:136,1,55.1249983177186,2|0,0:0|0:0,0:0:0:0:
104,184,13994,6,0,L|40:184,1,55.1249983177186,8|0,0:0|0:0,0:0:0:0:
144,176,14176,2,0,L|208:176,1,55.1249983177186,2|0,0:0|0:0,0:0:0:0:
104,160,14358,2,0,L|40:160,1,55.1249983177186,8|0,0:0|0:0,0:0:0:0:
264,96,14539,2,0,L|336:96,1,55.1249983177186,2|0,0:0|0:0,0:0:0:0:
104,96,14721,2,0,L|192:96,1,55.1249983177186,8|0,0:0|0:0,0:0:0:0:
376,176,14903,6,0,L|384:112,1,55.1249983177186,6|0,0:0|0:0,0:0:0:0:
168,136,15085,2,0,L|160:72,1,55.1249983177186,8|0,0:0|0:0,0:0:0:0:
376,128,15267,2,0,L|440:128,1,55.1249983177186,2|0,0:0|0:0,0:0:0:0:
336,80,15448,2,0,L|344:152,1,55.1249983177186,8|0,0:0|0:0,0:0:0:0:
440,80,15630,2,0,L|448:16,1,55.1249983177186,2|0,0:0|0:0,0:0:0:0:
248,64,15812,2,0,L|176:64,1,55.1249983177186,8|0,0:0|0:0,0:0:0:0:
96,72,15994,6,0,L|16:72,1,55.1249983177186,2|0,0:0|0:0,0:0:0:0:
264,176,16176,1,8,0:0:0:0:
296,160,16267,1,0,0:0:0:0:
264,176,16358,1,2,0:0:0:0:
176,176,16449,1,0,0:0:0:0:
88,160,16540,2,0,L|160:160,1,55.1249983177186,8|0,0:0|0:0,0:0:0:0:
352,80,16721,5,2,0:0:0:0:
440,96,16812,1,0,0:0:0:0:
464,72,16903,1,8,0:0:0:0:
440,96,16994,1,0,0:0:0:0:
224,80,17085,2,0,L|216:16,1,55.1249983177186,2|0,0:0|0:0,0:0:0:0:
432,48,17267,2,0,L|360:48,1,55.1249983177186,8|0,0:0|0:0,0:0:0:0:
168,96,17448,2,0,L|96:96,1,55.1249983177186,10|8,0:0|0:0,0:0:0:0:
280,80,17630,1,8,0:0:0:0:
448,88,17721,1,8,0:0:0:0:
280,96,17812,6,0,L|208:96,1,55.1249983177186,6|0,0:0|0:0,0:0:0:0:
440,160,17994,2,0,L|448:96,1,55.1249983177186,8|0,0:0|0:0,0:0:0:0:
232,160,18176,2,0,L|224:96,1,55.1249983177186,2|0,0:0|0:0,0:0:0:0:
320,112,18358,2,0,L|256:112,1,55.1249983177186,8|0,0:0|0:0,0:0:0:0:
168,112,18539,2,0,L|104:112,1,55.1249983177186,2|0,0:0|0:0,0:0:0:0:
328,176,18721,2,0,L|392:176,1,55.1249983177186,8|0,0:0|0:0,0:0:0:0:
288,160,18903,2,0,L|224:160,1,55.1249983177186,2|0,0:0|0:0,0:0:0:0:
328,144,19085,2,0,L|336:80,1,55.1249983177186,8|0,0:0|0:0,0:0:0:0:
120,176,19267,6,0,L|136:120,1,55.1249983177186,2|0,0:0|0:0,0:0:0:0:
232,160,19448,2,0,L|248:104,1,55.1249983177186,8|0,0:0|0:0,0:0:0:0:
152,88,19630,2,0,L|168:32,1,55.1249983177186,2|0,0:0|0:0,0:0:0:0:
376,144,19812,2,0,L|384:80,1,55.1249983177186,8|0,0:0|0:0,0:0:0:0:
288,88,19994,2,0,L|224:88,1,55.1249983177186,2|0,0:0|0:0,0:0:0:0:
136,88,20176,2,0,L|208:88,1,55.1249983177186,8|0,0:0|0:0,0:0:0:0:
400,64,20358,2,0,L|328:64,1,55.1249983177186,2|0,0:0|0:0,0:0:0:0:
136,48,20539,2,0,L|72:48,1,55.1249983177186,8|0,0:0|0:0,0:0:0:0:
344,160,20721,6,0,L|352:96,1,55.1249983177186,6|0,0:0|0:0,0:0:0:0:
200,136,20903,1,8,0:0:0:0:
48,136,20994,1,8,0:0:0:0:
200,136,21085,2,0,L|328:136,1,110.249996635437,8|0,0:0|0:0,0:0:0:0:
216,96,21358,1,8,0:0:0:0:
128,88,21448,6,0,L|288:88,1,110.249996635437,8|0,0:0|0:0,0:0:0:0:
144,64,21721,1,8,0:0:0:0:
232,64,21812,2,0,L|240:128,1,55.1249983177186,8|0,0:0|0:0,0:0:0:0:
160,120,21994,1,0,0:0:0:0:
80,120,22085,1,8,0:0:0:0:
376,176,22176,6,0,L|384:112,1,55.1249983177186,10|0,0:0|0:0,0:0:0:0:
288,120,22358,2,0,L|280:56,1,55.1249983177186
376,64,22539,2,0,L|312:64,1,55.1249983177186,2|0,0:0|0:0,0:0:0:0:
224,56,22721,2,0,L|160:56,1,55.1249983177186
264,112,22903,6,0,L|336:112,1,55.1249983177186,2|0,0:0|0:0,0:0:0:0:
416,112,23085,2,0,L|480:112,1,55.1249983177186
296,176,23267,2,0,L|120:176,1,165.374994953156,2|0,0:0|0:0,0:0:0:0:
400,88,23630,5,4,0:0:0:0:
424,104,23994,1,0,0:0:0:0:
448,120,24358,1,0,0:0:0:0:
472,136,24722,1,0,0:0:0:0:
48,216,25085,6,0,L|40:112,1,105,4|0,0:0|0:0,0:0:0:0:
296,120,25448,2,0,L|408:120,1,105,4|0,0:0|0:0,0:0:0:0:
144,88,25812,2,0,L|32:88,1,105,4|0,0:0|0:0,0:0:0:0:
296,232,26176,2,0,P|352:232|352:136,1,157.5,4|0,0:0|0:0,0:0:0:0:
104,160,26539,5,6,0:0:0:0:
88,136,26721,1,0,0:0:0:0:
240,136,26903,1,0,0:0:0:0:
88,136,27085,1,8,0:0:0:0:
272,144,27448,5,2,0:0:0:0:
288,120,27630,1,0,0:0:0:0:
136,120,27812,1,8,0:0:0:0:
336,136,29448,5,6,0:0:0:0:
248,136,29630,1,0,0:0:0:0:
344,136,29812,1,0,0:0:0:0:
192,136,29994,1,8,0:0:0:0:
376,144,30358,5,2,0:0:0:0:
360,120,30540,1,0,0:0:0:0:
208,120,30722,1,8,0:0:0:0:
408,160,32358,5,6,0:0:0:0:
424,136,32540,1,0,0:0:0:0:
272,136,32722,1,0,0:0:0:0:
424,136,32904,1,8,0:0:0:0:
240,144,33267,5,2,0:0:0:0:
224,120,33449,1,0,0:0:0:0:
376,120,33631,1,8,0:0:0:0:
176,136,35267,5,6,0:0:0:0:
264,136,35449,1,0,0:0:0:0:
168,136,35631,1,0,0:0:0:0:
320,136,35813,1,8,0:0:0:0:
136,144,36177,5,2,0:0:0:0:
152,120,36359,1,0,0:0:0:0:
304,120,36539,1,8,0:0:0:0:
152,128,37812,2,0,L|104:80,3,52.5,8|8|8|8,0:0|0:0|0:0|0:0,0:0:0:0:
368,264,38176,6,0,B|408:224|408:224|368:184,1,110.249996635437,4|0,0:0|0:0,0:0:0:0:
208,232,38539,2,0,B|168:192|168:192|208:152,1,110.249996635437,8|0,0:0|0:0,0:0:0:0:
368,96,38903,1,0,0:0:0:0:
216,96,39085,1,0,0:0:0:0:
376,96,39267,2,0,L|488:96,1,110.249996635437,8|0,0:0|0:0,0:0:0:0:
240,176,39630,6,0,L|128:176,1,110.249996635437,2|0,0:0|0:0,0:0:0:0:
288,144,39994,2,0,L|408:144,1,110.249996635437,10|0,0:0|0:0,0:0:0:0:
240,104,40358,1,2,0:0:0:0:
400,112,40539,1,0,0:0:0:0:
152,208,40721,5,10,0:0:0:0:
168,112,40903,1,0,0:0:0:0:
248,56,41085,1,0,0:0:0:0:
368,56,41267,1,0,0:0:0:0:
208,168,41448,6,0,B|168:128|168:128|208:88,1,110.249996635437,10|0,0:0|0:0,0:0:0:0:
368,168,41812,2,0,B|408:128|408:128|368:88,1,110.249996635437
208,96,42176,2,0,L|96:96,1,110.249996635437,10|0,0:0|0:0,0:0:0:0:
336,216,42539,6,0,L|320:104,1,110.249996635437,2|0,0:0|0:0,0:0:0:0:
168,192,42903,2,0,L|184:80,1,110.249996635437,10|0,0:0|0:0,0:0:0:0:
336,216,43267,2,0,L|320:104,1,110.249996635437,2|0,0:0|0:0,0:0:0:0:
472,184,43630,2,0,L|488:72,1,110.249996635437,10|0,0:0|0:0,0:0:0:0:
240,136,43994,6,0,L|128:136,1,110.249996635437,2|0,0:0|0:0,0:0:0:0:
376,120,44358,1,10,0:0:0:0:
136,120,44539,1,2,0:0:0:0:
208,72,44721,1,0,0:0:0:0:
328,72,44903,1,0,0:0:0:0:
168,72,45085,2,0,L|56:72,1,110.249996635437,8|0,0:0|0:0,0:0:0:0:
216,232,45448,6,0,L|328:232,1,110.249996635437,2|0,0:0|0:0,0:0:0:0:
168,176,45812,1,8,0:0:0:0:
328,168,45994,2,0,L|320:56,1,110.249996635437
480,80,46358,1,0,0:0:0:0:
320,80,46539,2,0,L|432:80,1,110.249996635437,8|0,0:0|0:0,0:0:0:0:
184,208,46903,6,0,P|192:152|328:72,1,220.499993270874,2|8,0:0|0:0,0:0:0:0:
240,40,47448,1,0,0:0:0:0:
80,176,47630,2,0,L|72:64,1,110.249996635437
224,72,47994,1,8,0:0:0:0:
72,80,48176,1,0,0:0:0:0:
224,72,48358,6,0,L|336:72,1,110.249996635437,2|0,0:0|0:0,0:0:0:0:
88,232,48721,2,0,L|80:120,1,110.249996635437,10|0,0:0|0:0,0:0:0:0:
328,216,49085,2,0,B|368:176|368:176|328:136,1,110.249996635437,8|8,0:0|0:0,0:0:0:0:
176,104,49448,1,8,0:0:0:0:
328,96,49630,1,8,0:0:0:0:
88,264,49812,6,0,L|312:264,1,220.499993270874,4|2,0:0|0:0,0:0:0:0:
152,192,50358,1,0,0:0:0:0:
392,192,50539,2,0,B|432:152|432:152|392:112,1,110.249996635437,14|0,0:0|0:0,0:0:0:0:
232,120,50903,2,0,B|192:160|192:160|232:200,1,110.249996635437,2|0,0:0|0:0,0:0:0:0:
472,88,51267,5,0,0:0:0:0:
320,88,51448,1,8,0:0:0:0:
472,88,51630,2,0,L|488:200,1,110.249996635437,10|0,0:0|0:0,0:0:0:0:
248,128,51994,2,0,L|392:128,1,110.249996635437,14|0,0:0|0:0,0:0:0:0:
200,112,52358,2,0,L|88:112,1,110.249996635437,2|0,0:0|0:0,0:0:0:0:
336,280,52721,6,0,L|344:56,1,220.499993270874,0|2,0:0|0:0,0:0:0:0:
184,112,53267,1,0,0:0:0:0:
424,112,53448,2,0,L|288:112,1,110.249996635437,14|0,0:0|0:0,0:0:0:0:
152,144,53812,2,0,L|160:256,1,110.249996635437,2|0,0:0|0:0,0:0:0:0:
424,176,54176,6,0,B|480:176|480:176|424:168,1,110.249996635437,2|8,0:0|0:0,0:0:0:0:
264,128,54539,1,10,0:0:0:0:
424,96,54721,1,2,0:0:0:0:
184,296,54903,2,0,P|192:240|288:208,1,165.374994953156,4|0,0:0|0:0,0:0:0:0:
440,272,55267,2,0,P|432:216|336:184,1,165.374994953156,4|0,0:0|0:0,0:0:0:0:
168,248,55630,6,0,P|112:248|112:112,1,220.499993270874,4|8,0:0|0:0,0:0:0:0:
296,136,56358,1,2,0:0:0:0:
280,112,56540,1,0,0:0:0:0:
128,112,56722,1,8,0:0:0:0:
320,216,57085,6,0,L|328:104,1,110.249996635437,2|0,0:0|0:0,0:0:0:0:
168,176,57448,2,0,L|160:64,1,110.249996635437,10|0,0:0|0:0,0:0:0:0:
320,88,57812,2,0,L|176:88,1,110.249996635437,2|0,0:0|0:0,0:0:0:0:
448,192,58176,2,0,B|488:152|488:152|448:112,1,110.249996635437,10|0,0:0|0:0,0:0:0:0:
192,120,58539,6,0,L|128:120,1,55.1249983177186,10|8,0:0|0:0,0:0:0:0:
360,120,58721,2,0,L|432:120,1,55.1249983177186
192,200,58903,1,0,0:0:0:0:
184,192,58948,1,0,0:0:0:0:
192,200,58994,1,0,0:0:0:0:
256,200,59085,1,0,0:0:0:0:
336,200,59176,1,0,0:0:0:0:
120,96,59267,5,0,0:0:0:0:
112,88,59312,1,0,0:0:0:0:
104,80,59358,1,0,0:0:0:0:
184,72,59448,1,0,0:0:0:0:
104,72,59539,1,0,0:0:0:0:
328,80,59630,1,0,0:0:0:0:
368,80,59676,1,0,0:0:0:0:
408,80,59721,1,0,0:0:0:0:
184,40,59812,2,0,L|104:40,1,55.1249983177186
456,168,59994,5,12,0:0:0:0:
248,328,60721,2,0,P|248:272|464:56,1,385.87498822403,2|0,0:0|0:0,0:0:0:0:
152,184,61448,6,0,L|72:184,1,62.9999980773926,6|0,0:0|0:0,0:0:0:0:
184,160,61630,2,0,L|256:160,1,62.9999980773926,8|0,0:0|0:0,0:0:0:0:
344,160,61812,2,0,L|272:160,1,62.9999980773926,2|0,0:0|0:0,0:0:0:0:
184,160,61994,2,0,L|112:160,1,62.9999980773926,8|0,0:0|0:0,0:0:0:0:
344,112,62176,6,0,L|328:48,1,62.9999980773926,2|0,0:0|0:0,0:0:0:0:
232,112,62358,2,0,L|216:48,1,62.9999980773926,8|0,0:0|0:0,0:0:0:0:
440,64,62539,2,0,L|376:64,1,62.9999980773926,2|0,0:0|0:0,0:0:0:0:
152,56,62721,2,0,L|72:56,1,62.9999980773926,8|0,0:0|0:0,0:0:0:0:
352,168,62903,6,0,L|360:104,1,62.9999980773926,2|0,0:0|0:0,0:0:0:0:
264,112,63085,2,0,L|216:64,1,62.9999980773926,8|0,0:0|0:0,0:0:0:0:
120,80,63267,2,0,L|200:80,1,62.9999980773926,2|0,0:0|0:0,0:0:0:0:
280,80,63448,2,0,L|360:80,1,62.9999980773926,8|0,0:0|0:0,0:0:0:0:
120,152,63630,6,0,L|88:88,2,62.9999980773926,2|0|8,0:0|0:0|0:0,0:0:0:0:
208,152,63903,1,0,0:0:0:0:
432,112,63994,2,0,L|344:112,1,62.9999980773926,2|0,0:0|0:0,0:0:0:0:
144,104,64176,2,0,L|64:104,1,62.9999980773926,8|0,0:0|0:0,0:0:0:0:
368,224,64358,6,0,L|376:160,1,62.9999980773926,2|0,0:0|0:0,0:0:0:0:
280,160,64539,2,0,L|288:96,1,62.9999980773926,8|0,0:0|0:0,0:0:0:0:
384,104,64721,2,0,L|448:104,1,62.9999980773926,2|0,0:0|0:0,0:0:0:0:
224,136,64903,6,0,L|160:136,1,62.9999980773926,8|0,0:0|0:0,0:0:0:0:
256,120,65085,2,0,L|328:120,1,62.9999980773926,2|0,0:0|0:0,0:0:0:0:
96,160,65267,2,0,L|88:96,1,62.9999980773926,8|0,0:0|0:0,0:0:0:0:
312,176,65448,6,0,L|376:176,1,62.9999980773926,2|0,0:0|0:0,0:0:0:0:
153,112,65630,2,0,L|216:112,1,62.9999980773926,8|0,0:0|0:0,0:0:0:0:
472,168,65812,6,0,L|464:104,1,62.9999980773926,2|0,0:0|0:0,0:0:0:0:
376,120,65994,2,0,L|304:120,1,62.9999980773926,8|0,0:0|0:0,0:0:0:0:
120,104,66176,2,0,L|128:40,1,62.9999980773926,2|0,0:0|0:0,0:0:0:0:
216,56,66358,2,0,L|288:56,1,62.9999980773926,8|0,0:0|0:0,0:0:0:0:
88,176,66539,6,0,B|40:128|40:128|88:80,1,125.999996154785,6|8,0:0|0:0,0:0:0:0:
240,88,66812,1,8,0:0:0:0:
400,88,66903,2,0,L|328:88,1,62.9999980773926,8|8,0:0|0:0,0:0:0:0:
112,72,67085,2,0,L|32:72,1,62.9999980773926,8|8,0:0|0:0,0:0:0:0:
352,224,67267,6,0,B|400:176|400:176|352:128,1,125.999996154785,4|8,0:0|0:0,0:0:0:0:
192,128,67630,1,0,0:0:0:0:
352,120,67812,1,8,0:0:0:0:
280,72,67994,1,0,0:0:0:0:
160,72,68176,1,8,0:0:0:0:
320,72,68358,2,0,L|400:72,1,62.9999980773926
328,64,68539,1,8,0:0:0:0:
72,160,68721,6,0,P|136:160|184:112,2,125.999996154785,4|8|0,0:0|0:0|0:0,0:0:0:0:
312,136,69267,1,8,0:0:0:0:
168,128,69448,2,0,L|176:256,1,125.999996154785,0|8,0:0|0:0,0:0:0:0:
424,192,69812,1,0,0:0:0:0:
408,184,69903,2,0,L|360:136,1,62.9999980773926,0|8,0:0|0:0,0:0:0:0:
80,232,70176,6,0,L|72:104,1,125.999996154785,4|8,0:0|0:0,0:0:0:0:
232,136,70539,2,0,L|240:264,1,125.999996154785,0|8,0:0|0:0,0:0:0:0:
400,160,70903,2,0,L|392:288,1,125.999996154785,0|8,0:0|0:0,0:0:0:0:
232,128,71267,1,0,0:0:0:0:
168,128,71358,1,0,0:0:0:0:
104,128,71448,1,8,0:0:0:0:
368,144,71630,6,0,P|432:144|480:96,2,125.999996154785,4|8|0,0:0|0:0|0:0,0:0:0:0:
112,104,72176,1,8,0:0:0:0:
368,112,72358,1,0,0:0:0:0:
112,104,72539,2,0,L|104:176,1,62.9999980773926,8|8,0:0|0:0,0:0:0:0:
328,112,72721,2,0,L|408:112,1,62.9999980773926,8|8,0:0|0:0,0:0:0:0:
168,112,72903,2,0,L|104:112,1,62.9999980773926,8|8,0:0|0:0,0:0:0:0:
424,216,73085,6,0,L|432:152,1,62.9999980773926,6|0,0:0|0:0,0:0:0:0:
336,160,73267,2,0,L|328:96,1,62.9999980773926,8|0,0:0|0:0,0:0:0:0:
424,96,73448,2,0,L|360:96,1,62.9999980773926,2|0,0:0|0:0,0:0:0:0:
264,88,73630,2,0,L|200:88,1,62.9999980773926,8|0,0:0|0:0,0:0:0:0:
424,160,73812,6,0,L|456:96,2,62.9999980773926,2|0|8,0:0|0:0|0:0,0:0:0:0:
336,160,74085,1,0,0:0:0:0:
120,160,74176,2,0,L|88:96,1,62.9999980773926,2|0,0:0|0:0,0:0:0:0:
312,112,74358,2,0,L|384:112,1,62.9999980773926,8|0,0:0|0:0,0:0:0:0:
104,280,74539,6,0,L|112:216,1,62.9999980773926,2|0,0:0|0:0,0:0:0:0:
208,224,74721,2,0,L|200:160,1,62.9999980773926,8|0,0:0|0:0,0:0:0:0:
104,160,74903,2,0,L|40:160,1,62.9999980773926,2|0,0:0|0:0,0:0:0:0:
136,144,75085,2,0,L|200:144,1,62.9999980773926,8|0,0:0|0:0,0:0:0:0:
416,160,75267,6,0,L|480:160,1,62.9999980773926,2|0,0:0|0:0,0:0:0:0:
384,144,75449,2,0,L|320:144,1,62.9999980773926,8|0,0:0|0:0,0:0:0:0:
104,120,75630,2,0,L|184:120,1,62.9999980773926,2|0,0:0|0:0,0:0:0:0:
384,120,75812,2,0,L|464:120,1,62.9999980773926,8|0,0:0|0:0,0:0:0:0:
184,208,75994,6,0,L|192:144,1,62.9999980773926,2|0,0:0|0:0,0:0:0:0:
280,144,76176,2,0,L|352:144,1,62.9999980773926,8|0,0:0|0:0,0:0:0:0:
120,80,76358,2,0,L|56:80,1,62.9999980773926,2|0,0:0|0:0,0:0:0:0:
280,224,76539,6,0,L|272:160,1,62.9999980773926,8|0,0:0|0:0,0:0:0:0:
184,160,76721,2,0,L|112:160,1,62.9999980773926,2|0,0:0|0:0,0:0:0:0:
392,80,76903,6,0,L|456:80,1,62.9999980773926,8|0,0:0|0:0,0:0:0:0:
288,40,77085,2,0,L|216:40,1,62.9999980773926,2|0,0:0|0:0,0:0:0:0:
56,56,77267,2,0,L|144:56,1,62.9999980773926,8|0,0:0|0:0,0:0:0:0:
448,160,77448,6,0,L|480:96,2,62.9999980773926,2|0|8,0:0|0:0|0:0,0:0:0:0:
376,160,77721,1,0,0:0:0:0:
280,160,77812,2,0,L|352:160,1,62.9999980773926,2|0,0:0|0:0,0:0:0:0:
440,136,77994,2,0,L|376:136,1,62.9999980773926,8|0,0:0|0:0,0:0:0:0:
152,104,78176,6,0,L|144:168,1,62.9999980773926,6|0,0:0|0:0,0:0:0:0:
368,88,78358,2,0,L|448:88,1,62.9999980773926,8|8,0:0|0:0,0:0:0:0:
208,72,78539,2,0,L|128:72,1,62.9999980773926,8|8,0:0|0:0,0:0:0:0:
304,64,78721,1,8,0:0:0:0:
456,64,78812,1,8,0:0:0:0:
168,136,78903,6,0,L|40:136,1,115.50000352478,4|8,0:0|0:0,0:0:0:0:
216,144,79267,2,0,L|360:144,1,115.50000352478,0|8,0:0|0:0,0:0:0:0:
168,208,79630,2,0,B|160:144|160:144|168:88,1,115.50000352478,0|8,0:0|0:0,0:0:0:0:
336,120,79994,1,0,0:0:0:0:
408,120,80085,2,0,L|400:56,1,57.7500017623902,0|8,0:0|0:0,0:0:0:0:
160,136,80358,6,0,L|280:136,1,115.50000352478,2|8,0:0|0:0,0:0:0:0:
112,224,80721,2,0,L|120:104,1,115.50000352478,0|8,0:0|0:0,0:0:0:0:
288,184,81085,2,0,L|168:184,1,115.50000352478,0|8,0:0|0:0,0:0:0:0:
416,160,81448,1,2,0:0:0:0:
424,152,81539,1,0,0:0:0:0:
432,144,81630,1,8,0:0:0:0:
176,112,81812,6,0,L|104:112,1,57.7500017623902,2|0,0:0|0:0,0:0:0:0:
208,96,81994,2,0,L|280:96,1,57.7500017623902,8|0,0:0|0:0,0:0:0:0:
176,72,82176,2,0,L|104:72,1,57.7500017623902
352,224,82358,6,0,L|360:160,1,57.7500017623902,10|0,0:0|0:0,0:0:0:0:
272,152,82539,2,0,L|224:104,1,57.7500017623902
144,104,82721,2,0,L|72:104,1,57.7500017623902,8|0,0:0|0:0,0:0:0:0:
320,88,82903,6,0,L|400:88,1,57.7500017623902,2|0,0:0|0:0,0:0:0:0:
144,80,83085,2,0,L|72:80,1,57.7500017623902,8|0,0:0|0:0,0:0:0:0:
376,224,83267,6,0,B|424:176|424:176|384:136,1,115.50000352478,4|8,0:0|0:0,0:0:0:0:
240,128,83539,1,8,0:0:0:0:
88,120,83630,2,0,L|152:120,1,57.7500017623902,8|8,0:0|0:0,0:0:0:0:
368,112,83812,2,0,L|432:112,1,57.7500017623902,8|8,0:0|0:0,0:0:0:0:
208,216,83994,6,0,L|200:152,1,57.7500017623902,2|0,0:0|0:0,0:0:0:0:
288,160,84176,2,0,L|296:96,1,57.7500017623902
208,88,84358,2,0,L|272:88,1,57.7500017623902,2|0,0:0|0:0,0:0:0:0:
352,88,84539,2,0,L|424:88,1,57.7500017623902
120,240,84721,6,0,B|80:200|80:200|120:160,1,110.249996635437,4|0,0:0|0:0,0:0:0:0:
280,192,85085,2,0,B|320:152|320:152|280:112,1,110.249996635437,2|0,0:0|0:0,0:0:0:0:
120,112,85448,1,8,0:0:0:0:
280,88,85630,2,0,L|128:88,1,110.249996635437,2|0,0:0|0:0,0:0:0:0:
328,72,85994,1,0,0:0:0:0:
88,112,86176,6,0,L|200:112,2,110.249996635437,2|8|0,0:0|0:0|0:0,0:0:0:0:
248,104,86721,1,2,0:0:0:0:
88,112,86903,2,0,L|96:224,1,110.249996635437,10|0,0:0|0:0,0:0:0:0:
336,144,87267,2,0,L|456:144,1,110.249996635437,2|0,0:0|0:0,0:0:0:0:
192,224,87630,6,0,L|184:112,1,110.249996635437,4|0,0:0|0:0,0:0:0:0:
344,160,87994,2,0,L|232:160,1,110.249996635437,2|0,0:0|0:0,0:0:0:0:
392,136,88358,1,8,0:0:0:0:
232,152,88539,2,0,L|360:152,1,110.249996635437,2|0,0:0|0:0,0:0:0:0:
96,168,88903,6,0,L|88:56,1,110.249996635437,2|0,0:0|0:0,0:0:0:0:
248,72,89267,1,8,0:0:0:0:
88,80,89448,2,0,L|200:80,1,110.249996635437,2|0,0:0|0:0,0:0:0:0:
360,80,89812,2,0,L|248:80,1,110.249996635437,10|0,0:0|0:0,0:0:0:0:
488,200,90176,2,0,P|488:144|408:64,1,165.374994953156,10|0,0:0|0:0,0:0:0:0:
224,96,90539,6,0,L|88:96,1,110.249996635437,4|0,0:0|0:0,0:0:0:0:
272,168,90903,2,0,L|280:56,1,110.249996635437,10|0,0:0|0:0,0:0:0:0:
120,104,91267,1,0,0:0:0:0:
280,80,91448,2,0,L|136:80,1,110.249996635437,2|8,0:0|0:0,0:0:0:0:
328,64,91812,1,0,0:0:0:0:
88,248,91994,6,0,L|80:136,1,110.249996635437,2|0,0:0|0:0,0:0:0:0:
240,144,92358,1,10,0:0:0:0:
80,144,92539,2,0,L|200:144,1,110.249996635437,2|0,0:0|0:0,0:0:0:0:
32,112,92903,1,0,0:0:0:0:
272,80,93085,2,0,L|152:80,1,110.249996635437,10|0,0:0|0:0,0:0:0:0:
400,192,93448,6,0,L|408:80,1,110.249996635437,4|0,0:0|0:0,0:0:0:0:
248,160,93812,2,0,L|136:160,1,110.249996635437,10|0,0:0|0:0,0:0:0:0:
296,96,94176,1,0,0:0:0:0:
136,96,94358,2,0,L|128:208,1,110.249996635437,2|8,0:0|0:0,0:0:0:0:
368,136,94721,6,0,L|216:136,1,110.249996635437,2|0,0:0|0:0,0:0:0:0:
416,96,95085,1,0,0:0:0:0:
256,72,95267,2,0,L|384:72,1,110.249996635437,10|0,0:0|0:0,0:0:0:0:
128,152,95630,2,0,L|16:152,1,110.249996635437,2|0,0:0|0:0,0:0:0:0:
256,88,95994,1,0,0:0:0:0:
16,96,96176,1,0,0:0:0:0:
344,160,96358,5,4,0:0:0:0:
168,160,99267,5,4,0:0:0:0:
296,96,102176,6,0,L|288:320,1,220.499993270874,6|2,0:0|0:0,0:0:0:0:
448,144,102721,1,2,0:0:0:0:
288,208,102903,2,0,L|280:96,1,110.249996635437,8|0,0:0|0:0,0:0:0:0:
440,160,103267,2,0,L|432:48,1,110.249996635437
184,96,103630,5,2,0:0:0:0:
312,96,103812,1,8,0:0:0:0:
184,96,103994,2,0,B|144:56|144:56|184:16,1,110.249996635437
344,64,104358,2,0,L|208:64,1,110.249996635437,10|0,0:0|0:0,0:0:0:0:
392,208,104721,2,0,L|512:208,1,110.249996635437
232,312,105085,6,0,P|176:312|176:176,1,220.499993270874,6|0,0:0|0:0,0:0:0:0:
328,120,105630,1,0,0:0:0:0:
168,144,105812,2,0,L|176:32,1,110.249996635437,10|0,0:0|0:0,0:0:0:0:
16,152,106176,2,0,L|24:40,1,110.249996635437
264,136,106539,5,2,0:0:0:0:
136,136,106721,1,8,0:0:0:0:
264,136,106903,2,0,B|304:96|304:96|264:56,1,110.249996635437
104,80,107267,2,0,L|216:80,1,110.249996635437,10|0,0:0|0:0,0:0:0:0:
456,96,107630,1,10,0:0:0:0:
464,88,107721,1,8,0:0:0:0:
456,96,107812,1,8,0:0:0:0:
152,256,107994,6,0,P|72:176|136:112,1,220.499993270874,6|8,0:0|0:0,0:0:0:0:
280,96,108539,1,0,0:0:0:0:
128,80,108721,2,0,L|240:80,1,110.249996635437
88,184,109085,2,0,L|96:72,1,110.249996635437,8|0,0:0|0:0,0:0:0:0:
344,248,109448,6,0,L|456:248,1,110.249996635437,2|0,0:0|0:0,0:0:0:0:
296,192,109812,2,0,L|184:192,1,110.249996635437,10|0,0:0|0:0,0:0:0:0:
344,152,110176,2,0,L|352:40,1,110.249996635437,2|0,0:0|0:0,0:0:0:0:
200,80,110539,1,10,0:0:0:0:
352,88,110721,1,0,0:0:0:0:
112,240,110903,6,0,L|0:240,1,110.249996635437
160,184,111267,2,0,L|152:72,1,110.249996635437,10|0,0:0|0:0,0:0:0:0:
312,152,111630,2,0,L|320:40,1,110.249996635437
80,88,111994,2,0,L|200:88,1,110.249996635437,10|0,0:0|0:0,0:0:0:0:
440,104,112358,6,0,L|448:216,1,110.249996635437,2|0,0:0|0:0,0:0:0:0:
288,200,112721,2,0,L|296:88,1,110.249996635437,10|0,0:0|0:0,0:0:0:0:
456,120,113085,2,0,L|344:120,1,110.249996635437,2|0,0:0|0:0,0:0:0:0:
184,192,113448,2,0,L|304:192,1,110.249996635437,10|0,0:0|0:0,0:0:0:0:
56,176,113812,6,0,L|48:64,1,110.249996635437,2|0,0:0|0:0,0:0:0:0:
288,104,114176,1,10,0:0:0:0:
48,128,114358,1,2,0:0:0:0:
120,80,114540,1,0,0:0:0:0:
240,80,114722,1,0,0:0:0:0:
80,224,114903,2,0,L|88:112,1,110.249996635437,8|0,0:0|0:0,0:0:0:0:
336,112,115267,6,0,L|448:112,1,110.249996635437,2|0,0:0|0:0,0:0:0:0:
288,232,115630,2,0,L|280:120,1,110.249996635437,8|0,0:0|0:0,0:0:0:0:
440,224,115994,2,0,L|432:112,1,110.249996635437
272,120,116358,1,8,0:0:0:0:
432,128,116539,1,0,0:0:0:0:
184,240,116721,6,0,P|184:184|296:72,1,220.499993270874,2|8,0:0|0:0,0:0:0:0:
448,104,117267,1,0,0:0:0:0:
288,208,117448,2,0,L|296:96,1,110.249996635437
456,168,117812,2,0,L|448:56,1,110.249996635437,8|0,0:0|0:0,0:0:0:0:
208,128,118176,6,0,L|328:128,1,110.249996635437,2|0,0:0|0:0,0:0:0:0:
72,280,118539,2,0,L|64:168,1,110.249996635437,10|0,0:0|0:0,0:0:0:0:
312,144,118903,2,0,L|432:144,1,110.249996635437,8|8,0:0|0:0,0:0:0:0:
264,80,119267,1,8,0:0:0:0:
424,88,119448,1,8,0:0:0:0:
168,296,119630,6,0,P|112:296|184:224,1,220.499993270874,4|0,0:0|0:0,0:0:0:0:
328,168,120176,1,0,0:0:0:0:
88,136,120358,2,0,L|208:136,1,110.249996635437,4|0,0:0|0:0,0:0:0:0:
360,144,120721,2,0,L|352:32,1,110.249996635437
112,112,121085,5,0,0:0:0:0:
240,112,121267,1,0,0:0:0:0:
112,112,121448,2,0,B|72:72|72:72|112:32,1,110.249996635437
352,112,121812,2,0,B|392:72|392:72|352:32,1,110.249996635437,4|0,0:0|0:0,0:0:0:0:
192,88,122176,2,0,L|72:88,1,110.249996635437
328,208,122539,6,0,P|368:168|272:72,1,220.499993270874,6|2,0:0|0:0,0:0:0:0:
432,80,123085,1,0,0:0:0:0:
192,104,123267,2,0,L|184:216,1,110.249996635437,14|0,0:0|0:0,0:0:0:0:
344,224,123630,2,0,L|456:224,1,110.249996635437,2|0,0:0|0:0,0:0:0:0:
192,184,123994,6,0,L|80:184,1,110.249996635437,2|8,0:0|0:0,0:0:0:0:
240,136,124358,1,2,0:0:0:0:
80,144,124539,1,2,0:0:0:0:
328,256,124721,2,0,P|320:200|224:168,1,165.374994953156,4|0,0:0|0:0,0:0:0:0:
72,232,125085,2,0,P|80:176|176:144,1,165.374994953156,4|0,0:0|0:0,0:0:0:0:
344,248,125448,6,0,P|400:248|400:112,1,220.499993270874,4|8,0:0|0:0,0:0:0:0:
216,136,126176,1,2,0:0:0:0:
232,112,126358,1,0,0:0:0:0:
384,112,126540,1,8,0:0:0:0:
192,216,126903,6,0,L|184:104,1,110.249996635437,2|0,0:0|0:0,0:0:0:0:
344,200,127267,2,0,L|352:88,1,110.249996635437,10|0,0:0|0:0,0:0:0:0:
192,120,127630,2,0,L|312:120,1,110.249996635437,2|0,0:0|0:0,0:0:0:0:
56,128,127994,2,0,B|16:168|16:168|56:208,1,110.249996635437,10|0,0:0|0:0,0:0:0:0:
296,128,128358,6,0,L|304:72,1,55.1249983177186,2|0,0:0|0:0,0:0:0:0:
80,88,128539,2,0,L|88:144,1,55.1249983177186
312,264,128721,1,0,0:0:0:0:
320,256,128767,1,0,0:0:0:0:
312,248,128812,1,0,0:0:0:0:
248,208,128903,1,0,0:0:0:0:
168,208,128994,1,0,0:0:0:0:
392,80,129085,5,0,0:0:0:0:
432,80,129130,2,0,L|440:48,1,27.5624991588593
368,64,129267,1,0,0:0:0:0:
440,64,129358,1,0,0:0:0:0:
216,80,129448,1,0,0:0:0:0:
176,80,129493,2,0,L|168:48,1,27.5624991588593
400,144,129630,2,0,L|392:88,1,55.1249983177186
72,168,129812,5,12,0:0:0:0:
264,328,130539,2,0,P|264:272|48:56,1,385.87498822403,2|0,0:0|0:0,0:0:0:0:
360,168,131267,6,0,L|368:104,1,62.9999980773926,6|0,0:0|0:0,0:0:0:0:
272,104,131448,2,0,L|208:104,1,62.9999980773926,8|0,0:0|0:0,0:0:0:0:
304,64,131630,2,0,L|368:64,1,62.9999980773926,2|0,0:0|0:0,0:0:0:0:
464,64,131812,2,0,L|400:64,1,62.9999980773926,8|0,0:0|0:0,0:0:0:0:
200,152,131994,6,0,L|136:152,1,62.9999980773926,2|0,0:0|0:0,0:0:0:0:
232,120,132176,2,0,L|240:56,1,62.9999980773926,8|0,0:0|0:0,0:0:0:0:
40,120,132358,2,0,L|32:56,1,62.9999980773926,2|0,0:0|0:0,0:0:0:0:
232,72,132539,2,0,L|304:72,1,62.9999980773926,8|0,0:0|0:0,0:0:0:0:
72,272,132721,6,0,L|64:208,1,62.9999980773926,2|0,0:0|0:0,0:0:0:0:
160,216,132903,2,0,L|224:216,1,62.9999980773926,8|0,0:0|0:0,0:0:0:0:
320,208,133085,2,0,L|248:208,1,62.9999980773926,2|0,0:0|0:0,0:0:0:0:
160,192,133267,2,0,L|240:192,1,62.9999980773926,8|0,0:0|0:0,0:0:0:0:
424,160,133448,6,0,L|456:96,2,62.9999980773926,2|0|8,0:0|0:0|0:0,0:0:0:0:
336,160,133721,1,0,0:0:0:0:
136,96,133812,2,0,L|224:96,1,62.9999980773926,2|0,0:0|0:0,0:0:0:0:
400,96,133994,2,0,L|328:96,1,62.9999980773926,8|0,0:0|0:0,0:0:0:0:
112,224,134176,6,0,L|104:160,1,62.9999980773926,2|0,0:0|0:0,0:0:0:0:
200,176,134358,2,0,L|256:120,1,62.9999980773926,8|0,0:0|0:0,0:0:0:0:
336,128,134539,2,0,L|400:128,1,62.9999980773926,2|0,0:0|0:0,0:0:0:0:
200,208,134721,6,0,L|192:144,1,62.9999980773926,8|0,0:0|0:0,0:0:0:0:
288,160,134903,2,0,L|296:96,1,62.9999980773926,2|0,0:0|0:0,0:0:0:0:
72,96,135085,2,0,L|160:96,1,62.9999980773926,8|0,0:0|0:0,0:0:0:0:
360,224,135267,6,0,L|352:160,1,62.9999980773926,2|0,0:0|0:0,0:0:0:0:
136,216,135448,2,0,L|144:152,1,62.9999980773926,8|0,0:0|0:0,0:0:0:0:
368,160,135630,5,2,0:0:0:0:
456,160,135721,2,0,L|488:96,2,62.9999980773926,0|8|0,0:0|0:0|0:0,0:0:0:0:
232,128,135994,2,0,L|200:64,2,62.9999980773926,2|0|8,0:0|0:0|0:0,0:0:0:0:
320,128,136267,1,0,0:0:0:0:
104,240,136358,6,0,B|56:192|56:192|104:144,1,125.999996154785,6|8,0:0|0:0,0:0:0:0:
248,120,136630,1,8,0:0:0:0:
400,128,136721,2,0,L|408:64,1,62.9999980773926,8|8,0:0|0:0,0:0:0:0:
184,104,136903,2,0,L|120:104,1,62.9999980773926,8|8,0:0|0:0,0:0:0:0:
344,248,137085,6,0,L|352:120,1,125.999996154785,4|8,0:0|0:0,0:0:0:0:
192,144,137448,1,0,0:0:0:0:
351,122,137630,2,0,P|287:122|239:74,2,125.999996154785,8|0|8,0:0|0:0|0:0,0:0:0:0:
192,216,138176,2,0,L|200:152,1,62.9999980773926
288,168,138358,1,8,0:0:0:0:
40,160,138539,5,4,0:0:0:0:
112,112,138721,1,8,0:0:0:0:
232,112,138903,1,0,0:0:0:0:
392,128,139085,1,8,0:0:0:0:
320,80,139267,1,0,0:0:0:0:
200,80,139449,1,8,0:0:0:0:
360,152,139630,1,0,0:0:0:0:
368,144,139721,1,0,0:0:0:0:
376,136,139812,1,8,0:0:0:0:
128,288,139994,6,0,L|120:160,1,125.999996154785,4|8,0:0|0:0,0:0:0:0:
280,176,140358,2,0,L|416:176,1,125.999996154785,0|8,0:0|0:0,0:0:0:0:
248,144,140721,2,0,L|120:144,1,125.999996154785,0|8,0:0|0:0,0:0:0:0:
280,120,141085,1,0,0:0:0:0:
360,120,141176,2,0,L|408:72,1,62.9999980773926,0|8,0:0|0:0,0:0:0:0:
168,232,141448,5,4,0:0:0:0:
296,232,141630,2,0,L|304:104,1,125.999996154785,8|0,0:0|0:0,0:0:0:0:
64,104,141994,1,8,0:0:0:0:
304,104,142176,1,0,0:0:0:0:
64,160,142358,2,0,L|56:96,1,62.9999980773926,8|8,0:0|0:0,0:0:0:0:
304,160,142539,2,0,L|384:160,1,62.9999980773926,8|8,0:0|0:0,0:0:0:0:
120,112,142721,2,0,L|32:112,1,62.9999980773926,8|8,0:0|0:0,0:0:0:0:
376,200,142903,6,0,L|408:136,2,62.9999980773926,6|0|8,0:0|0:0|0:0,0:0:0:0:
288,200,143176,1,0,0:0:0:0:
200,200,143267,2,0,L|192:136,1,62.9999980773926,2|0,0:0|0:0,0:0:0:0:
288,144,143448,2,0,L|360:144,1,62.9999980773926,8|0,0:0|0:0,0:0:0:0:
128,176,143630,6,0,L|96:112,2,62.9999980773926,2|0|8,0:0|0:0|0:0,0:0:0:0:
216,176,143903,1,0,0:0:0:0:
432,96,143994,2,0,L|360:96,1,62.9999980773926,2|0,0:0|0:0,0:0:0:0:
152,96,144176,2,0,L|88:96,1,62.9999980773926,8|0,0:0|0:0,0:0:0:0:
312,232,144358,6,0,L|320:168,1,62.9999980773926,2|0,0:0|0:0,0:0:0:0:
224,168,144539,2,0,L|216:104,1,62.9999980773926,8|0,0:0|0:0,0:0:0:0:
312,112,144721,2,0,L|384:112,1,62.9999980773926,2|0,0:0|0:0,0:0:0:0:
472,112,144903,2,0,L|408:112,1,62.9999980773926,8|0,0:0|0:0,0:0:0:0:
192,192,145085,6,0,L|184:128,1,62.9999980773926,2|0,0:0|0:0,0:0:0:0:
280,136,145267,2,0,L|344:136,1,62.9999980773926,8|0,0:0|0:0,0:0:0:0:
128,88,145448,2,0,L|120:152,1,62.9999980773926,2|0,0:0|0:0,0:0:0:0:
344,80,145630,2,0,L|408:80,1,62.9999980773926,8|0,0:0|0:0,0:0:0:0:
184,288,145812,6,0,L|176:224,1,62.9999980773926,2|0,0:0|0:0,0:0:0:0:
272,232,145994,2,0,L|280:168,1,62.9999980773926,8|0,0:0|0:0,0:0:0:0:
88,160,146176,2,0,L|168:160,1,62.9999980773926,2|0,0:0|0:0,0:0:0:0:
344,288,146358,6,0,L|352:224,1,62.9999980773926,8|0,0:0|0:0,0:0:0:0:
256,232,146540,2,0,L|248:168,1,62.9999980773926,2|0,0:0|0:0,0:0:0:0:
440,152,146721,6,0,L|448:88,1,62.9999980773926,8|0,0:0|0:0,0:0:0:0:
280,80,146903,2,0,L|216:80,1,62.9999980773926,2|0,0:0|0:0,0:0:0:0:
48,80,147085,2,0,L|112:80,1,62.9999980773926,8|0,0:0|0:0,0:0:0:0:
368,200,147267,6,0,L|376:136,1,62.9999980773926,2|0,0:0|0:0,0:0:0:0:
280,136,147448,2,0,L|232:88,1,62.9999980773926,8|0,0:0|0:0,0:0:0:0:
144,80,147630,2,0,L|216:80,1,62.9999980773926,2|0,0:0|0:0,0:0:0:0:
304,80,147812,2,0,L|368:80,1,62.9999980773926,8|0,0:0|0:0,0:0:0:0:
152,208,147994,6,0,L|144:144,1,62.9999980773926,6|0,0:0|0:0,0:0:0:0:
352,176,148176,2,0,L|288:176,1,62.9999980773926,8|8,0:0|0:0,0:0:0:0:
81,145,148358,2,0,L|145:145,1,62.9999980773926,8|8,0:0|0:0,0:0:0:0:
296,128,148539,1,8,0:0:0:0:
448,128,148630,1,8,0:0:0:0:
168,224,148721,6,0,L|32:224,1,115.50000352478,4|8,0:0|0:0,0:0:0:0:
208,136,149085,2,0,L|344:136,1,115.50000352478,0|8,0:0|0:0,0:0:0:0:
168,184,149448,2,0,L|160:64,1,115.50000352478,0|8,0:0|0:0,0:0:0:0:
320,160,149812,2,0,L|272:112,1,57.7500017623902
192,112,149994,1,8,0:0:0:0:
432,192,150176,6,0,L|440:72,1,115.50000352478,2|8,0:0|0:0,0:0:0:0:
288,112,150539,2,0,L|168:112,1,115.50000352478,0|8,0:0|0:0,0:0:0:0:
328,72,150903,2,0,L|448:72,1,115.50000352478,0|8,0:0|0:0,0:0:0:0:
192,112,151267,2,0,L|128:112,1,57.7500017623902
200,104,151448,1,8,0:0:0:0:
448,128,151630,6,0,L|328:128,2,115.50000352478,6|8|0,0:0|0:0|0:0,0:0:0:0:
200,192,152176,1,10,0:0:0:0:
320,192,152358,1,0,0:0:0:0:
312,184,152539,1,8,0:0:0:0:
64,88,152721,2,0,L|192:88,1,115.50000352478,2|8,0:0|0:0,0:0:0:0:
424,160,153085,5,6,0:0:0:0:
352,112,153267,1,8,0:0:0:0:
232,112,153449,1,0,0:0:0:0:
472,184,153630,2,0,L|480:64,1,115.50000352478,10|0,0:0|0:0,0:0:0:0:
240,88,153994,2,0,L|232:24,1,57.7500017623902,10|8,0:0|0:0,0:0:0:0:
440,56,154176,2,0,L|368:56,1,57.7500017623902,8|8,0:0|0:0,0:0:0:0:
176,48,154358,2,0,L|96:48,1,57.7500017623902,8|8,0:0|0:0,0:0:0:0:
352,232,154539,6,0,P|440:144|384:88,1,231.000007049561,4|0,0:0|0:0,0:0:0:0:
304,88,154994,1,0,0:0:0:0:
224,120,155085,2,0,L|344:120,1,115.50000352478,8|0,0:0|0:0,0:0:0:0:
184,176,155448,2,0,L|176:56,1,115.50000352478,8|0,0:0|0:0,0:0:0:0:
424,144,155812,2,0,L|344:144,1,57.7500017623902,8|0,0:0|0:0,0:0:0:0:
128,216,155994,6,0,B|80:168|80:168|120:128,1,115.50000352478,2|0,0:0|0:0,0:0:0:0:
200,136,156267,2,0,L|72:136,1,115.50000352478,2|0,0:0|0:0,0:0:0:0:
168,112,156539,1,2,0:0:0:0:
416,200,156721,6,0,P|464:152|464:104,1,115.50000352478,2|8,0:0|0:0,0:0:0:0:
304,112,157085,2,0,L|312:48,1,57.7500017623902
400,64,157267,1,8,0:0:0:0:
160,208,157448,6,0,B|96:200|96:200|272:192,1,231.000007049561,4|0,0:0|0:0,0:0:0:0:
184,168,157903,1,0,0:0:0:0:
104,176,157994,1,8,0:0:0:0:
96,168,158176,5,0,0:0:0:0:
256,80,158358,2,0,L|120:80,1,115.50000352478,8|0,0:0|0:0,0:0:0:0:
416,128,158721,2,0,L|424:64,1,57.7500017623902,8|0,0:0|0:0,0:0:0:0:
184,136,158903,6,0,B|120:128|120:128|184:120,1,115.50000352478,2|8,0:0|0:0,0:0:0:0:
328,120,159267,1,0,0:0:0:0:
320,112,159358,1,0,0:0:0:0:
312,104,159448,1,8,0:0:0:0:
200,104,159630,5,0,0:0:0:0:
352,176,159812,2,0,L|288:176,1,57.7500017623902,8|0,0:0|0:0,0:0:0:0:
208,176,159994,2,0,L|272:176,1,57.7500017623902
352,176,160176,1,8,0:0:0:0:
104,232,160358,6,0,L|96:112,1,115.50000352478,4|0,0:0|0:0,0:0:0:0:
184,120,160630,2,0,L|320:120,1,115.50000352478,2|0,0:0|0:0,0:0:0:0:
208,96,160903,2,0,L|88:96,1,115.50000352478,10|0,0:0|0:0,0:0:0:0:
344,160,161267,2,0,L|472:160,1,115.50000352478,10|0,0:0|0:0,0:0:0:0:
208,112,161630,2,0,L|136:112,1,57.7500017623902,8|0,0:0|0:0,0:0:0:0:
384,224,161812,6,0,P|448:224|448:128,1,173.250005287171,2|0,0:0|0:0,0:0:0:0:
368,128,162176,1,0,0:0:0:0:
216,112,162358,1,8,0:0:0:0:
224,120,162539,5,0,0:0:0:0:
384,72,162721,1,8,0:0:0:0:
216,56,162903,1,2,0:0:0:0:
144,56,162994,2,0,L|96:8,1,57.7500017623902,0|8,0:0|0:0,0:0:0:0:
376,144,163267,6,0,L|368:264,1,115.50000352478,4|8,0:0|0:0,0:0:0:0:
216,104,163630,1,2,0:0:0:0:
376,88,163812,2,0,L|248:88,1,115.50000352478,10|0,0:0|0:0,0:0:0:0:
416,136,164176,1,10,0:0:0:0:
264,96,164358,2,0,L|392:96,1,115.50000352478,2|8,0:0|0:0,0:0:0:0:
224,152,164721,5,2,0:0:0:0:
376,168,164903,2,0,L|384:48,1,115.50000352478,10|0,0:0|0:0,0:0:0:0:
224,64,165267,2,0,L|216:128,1,57.7500017623902,2|0,0:0|0:0,0:0:0:0:
416,112,165448,2,0,L|344:112,1,57.7500017623902,2|0,0:0|0:0,0:0:0:0:
152,112,165630,2,0,L|88:112,1,57.7500017623902,8|8,0:0|0:0,0:0:0:0:
300,112,165812,2,0,L|364:112,1,57.7500017623902,8|8,0:0|0:0,0:0:0:0:
208,80,165994,1,8,0:0:0:0:
56,80,166085,1,8,0:0:0:0:
328,296,166176,6,0,B|456:296|456:296|328:288|328:288|456:288,1,377.999988464356,6|8,0:0|0:0,0:0:0:0:
192,328,166903,2,0,P|192:264|400:56,1,377.999988464356,2|8,0:0|0:0,0:0:0:0:
136,240,167630,6,0,P|88:192|256:24,1,377.999988464356,6|8,0:0|0:0,0:0:0:0:
336,72,168267,1,0,0:0:0:0:
424,72,168358,2,0,L|432:200,1,125.999996154785,2|8,0:0|0:0,0:0:0:0:
264,152,168721,1,0,0:0:0:0:
432,160,168903,1,8,0:0:0:0:
152,112,169085,6,0,P|104:160|104:216,1,125.999996154785,4|8,0:0|0:0,0:0:0:0:
192,192,169358,1,0,0:0:0:0:
272,192,169448,1,0,0:0:0:0:
104,136,169630,2,0,L|32:136,1,62.9999980773926,8|0,0:0|0:0,0:0:0:0:
296,144,169812,6,0,L|304:80,1,62.9999980773926,2|0,0:0|0:0,0:0:0:0:
208,88,169994,2,0,L|200:24,1,62.9999980773926,8|0,0:0|0:0,0:0:0:0:
424,160,170176,2,0,L|456:96,2,62.9999980773926,2|0|8,0:0|0:0|0:0,0:0:0:0:
336,160,170449,1,0,0:0:0:0:
120,272,170539,6,0,L|56:272,1,62.9999980773926,2|0,0:0|0:0,0:0:0:0:
152,224,170721,2,0,L|160:160,1,62.9999980773926,8|0,0:0|0:0,0:0:0:0:
64,160,170903,2,0,L|56:96,1,62.9999980773926,2|0,0:0|0:0,0:0:0:0:
344,216,171085,6,0,L|352:152,1,62.9999980773926,8|0,0:0|0:0,0:0:0:0:
264,160,171267,2,0,L|216:112,1,62.9999980773926,2|0,0:0|0:0,0:0:0:0:
128,112,171448,2,0,L|64:112,1,62.9999980773926,8|0,0:0|0:0,0:0:0:0:
352,192,171630,2,0,P|416:192|416:88,1,188.999994232178,2|0,0:0|0:0,0:0:0:0:
192,160,171994,6,0,B|144:112|144:112|192:64,1,125.999996154785,4|8,0:0|0:0,0:0:0:0:
360,104,172358,1,0,0:0:0:0:
96,96,172539,1,8,0:0:0:0:
352,184,172721,2,0,L|216:184,1,125.999996154785,0|8,0:0|0:0,0:0:0:0:
400,192,173085,1,2,0:0:0:0:
384,184,173176,2,0,L|336:136,1,62.9999980773926,0|8,0:0|0:0,0:0:0:0:
88,176,173448,6,0,P|40:128|40:72,1,125.999996154785,2|8,0:0|0:0,0:0:0:0:
216,72,173812,2,0,L|32:72,1,125.999996154785,0|8,0:0|0:0,0:0:0:0:
264,176,174176,2,0,L|400:176,1,125.999996154785,0|8,0:0|0:0,0:0:0:0:
112,192,174539,1,2,0:0:0:0:
128,184,174630,2,0,L|176:136,1,62.9999980773926,0|8,0:0|0:0,0:0:0:0:
448,256,174903,6,0,P|448:192|360:104,1,188.999994232178,4|0,0:0|0:0,0:0:0:0:
280,112,175267,2,0,L|272:48,1,62.9999980773926,2|0,0:0|0:0,0:0:0:0:
360,64,175448,2,0,L|368:128,1,62.9999980773926,8|0,0:0|0:0,0:0:0:0:
280,128,175630,6,0,L|152:128,1,125.999996154785,2|8,0:0|0:0,0:0:0:0:
240,96,175903,1,0,0:0:0:0:
320,104,175994,2,0,L|448:104,1,125.999996154785,2|8,0:0|0:0,0:0:0:0:
184,168,176358,5,2,0:0:0:0:
104,168,176448,2,0,L|56:120,1,62.9999980773926,0|8,0:0|0:0,0:0:0:0:
232,144,176721,2,0,L|240:80,1,62.9999980773926,2|0,0:0|0:0,0:0:0:0:
160,96,176903,1,8,0:0:0:0:
328,96,177085,6,0,L|400:96,1,62.9999980773926,2|0,0:0|0:0,0:0:0:0:
320,88,177267,1,8,0:0:0:0:
152,96,177448,2,0,L|80:96,1,62.9999980773926,2|0,0:0|0:0,0:0:0:0:
160,88,177630,1,8,0:0:0:0:
416,192,177812,6,0,P|464:144|464:88,1,125.999996154785,4|8,0:0|0:0,0:0:0:0:
384,72,178085,1,0,0:0:0:0:
304,152,178176,2,0,L|296:88,1,62.9999980773926
376,104,178358,1,8,0:0:0:0:
208,120,178539,6,0,L|200:56,1,62.9999980773926,2|0,0:0|0:0,0:0:0:0:
288,64,178721,2,0,L|240:16,1,62.9999980773926,8|0,0:0|0:0,0:0:0:0:
160,64,178903,2,0,L|240:64,1,62.9999980773926,2|0,0:0|0:0,0:0:0:0:
416,88,179085,2,0,L|336:88,1,62.9999980773926,8|0,0:0|0:0,0:0:0:0:
96,296,179267,6,0,P|96:232|224:104,1,251.999992309571,6|0,0:0|0:0,0:0:0:0:
304,112,179721,1,0,0:0:0:0:
384,112,179812,2,0,L|392:48,1,62.9999980773926,8|0,0:0|0:0,0:0:0:0:
200,168,179994,2,0,L|72:168,1,125.999996154785,2|8,0:0|0:0,0:0:0:0:
128,128,180267,1,0,0:0:0:0:
216,112,180358,2,0,L|80:112,1,125.999996154785,2|8,0:0|0:0,0:0:0:0:
368,168,180721,6,0,L|440:168,1,62.9999980773926,4|0,0:0|0:0,0:0:0:0:
336,144,180903,2,0,L|344:80,1,62.9999980773926,8|0,0:0|0:0,0:0:0:0:
440,80,181085,2,0,L|312:80,1,125.999996154785,2|8,0:0|0:0,0:0:0:0:
144,184,181448,6,0,L|152:120,1,62.9999980773926
240,128,181630,2,0,L|248:64,1,62.9999980773926,8|0,0:0|0:0,0:0:0:0:
160,72,181812,2,0,L|224:72,1,62.9999980773926,2|0,0:0|0:0,0:0:0:0:
312,72,181994,1,8,0:0:0:0:
64,232,182176,6,0,L|56:104,1,125.999996154785,2|0,0:0|0:0,0:0:0:0:
144,176,182448,2,0,L|296:176,1,125.999996154785,2|0,0:0|0:0,0:0:0:0:
184,160,182721,2,0,L|112:160,1,62.9999980773926,10|0,0:0|0:0,0:0:0:0:
312,144,182903,6,0,P|360:96|360:40,1,125.999996154785,2|8,0:0|0:0,0:0:0:0:
272,48,183176,1,0,0:0:0:0:
184,48,183267,2,0,L|256:48,1,62.9999980773926,2|0,0:0|0:0,0:0:0:0:
336,48,183448,2,0,L|416:48,1,62.9999980773926,8|0,0:0|0:0,0:0:0:0:
144,240,183630,6,0,L|136:112,1,125.999996154785,4|8,0:0|0:0,0:0:0:0:
184,128,183903,1,0,0:0:0:0:
272,128,183994,1,0,0:0:0:0:
128,112,184176,1,8,0:0:0:0:
272,104,184358,5,2,0:0:0:0:
128,112,184539,2,0,L|120:48,1,62.9999980773926,10|0,0:0|0:0,0:0:0:0:
208,88,184721,2,0,L|272:88,1,62.9999980773926,2|0,0:0|0:0,0:0:0:0:
184,64,184903,2,0,L|112:64,1,62.9999980773926,10|0,0:0|0:0,0:0:0:0:
344,184,185085,6,0,L|472:184,1,125.999996154785,2|8,0:0|0:0,0:0:0:0:
424,144,185358,1,0,0:0:0:0:
336,136,185448,1,0,0:0:0:0:
480,112,185630,1,8,0:0:0:0:
472,104,185812,5,2,0:0:0:0:
328,120,185994,2,0,L|264:120,1,62.9999980773926,10|0,0:0|0:0,0:0:0:0:
360,96,186176,2,0,L|280:96,1,62.9999980773926,2|0,0:0|0:0,0:0:0:0:
208,96,186358,2,0,L|136:96,1,62.9999980773926,8|0,0:0|0:0,0:0:0:0:
400,216,186539,6,0,B|448:168|448:168|400:120,1,125.999996154785,4|8,0:0|0:0,0:0:0:0:
328,128,186812,1,0,0:0:0:0:
248,128,186903,2,0,L|240:64,1,62.9999980773926,2|0,0:0|0:0,0:0:0:0:
320,64,187085,2,0,L|328:128,1,62.9999980773926,8|0,0:0|0:0,0:0:0:0:
136,144,187267,6,0,L|64:144,1,62.9999980773926,2|0,0:0|0:0,0:0:0:0:
160,128,187448,2,0,L|240:128,1,62.9999980773926,8|0,0:0|0:0,0:0:0:0:
144,104,187630,1,2,0:0:0:0:
80,72,187721,1,0,0:0:0:0:
56,40,187812,1,8,0:0:0:0:
88,40,187873,1,0,0:0:0:0:
128,40,187933,1,0,0:0:0:0:
304,160,187994,6,0,L|312:96,1,62.9999980773926,2|0,0:0|0:0,0:0:0:0:
239,97,188176,1,8,0:0:0:0:
311,97,188267,1,0,0:0:0:0:
375,97,188358,1,2,0:0:0:0:
399,65,188448,1,0,0:0:0:0:
375,97,188539,1,8,0:0:0:0:
311,97,188630,1,0,0:0:0:0:
120,200,188721,6,0,L|112:136,1,62.9999980773926,2|0,0:0|0:0,0:0:0:0:
200,136,188903,2,0,L|280:136,1,62.9999980773926,8|0,0:0|0:0,0:0:0:0:
72,88,189085,2,0,L|144:88,1,62.9999980773926,2|0,0:0|0:0,0:0:0:0:
328,96,189267,2,0,L|400:96,1,62.9999980773926,10|0,0:0|0:0,0:0:0:0:
136,112,189448,6,0,L|64:112,1,62.9999980773926,4|0,0:0|0:0,0:0:0:0:
144,104,189630,1,8,0:0:0:0:
304,96,189812,2,0,L|256:48,1,62.9999980773926,2|0,0:0|0:0,0:0:0:0:
176,48,189994,1,8,0:0:0:0:
336,112,190176,5,2,0:0:0:0:
408,112,190267,2,0,L|416:48,1,62.9999980773926,0|8,0:0|0:0,0:0:0:0:
256,80,190539,1,2,0:0:0:0:
184,80,190630,2,0,L|176:16,1,62.9999980773926,0|8,0:0|0:0,0:0:0:0:
448,224,190903,6,0,L|456:160,2,62.9999980773926,6|0|8,0:0|0:0|0:0,0:0:0:0:
288,200,191267,2,0,L|280:136,2,62.9999980773926,2|0|8,0:0|0:0|0:0,0:0:0:0:
448,128,191630,6,0,L|320:128,1,125.999996154785,2|8,0:0|0:0,0:0:0:0:
480,104,191994,2,0,L|432:56,1,62.9999980773926,2|0,0:0|0:0,0:0:0:0:
352,56,192176,1,8,0:0:0:0:
80,240,192358,6,0,L|88:160,1,62.9999980773926,4|0,0:0|0:0,0:0:0:0:
184,136,192539,2,0,L|256:136,1,62.9999980773926
144,112,192721,2,0,L|80:112,1,62.9999980773926,2|0,0:0|0:0,0:0:0:0:
184,104,192903,2,0,L|256:104,1,62.9999980773926,8|0,0:0|0:0,0:0:0:0:
432,136,193085,6,0,L|464:72,2,62.9999980773926,2|0|8,0:0|0:0|0:0,0:0:0:0:
344,136,193358,1,0,0:0:0:0:
160,88,193448,2,0,L|248:88,1,62.9999980773926,2|0,0:0|0:0,0:0:0:0:
408,80,193630,2,0,L|496:80,1,62.9999980773926,8|0,0:0|0:0,0:0:0:0:
192,248,193812,6,0,L|64:248,1,125.999996154785,6|8,0:0|0:0,0:0:0:0:
224,168,194176,1,0,0:0:0:0:
232,160,194267,1,0,0:0:0:0:
240,152,194358,1,8,0:0:0:0:
80,144,194539,5,0,0:0:0:0:
56,112,194630,1,0,0:0:0:0:
80,144,194721,1,8,0:0:0:0:
144,144,194812,1,0,0:0:0:0:
232,144,194903,2,0,L|104:144,1,125.999996154785,0|8,0:0|0:0,0:0:0:0:
352,144,195267,6,0,P|416:144|416:88,1,125.999996154785,4|8,0:0|0:0,0:0:0:0:
264,128,195630,2,0,P|200:128|200:72,1,125.999996154785,0|8,0:0|0:0,0:0:0:0:
352,96,195994,6,0,L|160:96,1,188.999994232178,2|0,0:0|0:0,0:0:0:0:
232,80,196358,1,0,0:0:0:0:
272,80,196448,1,0,0:0:0:0:
304,80,196539,2,0,L|312:16,1,62.9999980773926,8|0,0:0|0:0,0:0:0:0:
56,176,196721,6,0,L|48:112,1,62.9999980773926,2|0,0:0|0:0,0:0:0:0:
128,120,196903,1,8,0:0:0:0:
280,176,197085,2,0,L|272:112,1,62.9999980773926,2|0,0:0|0:0,0:0:0:0:
184,120,197267,2,0,L|176:56,1,62.9999980773926,8|0,0:0|0:0,0:0:0:0:
392,168,197448,6,0,L|456:168,1,62.9999980773926,2|0,0:0|0:0,0:0:0:0:
376,160,197630,1,8,0:0:0:0:
224,80,197812,2,0,L|304:80,1,62.9999980773926,2|0,0:0|0:0,0:0:0:0:
480,80,197994,2,0,L|400:80,1,62.9999980773926,10|0,0:0|0:0,0:0:0:0:
160,104,198176,5,6,0:0:0:0:
80,104,198267,2,0,L|88:40,1,62.9999980773926,0|8,0:0|0:0,0:0:0:0:
240,88,198539,1,2,0:0:0:0:
160,88,198630,2,0,L|168:24,1,62.9999980773926,0|8,0:0|0:0,0:0:0:0:
320,144,198903,6,0,L|232:144,1,83.9999974365235,2|0,0:0|0:0,0:0:0:0:
416,96,199145,1,2,0:0:0:0:
232,112,199267,2,0,L|344:112,1,83.9999974365235,0|2,0:0|0:0,0:0:0:0:
136,112,199509,1,0,0:0:0:0:
368,296,199630,6,0,P|416:248|312:144,1,251.999992309571,2|0,0:0|0:0,0:0:0:0:
152,296,200176,2,0,P|104:248|208:144,1,251.999992309571,10|8,0:0|0:0,0:0:0:0:
280,144,200630,1,0,0:0:0:0:
352,144,200721,2,0,L|360:80,1,62.9999980773926,2|0,0:0|0:0,0:0:0:0:
136,88,200903,2,0,L|64:88,1,62.9999980773926
312,192,201085,6,0,P|376:192|376:56,1,231.000007049561,4|0,0:0|0:0,0:0:0:0:
224,56,201630,1,0,0:0:0:0:
376,64,201812,2,0,L|144:64,1,231.000007049561,10|0,0:0|0:0,0:0:0:0:
296,200,202358,1,8,0:0:0:0:
304,192,202539,5,2,0:0:0:0:
152,200,202721,1,8,0:0:0:0:
144,192,202902,1,0,0:0:0:0:
296,144,203085,2,0,L|232:144,1,57.7500017623902
40,248,203267,2,0,L|32:16,1,231.000007049561,10|0,0:0|0:0,0:0:0:0:
480,144,203994,6,0,L|472:24,1,115.50000352478,4|0,0:0|0:0,0:0:0:0:
320,80,204358,1,0,0:0:0:0:
472,48,204539,1,0,0:0:0:0:
320,80,204721,2,0,L|192:80,1,115.50000352478,8|0,0:0|0:0,0:0:0:0:
360,224,205085,2,0,L|240:224,1,115.50000352478
88,192,205448,5,2,0:0:0:0:
240,336,205630,2,0,B|248:208|248:208|144:200,1,231.000007049561,2|0,0:0|0:0,0:0:0:0:
384,232,206176,2,0,P|448:232|448:96,1,231.000007049561,10|0,0:0|0:0,0:0:0:0:
16,224,206903,6,0,L|24:104,1,115.50000352478,4|8,0:0|0:0,0:0:0:0:
176,216,207267,2,0,L|168:96,1,115.50000352478,0|8,0:0|0:0,0:0:0:0:
320,216,207630,2,0,L|328:96,1,115.50000352478,2|8,0:0|0:0,0:0:0:0:
480,208,207994,2,0,L|472:88,1,115.50000352478,0|8,0:0|0:0,0:0:0:0:
232,112,208358,6,0,L|112:112,1,115.50000352478,4|8,0:0|0:0,0:0:0:0:
272,224,208721,2,0,B|320:176|320:176|280:136,1,115.50000352478,0|8,0:0|0:0,0:0:0:0:
128,216,209085,2,0,B|80:168|80:168|120:128,1,115.50000352478,2|8,0:0|0:0,0:0:0:0:
272,136,209448,2,0,L|416:136,1,115.50000352478,0|8,0:0|0:0,0:0:0:0:
144,168,209812,6,0,L|136:104,1,57.7500017623902,4|0,0:0|0:0,0:0:0:0:
224,112,209994,2,0,L|272:64,1,57.7500017623902,8|0,0:0|0:0,0:0:0:0:
352,64,210176,2,0,L|288:64,1,57.7500017623902
208,64,210358,2,0,L|136:64,1,57.7500017623902,8|0,0:0|0:0,0:0:0:0:
232,112,210539,5,2,0:0:0:0:
296,112,210630,1,0,0:0:0:0:
320,112,210721,2,0,L|328:48,1,57.7500017623902,8|0,0:0|0:0,0:0:0:0:
240,88,210903,1,0,0:0:0:0:
176,88,210994,1,0,0:0:0:0:
152,88,211085,2,0,L|144:24,1,57.7500017623902,8|0,0:0|0:0,0:0:0:0:
320,216,211267,6,0,L|328:152,1,57.7500017623902,2|0,0:0|0:0,0:0:0:0:
240,160,211448,2,0,L|248:96,1,57.7500017623902,8|0,0:0|0:0,0:0:0:0:
336,120,211630,2,0,L|328:56,1,57.7500017623902
240,120,211812,2,0,L|232:56,1,57.7500017623902,8|0,0:0|0:0,0:0:0:0:
408,104,211994,6,0,L|344:104,1,57.7500017623902,2|0,0:0|0:0,0:0:0:0:
272,104,212176,2,0,L|200:104,1,57.7500017623902,8|0,0:0|0:0,0:0:0:0:
136,104,212358,2,0,L|224:104,1,57.7500017623902
272,64,212539,2,0,L|352:64,1,57.7500017623902,8|0,0:0|0:0,0:0:0:0:
120,184,212721,5,6,0:0:0:0:
360,232,221448,5,8,0:0:0:0:
184,192,221994,1,0,0:0:0:0:
272,184,222539,1,0,0:0:0:0:
152,144,222903,5,2,0:0:0:0:
312,256,223085,2,0,L|320:136,1,115.50000352478,8|8,0:0|0:0,0:0:0:0:
160,144,223448,2,0,L|96:144,1,57.7500017623902,8|8,0:0|0:0,0:0:0:0:
304,296,223630,5,10,0:0:0:0:
368,296,223721,1,8,0:0:0:0:
408,280,223812,1,8,0:0:0:0:
432,248,223903,1,8,0:0:0:0:
440,216,223994,2,0,L|432:40,1,173.250005287171,8|0,0:0|0:0,0:0:0:0:
112,80,224358,6,0,L|104:144,1,62.9999980773926,6|0,0:0|0:0,0:0:0:0:
200,104,224539,2,0,L|304:104,1,62.9999980773926,8|0,0:0|0:0,0:0:0:0:
168,72,224721,2,0,L|104:72,1,62.9999980773926,2|0,0:0|0:0,0:0:0:0:
8,88,224903,2,0,L|80:88,1,62.9999980773926,8|0,0:0|0:0,0:0:0:0:
288,200,225085,6,0,L|280:136,1,62.9999980773926,2|0,0:0|0:0,0:0:0:0:
184,160,225267,2,0,L|176:96,1,62.9999980773926,8|0,0:0|0:0,0:0:0:0:
392,80,225448,2,0,L|456:80,1,62.9999980773926,2|0,0:0|0:0,0:0:0:0:
232,64,225630,2,0,L|160:64,1,62.9999980773926,8|0,0:0|0:0,0:0:0:0:
392,224,225812,6,0,L|400:160,1,62.9999980773926,2|0,0:0|0:0,0:0:0:0:
304,152,225994,2,0,L|256:104,1,62.9999980773926,8|0,0:0|0:0,0:0:0:0:
168,96,226176,2,0,L|248:96,1,62.9999980773926,2|0,0:0|0:0,0:0:0:0:
328,96,226358,2,0,L|392:96,1,62.9999980773926,8|0,0:0|0:0,0:0:0:0:
176,176,226539,5,2,0:0:0:0:
112,176,226630,1,0,0:0:0:0:
80,176,226721,2,0,L|72:112,1,62.9999980773926,8|0,0:0|0:0,0:0:0:0:
296,104,226903,2,0,L|368:104,1,62.9999980773926,2|0,0:0|0:0,0:0:0:0:
136,96,227085,2,0,L|72:96,1,62.9999980773926,8|0,0:0|0:0,0:0:0:0:
336,160,227267,6,0,L|232:160,1,62.9999980773926,2|0,0:0|0:0,0:0:0:0:
176,152,227449,2,0,L|280:152,1,62.9999980773926,8|0,0:0|0:0,0:0:0:0:
336,136,227630,2,0,L|344:72,1,62.9999980773926,2|0,0:0|0:0,0:0:0:0:
152,136,227812,6,0,L|160:72,1,62.9999980773926,8|0,0:0|0:0,0:0:0:0:
256,80,227994,2,0,L|328:80,1,62.9999980773926,2|0,0:0|0:0,0:0:0:0:
128,232,228176,2,0,L|64:232,1,62.9999980773926,8|0,0:0|0:0,0:0:0:0:
160,192,228358,2,0,L|168:128,1,62.9999980773926,2|0,0:0|0:0,0:0:0:0:
72,160,228539,2,0,L|80:96,1,62.9999980773926,8|0,0:0|0:0,0:0:0:0:
336,200,228721,6,0,L|424:200,1,62.9999980773926,2|0,0:0|0:0,0:0:0:0:
304,160,228903,2,0,L|296:96,1,62.9999980773926,8|0,0:0|0:0,0:0:0:0:
384,112,229085,1,2,0:0:0:0:
456,112,229176,2,0,L|488:48,2,62.9999980773926,0|8|0,0:0|0:0|0:0,0:0:0:0:
200,88,229448,6,0,L|72:88,1,125.999996154785,6|8,0:0|0:0,0:0:0:0:
232,56,229721,1,8,0:0:0:0:
384,56,229812,2,0,L|456:56,1,62.9999980773926,8|8,0:0|0:0,0:0:0:0:
224,48,229994,2,0,L|160:48,1,62.9999980773926,8|8,0:0|0:0,0:0:0:0:
432,224,230176,6,0,B|480:176|480:176|432:128,1,125.999996154785,4|8,0:0|0:0,0:0:0:0:
280,176,230539,2,0,B|232:128|232:128|280:80,1,125.999996154785,0|8,0:0|0:0,0:0:0:0:
432,80,230903,2,0,L|304:80,1,125.999996154785,0|8,0:0|0:0,0:0:0:0:
152,96,231267,1,0,0:0:0:0:
304,96,231448,1,8,0:0:0:0:
64,216,231630,6,0,B|16:168|16:168|64:120,1,125.999996154785,4|8,0:0|0:0,0:0:0:0:
216,192,231994,2,0,L|224:64,1,125.999996154785,0|8,0:0|0:0,0:0:0:0:
384,176,232358,2,0,L|376:48,1,125.999996154785,0|8,0:0|0:0,0:0:0:0:
136,120,232721,2,0,L|8:120,1,125.999996154785,0|8,0:0|0:0,0:0:0:0:
304,136,233085,6,0,L|440:136,1,125.999996154785,4|8,0:0|0:0,0:0:0:0:
192,104,233448,1,0,0:0:0:0:
432,160,233630,1,8,0:0:0:0:
360,112,233812,1,0,0:0:0:0:
240,112,233994,1,8,0:0:0:0:
480,80,234176,2,0,L|352:80,1,125.999996154785,0|8,0:0|0:0,0:0:0:0:
112,152,234539,6,0,L|248:152,2,125.999996154785,4|8|0,0:0|0:0|0:0,0:0:0:0:
352,112,235085,1,8,0:0:0:0:
112,136,235267,2,0,B|64:88|64:88|112:40,1,125.999996154785,0|8,0:0|0:0,0:0:0:0:
264,48,235539,1,8,0:0:0:0:
424,48,235630,2,0,L|336:48,1,62.9999980773926,8|8,0:0|0:0,0:0:0:0:
160,40,235812,2,0,L|96:40,1,62.9999980773926,8|8,0:0|0:0,0:0:0:0:
360,256,235994,6,0,P|408:208|408:160,1,115.50000352478,4|8,0:0|0:0,0:0:0:0:
256,224,236358,2,0,P|208:176|208:128,1,115.50000352478,0|8,0:0|0:0,0:0:0:0:
360,96,236721,2,0,L|232:96,1,115.50000352478,0|8,0:0|0:0,0:0:0:0:
88,104,237085,2,0,L|80:40,1,57.7500017623902
160,56,237267,1,8,0:0:0:0:
400,176,237448,6,0,L|408:56,1,115.50000352478,4|8,0:0|0:0,0:0:0:0:
248,80,237812,2,0,L|392:80,1,115.50000352478,0|8,0:0|0:0,0:0:0:0:
208,152,238176,2,0,L|88:152,1,115.50000352478,0|8,0:0|0:0,0:0:0:0:
248,144,238539,2,0,L|200:96,1,57.7500017623902
128,88,238721,1,8,0:0:0:0:
368,80,238903,5,4,0:0:0:0:
256,80,239085,2,0,L|248:208,1,115.50000352478,8|0,0:0|0:0,0:0:0:0:
416,80,239448,2,0,L|424:200,1,115.50000352478,8|0,0:0|0:0,0:0:0:0:
256,80,239812,2,0,L|384:80,1,115.50000352478,8|0,0:0|0:0,0:0:0:0:
384,64,240085,1,0,0:0:0:0:
392,48,240176,1,8,0:0:0:0:
120,256,240358,6,0,L|112:136,1,115.50000352478,4|8,0:0|0:0,0:0:0:0:
272,176,240721,2,0,L|280:56,1,115.50000352478,0|8,0:0|0:0,0:0:0:0:
440,112,241085,2,0,L|320:112,1,115.50000352478,0|8,0:0|0:0,0:0:0:0:
480,168,241448,2,0,L|488:104,1,57.7500017623902
408,112,241630,1,8,0:0:0:0:
144,120,241812,6,0,L|24:120,1,115.50000352478,4|8,0:0|0:0,0:0:0:0:
152,112,242176,1,0,0:0:0:0:
320,80,242358,2,0,L|200:80,1,115.50000352478,8|0,0:0|0:0,0:0:0:0:
328,72,242722,1,8,0:0:0:0:
488,72,242903,2,0,L|368:72,1,115.50000352478,0|8,0:0|0:0,0:0:0:0:
128,120,243267,6,0,L|248:120,1,115.50000352478,4|8,0:0|0:0,0:0:0:0:
120,112,243631,1,0,0:0:0:0:
368,144,243812,1,8,0:0:0:0:
296,96,243994,1,0,0:0:0:0:
176,96,244176,1,8,0:0:0:0:
424,176,244358,2,0,B|472:128|472:128|432:88,1,115.50000352478,0|8,0:0|0:0,0:0:0:0:
184,176,244721,6,0,L|64:176,1,115.50000352478,4|8,0:0|0:0,0:0:0:0:
232,128,245085,1,0,0:0:0:0:
240,120,245176,1,0,0:0:0:0:
248,112,245267,1,8,0:0:0:0:
88,96,245448,2,0,L|224:96,1,115.50000352478,0|8,0:0|0:0,0:0:0:0:
48,112,245812,1,0,0:0:0:0:
40,104,245903,1,0,0:0:0:0:
32,96,245994,1,8,0:0:0:0:
272,160,246176,6,0,L|392:160,1,115.50000352478,4|8,0:0|0:0,0:0:0:0:
232,104,246539,2,0,L|168:104,1,57.7500017623902
240,96,246721,1,8,0:0:0:0:
480,96,246903,2,0,L|352:96,1,115.50000352478,0|8,0:0|0:0,0:0:0:0:
120,112,247267,1,8,0:0:0:0:
360,120,247448,1,8,0:0:0:0:
72,224,247630,6,0,L|64:104,1,115.50000352478,4|8,0:0|0:0,0:0:0:0:
224,192,247994,2,0,L|232:72,1,115.50000352478,0|8,0:0|0:0,0:0:0:0:
392,80,248358,2,0,L|384:200,1,115.50000352478,0|8,0:0|0:0,0:0:0:0:
224,104,248721,2,0,L|144:104,1,57.7500017623902
232,96,248903,1,8,0:0:0:0:
472,128,249085,6,0,L|352:128,1,115.50000352478,4|8,0:0|0:0,0:0:0:0:
200,168,249448,2,0,L|336:168,1,115.50000352478,0|8,0:0|0:0,0:0:0:0:
160,224,249812,2,0,L|152:104,1,115.50000352478,0|8,0:0|0:0,0:0:0:0:
312,112,250176,1,0,0:0:0:0:
392,112,250267,2,0,L|384:48,1,57.7500017623902,0|8,0:0|0:0,0:0:0:0:
144,200,250539,6,0,L|280:200,2,115.50000352478,4|8|0,0:0|0:0|0:0,0:0:0:0:
304,152,251085,2,0,L|312:32,1,115.50000352478,8|0,0:0|0:0,0:0:0:0:
152,144,251448,2,0,L|160:24,1,115.50000352478,8|0,0:0|0:0,0:0:0:0:
224,64,251721,1,0,0:0:0:0:
288,64,251812,1,8,0:0:0:0:
48,216,251994,6,0,L|40:96,1,115.50000352478,4|8,0:0|0:0,0:0:0:0:
192,104,252358,1,0,0:0:0:0:
40,112,252539,1,8,0:0:0:0:
280,200,252721,2,0,L|408:200,1,115.50000352478,0|8,0:0|0:0,0:0:0:0:
240,136,253085,1,0,0:0:0:0:
392,144,253267,1,8,0:0:0:0:
120,208,253448,6,0,L|112:144,1,57.7500017623902,4|0,0:0|0:0,0:0:0:0:
200,152,253630,2,0,L|264:152,1,57.7500017623902,8|0,0:0|0:0,0:0:0:0:
344,192,253812,2,0,L|352:128,1,57.7500017623902
264,136,253994,2,0,L|200:136,1,57.7500017623902,8|0,0:0|0:0,0:0:0:0:
384,136,254176,5,0,0:0:0:0:
456,136,254267,2,0,L|488:72,2,57.7500017623902,0|8|0,0:0|0:0|0:0,0:0:0:0:
280,72,254539,2,0,L|216:72,1,57.7500017623902
400,72,254721,2,0,L|464:72,1,57.7500017623902,8|0,0:0|0:0,0:0:0:0:
224,208,254903,6,0,L|216:144,1,57.7500017623902
304,152,255085,2,0,L|296:88,1,57.7500017623902,8|0,0:0|0:0,0:0:0:0:
208,88,255267,2,0,L|144:88,1,57.7500017623902
64,88,255448,2,0,L|136:88,1,57.7500017623902,8|0,0:0|0:0,0:0:0:0:
304,88,255630,6,0,L|368:88,1,57.7500017623902
448,88,255812,2,0,L|376:88,1,57.7500017623902,8|0,0:0|0:0,0:0:0:0:
208,112,255994,2,0,L|136:112,1,57.7500017623902
328,120,256176,2,0,L|392:120,1,57.7500017623902,8|0,0:0|0:0,0:0:0:0:
152,224,256358,6,0,L|144:160,1,57.7500017623902
232,168,256539,2,0,L|312:168,1,57.7500017623902,8|0,0:0|0:0,0:0:0:0:
200,144,256721,2,0,L|136:144,1,57.7500017623902
56,144,256903,2,0,L|120:144,1,57.7500017623902,8|0,0:0|0:0,0:0:0:0:
296,112,257085,6,0,L|304:48,1,57.7500017623902
216,88,257267,2,0,L|224:152,1,57.7500017623902,8|0,0:0|0:0,0:0:0:0:
400,120,257448,2,0,L|336:120,1,57.7500017623902
160,112,257630,2,0,L|232:112,1,57.7500017623902,8|0,0:0|0:0,0:0:0:0:
424,240,257812,6,0,P|472:192|472:144,1,115.50000352478,4|8,0:0|0:0,0:0:0:0:
320,144,258085,1,8,0:0:0:0:
168,144,258176,2,0,L|160:80,1,57.7500017623902,8|8,0:0|0:0,0:0:0:0:
360,96,258358,2,0,L|432:96,1,57.7500017623902,8|8,0:0|0:0,0:0:0:0:
224,208,258539,6,0,L|232:144,1,57.7500017623902
320,144,258721,2,0,L|328:80,1,57.7500017623902
240,88,258903,2,0,L|320:88,1,57.7500017623902
384,88,259085,2,0,L|448:88,1,57.7500017623902
264,176,259267,5,4,0:0:0:0:
256,192,259630,12,0,261812,0:0:0:0:
248,200,262176,5,4,0:0:0:0:
256,192,262539,12,0,264721,0:0:0:0:
336,112,265085,5,8,0:0:0:0:
176,272,265267,1,8,0:0:0:0:
304,152,267267,6,0,L|312:96,1,52.5,10|8,0:0|0:0,0:0:0:0:
112,128,267448,2,0,L|168:128,1,52.5,8|8,0:0|0:0,0:0:0:0:
360,200,267630,1,2,0:0:0:0:
424,200,267721,1,0,0:0:0:0:
448,200,267812,2,0,L|440:144,1,52.5
240,304,267994,6,0,P|248:56|256:304,1,735,4|0,0:0|0:0,0:0:0:0:
40,224,269448,6,0,L|48:120,1,105,4|0,0:0|0:0,0:0:0:0:
200,136,269812,2,0,L|304:136,1,105,2|0,0:0|0:0,0:0:0:0:
224,80,270085,1,0,0:0:0:0:
144,208,270176,2,0,L|136:104,1,105,2|0,0:0|0:0,0:0:0:0:
288,120,270539,2,0,L|184:120,1,105,2|0,0:0|0:0,0:0:0:0:
432,96,270903,5,2,0:0:0:0:
344,96,271085,1,0,0:0:0:0:
440,96,271267,1,0,0:0:0:0:
152,96,271448,1,4,0:0:0:0:
312,160,271812,5,2,0:0:0:0:
184,160,271994,1,0,0:0:0:0:
472,200,272176,1,4,0:0:0:0:
256,192,272358,12,0,276721,0:0:0:0:
