osu file format v14

[General]
AudioFilename: audio.mp3
AudioLeadIn: 0
PreviewTime: 227587
Countdown: 0
SampleSet: Soft
StackLeniency: 0.7
Mode: 2
LetterboxInBreaks: 0
WidescreenStoryboard: 1

[Editor]
Bookmarks: 36316,82944,124087,135059,155630,181687,203630,228316,239287,269459,280430
DistanceSpacing: 2.5
BeatDivisor: 6
GridSize: 8
TimelineZoom: 1.6

[Metadata]
Title:Headless Goddess
TitleUnicode:Headless Goddess
Artist:FATE GEAR
ArtistUnicode:FATE GEAR
Creator:Secre
Version:Untouched Dream
Source:
Tags:chickenbible -luminate japanese rock heavy metal j-rock jrock NANA NINO Haruka Taichou Captain Mina隊長 Yuri Destrose featured artist fa mappers' guild mg mpg power female vocal
BeatmapID:3336413
BeatmapSetID:1634659

[Difficulty]
HPDrainRate:5
CircleSize:3.8
OverallDifficulty:9.5
ApproachRate:9.5
SliderMultiplier:1.97
SliderTickRate:2

[Events]
//Background and Video events
0,0,"alternate universe ayame.jpg",0,0
//Break Periods
//Storyboard Layer 0 (Background)
//Storyboard Layer 1 (Fail)
//Storyboard Layer 2 (Pass)
//Storyboard Layer 3 (Foreground)
//Storyboard Layer 4 (Overlay)
//Storyboard Sound Samples

[TimingPoints]
659,342.857142857143,4,2,1,65,1,0
659,-90.9090909090909,4,2,1,65,0,0
11630,-90.9090909090909,4,2,1,75,0,0
22601,-90.9090909090909,4,2,1,80,0,0
33573,-90.9090909090909,4,2,0,50,0,0
34944,-90.9090909090909,4,2,1,70,0,0
36316,-90.9090909090909,4,2,1,70,0,0
58259,-90.9090909090909,4,2,1,75,0,0
80201,-80,4,2,1,78,0,0
81659,-80,4,2,0,55,0,0
82944,-83.3333333333333,4,2,1,80,0,1
124087,-90.9090909090909,4,2,1,70,0,0
135059,-90.9090909090909,4,2,1,80,0,0
155973,-90.9090909090909,4,2,1,70,0,0
167973,-90.9090909090909,4,2,1,80,0,0
176373,-90.9090909090909,4,2,1,55,0,0
177573,-90.9090909090909,4,2,1,70,0,0
177744,-90.9090909090909,4,2,1,55,0,0
178944,-90.9090909090909,4,2,1,66,0,0
179116,-90.9090909090909,4,2,1,55,0,0
180316,-90.9090909090909,4,2,1,65,0,0
181687,-90.9090909090909,4,2,1,60,0,0
200887,-90.9090909090909,4,2,1,70,0,0
203630,-90.9090909090909,4,2,1,75,0,0
225573,-83.3333333333333,4,2,1,78,0,0
226944,-83.3333333333333,4,2,0,55,0,0
228316,-90.9090909090909,4,2,1,75,0,0
239287,-83.3333333333333,4,2,1,80,0,1
269459,-90.9090909090909,4,2,1,70,0,1
270830,-90.9090909090909,4,2,1,70,0,0
272201,-90.9090909090909,4,2,1,70,0,1
273573,-90.9090909090909,4,2,1,70,0,0
275459,-90.9090909090909,4,2,1,70,0,0
276316,-90.9090909090909,4,2,1,70,0,0
277687,-80,4,2,1,75,0,0
280430,-90.9090909090909,4,2,1,75,0,0
291401,-90.9090909090909,4,2,1,75,0,0
303659,-90.9090909090909,4,2,1,5,0,0
303744,-90.9090909090909,4,2,1,75,0,0
305459,-90.9090909090909,4,2,1,75,0,0
305630,-90.9090909090909,4,2,1,50,0,0
307859,-90.9090909090909,4,2,1,35,0,0
309230,-90.9090909090909,4,2,1,20,0,0
310601,-90.9090909090909,4,2,1,10,0,0
311716,-90.9090909090909,4,2,0,5,0,0

[Colours]
Combo1 : 252,56,179
Combo2 : 247,111,114
Combo3 : 187,57,61
Combo4 : 134,191,249
Combo5 : 242,36,36

[HitObjects]
291,282,659,6,0,P|343:252|286:179,1,162.52500495987,14|8,0:0|0:0,0:0:0:0:
105,143,1001,1,8,0:1:0:0:
350,229,1173,2,0,L|156:228,1,162.52500495987,14|0,0:0|0:0,0:0:0:0:
376,131,1516,2,8,L|382:204,1,54.1750016532898
162,250,1687,2,0,P|113:222|184:163,1,162.52500495987,14|0,0:0|0:0,0:0:0:0:
323,175,2030,5,8,0:1:0:0:
392,173,2116,1,8,0:1:0:0:
323,175,2201,1,8,0:1:0:0:
254,178,2287,1,8,0:0:0:0:
438,270,2373,1,8,0:3:0:0:
487,257,2458,1,8,0:3:0:0:
490,207,2544,1,8,0:0:0:0:
443,188,2630,1,8,0:0:0:0:
242,289,2716,5,4,0:3:0:0:
241,216,2801,1,4,0:3:0:0:
295,156,2887,1,0,0:0:0:0:
361,147,2973,1,0,0:0:0:0:
144,153,3059,2,4,L|52:154,2,54.1750016532898,4|4|4,0:3|0:3|0:3,0:3:0:0:
416,245,3401,6,0,L|215:243,1,162.52500495987,14|8,0:0|0:0,0:0:0:0:
59,162,3744,1,8,0:1:0:0:
312,103,3916,2,0,P|373:140|316:172,1,162.52500495987,14|8,0:0|0:0,0:0:0:0:
125,193,4259,1,8,0:1:0:0:
379,118,4430,2,0,P|436:141|378:192,1,162.52500495987,14|0,0:0|0:0,0:0:0:0:
181,101,4773,5,8,0:1:0:0:
118,103,4859,1,8,0:1:0:0:
181,101,4944,1,8,0:1:0:0:
249,101,5030,1,8,0:1:0:0:
91,240,5116,1,8,0:3:0:0:
32,221,5201,1,8,0:3:0:0:
32,160,5287,1,8,0:3:0:0:
88,140,5373,1,0,0:0:0:0:
303,215,5459,5,4,0:3:0:0:
231,215,5544,1,4,0:3:0:0:
161,215,5630,1,4,0:3:0:0:
91,215,5716,1,0,0:0:0:0:
306,282,5801,1,8,0:0:0:0:
305,228,5886,1,8,0:0:0:0:
252,187,5972,1,8,0:0:0:0:
196,174,6058,1,8,0:0:0:0:
421,237,6144,6,0,L|433:38,1,162.52500495987,14|8,0:0|0:0,0:0:0:0:
227,83,6487,1,8,0:1:0:0:
471,68,6659,2,0,L|479:277,1,162.52500495987,14|8,0:0|0:0,0:0:0:0:
265,262,7001,2,0,L|171:264,1,54.1750016532898,8|8,0:1|0:0,0:0:0:0:
407,301,7173,2,0,P|458:275|400:211,1,162.52500495987,14|8,0:0|0:0,0:0:0:0:
174,144,7516,5,8,0:0:0:0:
331,125,7687,1,8,0:1:0:0:
74,111,7859,1,8,0:1:0:0:
331,125,8030,1,8,0:1:0:0:
276,124,8115,1,8,0:1:0:0:
222,124,8201,5,8,0:1:0:0:
168,124,8287,1,8,0:1:0:0:
222,124,8373,2,8,L|300:126,1,54.1750016532898,8|8,0:3|0:3,0:3:0:0:
222,124,8544,2,8,L|167:124,1,54.1750016532898,8|8,0:3|0:3,0:3:0:0:
345,247,8716,2,4,L|423:247,1,54.1750016532898,4|4,0:3|0:3,0:3:0:0:
176,263,8887,6,0,P|119:237|194:195,1,162.52500495987,14|8,0:0|0:0,0:0:0:0:
339,156,9230,1,8,0:1:0:0:
106,173,9401,2,8,L|309:172,1,162.52500495987,14|0,0:0|0:0,0:0:0:0:
449,129,9744,1,8,0:0:0:0:
149,96,9916,5,12,0:0:0:0:
256,192,10259,12,4,11287,0:3:0:0:
132,235,11630,6,0,L|119:101,1,108.35000330658,14|0,0:0|0:0,0:0:0:0:
399,113,11973,2,0,L|345:112,1,54.1750016532898,8|0,0:1|0:0,0:0:0:0:
242,172,12144,2,0,L|316:169,1,54.1750016532898,8|0,0:0|0:0,0:0:0:0:
399,113,12316,2,0,L|345:112,1,54.1750016532898,8|0,0:1|0:0,0:0:0:0:
242,172,12487,2,0,L|316:169,1,54.1750016532898,8|0,0:0|0:0,0:0:0:0:
399,113,12659,2,0,L|345:112,1,54.1750016532898,8|0,0:1|0:0,0:0:0:0:
242,172,12830,2,0,L|316:169,1,54.1750016532898,8|0,0:0|0:0,0:0:0:0:
479,237,13001,6,0,L|328:237,1,108.35000330658,8|0,0:1|0:0,0:0:0:0:
85,171,13344,1,8,0:1:0:0:
389,211,13516,2,0,L|228:207,1,108.35000330658,10|8,0:0|0:1,0:0:0:0:
40,117,13859,2,0,L|160:118,2,108.35000330658,10|12|8,0:0|0:1|0:0,0:0:0:0:
316,163,14373,6,0,L|469:164,1,108.35000330658,14|0,0:0|0:0,0:0:0:0:
113,113,14716,2,0,L|167:112,1,54.1750016532898,8|0,0:1|0:0,0:0:0:0:
270,172,14887,2,0,L|196:169,1,54.1750016532898,8|0,0:0|0:0,0:0:0:0:
113,113,15059,2,0,L|167:112,1,54.1750016532898,8|0,0:1|0:0,0:0:0:0:
270,172,15230,2,0,L|196:169,1,54.1750016532898,8|0,0:0|0:0,0:0:0:0:
113,113,15402,2,0,L|167:112,1,54.1750016532898,8|0,0:1|0:0,0:0:0:0:
270,172,15573,2,0,L|196:169,1,54.1750016532898,8|0,0:0|0:0,0:0:0:0:
25,205,15744,6,0,L|166:204,1,108.35000330658,8|0,0:1|0:0,0:0:0:0:
392,178,16087,1,8,0:1:0:0:
121,269,16259,1,10,0:0:0:0:
276,272,16430,1,2,0:0:0:0:
121,269,16601,1,8,0:0:0:0:
179,155,16687,1,8,0:0:0:0:
349,108,16773,2,8,L|427:109,1,54.1750016532898,8|8,0:3|0:3,0:3:0:0:
250,68,16944,2,4,L|175:68,1,54.1750016532898,4|4,0:3|0:3,0:3:0:0:
426,143,17116,6,0,L|431:276,1,108.35000330658,14|0,0:0|0:0,0:0:0:0:
163,250,17459,2,0,L|157:175,1,54.1750016532898,8|0,0:1|0:0,0:0:0:0:
266,167,17630,2,0,L|271:103,1,54.1750016532898,8|0,0:0|0:0,0:0:0:0:
163,250,17801,2,0,L|157:175,1,54.1750016532898,8|0,0:1|0:0,0:0:0:0:
266,167,17973,2,0,L|271:103,1,54.1750016532898,8|0,0:0|0:0,0:0:0:0:
163,250,18144,2,0,L|157:175,1,54.1750016532898,8|0,0:1|0:0,0:0:0:0:
266,167,18316,2,0,L|271:103,1,54.1750016532898,8|0,0:0|0:0,0:0:0:0:
46,135,18487,6,0,L|170:138,1,108.35000330658,8|0,0:1|0:0,0:0:0:0:
437,167,18830,1,8,0:1:0:0:
173,248,19001,2,0,L|426:252,1,216.700006613159,2|2,0:0|0:0,0:0:0:0:
156,138,19516,2,0,L|33:138,1,108.35000330658,12|0,0:1|0:0,0:0:0:0:
323,146,19859,6,8,L|416:146,2,54.1750016532898,14|8|8,0:0|0:0|0:0,0:0:0:0:
150,185,20116,1,8,0:0:0:0:
323,146,20201,2,0,L|331:63,1,54.1750016532898,8|0,0:1|0:0,0:0:0:0:
226,73,20373,2,0,L|216:-11,1,54.1750016532898,8|0,0:1|0:0,0:0:0:0:
429,70,20544,6,8,L|435:-14,1,54.1750016532898,8|8,0:1|0:1,0:1:0:0:
332,53,20716,2,8,L|325:-12,1,54.1750016532898,8|8,0:1|0:1,0:1:0:0:
492,181,20887,2,8,L|401:181,1,54.1750016532898,8|8,0:3|0:3,0:3:0:0:
227,157,21059,2,8,L|150:153,1,54.1750016532898,8|8,0:3|0:3,0:3:0:0:
396,115,21230,5,4,0:3:0:0:
459,134,21315,1,4,0:3:0:0:
460,200,21401,1,4,0:3:0:0:
396,226,21487,1,4,0:3:0:0:
218,230,21573,2,8,L|134:226,1,54.1750016532898
349,300,21744,2,8,L|425:303,1,54.1750016532898
151,283,21916,6,0,P|98:261|168:199,1,162.52500495987,14|0,0:0|0:0,0:0:0:0:
331,127,22259,2,8,L|409:129,1,54.1750016532898,8|8,0:1|0:1,0:1:0:0:
177,52,22430,2,8,L|104:56,1,54.1750016532898,8|8,0:1|0:1,0:1:0:0:
374,51,22601,6,0,L|383:122,1,54.1750016532898,14|0,0:0|0:0,0:0:0:0:
193,254,22773,1,10,0:1:0:0:
202,180,22858,1,0,0:0:0:0:
256,130,22944,1,8,0:0:0:0:
331,127,23030,1,8,0:0:0:0:
103,191,23116,5,10,0:1:0:0:
41,165,23201,1,0,0:0:0:0:
42,98,23287,1,8,0:0:0:0:
103,74,23373,1,8,0:0:0:0:
306,197,23459,2,0,L|377:197,1,54.1750016532898,10|0,0:1|0:0,0:0:0:0:
259,265,23630,2,8,L|166:266,1,54.1750016532898
306,197,23801,2,0,L|377:197,1,54.1750016532898,10|0,0:1|0:0,0:0:0:0:
133,123,23973,6,0,L|16:125,1,108.35000330658,10|10,0:0|0:1,0:0:0:0:
299,124,24316,2,0,L|385:125,1,54.1750016532898,8|8,0:0|0:0,0:0:0:0:
116,235,24487,2,0,P|65:204|136:153,1,162.52500495987,10|0,0:1|0:0,0:0:0:0:
303,70,24830,2,0,L|311:149,1,54.1750016532898,10|0,0:1|0:0,0:0:0:0:
208,154,25001,2,0,L|199:86,1,54.1750016532898,8|8,0:0|0:0,0:0:0:0:
303,70,25173,2,0,L|311:149,1,54.1750016532898,10|0,0:1|0:0,0:0:0:0:
61,219,25344,6,0,L|148:211,1,54.1750016532898,14|0,0:0|0:0,0:0:0:0:
316,194,25516,2,8,L|325:267,1,54.1750016532898,8|8,0:1|0:0,0:0:0:0:
222,258,25687,2,8,L|214:179,1,54.1750016532898,10|8,0:0|0:0,0:0:0:0:
426,169,25859,2,8,L|334:168,1,54.1750016532898,8|8,0:1|0:0,0:0:0:0:
276,132,26030,6,8,L|368:131,1,54.1750016532898,10|8,0:0|0:0,0:0:0:0:
426,169,26201,2,8,L|334:168,1,54.1750016532898,8|8,0:1|0:0,0:0:0:0:
276,132,26373,2,8,L|368:131,1,54.1750016532898,10|8,0:0|0:0,0:0:0:0:
484,235,26544,2,8,L|421:235,1,54.1750016532898,8|8,0:1|0:0,0:0:0:0:
216,185,26716,6,0,L|85:183,1,108.35000330658,10|8,0:0|0:1,0:0:0:0:
387,119,27059,2,8,L|299:121,1,54.1750016532898
93,250,27230,2,0,P|32:226|109:140,1,216.700006613159,8|8,0:1|0:1,0:0:0:0:
337,171,27744,1,8,0:0:0:0:
253,170,27830,1,8,0:0:0:0:
169,167,27916,1,8,0:1:0:0:
451,219,28087,6,0,L|364:211,1,54.1750016532898,14|0,0:0|0:0,0:0:0:0:
196,194,28259,2,8,L|187:267,1,54.1750016532898,8|8,0:1|0:0,0:0:0:0:
290,258,28430,2,8,L|298:179,1,54.1750016532898,10|8,0:0|0:0,0:0:0:0:
86,169,28602,2,8,L|178:168,1,54.1750016532898,8|8,0:1|0:0,0:0:0:0:
236,132,28773,6,8,L|144:131,1,54.1750016532898,10|8,0:0|0:0,0:0:0:0:
86,169,28944,2,8,L|178:168,1,54.1750016532898,8|8,0:1|0:0,0:0:0:0:
236,132,29115,2,8,L|144:131,1,54.1750016532898,10|8,0:0|0:0,0:0:0:0:
28,235,29287,2,8,L|91:235,1,54.1750016532898,8|8,0:1|0:0,0:0:0:0:
296,185,29459,6,0,L|427:183,1,108.35000330658,14|8,0:0|0:1,0:0:0:0:
154,106,29801,2,8,L|49:108,1,54.1750016532898
363,227,29973,2,0,P|414:197|343:142,1,162.52500495987,12|0,0:1|0:0,0:0:0:0:
202,73,30316,2,0,L|132:74,1,54.1750016532898,8|0,0:1|0:0,0:0:0:0:
334,58,30487,2,0,L|395:59,1,54.1750016532898,10|0,0:0|0:0,0:0:0:0:
174,129,30659,2,0,L|101:131,1,54.1750016532898,8|0,0:1|0:0,0:0:0:0:
364,214,30830,6,0,P|415:190|340:133,1,162.52500495987,14|8,0:0|0:0,0:0:0:0:
215,101,31173,1,8,0:1:0:0:
56,104,31259,1,8,0:1:0:0:
215,101,31344,2,8,L|306:100,1,54.1750016532898
168,179,31516,6,8,L|97:179,1,54.1750016532898,8|8,0:3|0:3,0:3:0:0:
215,101,31687,2,8,L|306:100,1,54.1750016532898,8|8,0:3|0:3,0:3:0:0:
168,179,31859,2,4,L|97:179,1,54.1750016532898,4|4,0:3|0:3,0:3:0:0:
215,101,32030,2,4,L|306:100,1,54.1750016532898,4|4,0:3|0:3,0:3:0:0:
92,99,32201,6,0,L|25:101,1,54.1750016532898,14|0,0:0|0:0,0:0:0:0:
287,224,32373,2,0,L|371:222,1,54.1750016532898,2|0,0:0|0:0,0:0:0:0:
240,173,32544,2,0,L|164:172,1,54.1750016532898,8|0,0:1|0:0,0:0:0:0:
400,257,32716,5,12,0:0:0:0:
455,233,32801,1,8,0:3:0:0:
485,181,32887,1,4,0:3:0:0:
476,121,32973,1,4,0:3:0:0:
432,80,33058,1,8,0:0:0:0:
372,74,33144,1,8,0:0:0:0:
171,129,33230,6,8,L|82:130,1,54.1750016532898
325,157,33401,2,8,L|411:160,1,54.1750016532898
181,234,33573,6,0,P|129:209|210:120,1,216.700006613159,4|2,0:0|0:0,0:0:0:0:
365,253,34087,2,0,L|131:252,1,216.700006613159,2|0,0:0|0:0,0:0:0:0:
313,183,34601,2,0,L|425:183,1,108.35000330658,2|2,0:0|0:0,0:0:0:0:
148,134,34944,5,8,0:1:0:0:
221,125,35030,1,8,0:1:0:0:
295,118,35116,1,8,0:1:0:0:
369,112,35201,1,8,0:1:0:0:
156,197,35287,2,8,L|67:190,1,54.1750016532898,8|8,0:3|0:3,0:3:0:0:
201,255,35459,2,8,L|270:254,1,54.1750016532898,8|8,0:3|0:3,0:3:0:0:
64,185,35630,6,4,L|51:122,1,54.1750016532898,4|4,0:3|0:3,0:3:0:0:
257,79,35801,2,4,L|316:78,1,54.1750016532898,4|4,0:3|0:3,0:3:0:0:
92,79,35973,2,0,L|231:81,1,108.35000330658,14|0,0:0|0:0,0:0:0:0:
473,105,36316,5,14,0:0:0:0:
473,159,36401,1,0,0:0:0:0:
473,213,36487,1,8,0:1:0:0:
218,163,36659,1,10,0:0:0:0:
299,152,36744,1,8,0:0:0:0:
381,142,36830,1,8,0:1:0:0:
125,247,37001,1,10,0:0:0:0:
290,254,37173,1,8,0:1:0:0:
47,188,37344,1,10,0:0:0:0:
45,133,37429,1,0,0:0:0:0:
41,67,37516,1,8,0:1:0:0:
378,166,37687,6,0,L|258:168,2,108.35000330658,10|8|10,0:0|0:1|0:0,0:0:0:0:
127,260,38201,2,0,L|358:264,1,216.700006613159,8|8,0:1|0:1,0:0:0:0:
89,181,38716,2,0,L|29:181,2,54.1750016532898,10|0|8,0:0|0:0|0:1,0:0:0:0:
386,117,39059,6,0,L|394:260,1,108.35000330658,10|8,0:0|0:1,0:0:0:0:
148,247,39401,1,10,0:0:0:0:
202,245,39486,1,8,0:0:0:0:
256,243,39572,1,8,0:1:0:0:
22,159,39744,1,10,0:0:0:0:
280,161,39916,1,8,0:1:0:0:
199,150,40001,1,0,0:0:0:0:
117,140,40087,1,10,0:0:0:0:
356,92,40259,1,8,0:1:0:0:
117,140,40430,6,0,L|103:15,1,108.35000330658,10|8,0:0|0:1,0:0:0:0:
402,47,40773,2,0,L|470:49,2,54.1750016532898,10|0|8,0:0|0:0|0:1,0:0:0:0:
170,213,41116,1,10,0:0:0:0:
251,202,41201,1,0,0:0:0:0:
333,192,41287,1,8,0:1:0:0:
83,152,41459,2,8,L|188:147,1,54.1750016532898,8|8,0:3|0:3,0:3:0:0:
326,103,41630,2,8,L|406:102,1,54.1750016532898
155,58,41801,6,0,L|33:58,1,108.35000330658,14|8,0:0|0:1,0:0:0:0:
281,83,42144,1,10,0:0:0:0:
282,138,42229,1,0,0:0:0:0:
284,191,42316,1,8,0:1:0:0:
32,125,42487,1,10,0:0:0:0:
310,189,42659,1,8,0:1:0:0:
229,178,42744,1,0,0:0:0:0:
147,168,42830,1,10,0:0:0:0:
381,117,43001,1,8,0:1:0:0:
124,111,43173,6,0,L|110:-15,1,108.35000330658,10|8,0:0|0:1,0:0:0:0:
382,32,43516,2,0,L|463:32,2,54.1750016532898,10|0|8,0:0|0:0|0:1,0:0:0:0:
132,117,43859,2,0,L|7:121,1,108.35000330658,10|8,0:0|0:1,0:0:0:0:
309,226,44201,1,10,0:0:0:0:
228,215,44286,1,0,0:0:0:0:
146,205,44372,1,8,0:1:0:0:
469,179,44544,6,0,L|341:179,2,108.35000330658,14|8|10,0:0|0:1|0:0,0:0:0:0:
156,130,45059,1,8,0:1:0:0:
435,112,45230,2,0,L|443:-7,1,108.35000330658,10|8,0:0|0:1,0:0:0:0:
149,34,45573,2,0,L|14:36,1,108.35000330658,10|8,0:0|0:1,0:0:0:0:
352,61,45916,6,0,P|403:87|328:149,1,162.52500495987,14|8,0:0|0:0,0:0:0:0:
161,166,46259,2,0,L|30:163,1,108.35000330658,8|8,0:1|0:1,0:0:0:0:
303,229,46601,1,8,0:3:0:0:
383,228,46687,1,8,0:3:0:0:
303,229,46773,1,8,0:3:0:0:
223,228,46859,1,8,0:3:0:0:
389,159,46944,1,4,0:3:0:0:
469,158,47030,1,4,0:3:0:0:
389,159,47116,1,4,0:3:0:0:
309,158,47202,1,4,0:3:0:0:
77,184,47287,6,0,L|65:42,1,108.35000330658,14|8,0:0|0:1,0:0:0:0:
300,63,47630,1,10,0:0:0:0:
245,63,47715,1,0,0:0:0:0:
191,63,47801,1,8,0:1:0:0:
441,83,47973,2,0,L|449:221,1,108.35000330658,10|8,0:0|0:1,0:0:0:0:
116,68,48316,2,0,L|101:210,1,108.35000330658,10|8,0:0|0:1,0:0:0:0:
399,233,48659,6,0,L|241:234,1,108.35000330658,10|8,0:0|0:1,0:0:0:0:
38,140,49001,2,0,L|136:141,1,54.1750016532898,10|0,0:0|0:0,0:0:0:0:
308,120,49173,2,0,L|432:121,2,108.35000330658,8|10|8,0:1|0:0|0:1,0:0:0:0:
43,185,49687,1,10,0:0:0:0:
39,130,49772,1,0,0:0:0:0:
36,76,49858,1,8,0:1:0:0:
321,119,50030,6,0,L|462:124,1,108.35000330658,10|8,0:0|0:1,0:0:0:0:
175,205,50373,2,0,L|100:203,2,54.1750016532898,10|0|8,0:0|0:0|0:1,0:0:0:0:
423,125,50716,1,10,0:0:0:0:
161,146,50887,2,0,L|154:35,1,108.35000330658,8|10,0:1|0:0,0:0:0:0:
240,27,51144,1,0,0:0:0:0:
322,28,51230,1,8,0:1:0:0:
47,228,51401,6,0,L|42:104,1,108.35000330658,10|8,0:0|0:1,0:0:0:0:
316,231,51744,1,10,0:0:0:0:
235,220,51829,1,0,0:0:0:0:
153,210,51915,1,8,0:1:0:0:
386,143,52087,2,0,L|506:145,1,108.35000330658,10|8,0:0|0:1,0:0:0:0:
200,98,52430,2,8,L|124:100,1,54.1750016532898,8|8,0:3|0:3,0:3:0:0:
319,51,52601,2,4,L|377:55,1,54.1750016532898,4|4,0:3|0:3,0:3:0:0:
166,162,52773,6,0,L|46:160,1,108.35000330658,14|8,0:0|0:1,0:0:0:0:
313,136,53116,2,0,L|322:232,1,54.1750016532898,10|0,0:0|0:0,0:0:0:0:
249,230,53287,1,8,0:1:0:0:
496,248,53459,1,10,0:0:0:0:
243,156,53630,2,0,L|94:157,1,108.35000330658,8|10,0:1|0:0,0:0:0:0:
216,89,53887,1,0,0:0:0:0:
297,88,53973,1,8,0:1:0:0:
62,211,54144,6,0,L|55:63,1,108.35000330658,10|8,0:0|0:1,0:0:0:0:
367,151,54487,2,0,L|435:156,2,54.1750016532898,10|0|8,0:0|0:0|0:1,0:0:0:0:
71,129,54830,2,0,L|187:130,1,108.35000330658,10|8,0:0|0:1,0:0:0:0:
433,238,55173,2,8,L|334:233,1,54.1750016532898
168,147,55344,2,8,L|81:144,1,54.1750016532898
367,151,55516,6,0,L|513:153,2,108.35000330658,14|8|10,0:0|0:1|0:0,0:0:0:0:
106,243,56030,1,8,0:1:0:0:
284,150,56201,1,10,0:0:0:0:
462,133,56373,1,8,0:1:0:0:
126,105,56544,2,0,L|0:109,1,108.35000330658,10|8,0:0|0:1,0:0:0:0:
343,80,56887,6,0,L|472:81,1,108.35000330658,14|0,0:0|0:0,0:0:0:0:
134,254,57230,2,0,L|131:141,1,108.35000330658,8|8,0:1|0:1,0:0:0:0:
419,169,57573,1,8,0:1:0:0:
345,166,57658,1,8,0:1:0:0:
272,164,57744,1,8,0:3:0:0:
199,162,57830,1,8,0:3:0:0:
426,291,57916,1,4,0:3:0:0:
484,278,58001,1,4,0:3:0:0:
484,219,58087,1,4,0:3:0:0:
427,201,58173,1,4,0:3:0:0:
208,97,58259,5,12,0:0:0:0:
372,68,58430,1,10,0:1:0:0:
85,105,58601,1,8,0:0:0:0:
378,66,58773,2,0,L|387:207,1,108.35000330658,10|8,0:1|0:0,0:0:0:0:
301,195,59030,1,8,0:0:0:0:
218,193,59116,1,10,0:1:0:0:
469,121,59287,1,8,0:0:0:0:
471,175,59372,1,0,0:0:0:0:
473,229,59458,1,10,0:1:0:0:
194,268,59630,6,0,L|334:263,2,108.35000330658,12|8|8,0:0|0:1|0:0,0:0:0:0:
478,168,60144,2,0,L|354:166,2,108.35000330658,8|8|8,0:1|0:0|0:1,0:0:0:0:
217,127,60659,2,0,L|62:125,1,108.35000330658,8|8,0:0|0:1,0:0:0:0:
428,170,61001,5,12,0:0:0:0:
265,164,61173,1,10,0:1:0:0:
103,142,61344,1,8,0:0:0:0:
428,170,61516,1,10,0:1:0:0:
265,164,61687,1,8,0:0:0:0:
428,170,61859,1,10,0:1:0:0:
177,132,62030,2,0,L|51:133,1,108.35000330658,8|10,0:0|0:1,0:0:0:0:
428,170,62373,5,12,0:0:0:0:
268,185,62544,1,10,0:1:0:0:
428,170,62716,1,8,0:0:0:0:
91,211,62887,1,10,0:1:0:0:
252,190,63059,1,8,0:0:0:0:
413,172,63230,1,10,0:1:0:0:
120,118,63401,2,0,L|4:120,1,108.35000330658,14|8,0:0|0:1,0:0:0:0:
71,172,63659,1,0,0:3:0:0:
317,147,63744,5,12,0:0:0:0:
479,144,63916,1,10,0:1:0:0:
317,147,64087,1,8,0:0:0:0:
46,227,64259,1,10,0:1:0:0:
205,228,64430,1,8,0:0:0:0:
46,227,64601,1,10,0:1:0:0:
371,158,64773,2,0,L|485:159,1,108.35000330658,8|10,0:0|0:1,0:0:0:0:
223,166,65116,6,8,L|340:167,1,108.35000330658,8|8,0:0|0:1,0:0:0:0:
89,108,65459,1,8,0:0:0:0:
346,85,65630,2,0,L|346:224,1,108.35000330658,8|8,0:1|0:0,0:0:0:0:
191,203,65973,1,8,0:1:0:0:
476,130,66144,2,0,L|481:284,1,108.35000330658,8|8,0:0|0:1,0:0:0:0:
186,126,66487,6,0,L|283:123,1,54.1750016532898,14|0,0:0|0:0,0:0:0:0:
341,104,66659,2,8,L|344:187,1,54.1750016532898,8|8,0:1|0:0,0:0:0:0:
245,203,66830,2,8,L|163:206,1,54.1750016532898
398,173,67001,6,8,L|482:172,1,54.1750016532898,8|8,0:1|0:0,0:0:0:0:
353,240,67173,2,8,L|286:243,1,54.1750016532898,10|8,0:0|0:0,0:0:0:0:
398,173,67344,2,8,L|482:172,1,54.1750016532898,8|8,0:1|0:0,0:0:0:0:
228,109,67516,2,8,L|141:113,1,54.1750016532898
341,54,67687,2,8,L|416:57,1,54.1750016532898,8|8,0:1|0:0,0:0:0:0:
171,323,67859,5,14,0:0:0:0:
171,236,67944,1,8,0:0:0:0:
222,160,68030,1,8,0:3:0:0:
284,101,68116,1,8,0:3:0:0:
359,72,68201,1,8,0:3:0:0:
437,77,68287,1,8,0:3:0:0:
275,175,68373,6,8,L|174:173,1,54.1750016532898,8|8,0:3|0:3,0:3:0:0:
408,260,68544,1,4,0:3:0:0:
470,239,68629,1,4,0:3:0:0:
474,173,68715,1,4,0:3:0:0:
413,147,68801,1,4,0:3:0:0:
197,98,68887,2,8,L|102:98,1,54.1750016532898
336,140,69059,2,8,L|425:141,1,54.1750016532898
212,157,69230,5,14,0:0:0:0:
50,158,69401,1,10,0:1:0:0:
212,157,69573,1,8,0:0:0:0:
475,257,69744,1,10,0:1:0:0:
312,256,69916,1,8,0:0:0:0:
475,257,70087,1,10,0:1:0:0:
169,169,70259,2,0,L|35:166,1,108.35000330658,8|10,0:0|0:1,0:0:0:0:
345,187,70601,6,0,L|231:186,2,108.35000330658,12|8|8,0:0|0:1|0:0,0:0:0:0:
76,231,71116,2,0,L|190:230,2,108.35000330658,8|8|8,0:1|0:0|0:1,0:0:0:0:
342,124,71630,2,0,L|479:126,1,108.35000330658,8|8,0:0|0:1,0:0:0:0:
111,92,71973,5,12,0:0:0:0:
272,77,72144,1,10,0:1:0:0:
435,80,72316,1,8,0:0:0:0:
111,92,72487,1,10,0:1:0:0:
272,77,72659,1,8,0:0:0:0:
111,92,72830,1,10,0:1:0:0:
386,85,73001,2,0,L|500:85,1,108.35000330658,8|10,0:0|0:1,0:0:0:0:
156,192,73344,5,8,0:0:0:0:
319,193,73516,1,10,0:1:0:0:
156,192,73687,1,8,0:0:0:0:
454,180,73859,1,10,0:1:0:0:
164,114,74030,2,8,L|26:119,1,108.35000330658,8|10,0:0|0:1,0:0:0:0:
337,75,74373,2,8,L|456:73,1,108.35000330658,8|10,0:0|0:1,0:0:0:0:
151,168,74716,5,12,0:0:0:0:
311,166,74887,1,10,0:1:0:0:
151,168,75059,1,8,0:0:0:0:
424,258,75230,1,10,0:1:0:0:
263,222,75401,1,8,0:0:0:0:
102,200,75573,1,10,0:1:0:0:
343,109,75744,2,8,L|468:109,1,108.35000330658,8|10,0:0|0:1,0:0:0:0:
164,154,76087,6,8,L|275:153,1,108.35000330658,8|8,0:0|0:1,0:0:0:0:
116,79,76430,1,8,0:0:0:0:
375,189,76601,2,8,L|264:188,1,108.35000330658,8|8,0:1|0:0,0:0:0:0:
428,99,76944,1,8,0:1:0:0:
146,130,77116,2,8,L|33:130,1,108.35000330658,8|8,0:0|0:1,0:0:0:0:
353,98,77459,6,8,L|349:244,1,108.35000330658,14|10,0:0|0:1,0:0:0:0:
85,231,77801,1,8,0:0:0:0:
381,204,77973,2,8,L|236:199,1,108.35000330658,10|8,0:1|0:0,0:0:0:0:
28,127,78316,1,10,0:1:0:0:
285,93,78487,2,8,L|435:93,1,108.35000330658,10|8,0:0|0:1,0:0:0:0:
106,203,78830,6,8,L|202:207,1,54.1750016532898
369,201,79001,2,0,L|479:204,1,108.35000330658,14|0,0:1|0:0,0:0:0:0:
191,105,79344,2,8,L|108:106,1,54.1750016532898
309,81,79516,2,0,L|459:82,1,108.35000330658,14|8,0:1|0:0,0:0:0:0:
121,192,79859,2,8,L|226:194,1,54.1750016532898,14|8,0:1|0:1,0:1:0:0:
380,167,80030,2,8,L|452:164,1,54.1750016532898,8|8,0:3|0:3,0:3:0:0:
197,115,80201,6,0,L|115:115,1,61.5625,14|8,0:0|0:0,0:0:0:0:
353,88,80373,1,8,0:1:0:0:
408,102,80458,1,8,0:1:0:0:
413,160,80544,1,8,0:1:0:0:
361,184,80630,1,8,0:1:0:0:
121,224,80716,2,4,L|201:222,1,61.5625,4|4,0:3|0:3,0:3:0:0:
423,259,80887,5,8,0:3:0:0:
421,198,80972,1,8,0:3:0:0:
364,146,81058,1,8,0:3:0:0:
304,138,81144,1,8,0:3:0:0:
105,292,81230,1,4,0:3:0:0:
178,293,81315,1,4,0:3:0:0:
252,294,81401,1,4,0:3:0:0:
326,295,81487,1,4,0:3:0:0:
78,226,81573,6,0,P|16:202|116:94,1,246.25,4|0,0:0|0:0,0:0:0:0:
285,84,82259,2,0,L|58:237,1,246.25,2|2,0:0|0:0,0:0:0:0:
80,221,82773,1,0,0:0:0:0:
446,153,82944,6,8,L|301:153,2,118.199996392822,14|10|8,0:0|0:1|0:0,0:0:0:0:
152,240,83459,2,10,L|397:238,1,236.399992785645,10|10,0:1|0:1,0:0:0:0:
137,117,83973,2,10,L|9:117,1,118.199996392822,10|10,0:0|0:1,0:0:0:0:
340,199,84316,6,10,L|212:198,2,118.199996392822,10|10|10,0:0|0:1|0:0,0:0:0:0:
100,283,84830,2,10,P|37:267|138:184,1,236.399992785645,10|10,0:1|0:1,0:0:0:0:
366,149,85344,2,10,L|493:147,1,118.199996392822,10|10,0:0|0:1,0:0:0:0:
165,278,85687,6,10,L|415:267,1,236.399992785645,14|8,0:0|0:0,0:0:0:0:
99,260,86201,2,10,L|350:253,1,236.399992785645,10|10,0:1|0:1,0:0:0:0:
56,185,86716,2,10,L|39:56,1,118.199996392822,10|10,0:0|0:1,0:0:0:0:
343,140,87059,6,10,L|478:141,1,118.199996392822,10|10,0:0|0:1,0:0:0:0:
204,178,87401,2,10,L|82:178,1,118.199996392822,8|10,0:0|0:1,0:0:0:0:
423,99,87744,2,10,L|432:236,1,118.199996392822,10|10,0:0|0:1,0:0:0:0:
78,75,88087,2,10,L|60:234,1,118.199996392822,14|10,0:0|0:1,0:0:0:0:
421,227,88430,6,10,L|289:225,2,118.199996392822,14|10|8,0:0|0:1|0:0,0:0:0:0:
126,306,88944,2,10,P|69:279|152:173,1,236.399992785645,10|10,0:1|0:1,0:0:0:0:
422,140,89459,2,10,L|436:281,1,118.199996392822,10|10,0:0|0:1,0:0:0:0:
80,249,89801,6,10,L|217:254,2,118.199996392822,10|10|8,0:0|0:1|0:0,0:0:0:0:
477,179,90316,1,10,0:1:0:0:
317,177,90487,1,10,0:0:0:0:
477,179,90659,1,10,0:1:0:0:
168,91,90830,2,2,L|27:93,1,118.199996392822,2|10,0:0|0:1,0:0:0:0:
366,198,91173,6,0,P|421:164|348:103,1,177.299994589234,14|8,0:0|0:0,0:0:0:0:
189,167,91516,2,8,L|108:167,1,59.0999981964112,8|8,0:1|0:1,0:1:0:0:
230,240,91687,2,8,L|298:239,1,59.0999981964112
84,266,91859,1,8,0:3:0:0:
28,239,91944,1,8,0:3:0:0:
28,178,92030,1,8,0:3:0:0:
83,151,92116,1,8,0:3:0:0:
304,122,92201,2,4,L|390:127,1,59.0999981964112,4|4,0:3|0:3,0:3:0:0:
161,49,92373,2,4,L|78:52,1,59.0999981964112,4|4,0:3|0:3,0:3:0:0:
303,211,92544,5,14,0:0:0:0:
144,212,92716,1,2,0:0:0:0:
398,122,92887,1,10,0:0:0:0:
144,212,93059,1,12,0:1:0:0:
443,108,93230,2,0,L|453:260,1,118.199996392822,14|8,0:0|0:1,0:0:0:0:
185,128,93573,2,0,L|59:124,1,118.199996392822,10|8,0:0|0:1,0:0:0:0:
375,123,93916,6,0,L|377:248,1,118.199996392822,14|10,0:0|0:1,0:0:0:0:
217,207,94259,1,8,0:0:0:0:
277,186,94344,1,10,0:0:0:0:
85,274,94430,2,0,P|27:252|108:146,1,236.399992785645,10|10,0:1|0:1,0:0:0:0:
365,137,94944,1,10,0:0:0:0:
281,137,95029,1,8,0:0:0:0:
196,139,95115,1,10,0:1:0:0:
458,131,95287,6,0,L|462:282,1,118.199996392822,14|10,0:0|0:1,0:0:0:0:
174,200,95630,2,8,L|264:196,1,59.0999981964112,10|8,0:0|0:0,0:0:0:0:
434,137,95801,2,0,P|496:162|416:276,1,236.399992785645,10|10,0:1|0:1,0:0:0:0:
179,134,96316,1,10,0:0:0:0:
263,132,96401,1,8,0:0:0:0:
347,131,96487,1,10,0:1:0:0:
58,240,96659,6,0,L|202:243,1,118.199996392822,14|8,0:0|0:1,0:0:0:0:
437,216,97001,1,10,0:0:0:0:
122,144,97173,1,10,0:1:0:0:
287,132,97344,1,10,0:0:0:0:
122,144,97516,1,10,0:1:0:0:
390,162,97687,2,0,L|510:162,1,118.199996392822,10|10,0:0|0:1,0:0:0:0:
187,237,98030,6,0,L|59:239,1,118.199996392822,14|10,0:0|0:1,0:0:0:0:
390,230,98373,2,10,L|403:92,1,118.199996392822,10|10,0:0|0:1,0:0:0:0:
151,75,98716,1,10,0:0:0:0:
311,69,98887,1,10,0:1:0:0:
43,187,99059,2,10,L|30:39,1,118.199996392822,14|10,0:0|0:1,0:0:0:0:
420,165,99401,6,10,L|271:160,2,118.199996392822,14|10|10,0:0|0:1|0:0,0:0:0:0:
85,224,99916,2,10,L|218:222,2,118.199996392822,10|10|10,0:1|0:0|0:1,0:0:0:0:
455,117,100430,2,10,L|467:274,1,118.199996392822,10|10,0:0|0:1,0:0:0:0:
135,185,100773,5,14,0:0:0:0:
308,183,100944,1,10,0:1:0:0:
135,185,101116,1,10,0:0:0:0:
481,185,101287,1,10,0:1:0:0:
308,183,101458,1,10,0:0:0:0:
481,185,101630,1,10,0:1:0:0:
194,90,101801,2,8,L|98:93,1,59.0999981964112,8|8,0:3|0:3,0:3:0:0:
334,59,101973,2,8,L|413:60,1,59.0999981964112,8|8,0:1|0:1,0:1:0:0:
121,238,102144,6,0,P|62:211|136:155,1,177.299994589234,14|8,0:0|0:0,0:0:0:0:
300,157,102487,2,8,L|370:158,1,59.0999981964112,8|8,0:1|0:1,0:1:0:0:
258,233,102659,2,8,L|191:233,1,59.0999981964112,8|8,0:1|0:1,0:1:0:0:
389,181,102830,2,8,L|471:180,1,59.0999981964112,8|8,0:3|0:3,0:3:0:0:
346,128,103001,2,8,L|266:130,1,59.0999981964112,8|8,0:3|0:3,0:3:0:0:
480,117,103173,2,4,L|486:268,1,118.199996392822,4|4,0:3|0:3,0:3:0:0:
204,187,103516,5,14,0:0:0:0:
368,188,103687,1,6,0:0:0:0:
118,103,103859,2,8,L|36:105,1,59.0999981964112
161,168,104030,2,8,L|240:167,1,59.0999981964112,8|8,0:1|0:1,0:1:0:0:
19,223,104201,2,0,L|17:94,1,118.199996392822,14|8,0:0|0:1,0:0:0:0:
325,102,104544,2,8,L|414:104,1,59.0999981964112,8|8,0:1|0:1,0:1:0:0:
195,188,104716,2,8,L|93:185,1,59.0999981964112,8|8,0:1|0:1,0:1:0:0:
365,152,104887,6,0,L|494:151,2,118.199996392822,14|10|10,0:0|0:1|0:0,0:0:0:0:
134,259,105401,2,0,L|387:250,1,236.399992785645,10|10,0:1|0:1,0:0:0:0:
87,169,105916,2,10,L|74:34,1,118.199996392822,10|10,0:0|0:1,0:0:0:0:
384,123,106259,6,10,L|248:126,2,118.199996392822,10|10|10,0:0|0:1|0:0,0:0:0:0:
107,259,106773,2,10,L|346:256,1,236.399992785645,10|10,0:1|0:1,0:0:0:0:
41,151,107287,2,10,L|168:147,1,118.199996392822,10|10,0:0|0:1,0:0:0:0:
480,189,107630,6,10,L|343:187,1,118.199996392822,14|10,0:0|0:1,0:0:0:0:
106,135,107973,1,10,0:0:0:0:
401,107,108144,1,10,0:1:0:0:
237,99,108316,1,10,0:0:0:0:
401,107,108487,1,10,0:1:0:0:
132,62,108659,2,10,L|0:62,1,118.199996392822,10|10,0:0|0:1,0:0:0:0:
290,208,109001,6,10,L|294:70,1,118.199996392822,14|10,0:0|0:1,0:0:0:0:
127,78,109344,2,10,L|259:71,1,118.199996392822,10|10,0:0|0:1,0:0:0:0:
491,182,109687,2,10,L|333:179,1,118.199996392822,10|10,0:0|0:1,0:0:0:0:
130,101,110030,2,10,L|4:95,1,118.199996392822,10|10,0:0|0:1,0:0:0:0:
77,152,110287,1,8,0:1:0:0:
315,183,110373,6,10,L|436:182,2,118.199996392822,14|10|10,0:0|0:1|0:0,0:0:0:0:
52,249,110887,2,10,L|302:248,1,236.399992785645,10|10,0:1|0:1,0:0:0:0:
26,157,111401,2,10,L|160:155,1,118.199996392822,10|10,0:0|0:1,0:0:0:0:
451,169,111744,6,10,L|322:167,2,118.199996392822,14|10|10,0:0|0:1|0:0,0:0:0:0:
151,185,112259,1,10,0:1:0:0:
304,126,112430,1,10,0:0:0:0:
456,102,112601,1,10,0:1:0:0:
151,185,112773,1,10,0:0:0:0:
304,126,112944,1,10,0:1:0:0:
40,168,113116,6,0,P|12:105|92:57,1,177.299994589234,14|8,0:0|0:0,0:0:0:0:
271,82,113459,2,8,L|333:80,1,59.0999981964112,8|8,0:1|0:1,0:1:0:0:
256,157,113630,2,8,L|190:158,1,59.0999981964112,8|8,0:1|0:1,0:1:0:0:
371,133,113801,2,8,L|438:134,3,59.0999981964112,8|8|8|8,0:3|0:3|0:3|0:3,0:3:0:0:
237,78,114144,2,4,L|169:76,1,59.0999981964112,4|4,0:3|0:3,0:3:0:0:
24,57,114316,2,4,L|13:-12,1,59.0999981964112,4|4,0:3|0:3,0:3:0:0:
238,153,114487,6,0,L|406:158,1,118.199996392822,14|2,0:0|0:0,0:0:0:0:
67,249,114830,2,0,L|205:242,1,118.199996392822,10|10,0:0|0:1,0:0:0:0:
461,175,115173,2,8,L|391:174,1,59.0999981964112,8|8,0:3|0:3,0:3:0:0:
198,120,115344,2,8,L|111:117,1,59.0999981964112,8|8,0:3|0:3,0:3:0:0:
332,66,115516,1,4,0:3:0:0:
198,120,115687,1,12,0:1:0:0:
461,175,115859,6,10,L|339:173,2,118.199996392822,14|10|10,0:0|0:1|0:0,0:0:0:0:
159,207,116373,2,10,L|416:200,1,236.399992785645,10|10,0:1|0:1,0:0:0:0:
119,118,116887,2,10,L|0:116,1,118.199996392822,10|10,0:0|0:1,0:0:0:0:
253,176,117230,6,10,L|115:171,2,118.199996392822,10|10|10,0:0|0:1|0:0,0:0:0:0:
488,294,117744,2,10,L|229:289,1,236.399992785645,10|10,0:1|0:1,0:0:0:0:
493,212,118259,2,10,L|357:210,1,118.199996392822,10|10,0:0|0:1,0:0:0:0:
33,147,118601,6,10,L|201:140,1,118.199996392822,14|10,0:0|0:1,0:0:0:0:
421,109,118944,1,10,0:0:0:0:
151,142,119116,1,10,0:1:0:0:
307,134,119287,1,10,0:0:0:0:
151,142,119459,1,10,0:1:0:0:
432,135,119630,2,10,L|445:287,1,118.199996392822,10|10,0:0|0:1,0:0:0:0:
181,271,119973,6,10,L|339:266,1,118.199996392822,10|10,0:0|0:1,0:0:0:0:
47,169,120316,2,10,L|34:36,1,118.199996392822,10|10,0:0|0:1,0:0:0:0:
286,80,120659,1,14,0:0:0:0:
131,82,120830,1,10,0:1:0:0:
365,78,121001,1,14,0:0:0:0:
210,80,121172,1,10,0:1:0:0:
450,133,121344,6,10,L|463:303,1,118.199996392822,14|10,0:0|0:1,0:0:0:0:
141,219,121687,1,10,0:0:0:0:
423,180,121859,2,10,L|296:181,2,118.199996392822,10|10|10,0:1|0:0|0:1,0:0:0:0:
137,90,122373,2,10,L|11:90,1,118.199996392822,10|10,0:0|0:1,0:0:0:0:
308,186,122716,6,0,L|238:181,1,59.0999981964112,14|8,0:0|0:0,0:0:0:0:
61,150,122887,2,8,L|134:146,1,59.0999981964112
281,103,123059,2,8,L|348:103,1,59.0999981964112,8|8,0:1|0:1,0:1:0:0:
146,77,123230,6,8,L|223:76,1,59.0999981964112,8|8,0:1|0:1,0:1:0:0:
404,62,123401,1,8,0:3:0:0:
457,76,123486,1,8,0:3:0:0:
461,131,123572,1,8,0:3:0:0:
411,153,123658,1,8,0:3:0:0:
176,198,123744,2,4,L|249:190,1,59.0999981964112,4|4,0:3|0:3,0:3:0:0:
386,166,123916,2,4,L|481:151,1,59.0999981964112,4|4,0:3|0:3,0:3:0:0:
224,106,124087,6,0,L|116:105,1,108.35000330658,14|0,0:0|0:0,0:0:0:0:
268,220,124430,2,8,L|171:286,1,108.35000330658,2|8,0:1|0:0,0:0:0:0:
268,220,124773,2,8,L|171:286,1,108.35000330658,2|8,0:1|0:0,0:0:0:0:
268,220,125116,2,8,L|171:286,1,108.35000330658,2|8,0:1|0:0,0:0:0:0:
445,165,125459,6,0,L|339:219,2,108.35000330658,2|8|2,0:1|0:0|0:1,0:0:0:0:
164,144,125973,2,0,L|406:137,1,216.700006613159,8|8,0:0|0:0,0:0:0:0:
272,142,126487,2,0,L|424:138,1,108.35000330658,2|8,0:1|0:0,0:0:0:0:
131,202,126830,6,0,L|20:198,1,108.35000330658,10|0,0:1|0:0,0:0:0:0:
164,272,127173,2,0,L|256:346,1,108.35000330658,2|8,0:1|0:0,0:0:0:0:
164,272,127516,2,0,L|256:346,1,108.35000330658,2|8,0:1|0:0,0:0:0:0:
164,272,127859,2,0,L|256:346,1,108.35000330658,2|8,0:1|0:0,0:0:0:0:
17,158,128201,6,0,L|144:154,2,108.35000330658,2|8|2,0:1|0:0|0:1,0:0:0:0:
371,181,128716,2,0,L|112:178,1,216.700006613159,8|8,0:0|0:0,0:0:0:0:
476,95,129230,2,0,L|491:206,1,108.35000330658,6|0,0:1|0:0,0:0:0:0:
245,265,129573,6,0,L|382:261,1,108.35000330658,14|8,0:0|0:0,0:0:0:0:
200,158,129916,2,0,L|264:252,1,108.35000330658,2|8,0:1|0:0,0:0:0:0:
200,158,130259,2,0,L|264:252,1,108.35000330658,2|8,0:1|0:0,0:0:0:0:
200,158,130601,2,0,L|264:252,1,108.35000330658,2|8,0:1|0:0,0:0:0:0:
26,166,130944,5,2,0:1:0:0:
98,165,131030,1,8,0:0:0:0:
169,161,131116,1,8,0:0:0:0:
26,166,131287,1,2,0:1:0:0:
311,254,131459,2,0,L|80:253,1,216.700006613159,8|8,0:0|0:0,0:0:0:0:
203,253,131973,2,0,L|83:253,1,108.35000330658,2|0,0:1|0:0,0:0:0:0:
455,137,132316,6,0,L|461:290,1,108.35000330658,14|8,0:0|0:0,0:0:0:0:
193,159,132659,1,2,0:1:0:0:
301,157,132830,1,8,0:0:0:0:
180,152,133001,1,2,0:1:0:0:
310,150,133172,1,8,0:0:0:0:
167,145,133344,1,2,0:1:0:0:
318,143,133515,1,8,0:0:0:0:
46,132,133687,6,0,L|41:3,1,108.35000330658,14|0,0:0|0:0,0:0:0:0:
296,61,134030,2,8,L|206:61,1,54.1750016532898,8|8,0:1|0:1,0:1:0:0:
71,81,134201,1,8,0:0:0:0:
210,169,134373,2,8,L|281:168,1,54.1750016532898,8|8,0:3|0:3,0:3:0:0:
203,108,134544,2,8,L|131:107,1,54.1750016532898,8|8,0:3|0:3,0:3:0:0:
354,28,134716,1,4,0:3:0:0:
414,28,134801,1,4,0:3:0:0:
470,76,134887,1,4,0:3:0:0:
470,152,134973,1,4,0:3:0:0:
243,196,135059,6,0,L|137:197,1,54.1750016532898,14|8,0:0|0:0,0:0:0:0:
345,112,135230,2,0,L|353:267,1,108.35000330658,8|8,0:1|0:0,0:0:0:0:
200,227,135573,1,8,0:1:0:0:
431,230,135744,6,0,L|344:227,1,54.1750016532898,10|0,0:0|0:0,0:0:0:0:
280,196,135916,2,0,L|338:196,1,54.1750016532898,8|0,0:1|0:0,0:0:0:0:
431,230,136087,2,0,L|344:227,1,54.1750016532898,10|0,0:0|0:0,0:0:0:0:
280,196,136259,2,0,L|338:196,1,54.1750016532898,8|0,0:1|0:0,0:0:0:0:
111,137,136430,6,0,L|104:73,1,54.1750016532898,14|0,0:0|0:0,0:0:0:0:
189,68,136601,2,0,L|108:70,1,54.1750016532898,8|0,0:1|0:0,0:0:0:0:
301,133,136773,2,0,L|357:133,3,54.1750016532898,10|0|8|0,0:0|0:0|0:1|0:0,0:0:0:0:
210,216,137116,6,0,L|126:217,1,54.1750016532898,10|0,0:0|0:0,0:0:0:0:
53,186,137287,2,0,L|44:126,1,54.1750016532898,8|0,0:1|0:0,0:0:0:0:
153,102,137459,2,0,L|224:100,1,54.1750016532898,10|0,0:0|0:0,0:0:0:0:
99,132,137630,2,0,L|30:132,1,54.1750016532898,8|0,0:1|0:0,0:0:0:0:
277,189,137801,6,0,L|424:190,1,108.35000330658,14|8,0:0|0:1,0:0:0:0:
303,129,138059,1,8,0:0:0:0:
385,189,138144,2,0,L|498:189,1,108.35000330658,10|8,0:0|0:1,0:0:0:0:
412,123,138401,1,8,0:0:0:0:
152,100,138487,6,0,L|65:99,3,54.1750016532898,10|0|8|0,0:0|0:0|0:1|0:0,0:0:0:0:
245,67,138830,1,10,0:0:0:0:
312,67,138915,1,0,0:0:0:0:
464,65,139001,2,0,L|464:153,1,54.1750016532898,8|0,0:1|0:0,0:0:0:0:
256,210,139173,6,0,L|131:212,1,108.35000330658,14|8,0:0|0:1,0:0:0:0:
230,145,139430,1,8,0:3:0:0:
147,211,139516,2,8,L|76:212,1,54.1750016532898,8|8,0:3|0:3,0:3:0:0:
334,113,139687,1,8,0:1:0:0:
386,124,139772,1,8,0:0:0:0:
435,156,139858,5,10,0:0:0:0:
435,213,139944,1,8,0:0:0:0:
344,250,140030,2,0,L|279:280,1,54.1750016532898,8|0,0:1|0:0,0:0:0:0:
106,174,140201,2,8,L|185:166,1,54.1750016532898,8|8,0:3|0:3,0:3:0:0:
352,103,140373,2,4,L|426:91,1,54.1750016532898,12|4,0:3|0:3,0:3:0:0:
144,93,140544,6,0,L|5:88,1,108.35000330658,14|8,0:0|0:1,0:0:0:0:
277,210,140887,2,8,L|341:212,1,54.1750016532898
235,286,141059,2,0,L|177:286,1,54.1750016532898,8|0,0:1|0:0,0:0:0:0:
277,210,141230,6,0,L|341:212,1,54.1750016532898,10|0,0:0|0:0,0:0:0:0:
106,212,141402,2,0,L|48:212,1,54.1750016532898,8|0,0:1|0:0,0:0:0:0:
244,61,141573,2,0,L|308:63,1,54.1750016532898,10|0,0:0|0:0,0:0:0:0:
202,137,141745,2,0,L|144:137,1,54.1750016532898,8|0,0:1|0:0,0:0:0:0:
313,200,141916,6,0,L|450:201,1,108.35000330658,14|8,0:0|0:1,0:0:0:0:
339,137,142173,1,8,0:0:0:0:
421,200,142259,2,0,L|490:200,1,54.1750016532898,10|8,0:0|0:0,0:0:0:0:
235,258,142430,2,0,L|94:256,1,108.35000330658,8|10,0:1|0:0,0:0:0:0:
421,201,142773,1,8,0:1:0:0:
273,199,142944,1,10,0:0:0:0:
421,201,143116,1,8,0:1:0:0:
124,231,143287,6,0,L|321:220,1,162.52500495987,14|8,0:0|0:0,0:0:0:0:
181,156,143630,2,8,L|100:157,1,54.1750016532898,8|8,0:1|0:1,0:1:0:0:
230,103,143801,2,8,L|315:100,1,54.1750016532898
436,126,143973,6,8,L|497:125,3,54.1750016532898,8|8|8|8,0:3|0:3|0:3|0:3,0:3:0:0:
241,171,144316,2,4,L|163:169,1,54.1750016532898,4|4,0:3|0:3,0:3:0:0:
346,107,144487,2,4,L|438:108,1,54.1750016532898,4|4,0:3|0:3,0:3:0:0:
209,282,144659,6,0,L|340:272,1,108.35000330658,14|2,0:0|0:0,0:0:0:0:
75,195,145001,2,8,L|136:192,1,54.1750016532898,8|8,0:3|0:3,0:0:0:0:
349,162,145173,2,0,L|273:162,1,54.1750016532898,8|0,3:1|3:1,3:1:0:0:
115,119,145344,5,8,3:2:0:0:
168,116,145429,1,8,3:2:0:0:
213,144,145515,1,8,3:2:0:0:
233,193,145601,1,8,3:2:0:0:
74,246,145687,2,8,L|10:247,3,54.1750016532898,8|8|8|8,3:1|3:1|3:1|3:1,3:1:0:0:
260,159,146030,6,0,L|408:162,1,108.35000330658,14|10,0:0|0:1,0:0:0:0:
213,264,146373,2,0,L|322:264,1,108.35000330658,10|10,0:0|0:1,0:0:0:0:
168,352,146716,1,10,0:0:0:0:
452,256,146887,1,10,0:1:0:0:
301,250,147059,1,10,0:0:0:0:
452,256,147230,1,10,0:1:0:0:
106,157,147401,5,10,0:0:0:0:
252,133,147573,1,10,0:1:0:0:
397,114,147744,1,10,0:0:0:0:
106,157,147916,1,10,0:1:0:0:
252,133,148087,1,10,0:0:0:0:
106,157,148259,1,10,0:1:0:0:
397,114,148430,2,10,L|511:115,1,108.35000330658,10|10,0:0|0:1,0:0:0:0:
166,256,148773,6,10,L|156:103,1,108.35000330658,14|10,0:0|0:1,0:0:0:0:
305,119,149116,2,10,L|176:116,1,108.35000330658,10|10,0:0|0:1,0:0:0:0:
347,216,149459,2,10,L|468:215,1,108.35000330658,10|10,0:0|0:1,0:0:0:0:
215,149,149801,2,10,L|361:149,1,108.35000330658,10|10,0:0|0:1,0:0:0:0:
65,221,150144,6,10,L|181:217,1,108.35000330658,10|10,0:0|0:1,0:0:0:0:
323,222,150487,2,10,L|322:87,1,108.35000330658,10|10,0:0|0:1,0:0:0:0:
165,106,150830,1,10,0:0:0:0:
447,114,151001,2,10,L|318:113,2,108.35000330658,10|14|10,0:1|0:0|0:1,0:0:0:0:
187,202,151516,6,10,L|55:202,1,108.35000330658,14|10,0:0|0:1,0:0:0:0:
226,139,151859,2,10,L|347:142,1,108.35000330658,10|10,0:0|0:1,0:0:0:0:
182,103,152201,2,10,L|180:-17,1,108.35000330658,10|10,0:0|0:1,0:0:0:0:
459,39,152544,2,10,L|329:44,1,108.35000330658,10|10,0:0|0:1,0:0:0:0:
76,197,152887,5,10,0:0:0:0:
225,201,153059,1,10,0:1:0:0:
76,197,153230,1,10,0:0:0:0:
375,198,153401,1,10,0:1:0:0:
225,201,153573,1,10,0:0:0:0:
76,197,153744,1,10,0:1:0:0:
375,198,153916,2,10,L|509:197,1,108.35000330658,10|10,0:0|0:1,0:0:0:0:
186,116,154259,6,10,L|77:113,1,108.35000330658,14|10,0:0|0:1,0:0:0:0:
236,217,154601,2,10,L|127:218,1,108.35000330658,10|10,0:0|0:1,0:0:0:0:
291,282,154944,2,10,L|161:283,1,108.35000330658,10|10,0:0|0:1,0:0:0:0:
467,185,155287,2,10,L|323:185,1,108.35000330658,10|10,0:0|0:1,0:0:0:0:
112,173,155630,6,10,P|53:148|128:101,1,162.52500495987,14|8,0:0|0:0,0:0:0:0:
273,85,155973,2,10,L|401:83,1,108.35000330658,8|8,3:1|0:3,0:0:0:0:
142,188,156316,1,4,0:3:0:0:
383,191,156487,1,8,0:3:0:0:
255,190,156659,1,8,0:3:0:0:
383,191,156830,1,8,0:1:0:0:
65,225,157001,6,10,L|270:321,2,216.700006613159,14|8|10,0:0|0:0|0:1,0:0:0:0:
255,166,158030,2,0,L|117:160,1,108.35000330658,8|8,0:3|0:3,0:0:0:0:
380,81,158373,5,4,0:3:0:0:
473,122,158544,1,8,0:1:0:0:
474,225,158715,1,8,0:0:0:0:
382,268,158887,2,8,L|308:269,1,54.1750016532898
126,202,159059,2,0,L|10:202,1,108.35000330658,8|8,3:1|0:0,0:0:0:0:
277,123,159401,2,0,L|411:127,1,108.35000330658,8|4,0:1|0:3,0:0:0:0:
331,185,159659,1,4,0:3:0:0:
85,220,159744,6,0,L|82:101,1,108.35000330658,12|0,0:0|0:0,0:0:0:0:
229,113,160087,1,8,0:0:0:0:
82,111,160258,1,8,0:0:0:0:
353,81,160430,2,0,P|420:111|344:203,1,216.700006613159,8|8,0:1|0:0,0:0:0:0:
202,210,160944,1,8,0:0:0:0:
458,215,161116,6,0,L|462:86,1,108.35000330658,8|8,0:0|0:1,0:0:0:0:
305,102,161459,2,0,L|184:103,1,108.35000330658,8|8,0:0|0:0,0:0:0:0:
251,45,161716,1,8,0:0:0:0:
439,68,161801,2,0,L|439:182,1,108.35000330658,8|8,0:1|0:0,0:0:0:0:
200,185,162144,2,0,L|92:182,1,108.35000330658,8|8,0:1|0:1,0:0:0:0:
144,124,162401,1,8,0:1:0:0:
350,85,162487,6,0,P|441:113|470:244,2,216.700006613159,14|8|8,0:0|0:0|0:1,0:0:0:0:
71,195,163516,2,0,L|201:186,1,108.35000330658,8|8,0:0|0:1,0:0:0:0:
433,185,163859,5,10,0:0:0:0:
291,168,164030,1,8,0:1:0:0:
433,185,164201,1,8,0:0:0:0:
291,168,164373,2,8,L|223:169,1,54.1750016532898
415,248,164544,2,0,L|416:130,1,108.35000330658,8|8,0:1|0:0,0:0:0:0:
171,88,164887,2,0,L|22:83,1,108.35000330658,8|8,0:1|0:0,0:0:0:0:
342,72,165230,6,0,P|458:127|456:214,1,216.700006613159,14|8,0:0|3:1,0:0:0:0:
181,199,165744,1,8,0:0:0:0:
438,216,165916,2,0,L|440:101,1,108.35000330658,8|8,0:0|0:0,0:0:0:0:
162,85,166259,2,0,L|39:85,1,108.35000330658,12|8,0:1|0:0,0:0:0:0:
311,139,166601,6,8,L|375:140,1,54.1750016532898,8|8,0:1|0:1,0:1:0:0:
182,174,166773,1,8,0:0:0:0:
311,139,166944,2,8,L|374:139,1,54.1750016532898,8|8,0:1|0:1,0:1:0:0:
267,212,167116,2,0,L|197:212,1,54.1750016532898,8|0,0:3|0:0,0:0:0:0:
386,220,167287,6,8,L|449:216,1,54.1750016532898,8|8,0:3|0:3,0:3:0:0:
352,184,167459,1,8,0:3:0:0:
288,189,167544,1,8,0:3:0:0:
352,184,167630,1,4,0:3:0:0:
408,183,167716,1,4,0:3:0:0:
252,128,167801,2,4,L|197:128,1,54.1750016532898,4|4,0:3|0:3,0:3:0:0:
441,108,167973,6,0,L|439:264,1,108.35000330658,14|10,0:0|0:1,0:0:0:0:
183,222,168316,2,0,L|286:217,1,54.1750016532898,10|8,0:0|0:0,0:0:0:0:
396,165,168487,1,10,0:1:0:0:
112,138,168659,2,10,L|184:137,2,54.1750016532898,10|8|10,0:0|0:0|0:1,0:0:0:0:
274,86,169001,2,10,L|366:87,2,54.1750016532898,10|8|10,0:0|0:0|0:1,0:0:0:0:
18,193,169344,6,10,L|100:196,1,54.1750016532898,14|8,0:0|0:0,0:0:0:0:
260,152,169516,1,10,0:1:0:0:
420,180,169687,2,10,L|340:179,1,54.1750016532898,10|8,0:0|0:0,0:0:0:0:
183,136,169859,1,10,0:1:0:0:
461,103,170030,2,10,L|373:96,2,54.1750016532898,10|8|10,0:0|0:0|0:1,0:0:0:0:
316,203,170373,2,10,L|401:201,2,54.1750016532898,10|8|10,0:0|0:0|0:1,0:0:0:0:
48,169,170716,5,14,0:0:0:0:
124,142,170801,1,8,0:0:0:0:
285,117,170887,1,10,0:1:0:0:
446,155,171059,1,10,0:0:0:0:
370,155,171144,1,8,0:0:0:0:
446,155,171230,1,10,0:1:0:0:
290,155,171401,1,10,0:0:0:0:
370,155,171487,1,8,0:0:0:0:
290,155,171573,1,10,0:1:0:0:
129,149,171744,1,10,0:0:0:0:
52,146,171830,1,8,0:0:0:0:
215,226,171916,1,10,0:1:0:0:
480,206,172087,5,14,0:0:0:0:
390,206,172173,1,8,0:0:0:0:
192,197,172259,1,10,0:1:0:0:
49,148,172430,1,10,0:0:0:0:
124,170,172516,1,8,0:0:0:0:
49,148,172601,1,10,0:1:0:0:
201,95,172773,1,10,0:0:0:0:
281,111,172859,1,8,0:0:0:0:
438,112,172944,1,10,0:1:0:0:
281,111,173116,1,10,0:0:0:0:
201,95,173201,1,8,0:0:0:0:
41,97,173287,1,10,0:1:0:0:
281,111,173459,5,14,0:0:0:0:
201,95,173544,1,8,0:0:0:0:
281,111,173630,1,10,0:1:0:0:
13,199,173801,1,10,0:0:0:0:
168,210,173887,1,8,0:0:0:0:
324,186,173973,1,10,0:1:0:0:
168,210,174144,1,10,0:0:0:0:
324,186,174230,1,8,0:0:0:0:
480,172,174316,1,10,0:1:0:0:
324,186,174487,1,10,0:0:0:0:
401,186,174573,1,8,0:0:0:0:
324,186,174659,1,10,0:1:0:0:
26,116,174830,5,14,0:0:0:0:
102,115,174916,1,8,0:0:0:0:
26,116,175001,1,10,0:1:0:0:
280,107,175173,1,10,0:0:0:0:
359,102,175259,1,8,0:0:0:0:
280,107,175344,1,10,0:1:0:0:
202,109,175430,1,8,0:0:0:0:
417,101,175516,1,8,0:3:0:0:
466,105,175601,1,8,0:3:0:0:
468,154,175687,1,8,0:3:0:0:
420,163,175773,1,8,0:3:0:0:
230,196,175859,2,4,L|143:187,1,54.1750016532898,4|4,0:3|0:3,0:3:0:0:
372,150,176030,1,4,0:3:0:0:
134,346,176201,6,0,P|85:284|472:83,1,758.450023146058,14|0,0:0|0:0,0:0:0:0:
84,257,177573,6,0,L|365:91,2,325.050009919739,14|2|8,0:0|0:0|0:3,0:0:0:0:
84,257,178773,1,4,0:3:0:0:
460,246,178944,6,0,P|462:187|65:290,1,758.450023146058,14|8,0:0|0:0,0:0:0:0:
309,233,180316,6,0,L|503:225,1,162.52500495987,14|8,0:0|0:0,0:0:0:0:
252,157,180659,2,8,L|194:155,1,54.1750016532898,8|8,3:0|3:0,3:0:0:0:
24,134,180830,2,8,L|19:74,1,54.1750016532898,8|8,3:0|3:0,3:0:0:0:
207,48,181001,1,8,0:3:0:0:
312,64,181172,1,8,0:0:0:0:
411,130,181343,1,4,0:3:0:0:
416,234,181515,1,4,0:3:0:0:
128,264,181687,5,12,0:0:0:0:
318,170,182030,2,8,L|328:45,1,108.35000330658
145,57,182373,1,2,3:2:0:0:
294,31,182716,2,0,L|392:115,1,108.35000330658,8|8,0:3|0:0,0:0:0:0:
198,238,183059,5,4,0:3:0:0:
101,207,183230,1,8,0:3:0:0:
106,107,183401,1,8,0:0:0:0:
210,85,183573,2,8,L|281:83,1,54.1750016532898
93,180,183744,2,0,P|46:155|126:47,1,216.700006613159,2|8,3:2|0:3,0:0:0:0:
205,33,184259,1,4,0:3:0:0:
481,180,184430,6,0,L|255:305,1,216.700006613159,12|8,0:0|0:0,0:0:0:0:
385,156,184944,1,8,0:0:0:0:
211,183,185116,2,0,P|210:119|348:62,1,216.700006613159,2|0,3:2|0:0,0:0:0:0:
427,60,185630,1,8,0:0:0:0:
156,236,185801,5,8,0:3:0:0:
290,173,185973,2,0,L|293:22,1,108.35000330658,8|8,0:3|0:0,0:0:0:0:
156,236,186316,2,8,L|75:237,1,54.1750016532898
307,109,186487,2,0,P|384:124|458:253,1,216.700006613159,14|0,3:2|3:0,0:0:0:0:
358,252,187001,1,8,3:1:0:0:
40,177,187173,6,0,L|271:304,1,216.700006613159,14|8,0:0|0:0,0:0:0:0:
135,280,187687,1,8,0:0:0:0:
313,197,187859,2,0,L|315:-36,1,216.700006613159,2|8,3:2|0:3,0:0:0:0:
208,15,188373,1,8,0:0:0:0:
385,41,188544,6,0,P|438:55|378:159,1,216.700006613159,4|8,0:3|0:0,0:0:0:0:
286,159,189059,2,8,L|203:158,1,54.1750016532898
408,210,189230,2,0,P|467:189|385:103,1,216.700006613159,2|8,3:2|0:0,0:0:0:0:
306,112,189744,1,8,0:0:0:0:
45,176,189916,5,14,0:0:0:0:
199,171,190259,2,0,L|78:243,1,108.35000330658,8|8,0:0|0:0,0:0:0:0:
278,230,190601,2,0,P|334:202|263:98,1,216.700006613159,10|8,3:2|0:3,0:0:0:0:
180,103,191116,1,8,0:0:0:0:
447,178,191287,5,8,0:3:0:0:
311,129,191459,2,0,L|310:-26,1,108.35000330658,8|4,0:3|0:3,0:0:0:0:
447,178,191801,2,8,L|507:177,1,54.1750016532898
263,218,191973,2,0,L|120:217,1,108.35000330658,14|8,3:2|0:0,0:0:0:0:
321,124,192316,2,8,L|479:124,1,108.35000330658,8|8,3:2|3:2,3:2:0:0:
155,252,192659,6,0,P|90:224|190:156,1,216.700006613159,14|0,0:0|0:0,0:0:0:0:
321,125,193173,1,0,0:0:0:0:
157,134,193344,2,0,L|391:137,1,216.700006613159,2|8,3:2|0:0,0:0:0:0:
373,136,193859,1,8,0:0:0:0:
204,225,194030,5,4,0:3:0:0:
111,183,194201,1,8,0:3:0:0:
116,81,194372,1,8,0:0:0:0:
223,52,194544,2,8,L|320:54,1,54.1750016532898
111,183,194716,2,0,P|56:162|119:62,1,216.700006613159,2|8,3:2|0:3,0:0:0:0:
211,56,195230,1,4,0:3:0:0:
472,174,195401,6,0,L|251:279,1,216.700006613159,14|8,0:0|0:0,0:0:0:0:
366,162,195916,1,8,0:0:0:0:
194,190,196087,2,0,P|131:169|216:88,1,216.700006613159,2|0,3:2|0:0,0:0:0:0:
345,76,196601,1,8,0:0:0:0:
110,209,196773,5,8,0:3:0:0:
256,167,196944,2,0,L|260:22,1,108.35000330658,8|4,0:3|0:3,0:0:0:0:
110,209,197287,2,0,L|16:206,1,54.1750016532898,8|0,0:0|0:0,0:0:0:0:
261,211,197459,2,0,L|386:213,1,108.35000330658,2|0,3:2|0:0,0:0:0:0:
214,126,197801,1,8,0:0:0:0:
369,212,197973,1,8,0:0:0:0:
100,252,198144,6,0,P|49:229|126:127,1,216.700006613159,14|0,0:0|0:0,0:0:0:0:
205,114,198659,1,0,0:0:0:0:
385,176,198830,2,0,L|154:251,1,216.700006613159,2|0,3:2|0:0,0:0:0:0:
292,151,199344,1,8,0:0:0:0:
115,163,199516,6,0,L|111:42,1,108.35000330658,8|8,0:0|0:0,0:0:0:0:
305,31,199859,2,0,L|421:30,1,108.35000330658,8|8,0:3|0:0,0:0:0:0:
354,85,200116,1,8,0:0:0:0:
209,181,200201,2,0,L|62:185,1,108.35000330658,2|0,3:2|0:0,0:0:0:0:
272,249,200544,2,8,L|405:244,1,108.35000330658
79,133,200887,5,14,0:0:0:0:
345,107,201230,1,0,3:0:0:0:
206,106,201401,1,0,3:0:0:0:
345,107,201573,1,0,3:0:0:0:
206,106,201744,1,0,3:0:0:0:
345,107,201916,1,0,3:0:0:0:
206,106,202087,1,0,3:0:0:0:
467,111,202259,6,0,L|468:239,1,108.35000330658,8|8,0:0|0:0,0:0:0:0:
405,231,202516,1,8,0:0:0:0:
236,193,202601,2,0,L|104:194,1,108.35000330658,8|8,0:3|0:0,0:0:0:0:
184,145,202859,1,8,0:0:0:0:
379,89,202944,1,4,0:3:0:0:
427,104,203029,1,4,0:3:0:0:
431,154,203115,1,4,0:3:0:0:
385,176,203201,1,4,0:3:0:0:
177,85,203287,2,0,L|44:91,1,108.35000330658,6|0,3:2|0:0,0:0:0:0:
304,97,203630,5,12,0:0:0:0:
140,68,203801,1,10,0:1:0:0:
427,105,203972,1,8,0:0:0:0:
134,66,204144,2,0,L|125:207,1,108.35000330658,10|8,0:1|0:0,0:0:0:0:
211,195,204401,1,8,0:0:0:0:
294,193,204487,1,10,0:1:0:0:
43,121,204658,1,8,0:0:0:0:
41,175,204743,1,0,0:0:0:0:
39,229,204829,1,10,0:1:0:0:
318,268,205001,6,0,L|178:263,2,108.35000330658,12|8|8,0:0|0:1|0:0,0:0:0:0:
34,168,205516,2,0,L|158:166,2,108.35000330658,8|8|8,0:1|0:0|0:1,0:0:0:0:
295,127,206030,2,0,L|450:125,1,108.35000330658,8|8,0:0|0:1,0:0:0:0:
84,170,206372,5,12,0:0:0:0:
247,164,206544,1,10,0:1:0:0:
409,142,206715,1,8,0:0:0:0:
84,170,206887,1,10,0:1:0:0:
247,164,207058,1,8,0:0:0:0:
84,170,207230,1,10,0:1:0:0:
335,132,207401,2,0,L|461:133,1,108.35000330658,8|10,0:0|0:1,0:0:0:0:
84,170,207744,5,12,0:0:0:0:
244,185,207915,1,10,0:1:0:0:
84,170,208087,1,8,0:0:0:0:
421,211,208258,1,10,0:1:0:0:
260,190,208430,1,8,0:0:0:0:
99,172,208601,1,10,0:1:0:0:
392,118,208772,2,0,L|508:120,1,108.35000330658,14|8,0:0|0:1,0:0:0:0:
441,172,209030,1,0,0:3:0:0:
195,147,209115,5,12,0:0:0:0:
33,144,209287,1,10,0:1:0:0:
195,147,209458,1,8,0:0:0:0:
466,227,209630,1,10,0:1:0:0:
307,228,209801,1,8,0:0:0:0:
466,227,209972,1,10,0:1:0:0:
141,158,210144,2,0,L|27:159,1,108.35000330658,8|10,0:0|0:1,0:0:0:0:
289,166,210487,6,8,L|172:167,1,108.35000330658,8|8,0:0|0:1,0:0:0:0:
423,108,210830,1,8,0:0:0:0:
166,85,211001,2,0,L|166:224,1,108.35000330658,8|8,0:1|0:0,0:0:0:0:
321,203,211344,1,8,0:1:0:0:
36,130,211515,2,0,L|31:284,1,108.35000330658,8|8,0:0|0:1,0:0:0:0:
326,126,211858,6,0,L|229:123,1,54.1750016532898,14|0,0:0|0:0,0:0:0:0:
171,104,212030,2,8,L|168:187,1,54.1750016532898,8|8,0:1|0:0,0:0:0:0:
267,203,212201,2,8,L|349:206,1,54.1750016532898
114,173,212373,6,8,L|30:172,1,54.1750016532898,8|8,0:1|0:0,0:0:0:0:
159,240,212544,2,8,L|226:243,1,54.1750016532898,10|8,0:0|0:0,0:0:0:0:
114,173,212715,2,8,L|30:172,1,54.1750016532898,8|8,0:1|0:0,0:0:0:0:
284,109,212887,2,8,L|371:113,1,54.1750016532898
171,54,213058,2,8,L|96:57,1,54.1750016532898,8|8,0:1|0:0,0:0:0:0:
341,323,213230,5,14,0:0:0:0:
341,236,213315,1,8,0:0:0:0:
290,160,213401,1,8,0:3:0:0:
228,101,213487,1,8,0:3:0:0:
153,72,213572,1,8,0:3:0:0:
75,77,213658,1,8,0:3:0:0:
237,175,213744,6,8,L|338:173,1,54.1750016532898,8|8,0:3|0:3,0:3:0:0:
104,260,213915,1,4,0:3:0:0:
42,239,214000,1,4,0:3:0:0:
38,173,214086,1,4,0:3:0:0:
99,147,214172,1,4,0:3:0:0:
315,98,214258,2,8,L|410:98,1,54.1750016532898
176,140,214430,2,8,L|87:141,1,54.1750016532898
300,157,214601,5,14,0:0:0:0:
462,158,214772,1,10,0:1:0:0:
300,157,214944,1,8,0:0:0:0:
37,257,215115,1,10,0:1:0:0:
200,256,215287,1,8,0:0:0:0:
37,257,215458,1,10,0:1:0:0:
343,169,215630,2,0,L|477:166,1,108.35000330658,8|10,0:0|0:1,0:0:0:0:
167,187,215973,6,0,L|281:186,2,108.35000330658,12|8|8,0:0|0:1|0:0,0:0:0:0:
436,231,216487,2,0,L|322:230,2,108.35000330658,8|8|8,0:1|0:0|0:1,0:0:0:0:
170,124,217001,2,0,L|33:126,1,108.35000330658,8|8,0:0|0:1,0:0:0:0:
401,92,217344,5,12,0:0:0:0:
240,77,217515,1,10,0:1:0:0:
77,80,217687,1,8,0:0:0:0:
401,92,217858,1,10,0:1:0:0:
240,77,218030,1,8,0:0:0:0:
401,92,218201,1,10,0:1:0:0:
126,85,218372,2,0,L|12:85,1,108.35000330658,8|10,0:0|0:1,0:0:0:0:
356,192,218715,5,12,0:0:0:0:
193,193,218887,1,10,0:1:0:0:
356,192,219058,1,8,0:0:0:0:
58,180,219230,1,10,0:1:0:0:
348,114,219401,2,8,L|486:119,1,108.35000330658,8|10,0:0|0:1,0:0:0:0:
175,75,219744,2,8,L|56:73,1,108.35000330658,12|10,0:0|0:1,0:0:0:0:
361,168,220087,5,12,0:0:0:0:
201,166,220258,1,10,0:1:0:0:
361,168,220430,1,8,0:0:0:0:
88,258,220601,1,10,0:1:0:0:
249,222,220772,1,8,0:0:0:0:
410,200,220944,1,10,0:1:0:0:
169,109,221115,2,8,L|44:109,1,108.35000330658,8|10,0:0|0:1,0:0:0:0:
348,154,221459,6,8,L|237:153,1,108.35000330658,8|8,0:0|0:1,0:0:0:0:
406,79,221801,1,8,0:0:0:0:
123,195,221973,2,8,L|234:194,1,108.35000330658,8|8,0:1|0:0,0:0:0:0:
71,120,222316,1,8,0:1:0:0:
366,130,222487,2,8,L|479:130,1,108.35000330658,8|8,0:0|0:1,0:0:0:0:
159,98,222830,6,8,L|163:244,1,108.35000330658,14|10,0:0|0:1,0:0:0:0:
427,231,223172,1,8,0:0:0:0:
131,204,223344,2,8,L|276:199,1,108.35000330658,10|8,0:1|0:0,0:0:0:0:
484,127,223687,1,10,0:1:0:0:
227,93,223858,2,8,L|77:93,1,108.35000330658,10|8,0:0|0:1,0:0:0:0:
406,203,224201,6,8,L|310:207,1,54.1750016532898
143,201,224372,2,0,L|33:204,1,108.35000330658,14|0,0:1|0:0,0:0:0:0:
321,105,224715,2,8,L|404:106,1,54.1750016532898
203,81,224887,2,0,L|53:82,1,108.35000330658,14|8,0:1|0:0,0:0:0:0:
391,192,225230,2,8,L|286:194,1,54.1750016532898,14|8,0:1|0:1,0:1:0:0:
132,167,225401,2,8,L|60:164,1,54.1750016532898,8|8,0:3|0:3,0:3:0:0:
315,115,225573,6,0,L|393:115,1,59.0999981964112,14|8,0:0|0:0,0:0:0:0:
159,88,225744,1,8,0:1:0:0:
104,102,225829,1,8,0:1:0:0:
99,160,225915,1,8,0:1:0:0:
151,184,226001,1,8,0:1:0:0:
391,224,226087,2,4,L|315:224,1,59.0999981964112,4|4,0:3|0:3,0:3:0:0:
89,259,226258,5,8,0:3:0:0:
91,198,226343,1,8,0:3:0:0:
148,146,226429,1,8,0:3:0:0:
208,138,226515,1,8,0:3:0:0:
407,292,226601,1,4,0:3:0:0:
334,293,226686,1,4,0:3:0:0:
260,294,226772,1,4,0:3:0:0:
186,295,226858,1,4,0:3:0:0:
434,226,226944,6,0,P|496:202|411:92,1,236.399992785645,6|0,0:0|0:0,0:0:0:0:
227,84,227630,2,0,L|448:235,1,236.399992785645,2|2,0:0|0:0,0:0:0:0:
422,217,228144,1,0,0:0:0:0:
122,259,228316,6,0,P|67:233|159:149,1,216.700006613159,14|8,0:0|0:0,0:0:0:0:
412,179,228830,2,0,L|155:178,1,216.700006613159,8|0,0:1|0:0,0:0:0:0:
460,82,229344,2,0,L|464:192,1,108.35000330658,8|8,0:3|0:0,0:0:0:0:
205,197,229687,6,0,L|346:194,1,108.35000330658,4|8,0:3|0:3,0:0:0:0:
369,139,229944,1,8,0:0:0:0:
195,109,230030,2,0,L|84:110,1,108.35000330658,4|0,0:3|0:0,0:0:0:0:
30,116,230287,1,0,0:0:0:0:
300,210,230373,2,0,L|441:210,1,108.35000330658,14|0,0:0|0:0,0:0:0:0:
156,98,230716,2,0,L|32:96,1,108.35000330658,8|8,0:1|0:1,0:0:0:0:
317,199,231059,6,0,L|84:193,1,216.700006613159,14|8,0:0|0:0,0:0:0:0:
393,302,231573,2,0,L|149:292,1,216.700006613159,8|0,0:1|0:1,0:0:0:0:
483,238,232087,2,0,L|332:234,1,108.35000330658,10|0,0:0|0:0,0:0:0:0:
118,185,232430,6,0,L|246:177,1,108.35000330658,14|0,0:0|0:0,0:0:0:0:
396,144,232773,1,8,0:3:0:0:
399,198,232858,1,8,0:3:0:0:
403,252,232944,1,8,0:0:0:0:
141,128,233116,2,4,L|227:122,1,54.1750016532898,4|4,0:3|0:3,0:3:0:0:
354,87,233287,2,4,L|441:80,1,54.1750016532898,4|4,0:3|0:3,0:3:0:0:
191,56,233459,2,8,L|42:55,1,108.35000330658
137,144,233716,1,8,0:0:0:0:
373,179,233801,6,0,L|497:178,1,108.35000330658,14|0,0:0|0:0,0:0:0:0:
156,225,234144,1,14,0:1:0:0:
309,138,234316,2,0,P|390:182|309:240,1,216.700006613159,2|8,0:0|0:0,0:0:0:0:
57,165,234830,2,0,L|181:155,1,108.35000330658,10|0,0:0|0:0,0:0:0:0:
467,205,235173,6,0,L|330:205,2,108.35000330658,14|0|12,0:0|0:0|0:1,0:0:0:0:
146,148,235687,2,0,L|404:145,1,216.700006613159,2|8,0:0|0:0,0:0:0:0:
118,77,236201,2,0,L|5:77,1,108.35000330658,12|0,0:1|0:0,0:0:0:0:
279,197,236544,5,14,0:0:0:0:
351,196,236630,1,8,0:0:0:0:
279,197,236716,1,8,0:3:0:0:
207,198,236802,1,8,0:3:0:0:
279,197,236887,1,8,0:3:0:0:
351,196,236973,1,8,0:3:0:0:
145,79,237059,5,2,0:1:0:0:
82,85,237144,1,0,0:0:0:0:
37,130,237230,1,8,0:3:0:0:
30,194,237316,1,8,0:3:0:0:
65,247,237401,1,8,0:3:0:0:
126,266,237487,1,8,0:3:0:0:
332,142,237573,6,4,L|396:140,1,54.1750016532898,2|4,0:1|0:3,0:3:0:0:
187,98,237744,2,4,L|115:102,1,54.1750016532898,4|4,0:3|0:3,0:3:0:0:
370,201,237916,6,0,L|279:197,1,54.1750016532898,10|0,0:0|0:0,0:0:0:0:
122,169,238087,2,0,L|43:167,1,54.1750016532898,14|0,0:0|0:0,0:0:0:0:
151,107,238259,2,8,L|226:107,1,54.1750016532898
122,169,238430,2,8,L|43:167,1,54.1750016532898,2|8,0:1|0:0,0:0:0:0:
260,104,238601,6,8,L|351:105,3,54.1750016532898,8|8|8|8,0:3|0:3|0:3|0:3,0:3:0:0:
480,102,238944,2,8,L|487:187,1,54.1750016532898,8|8,0:3|0:3,0:3:0:0:
267,190,239116,2,4,L|192:192,1,54.1750016532898,4|4,0:3|0:3,0:3:0:0:
388,207,239287,6,0,L|509:207,2,118.199996392822,14|8|10,0:0|0:1|0:0,0:0:0:0:
131,258,239801,2,10,L|424:249,1,236.399992785645,10|10,0:1|0:1,0:0:0:0:
110,136,240315,1,10,0:0:0:0:
181,135,240400,1,8,0:0:0:0:
110,136,240486,1,10,0:1:0:0:
366,126,240659,6,10,L|370:277,1,118.199996392822,10|10,0:0|0:1,0:0:0:0:
199,228,241001,2,10,L|258:230,1,59.0999981964112,10|8,0:0|0:0,0:0:0:0:
78,137,241173,2,10,P|16:162|96:276,1,236.399992785645,10|10,0:1|0:1,0:0:0:0:
333,134,241687,1,10,0:0:0:0:
249,132,241772,1,8,0:0:0:0:
165,131,241858,1,10,0:1:0:0:
454,240,242030,6,10,L|310:243,1,118.199996392822,14|10,0:0|0:1,0:0:0:0:
75,216,242372,1,10,0:0:0:0:
390,144,242544,1,10,0:1:0:0:
225,132,242715,1,10,0:0:0:0:
390,144,242887,1,10,0:1:0:0:
122,162,243058,2,10,L|2:162,1,118.199996392822,10|10,0:0|0:1,0:0:0:0:
325,237,243401,6,10,L|453:239,1,118.199996392822,10|10,0:0|0:1,0:0:0:0:
122,230,243744,2,10,L|109:92,1,118.199996392822,10|10,0:0|0:1,0:0:0:0:
361,75,244087,1,10,0:0:0:0:
201,69,244258,1,10,0:1:0:0:
469,187,244430,2,10,L|482:39,1,118.199996392822,14|10,0:0|0:1,0:0:0:0:
92,165,244773,6,10,L|241:160,2,118.199996392822,14|10|10,0:0|0:1|0:0,0:0:0:0:
427,224,245287,2,10,L|294:222,2,118.199996392822,10|10|10,0:1|0:0|0:1,0:0:0:0:
57,117,245801,2,10,L|45:274,1,118.199996392822,10|10,0:0|0:1,0:0:0:0:
377,185,246144,5,14,0:0:0:0:
214,190,246315,1,10,0:1:0:0:
377,185,246487,1,10,0:0:0:0:
31,185,246658,1,10,0:1:0:0:
197,191,246829,1,14,0:0:0:0:
31,185,247001,1,10,0:1:0:0:
318,90,247173,2,8,L|414:93,1,59.0999981964112,12|8,0:1|0:1,0:1:0:0:
178,59,247344,2,8,L|99:60,1,59.0999981964112,8|8,0:3|0:3,0:3:0:0:
391,238,247515,6,0,P|450:211|376:155,1,177.299994589234,14|8,0:0|0:0,0:0:0:0:
212,157,247858,2,8,L|142:158,1,59.0999981964112,8|8,0:1|0:1,0:1:0:0:
254,233,248030,2,8,L|321:233,1,59.0999981964112,10|8,0:1|0:1,0:1:0:0:
123,181,248201,2,8,L|41:180,1,59.0999981964112,8|8,0:3|0:3,0:3:0:0:
166,128,248373,2,8,L|246:130,1,59.0999981964112,2|8,0:1|0:3,0:3:0:0:
32,117,248544,2,4,L|26:268,1,118.199996392822,4|4,0:3|0:3,0:3:0:0:
308,187,248887,5,14,0:0:0:0:
144,188,249058,1,2,0:0:0:0:
394,103,249230,2,8,L|476:105,1,59.0999981964112,8|8,0:3|0:3,0:3:0:0:
351,168,249401,2,8,L|272:167,1,59.0999981964112,8|8,0:3|0:3,0:3:0:0:
493,223,249572,2,0,L|495:94,1,118.199996392822,8|8,0:0|0:3,0:0:0:0:
187,102,249915,2,4,L|98:104,1,59.0999981964112,4|4,0:3|0:3,0:3:0:0:
317,188,250087,2,4,L|419:185,1,59.0999981964112,4|4,0:3|0:3,0:3:0:0:
139,154,250258,6,0,L|10:153,2,118.199996392822,14|10|10,0:0|0:1|0:0,0:0:0:0:
378,259,250773,2,0,L|125:250,1,236.399992785645,10|10,0:1|0:1,0:0:0:0:
425,169,251287,2,10,L|438:34,1,118.199996392822,10|10,0:0|0:1,0:0:0:0:
128,123,251630,6,10,L|264:126,2,118.199996392822,14|10|10,0:0|0:1|0:0,0:0:0:0:
405,259,252144,2,10,L|166:256,1,236.399992785645,10|10,0:1|0:1,0:0:0:0:
471,151,252658,2,10,L|344:147,1,118.199996392822,10|10,0:0|0:1,0:0:0:0:
32,189,253001,6,10,L|169:187,1,118.199996392822,14|10,0:0|0:1,0:0:0:0:
406,135,253344,1,10,0:0:0:0:
111,107,253515,1,10,0:1:0:0:
275,99,253687,1,10,0:0:0:0:
111,107,253858,1,10,0:1:0:0:
380,62,254030,2,10,L|512:62,1,118.199996392822,10|10,0:0|0:1,0:0:0:0:
222,208,254372,6,10,L|218:70,1,118.199996392822,10|10,0:0|0:1,0:0:0:0:
385,78,254715,2,10,L|253:71,1,118.199996392822,10|10,0:0|0:1,0:0:0:0:
21,182,255058,2,10,L|179:179,1,118.199996392822,10|10,0:0|0:1,0:0:0:0:
382,101,255401,2,10,L|508:95,1,118.199996392822,14|10,0:0|0:1,0:0:0:0:
435,152,255658,1,8,0:0:0:0:
197,183,255744,6,10,L|76:182,2,118.199996392822,14|8|10,0:0|0:1|0:0,0:0:0:0:
460,249,256258,2,10,L|210:248,1,236.399992785645,10|10,0:1|0:1,0:0:0:0:
486,157,256772,2,10,L|352:155,1,118.199996392822,10|10,0:0|0:1,0:0:0:0:
61,169,257116,5,14,0:0:0:0:
227,177,257287,1,10,0:1:0:0:
61,169,257459,1,10,0:0:0:0:
361,185,257630,1,10,0:1:0:0:
208,126,257801,1,10,0:0:0:0:
56,102,257972,1,10,0:1:0:0:
361,185,258144,1,10,0:0:0:0:
208,126,258315,1,10,0:1:0:0:
472,168,258487,6,0,P|500:105|420:57,1,177.299994589234,14|8,0:0|0:0,0:0:0:0:
241,82,258830,2,8,L|179:80,1,59.0999981964112,8|8,0:1|0:1,0:1:0:0:
256,157,259001,2,8,L|322:158,1,59.0999981964112,8|8,0:1|0:1,0:1:0:0:
141,133,259173,2,8,L|74:134,3,59.0999981964112,8|8|8|8,0:3|0:3|0:3|0:3,0:3:0:0:
275,78,259515,2,4,L|343:76,1,59.0999981964112,4|4,0:3|0:3,0:3:0:0:
488,57,259687,2,4,L|499:-12,1,59.0999981964112,4|4,0:3|0:3,0:3:0:0:
274,153,259858,6,0,L|106:158,1,118.199996392822,14|2,0:0|0:0,0:0:0:0:
445,249,260201,2,0,L|307:242,1,118.199996392822,10|10,0:0|0:1,0:0:0:0:
51,175,260544,2,8,L|121:174,1,59.0999981964112,8|8,0:3|0:3,0:3:0:0:
314,120,260715,2,8,L|401:117,1,59.0999981964112,8|8,0:3|0:3,0:3:0:0:
180,66,260887,1,4,0:1:0:0:
314,120,261058,1,8,0:1:0:0:
51,175,261230,6,0,L|173:173,2,118.199996392822,14|10|10,0:0|0:1|0:0,0:0:0:0:
353,207,261744,2,0,L|96:200,1,236.399992785645,10|10,0:1|0:1,0:0:0:0:
393,118,262258,2,10,L|512:116,1,118.199996392822,10|10,0:0|0:1,0:0:0:0:
259,176,262601,6,10,L|397:171,2,118.199996392822,10|10|10,0:0|0:1|0:0,0:0:0:0:
24,294,263116,2,10,L|283:289,1,236.399992785645,10|10,0:1|0:1,0:0:0:0:
19,212,263630,2,10,L|155:210,1,118.199996392822,10|10,0:0|0:1,0:0:0:0:
479,147,263972,6,10,L|311:140,1,118.199996392822,14|10,0:0|0:1,0:0:0:0:
91,109,264315,1,10,0:0:0:0:
361,142,264487,1,10,0:1:0:0:
205,134,264658,1,10,0:0:0:0:
361,142,264830,1,10,0:1:0:0:
80,135,265001,2,10,L|67:287,1,118.199996392822,10|10,0:0|0:1,0:0:0:0:
331,271,265344,6,10,L|173:266,1,118.199996392822,10|10,0:0|0:1,0:0:0:0:
465,169,265687,2,10,L|478:36,1,118.199996392822,10|10,0:0|0:1,0:0:0:0:
226,80,266030,1,10,0:0:0:0:
381,82,266201,1,10,0:1:0:0:
147,78,266372,1,14,0:0:0:0:
302,80,266543,1,10,0:1:0:0:
62,133,266715,6,10,L|49:303,1,118.199996392822,14|10,0:0|0:1,0:0:0:0:
371,219,267058,1,14,0:0:0:0:
89,180,267230,2,10,L|216:181,2,118.199996392822,10|10|10,0:1|0:0|0:1,0:0:0:0:
375,90,267744,2,10,L|501:90,1,118.199996392822,14|10,0:0|0:1,0:0:0:0:
204,186,268087,6,0,L|274:181,1,59.0999981964112,14|0,0:0|0:0,0:0:0:0:
451,150,268258,2,8,L|378:146,1,59.0999981964112,8|8,0:1|0:1,0:0:0:0:
231,103,268430,2,8,L|164:103,1,59.0999981964112,8|8,0:1|0:1,0:1:0:0:
366,77,268601,6,8,L|289:76,1,59.0999981964112
108,62,268772,1,8,0:3:0:0:
55,76,268859,1,8,0:3:0:0:
51,131,268943,1,8,0:3:0:0:
101,153,269029,1,8,0:3:0:0:
336,198,269115,2,4,L|263:190,1,59.0999981964112,4|4,0:3|0:3,0:3:0:0:
126,166,269287,2,4,L|31:151,1,59.0999981964112,4|4,0:3|0:3,0:3:0:0:
305,104,269459,6,0,P|401:125|451:249,1,216.700006613159,14|8,0:0|0:0,0:0:0:0:
254,309,270144,2,0,L|474:214,1,216.700006613159,8|8,0:0|0:0,0:0:0:0:
26,172,270830,5,14,0:0:0:0:
171,180,271001,1,8,0:0:0:0:
26,172,271173,1,8,0:1:0:0:
311,241,271344,2,8,L|77:238,1,216.700006613159,14|10,0:0|0:0,0:0:0:0:
195,111,271859,2,0,L|81:163,1,108.35000330658,14|0,0:0|0:0,0:0:0:0:
405,239,272201,6,0,L|405:1,1,216.700006613159,14|8,0:0|0:0,0:0:0:0:
192,77,272887,2,0,P|98:85|14:196,1,216.700006613159,8|8,0:0|0:0,0:0:0:0:
441,212,273573,6,0,L|177:217,1,216.700006613159,14|0,0:0|0:0,0:0:0:0:
489,136,274087,2,0,L|239:136,1,216.700006613159,12|8,0:1|0:0,0:0:0:0:
379,77,274601,2,0,L|494:153,1,108.35000330658,8|8,0:0|0:1,0:0:0:0:
185,250,274944,6,0,P|130:227|206:124,1,216.700006613159,14|0,0:0|0:0,0:0:0:0:
467,167,275459,2,0,L|220:171,1,216.700006613159,2|0,0:0|0:0,0:0:0:0:
353,101,275973,2,0,L|452:180,1,108.35000330658,8|8,0:0|0:0,0:0:0:0:
144,216,276316,5,14,0:0:0:0:
291,168,276487,1,0,0:0:0:0:
439,129,276659,1,0,0:0:0:0:
144,216,276830,2,0,P|80:200|153:117,1,216.700006613159,12|0,0:0|0:0,0:0:0:0:
305,118,277344,2,0,L|426:117,1,108.35000330658,10|8,0:0|0:0,0:0:0:0:
121,186,277687,6,0,L|208:186,1,61.5625,14|8,0:1|0:1,0:1:0:0:
369,151,277859,2,8,L|439:151,1,61.5625
239,108,278030,2,8,L|160:108,3,61.5625,8|8|8|8,0:3|0:3|0:3|0:3,0:3:0:0:
23,117,278373,6,4,L|17:30,1,61.5625,4|4,0:3|0:3,0:3:0:0:
188,46,278544,2,4,L|284:44,1,61.5625,4|4,0:3|0:3,0:3:0:0:
415,67,278716,2,8,L|488:66,1,61.5625,8|8,3:2|3:2,3:2:0:0:
272,136,278887,2,8,L|192:134,1,61.5625,8|8,3:2|3:2,3:2:0:0:
386,128,279059,6,8,L|476:128,1,61.5625,8|8,0:3|0:3,0:3:0:0:
362,188,279230,2,8,L|283:188,1,61.5625,8|8,0:3|0:3,0:3:0:0:
123,177,279401,2,4,L|118:100,1,61.5625,4|4,0:3|0:3,0:3:0:0:
341,100,279573,2,4,L|243:101,1,61.5625,4|4,0:3|0:3,0:3:0:0:
95,222,279744,6,0,L|195:217,1,61.5625,6|0,0:0|0:0,0:0:0:0:
316,161,279916,2,8,L|326:256,1,61.5625
163,288,280087,2,8,L|249:273,1,61.5625,8|8,0:1|0:1,0:1:0:0:
397,238,280259,2,8,L|472:227,1,61.5625,8|8,0:1|0:1,0:1:0:0:
225,171,280430,6,0,L|94:172,1,108.35000330658,14|0,0:0|0:0,0:0:0:0:
399,113,280773,2,0,L|345:112,1,54.1750016532898,8|0,0:1|0:0,0:0:0:0:
184,239,280944,2,0,L|258:236,1,54.1750016532898,8|0,0:0|0:0,0:0:0:0:
399,113,281116,2,0,L|345:112,1,54.1750016532898,8|0,0:1|0:0,0:0:0:0:
180,201,281287,2,0,L|254:198,1,54.1750016532898,8|0,0:0|0:0,0:0:0:0:
399,113,281459,2,0,L|345:112,1,54.1750016532898,8|0,0:1|0:0,0:0:0:0:
170,142,281630,2,0,L|244:139,1,54.1750016532898,8|0,0:0|0:0,0:0:0:0:
479,237,281801,6,0,L|328:237,1,108.35000330658,8|0,0:1|0:0,0:0:0:0:
85,171,282144,1,8,0:1:0:0:
389,211,282316,2,0,L|228:207,1,108.35000330658,10|8,0:0|0:1,0:0:0:0:
40,117,282659,2,0,L|160:118,2,108.35000330658,10|12|8,0:0|0:1|0:0,0:0:0:0:
316,163,283173,6,0,L|469:164,1,108.35000330658,14|0,0:0|0:0,0:0:0:0:
113,113,283516,2,0,L|167:112,1,54.1750016532898,8|0,0:1|0:0,0:0:0:0:
316,212,283687,2,0,L|242:209,1,54.1750016532898,8|0,0:0|0:0,0:0:0:0:
113,113,283859,2,0,L|167:112,1,54.1750016532898,8|0,0:1|0:0,0:0:0:0:
332,161,284030,2,0,L|258:158,1,54.1750016532898,8|0,0:0|0:0,0:0:0:0:
113,113,284202,2,0,L|167:112,1,54.1750016532898,8|0,0:1|0:0,0:0:0:0:
351,108,284373,2,0,L|277:105,1,54.1750016532898,8|0,0:0|0:0,0:0:0:0:
117,240,284544,6,0,L|110:92,1,108.35000330658,8|0,0:1|0:0,0:0:0:0:
392,178,284887,1,8,0:1:0:0:
121,269,285059,1,10,0:0:0:0:
274,272,285230,1,2,0:0:0:0:
121,269,285401,1,8,0:0:0:0:
179,155,285487,1,8,0:0:0:0:
349,108,285573,2,8,L|427:109,1,54.1750016532898,8|8,0:3|0:3,0:3:0:0:
250,68,285744,2,4,L|175:68,1,54.1750016532898,4|4,0:3|0:3,0:3:0:0:
426,143,285916,6,0,L|431:276,1,108.35000330658,14|0,0:0|0:0,0:0:0:0:
163,250,286259,2,0,L|94:247,1,54.1750016532898,8|0,0:1|0:0,0:0:0:0:
337,204,286430,2,0,L|410:196,1,54.1750016532898,8|0,0:0|0:0,0:0:0:0:
153,195,286601,2,0,L|98:193,1,54.1750016532898,8|0,0:1|0:0,0:0:0:0:
354,140,286773,2,0,L|411:136,1,54.1750016532898,8|0,0:0|0:0,0:0:0:0:
141,143,286944,2,0,L|75:138,1,54.1750016532898,8|0,0:1|0:0,0:0:0:0:
368,96,287116,2,0,L|425:89,1,54.1750016532898,8|0,0:0|0:0,0:0:0:0:
150,151,287287,6,0,L|143:17,1,108.35000330658,8|0,0:1|0:0,0:0:0:0:
437,167,287630,1,8,0:1:0:0:
173,248,287801,2,0,L|426:252,1,216.700006613159,2|2,0:0|0:0,0:0:0:0:
156,138,288316,2,0,L|33:138,1,108.35000330658,12|0,0:1|0:0,0:0:0:0:
323,146,288659,6,8,L|416:146,2,54.1750016532898,14|8|8,0:0|0:0|0:0,0:0:0:0:
150,185,288916,1,8,0:0:0:0:
323,146,289001,2,0,L|331:63,1,54.1750016532898,8|0,0:1|0:0,0:0:0:0:
179,113,289173,2,0,L|169:29,1,54.1750016532898,8|0,0:1|0:0,0:0:0:0:
381,96,289344,6,8,L|387:12,1,54.1750016532898,8|8,0:1|0:1,0:1:0:0:
228,74,289516,2,8,L|221:9,1,54.1750016532898,8|8,0:1|0:1,0:1:0:0:
449,180,289687,2,8,L|358:180,1,54.1750016532898,8|8,0:3|0:3,0:3:0:0:
207,157,289859,2,8,L|130:153,1,54.1750016532898,8|8,0:3|0:3,0:3:0:0:
396,115,290030,5,4,3:3:0:0:
459,134,290115,1,4,0:3:0:0:
460,200,290201,1,4,3:3:0:0:
396,226,290287,1,4,0:3:0:0:
218,230,290373,2,8,L|134:226,1,54.1750016532898
349,300,290544,2,8,L|425:303,1,54.1750016532898
151,283,290716,6,0,P|98:261|168:199,1,162.52500495987,10|0,0:0|0:0,0:0:0:0:
331,127,291059,2,8,L|409:129,1,54.1750016532898,12|8,0:1|0:1,0:1:0:0:
177,52,291230,2,8,L|104:56,1,54.1750016532898,8|8,0:1|0:1,0:1:0:0:
374,51,291401,6,0,L|383:122,1,54.1750016532898,14|0,0:0|0:0,0:0:0:0:
193,254,291573,1,10,0:1:0:0:
202,180,291658,1,0,0:0:0:0:
256,130,291744,1,8,0:0:0:0:
331,127,291830,1,8,0:0:0:0:
103,191,291916,5,10,0:1:0:0:
41,165,292001,1,0,0:0:0:0:
42,98,292087,1,8,0:0:0:0:
103,74,292173,1,8,0:0:0:0:
306,197,292259,2,0,L|377:197,1,54.1750016532898,10|0,0:1|0:0,0:0:0:0:
187,265,292430,2,8,L|94:266,1,54.1750016532898
306,197,292601,2,0,L|377:197,1,54.1750016532898,10|0,0:1|0:0,0:0:0:0:
133,123,292773,6,0,L|16:125,1,108.35000330658,10|10,0:0|0:1,0:0:0:0:
299,124,293116,2,0,L|385:125,1,54.1750016532898,8|8,0:0|0:0,0:0:0:0:
116,235,293287,2,0,P|65:204|136:153,1,162.52500495987,10|0,0:1|0:0,0:0:0:0:
303,70,293630,2,0,L|311:149,1,54.1750016532898,10|0,0:1|0:0,0:0:0:0:
208,154,293801,2,0,L|199:86,1,54.1750016532898,8|8,0:0|0:0,0:0:0:0:
303,70,293973,2,0,L|311:149,1,54.1750016532898,10|0,0:1|0:0,0:0:0:0:
61,219,294144,6,0,L|148:211,1,54.1750016532898,14|0,0:0|0:0,0:0:0:0:
316,194,294316,2,8,L|325:267,1,54.1750016532898,8|8,0:1|0:0,0:0:0:0:
222,258,294487,2,8,L|214:179,1,54.1750016532898,10|8,0:0|0:0,0:0:0:0:
426,169,294659,2,8,L|334:168,1,54.1750016532898,8|8,0:1|0:0,0:0:0:0:
276,132,294830,6,8,L|368:131,1,54.1750016532898,10|8,0:0|0:0,0:0:0:0:
426,169,295001,2,8,L|334:168,1,54.1750016532898,8|8,0:1|0:0,0:0:0:0:
276,132,295173,2,8,L|368:131,1,54.1750016532898,10|8,0:0|0:0,0:0:0:0:
484,235,295344,2,8,L|421:235,1,54.1750016532898,8|8,0:1|0:0,0:0:0:0:
216,185,295516,6,0,L|85:183,1,108.35000330658,10|8,0:0|0:1,0:0:0:0:
387,119,295859,2,8,L|299:121,1,54.1750016532898
93,250,296030,2,0,P|32:226|109:140,1,216.700006613159,8|8,0:1|0:1,0:0:0:0:
337,171,296544,1,8,0:0:0:0:
253,170,296630,1,8,0:0:0:0:
169,167,296716,1,8,0:1:0:0:
451,219,296887,6,0,L|364:211,1,54.1750016532898,14|0,0:0|0:0,0:0:0:0:
196,194,297059,2,8,L|187:267,1,54.1750016532898,8|8,0:1|0:0,0:0:0:0:
290,258,297230,2,8,L|298:179,1,54.1750016532898,10|8,0:0|0:0,0:0:0:0:
86,169,297402,2,8,L|178:168,1,54.1750016532898,8|8,0:1|0:0,0:0:0:0:
325,144,297573,6,8,L|233:143,1,54.1750016532898,10|8,0:0|0:0,0:0:0:0:
86,169,297744,2,8,L|178:168,1,54.1750016532898,8|8,0:1|0:0,0:0:0:0:
325,144,297915,2,8,L|233:143,1,54.1750016532898,10|8,0:0|0:0,0:0:0:0:
54,234,298087,2,8,L|117:234,1,54.1750016532898,8|8,0:1|0:0,0:0:0:0:
296,185,298259,6,0,L|427:183,1,108.35000330658,14|8,0:0|0:1,0:0:0:0:
154,106,298601,2,8,L|49:108,1,54.1750016532898
363,227,298773,2,0,P|414:197|343:142,1,162.52500495987,12|0,0:1|0:0,0:0:0:0:
202,73,299116,2,0,L|132:74,1,54.1750016532898,8|0,0:1|0:0,0:0:0:0:
334,58,299287,2,0,L|395:59,1,54.1750016532898,10|0,0:0|0:0,0:0:0:0:
174,129,299459,2,0,L|101:131,1,54.1750016532898,8|0,0:1|0:0,0:0:0:0:
364,214,299630,6,0,P|415:190|340:133,1,162.52500495987,14|8,0:0|0:0,0:0:0:0:
215,101,299973,1,8,0:1:0:0:
56,104,300059,1,8,0:1:0:0:
215,101,300144,2,8,L|306:100,1,54.1750016532898
111,215,300316,6,8,L|40:215,1,54.1750016532898,8|8,0:3|0:3,0:3:0:0:
215,101,300487,2,8,L|306:100,1,54.1750016532898,8|8,0:3|0:3,0:3:0:0:
104,173,300659,2,4,L|33:173,1,54.1750016532898,4|4,0:3|0:3,0:3:0:0:
143,48,300830,2,4,L|234:47,1,54.1750016532898,4|4,0:3|0:3,0:3:0:0:
104,100,301001,6,0,L|39:99,1,54.1750016532898,14|0,0:0|0:0,0:0:0:0:
287,224,301173,2,0,L|371:222,1,54.1750016532898,2|0,0:0|0:0,0:0:0:0:
180,173,301344,2,0,L|104:172,1,54.1750016532898,8|0,0:1|0:0,0:0:0:0:
400,257,301516,5,12,0:0:0:0:
455,233,301601,1,8,0:3:0:0:
485,181,301687,1,4,0:3:0:0:
476,121,301773,1,4,0:3:0:0:
432,80,301858,1,8,0:0:0:0:
372,74,301944,1,8,0:0:0:0:
171,129,302030,2,8,L|82:130,1,54.1750016532898,8|8,0:1|0:1,0:1:0:0:
325,157,302201,2,8,L|411:160,1,54.1750016532898,8|8,0:1|0:1,0:1:0:0:
126,201,302373,6,0,P|122:133|364:281,1,650.100019839478,14|0,0:0|0:0,0:0:0:0:
178,224,303744,5,4,3:2:0:0:
128,191,303801,1,0,3:0:0:0:
110,141,303859,1,0,3:0:0:0:
110,141,303916,1,0,3:0:0:0:
128,191,303973,1,0,3:0:0:0:
178,224,304030,1,0,3:0:0:0:
323,238,304087,1,10,0:2:0:0:
377,233,304144,1,8,0:3:0:0:
323,238,304201,1,8,0:3:0:0:
197,148,304259,1,10,0:2:0:0:
143,143,304316,1,8,0:3:0:0:
197,148,304373,1,8,0:3:0:0:
346,188,304430,6,0,L|404:188,1,54.1750016532898,14|8,0:0|0:3,0:0:0:0:
194,68,304601,2,8,L|183:152,1,54.1750016532898,8|8,0:3|0:3,0:3:0:0:
418,71,304773,2,4,L|424:191,1,108.35000330658,4|4,0:3|0:3,0:3:0:0:
176,85,305116,6,0,L|49:87,1,108.35000330658,14|0,0:0|0:0,0:0:0:0:
400,226,305459,5,14,0:0:0:0:
256,192,305630,12,0,311716,0:0:0:0:
