osu file format v14

[General]
AudioFilename: audio.mp3
AudioLeadIn: 0
PreviewTime: 227587
Countdown: 0
SampleSet: Soft
StackLeniency: 0.7
Mode: 0
LetterboxInBreaks: 0
WidescreenStoryboard: 0

[Editor]
Bookmarks: 36316,82944,124087,135059,155630,181687,203630,228316,239287,269459,280430
DistanceSpacing: 2.5
BeatDivisor: 4
GridSize: 8
TimelineZoom: 1.6

[Metadata]
Title:Headless Goddess
TitleUnicode:Headless Goddess
Artist:FATE GEAR
ArtistUnicode:FATE GEAR
Creator:Elayue
Version:Chhinnamasta Devi
Source:
Tags:some hero japanese rock heavy metal j-rock jrock NANA NINO Haruka Taichou Mina隊長 Yuri Destrose
BeatmapID:3203932
BeatmapSetID:1568902

[Difficulty]
HPDrainRate:5
CircleSize:3.8
OverallDifficulty:9
ApproachRate:9
SliderMultiplier:1.7
SliderTickRate:1

[Events]
//Background and Video events
0,0,"yum.jpg",0,0
//Break Periods
//Storyboard Layer 0 (Background)
//Storyboard Layer 1 (Fail)
//Storyboard Layer 2 (Pass)
//Storyboard Layer 3 (Foreground)
//Storyboard Layer 4 (Overlay)
//Storyboard Sound Samples

[TimingPoints]
659,342.857142857143,4,2,1,65,1,0
659,-90.9090909090909,4,2,1,65,0,0
22601,-83.3333333333333,4,2,1,75,0,0
36316,-100,4,2,1,55,0,0
58259,-90.9090909090909,4,2,1,65,0,0
82944,-83.3333333333333,4,2,1,80,0,0
124087,-90.9090909090909,4,2,1,70,0,0
135059,-83.3333333333333,4,2,1,75,0,0
155973,-90.9090909090909,4,2,1,65,0,0
181687,-111.111111111111,4,2,1,50,0,0
203630,-90.9090909090909,4,2,1,65,0,0
228316,-100,4,2,1,60,0,0
239287,-83.3333333333333,4,2,1,80,0,0
269459,-333.333333333333,4,2,1,85,0,1
270830,-100,4,2,1,85,0,0
272201,-333.333333333333,4,2,1,85,0,1
273573,-100,4,2,1,85,0,0
275459,-222.222222222222,4,2,1,85,0,0
276316,-100,4,2,1,85,0,0
280430,-90.9090909090909,4,2,1,75,0,0
291401,-83.3333333333333,4,2,1,75,0,0
303659,-83.3333333333333,4,2,1,5,0,0
303744,-83.3333333333333,4,2,1,75,0,0
305459,-111.111111111111,4,2,1,75,0,0
311716,-111.111111111111,4,2,1,5,0,0

[Colours]
Combo1 : 205,155,255
Combo2 : 184,184,220

[HitObjects]
41,115,659,6,0,B|99:95|99:95|120:101|120:101|195:79,1,140.25000428009,2|0,1:0|0:0,0:0:0:0:
236,136,1001,1,8,0:0:0:0:
413,42,1173,2,0,P|479:46|503:108,1,140.25000428009,0|0,1:0|0:0,0:0:0:0:
456,203,1516,1,0,1:0:0:0:
452,189,1602,1,0,1:0:0:0:
448,175,1687,1,4,1:2:0:0:
305,85,2030,5,8,0:0:0:0:
377,293,2201,5,0,1:0:0:0:
359,339,2287,1,0,1:0:0:0:
311,351,2373,1,0,1:0:0:0:
269,331,2459,1,0,1:0:0:0:
259,286,2544,5,0,1:0:0:0:
268,266,2630,1,0,1:0:0:0:
276,244,2716,1,0,1:0:0:0:
285,220,2801,1,0,1:0:0:0:
260,179,2887,5,0,1:0:0:0:
252,165,2973,1,0,1:0:0:0:
244,150,3059,1,0,1:0:0:0:
236,136,3144,1,0,1:0:0:0:
252,107,3230,1,0,1:0:0:0:
257,98,3316,1,0,1:0:0:0:
262,89,3401,5,4,1:2:0:0:
171,40,3573,1,0,1:0:0:0:
138,28,3659,1,0,1:0:0:0:
108,19,3744,1,8,0:0:0:0:
0,205,3916,6,0,L|142:171,1,140.25000428009,6|0,1:0|0:0,0:0:0:0:
192,228,4259,1,0,1:0:0:0:
348,115,4430,1,14,0:0:0:0:
400,267,4773,1,0,1:1:0:0:
373,278,4859,1,0,1:1:0:0:
334,264,4944,1,0,1:1:0:0:
327,230,5030,1,0,1:1:0:0:
351,206,5116,5,0,1:1:0:0:
353,160,5201,1,0,1:1:0:0:
322,127,5287,1,0,1:1:0:0:
275,132,5373,1,0,1:1:0:0:
249,171,5459,1,0,1:1:0:0:
224,212,5544,1,0,1:1:0:0:
169,212,5630,1,0,1:1:0:0:
143,172,5716,1,0,1:1:0:0:
154,126,5801,2,0,L|137:61,3,46.7500014266968,0|0|0|0,1:0|1:0|1:0|1:0,0:0:0:0:
219,49,6144,6,0,B|68:23,1,140.25000428009,6|0,1:2|0:0,0:0:0:0:
19,76,6486,1,8,0:0:0:0:
169,212,6658,6,0,B|72:236|72:236|67:255|52:279,1,140.25000428009,6|0,1:2|0:0,0:0:0:0:
0,161,7001,1,0,1:0:0:0:
17,167,7087,1,0,1:0:0:0:
35,173,7172,1,14,0:0:0:0:
188,352,7515,5,8,0:0:0:0:
322,217,7686,1,8,0:0:0:0:
458,348,7858,5,0,1:0:0:0:
419,366,7944,1,0,1:0:0:0:
384,354,8029,1,0,1:0:0:0:
373,317,8115,1,0,1:0:0:0:
385,279,8201,1,0,1:0:0:0:
400,238,8286,1,0,1:0:0:0:
436,223,8372,5,0,1:0:0:0:
431,197,8458,1,0,1:0:0:0:
426,172,8544,1,0,1:0:0:0:
420,145,8629,1,0,1:0:0:0:
387,117,8715,5,0,1:0:0:0:
392,107,8801,1,0,1:0:0:0:
399,95,8887,1,6,1:2:0:0:
260,42,9058,1,0,1:0:0:0:
279,14,9143,1,0,1:0:0:0:
314,10,9229,1,10,0:0:0:0:
183,168,9401,6,0,L|46:135,1,140.25000428009,4|0,1:2|0:0,0:0:0:0:
250,120,9744,1,0,1:0:0:0:
385,279,9915,1,14,1:2:0:0:
48,288,11630,6,0,P|77:261|137:261,1,93.5000028533936,6|0,0:0|0:0,0:0:0:0:
292,329,11973,1,8,0:0:0:0:
300,155,12144,1,0,1:0:0:0:
300,155,12230,1,0,1:0:0:0:
300,155,12316,6,0,L|258:264,1,93.5000028533936,10|0,0:0|1:0,0:0:0:0:
431,112,12659,5,8,0:0:0:0:
464,192,12830,1,0,1:0:0:0:
305,52,13001,6,0,L|216:81,1,93.5000028533936,10|0,0:0|1:0,0:0:0:0:
385,0,13344,1,10,0:0:0:0:
195,168,13516,2,0,P|143:157|124:117,1,93.5000028533936,2|8,1:0|0:0,0:0:0:0:
19,2,13859,5,0,1:0:0:0:
84,42,14030,1,8,0:0:0:0:
23,190,14201,1,0,1:0:0:0:
23,190,14287,1,0,1:0:0:0:
23,190,14373,6,0,L|54:295,1,93.5000028533936,14|0,0:0|1:0,0:0:0:0:
245,342,14716,5,8,0:0:0:0:
125,243,14887,1,0,1:0:0:0:
125,243,14973,1,0,1:0:0:0:
125,243,15059,2,0,L|239:273,1,93.5000028533936,8|0,0:0|1:0,0:0:0:0:
422,223,15402,5,8,0:0:0:0:
365,290,15573,1,0,1:0:0:0:
510,383,15744,2,0,L|487:277,1,93.5000028533936,10|0,0:0|1:0,0:0:0:0:
358,175,16087,5,10,0:0:0:0:
501,158,16259,2,0,P|476:125|418:121,1,93.5000028533936,2|12,1:0|0:0,0:0:0:0:
279,206,16602,1,0,1:0:0:0:
179,10,16773,1,0,1:0:0:0:
202,3,16859,1,0,1:0:0:0:
225,12,16944,1,0,1:0:0:0:
236,34,17030,1,0,1:0:0:0:
239,51,17116,6,0,L|212:162,1,93.5000028533936,14|0,0:0|1:0,0:0:0:0:
106,229,17459,1,8,0:0:0:0:
19,93,17630,1,0,1:0:0:0:
19,93,17716,1,0,1:0:0:0:
19,93,17802,2,0,L|43:209,1,93.5000028533936,8|0,0:0|1:0,0:0:0:0:
0,384,18145,1,8,0:0:0:0:
62,310,18316,1,0,1:0:0:0:
220,384,18487,6,0,B|263:372|263:372|267:375|267:375|318:360,1,93.5000028533936,10|0,0:0|1:0,0:0:0:0:
157,326,18830,1,8,0:0:0:0:
251,178,19002,2,0,L|222:266,1,93.5000028533936,2|8,1:0|0:0,0:0:0:0:
111,57,19345,5,0,1:0:0:0:
169,133,19516,1,8,0:0:0:0:
305,78,19687,5,0,1:0:0:0:
373,8,19859,1,10,0:0:0:0:
373,8,19944,1,0,1:0:0:0:
373,8,20030,2,0,L|432:19,3,46.7500014266968,0|0|0|0,1:0|1:0|1:0|1:0,0:0:0:0:
491,80,20373,2,0,L|430:94,3,46.7500014266968,0|0|0|0,1:0|1:0|1:0|1:0,0:0:0:0:
399,161,20716,1,0,1:0:0:0:
399,161,20801,1,0,1:0:0:0:
399,161,20887,2,0,L|384:223,1,46.7500014266968,8|0,0:0|1:0,0:0:0:0:
482,292,21059,2,0,L|467:230,1,46.7500014266968,0|0,1:0|1:0,0:0:0:0:
334,334,21230,5,2,1:0:0:0:
303,325,21316,1,0,1:0:0:0:
268,314,21401,1,0,1:0:0:0:
240,307,21487,1,0,1:0:0:0:
210,297,21573,2,0,L|149:280,1,46.7500014266968,0|0,1:0|1:0,0:0:0:0:
0,384,21744,1,2,1:0:0:0:
56,367,21830,1,0,1:0:0:0:
106,347,21916,5,12,0:0:0:0:
202,198,22087,1,0,1:0:0:0:
82,252,22259,5,0,1:0:0:0:
16,140,22430,1,0,1:0:0:0:
16,140,22516,1,0,1:0:0:0:
16,140,22601,2,0,L|48:19,1,101.999996887207,14|0,0:0|0:0,0:0:0:0:
171,66,22944,1,0,1:0:0:0:
171,66,23030,1,0,1:0:0:0:
171,66,23116,2,0,L|101:88,1,50.9999984436036,8|0,0:0|1:0,0:0:0:0:
233,0,23287,2,0,L|291:21,3,50.9999984436036,0|0|8|0,1:0|1:0|0:0|1:0,0:0:0:0:
338,85,23630,2,0,L|355:149,3,50.9999984436036,0|0|8|0,1:0|1:0|0:0|1:0,0:0:0:0:
456,0,23973,6,0,L|423:115,1,101.999996887207,2|8,1:0|0:0,0:0:0:0:
348,219,24316,1,2,1:0:0:0:
348,219,24401,1,0,1:0:0:0:
348,219,24487,2,0,P|386:248|390:306,1,101.999996887207,10|0,0:0|1:0,0:0:0:0:
305,384,24830,1,8,0:0:0:0:
305,384,24916,1,0,1:0:0:0:
305,384,25001,2,0,L|317:317,1,50.9999984436036,0|0,1:0|1:0,0:0:0:0:
227,215,25173,2,0,L|247:275,1,50.9999984436036,8|0,0:0|1:0,0:0:0:0:
112,370,25344,6,0,L|213:336,1,101.999996887207,6|8,1:2|0:0,0:0:0:0:
27,280,25687,1,0,1:0:0:0:
27,280,25773,1,0,1:0:0:0:
27,280,25859,2,0,L|97:302,1,50.9999984436036,8|0,0:0|1:0,0:0:0:0:
49,197,26030,2,0,L|36:136,3,50.9999984436036,0|0|8|0,1:0|1:0|0:0|1:0,0:0:0:0:
109,109,26373,2,0,L|122:59,3,50.9999984436036,0|0|8|0,1:0|1:0|0:0|1:0,0:0:0:0:
177,162,26716,6,0,L|279:127,1,101.999996887207,2|8,1:0|0:0,0:0:0:0:
380,71,27059,1,2,1:0:0:0:
380,71,27144,1,0,1:0:0:0:
380,71,27230,2,0,L|358:170,1,101.999996887207,10|0,0:0|1:0,0:0:0:0:
418,254,27573,1,8,0:0:0:0:
418,254,27659,1,0,1:0:0:0:
418,254,27744,2,0,L|434:325,1,50.9999984436036,0|0,1:0|1:0,0:0:0:0:
328,380,27916,2,0,L|344:328,1,50.9999984436036,8|0,0:0|1:0,0:0:0:0:
235,246,28087,6,0,B|194:252|194:252|191:259|191:259|125:271,1,101.999996887207,6|0,1:2|0:0,0:0:0:0:
60,369,28430,1,0,1:0:0:0:
60,369,28516,1,0,1:0:0:0:
60,369,28602,2,0,L|79:309,1,50.9999984436036,8|0,0:0|1:0,0:0:0:0:
151,183,28773,2,0,L|134:127,3,50.9999984436036,0|0|8|0,1:0|1:0|0:0|1:0,0:0:0:0:
75,74,29116,2,0,L|84:23,3,50.9999984436036,0|0|8|0,1:0|1:0|0:0|1:0,0:0:0:0:
195,73,29459,6,0,P|230:36|288:39,1,101.999996887207,6|8,1:2|0:0,0:0:0:0:
328,181,29802,1,2,1:0:0:0:
328,181,29887,1,0,1:0:0:0:
328,181,29973,2,0,L|227:154,1,101.999996887207,10|0,0:0|1:0,0:0:0:0:
365,12,30316,1,8,0:0:0:0:
365,12,30402,1,0,1:0:0:0:
365,12,30487,2,0,L|378:81,1,50.9999984436036,0|0,1:0|1:0,0:0:0:0:
439,124,30659,2,0,L|422:175,1,50.9999984436036,8|0,0:0|1:0,0:0:0:0:
276,285,30830,6,0,L|381:255,1,101.999996887207,6|8,1:2|0:0,0:0:0:0:
465,335,31173,1,0,1:0:0:0:
465,335,31259,1,0,1:0:0:0:
465,335,31345,2,0,L|395:313,1,50.9999984436036,8|0,0:0|1:0,0:0:0:0:
258,365,31516,2,0,L|208:351,3,50.9999984436036,0|0|8|0,1:0|1:0|0:0|1:0,0:0:0:0:
144,306,31859,2,0,L|93:314,3,50.9999984436036,0|0|8|0,1:0|1:0|0:0|1:0,0:0:0:0:
193,244,32202,6,0,L|222:137,1,101.999996887207,6|8,1:2|0:0,0:0:0:0:
195,0,32545,1,2,1:0:0:0:
195,0,32630,1,0,1:0:0:0:
195,0,32716,2,0,P|154:29|148:78,1,101.999996887207,10|0,0:0|1:0,0:0:0:0:
340,89,33059,1,8,0:0:0:0:
340,89,33145,1,0,1:0:0:0:
340,89,33230,2,0,L|264:105,1,50.9999984436036,0|0,1:0|1:0,0:0:0:0:
132,158,33402,2,0,L|75:137,1,50.9999984436036,8|0,0:0|1:0,0:0:0:0:
273,19,33573,5,4,0:0:0:0:
447,201,34944,6,0,L|373:225,3,50.9999984436036,0|0|0|0,1:0|1:0|1:0|1:0,0:0:0:0:
335,260,35287,6,0,L|260:235,3,50.9999984436036,0|0|0|0,1:0|1:0|1:0|1:0,0:0:0:0:
236,179,35630,6,0,L|161:203,3,50.9999984436036,0|0|0|0,1:0|1:0|1:0|1:0,0:0:0:0:
122,241,35973,6,0,L|56:222,3,50.9999984436036,4|0|0|0,1:2|1:0|1:0|1:0,0:0:0:0:
9,271,36316,6,0,L|31:355,1,85,4|8,1:2|0:0,0:0:0:0:
86,152,36659,1,2,1:0:0:0:
86,152,36744,1,0,1:0:0:0:
86,152,36830,1,8,0:0:0:0:
2,38,37001,2,0,P|55:-10|128:23,1,127.5,2|2,1:0|0:0,0:0:0:0:
173,57,37344,2,0,L|226:76,2,42.5,2|0|8,1:0|1:0|0:0,0:0:0:0:
382,1,37687,6,0,L|299:20,1,85,2|8,1:0|0:0,0:0:0:0:
487,123,38030,1,2,1:0:0:0:
487,123,38116,1,0,1:0:0:0:
487,123,38201,2,0,L|375:91,1,85,10|0,0:0|1:0,0:0:0:0:
307,97,38544,1,8,0:0:0:0:
445,215,38716,1,2,1:0:0:0:
437,240,38801,1,0,1:0:0:0:
415,248,38887,1,8,0:0:0:0:
285,197,39059,6,0,L|398:175,1,85,2|8,1:0|0:0,0:0:0:0:
240,269,39401,1,0,1:0:0:0:
240,269,39487,1,0,1:0:0:0:
240,269,39573,1,8,0:0:0:0:
136,187,39744,5,2,1:0:0:0:
25,279,39916,2,0,L|-8:384,1,85,10|0,0:0|1:0,0:0:0:0:
119,277,40259,1,10,0:0:0:0:
194,114,40430,2,0,L|160:13,1,85,0|8,1:0|0:0,0:0:0:0:
265,167,40773,1,2,1:0:0:0:
249,186,40859,1,0,1:0:0:0:
221,191,40944,1,8,0:0:0:0:
69,85,41116,2,0,L|206:116,1,127.5,2|0,1:0|0:0,0:0:0:0:
271,70,41459,1,2,1:0:0:0:
271,70,41544,1,0,1:0:0:0:
271,70,41630,1,8,0:0:0:0:
333,216,41801,6,0,L|355:305,1,85,6|8,1:2|0:0,0:0:0:0:
383,156,42144,1,0,1:0:0:0:
383,156,42229,1,0,1:0:0:0:
383,156,42315,1,8,0:0:0:0:
350,69,42487,1,2,1:0:0:0:
511,43,42659,2,0,L|416:21,1,85,10|0,0:0|1:0,0:0:0:0:
413,0,42916,1,0,1:0:0:0:
413,0,43001,1,10,0:0:0:0:
458,189,43172,6,0,L|476:272,1,85,0|8,1:0|0:0,0:0:0:0:
301,384,43515,1,2,1:0:0:0:
301,384,43601,1,0,1:0:0:0:
301,384,43687,1,8,0:0:0:0:
423,335,43859,5,2,1:0:0:0:
353,298,44029,1,8,0:0:0:0:
218,366,44201,1,2,1:0:0:0:
192,363,44286,1,0,1:0:0:0:
176,340,44372,1,8,0:0:0:0:
284,215,44544,6,0,L|268:132,1,85,6|0,1:2|0:0,0:0:0:0:
248,292,44886,1,0,1:0:0:0:
248,292,44972,1,0,1:0:0:0:
248,292,45058,1,10,0:0:0:0:
56,215,45229,5,0,1:0:0:0:
162,168,45401,1,8,0:0:0:0:
106,295,45573,5,0,1:0:0:0:
2,133,45744,1,8,0:0:0:0:
174,7,45915,6,0,L|140:108,1,85,4|0,1:2|0:0,0:0:0:0:
375,196,46258,1,8,0:0:0:0:
403,191,46343,1,0,1:0:0:0:
419,172,46429,1,0,1:0:0:0:
219,132,46601,2,0,L|353:105,1,127.5,0|0,1:0|1:0,0:0:0:0:
403,44,46944,1,0,1:0:0:0:
420,51,47029,1,0,1:0:0:0:
438,58,47115,1,0,1:0:0:0:
375,196,47287,5,4,1:2:0:0:
446,271,47459,1,8,0:0:0:0:
303,371,47630,1,0,1:0:0:0:
303,371,47715,1,0,1:0:0:0:
303,371,47801,1,8,0:0:0:0:
446,271,47972,2,0,L|343:301,1,85,2|8,1:0|0:0,0:0:0:0:
213,384,48315,2,0,L|170:372,2,42.5,0|0|8,1:0|1:0|0:0,0:0:0:0:
215,221,48658,6,0,L|234:304,1,85,2|8,1:0|0:0,0:0:0:0:
66,381,49001,1,2,1:0:0:0:
66,381,49087,1,0,1:0:0:0:
66,381,49172,2,0,L|98:276,1,85,10|0,0:0|1:0,0:0:0:0:
30,148,49515,1,8,0:0:0:0:
133,234,49687,1,2,1:0:0:0:
105,222,49772,1,0,1:0:0:0:
77,213,49858,1,8,0:0:0:0:
86,80,50030,6,0,L|169:60,1,85,2|8,1:0|0:0,0:0:0:0:
297,162,50372,1,0,1:0:0:0:
297,162,50458,1,0,1:0:0:0:
297,162,50544,1,8,0:0:0:0:
232,0,50715,5,2,1:0:0:0:
364,113,50887,2,0,L|445:138,1,85,10|0,0:0|1:0,0:0:0:0:
209,192,51230,1,10,0:0:0:0:
299,312,51401,6,0,P|327:281|329:239,1,85,0|8,1:0|0:0,0:0:0:0:
175,280,51744,1,0,1:0:0:0:
202,284,51829,1,0,1:0:0:0:
218,307,51915,1,8,0:0:0:0:
15,377,52087,2,0,P|84:368|103:312,1,127.5,2|0,1:0|0:0,0:0:0:0:
55,256,52430,1,2,1:0:0:0:
55,256,52515,1,0,1:0:0:0:
55,256,52601,1,8,0:0:0:0:
185,112,52772,6,0,L|163:201,1,85,6|8,1:2|0:0,0:0:0:0:
146,43,53115,1,0,1:0:0:0:
146,43,53200,1,0,1:0:0:0:
146,43,53286,1,8,0:0:0:0:
269,0,53458,5,2,1:0:0:0:
368,62,53630,2,0,L|387:150,1,85,10|0,0:0|1:0,0:0:0:0:
365,219,53887,1,0,1:0:0:0:
365,219,53972,1,10,0:0:0:0:
418,324,54144,6,0,B|453:334|453:334|458:332|458:332|499:343,1,85,0|8,1:0|0:0,0:0:0:0:
347,365,54486,1,2,1:0:0:0:
347,365,54572,1,0,1:0:0:0:
347,365,54658,1,8,0:0:0:0:
205,255,54830,5,2,1:0:0:0:
273,295,55000,1,8,0:0:0:0:
113,384,55173,1,2,1:0:0:0:
83,372,55259,1,0,0:0:0:0:
58,365,55344,1,8,0:0:0:0:
151,178,55516,5,6,1:2:0:0:
136,97,55859,1,2,1:0:0:0:
54,108,56201,1,2,1:0:0:0:
68,192,56544,5,0,1:0:0:0:
227,103,56716,1,8,0:0:0:0:
342,235,56887,5,6,1:2:0:0:
402,112,57059,1,8,0:0:0:0:
416,134,57144,1,0,1:0:0:0:
412,160,57230,1,0,1:0:0:0:
258,237,57401,1,0,1:0:0:0:
244,215,57486,1,0,1:0:0:0:
248,189,57572,1,0,1:0:0:0:
419,277,57744,1,8,0:0:0:0:
309,356,57916,5,0,1:0:0:0:
279,347,58001,1,0,1:0:0:0:
247,340,58087,1,0,1:0:0:0:
221,332,58173,1,0,1:0:0:0:
194,326,58259,1,2,1:0:0:0:
105,212,58430,5,8,0:0:0:0:
70,366,58601,1,0,1:0:0:0:
70,366,58687,1,0,1:0:0:0:
70,366,58773,2,0,L|31:235,1,93.5000028533936,10|0,0:0|1:0,0:0:0:0:
133,106,59116,1,8,0:0:0:0:
180,174,59287,2,0,P|150:208|101:210,1,93.5000028533936,2|8,1:0|0:0,0:0:0:0:
0,20,59630,2,0,L|102:41,1,93.5000028533936,0|8,1:0|0:0,0:0:0:0:
224,108,59973,1,0,1:0:0:0:
224,108,60059,1,0,1:0:0:0:
224,108,60144,6,0,L|328:77,1,93.5000028533936,8|0,0:0|1:0,0:0:0:0:
412,109,60487,1,8,0:0:0:0:
488,0,60659,1,0,1:0:0:0:
461,0,60745,1,0,1:0:0:0:
444,20,60830,1,8,0:0:0:0:
512,160,61001,5,2,1:0:0:0:
433,284,61172,1,8,0:0:0:0:
296,185,61343,1,0,1:0:0:0:
296,185,61429,1,0,1:0:0:0:
296,185,61515,2,0,B|341:199|341:199|344:198|344:198|405:218,1,93.5000028533936,10|0,0:0|1:0,0:0:0:0:
247,279,61858,1,8,0:0:0:0:
123,169,62029,2,0,P|77:172|47:206,1,93.5000028533936,2|8,1:0|0:0,0:0:0:0:
128,344,62372,6,0,L|155:242,1,93.5000028533936,2|8,1:0|0:0,0:0:0:0:
245,113,62715,1,0,1:0:0:0:
245,113,62801,1,0,1:0:0:0:
245,113,62887,2,0,L|216:-1,1,93.5000028533936,10|0,0:0|1:0,0:0:0:0:
210,190,63229,1,8,0:0:0:0:
142,43,63401,2,0,P|73:29|28:106,1,140.25000428009,4|0,1:2|1:0,0:0:0:0:
62,152,63744,5,6,1:2:0:0:
7,217,63915,1,8,0:0:0:0:
110,310,64086,1,0,1:0:0:0:
110,310,64172,1,0,1:0:0:0:
110,310,64258,2,0,P|75:343|13:326,1,93.5000028533936,10|0,0:0|1:0,0:0:0:0:
185,263,64601,1,8,0:0:0:0:
348,333,64772,2,0,L|238:361,1,93.5000028533936,2|8,1:0|0:0,0:0:0:0:
212,182,65115,2,0,L|314:203,1,93.5000028533936,0|8,1:0|0:0,0:0:0:0:
461,368,65458,1,0,1:0:0:0:
461,368,65544,1,0,1:0:0:0:
461,368,65629,6,0,L|432:254,1,93.5000028533936,8|2,0:0|1:0,0:0:0:0:
512,241,65972,1,8,0:0:0:0:
410,170,66144,1,0,1:0:0:0:
399,191,66230,1,0,1:0:0:0:
389,213,66315,1,8,0:0:0:0:
512,114,66487,5,6,1:2:0:0:
460,36,66658,1,8,0:0:0:0:
341,111,66829,1,0,1:0:0:0:
341,111,66915,1,0,1:0:0:0:
341,111,67001,2,0,B|300:97|300:97|296:99|296:99|244:85,1,93.5000028533936,10|0,0:0|1:0,0:0:0:0:
110,139,67344,1,8,0:0:0:0:
140,0,67516,1,2,1:0:0:0:
161,29,67601,1,0,1:0:0:0:
157,59,67687,1,8,0:0:0:0:
28,169,67859,5,6,1:2:0:0:
4,203,67944,1,0,1:0:0:0:
9,241,68030,1,0,1:0:0:0:
44,264,68116,1,0,1:0:0:0:
81,263,68201,1,0,1:0:0:0:
111,236,68287,1,0,1:0:0:0:
112,203,68373,1,2,1:0:0:0:
193,316,68544,5,8,0:0:0:0:
236,305,68630,1,0,1:0:0:0:
279,297,68716,1,0,1:0:0:0:
314,289,68801,1,0,1:0:0:0:
342,312,68887,1,8,0:0:0:0:
362,319,68973,1,0,1:0:0:0:
379,326,69059,1,0,1:0:0:0:
394,330,69144,1,0,1:0:0:0:
428,308,69230,5,6,1:2:0:0:
365,194,69401,1,8,0:0:0:0:
512,72,69572,1,0,1:0:0:0:
512,72,69658,1,0,1:0:0:0:
512,72,69744,2,0,B|496:116|496:116|497:121|497:121|474:182,1,93.5000028533936,10|0,0:0|1:0,0:0:0:0:
281,132,70087,1,8,0:0:0:0:
381,25,70259,1,2,1:0:0:0:
409,30,70344,1,0,1:0:0:0:
422,55,70430,1,8,0:0:0:0:
238,63,70601,6,0,L|147:40,1,93.5000028533936,2|8,1:0|0:0,0:0:0:0:
34,130,70944,1,0,1:0:0:0:
59,143,71030,1,0,1:0:0:0:
81,129,71115,2,0,L|36:5,1,93.5000028533936,10|0,0:0|1:0,0:0:0:0:
172,181,71458,1,8,0:0:0:0:
74,325,71630,1,2,1:0:0:0:
77,306,71716,1,0,1:0:0:0:
81,286,71801,1,8,0:0:0:0:
182,370,71972,1,2,1:0:0:0:
291,231,72143,5,8,0:0:0:0:
420,352,72316,1,0,1:0:0:0:
420,352,72401,1,0,1:0:0:0:
420,352,72487,2,0,L|289:313,1,93.5000028533936,10|0,0:0|1:0,0:0:0:0:
446,122,72829,1,8,0:0:0:0:
405,259,73001,2,0,L|372:152,1,93.5000028533936,2|8,1:0|0:0,0:0:0:0:
256,31,73344,2,0,P|220:58|226:116,1,93.5000028533936,2|8,1:0|0:0,0:0:0:0:
283,153,73686,1,0,1:0:0:0:
426,31,73859,6,0,L|335:54,1,93.5000028533936,10|0,0:0|1:0,0:0:0:0:
256,31,74201,1,8,0:0:0:0:
68,9,74373,5,0,1:0:0:0:
118,83,74544,1,8,0:0:0:0:
28,233,74716,5,2,1:0:0:0:
60,156,74887,1,8,0:0:0:0:
177,231,75058,1,0,1:0:0:0:
177,231,75144,1,0,1:0:0:0:
177,231,75230,2,0,L|291:259,1,93.5000028533936,10|0,0:0|1:0,0:0:0:0:
426,218,75573,1,8,0:0:0:0:
353,332,75744,2,0,P|398:329|430:287,1,93.5000028533936,2|8,1:0|0:0,0:0:0:0:
303,178,76087,6,0,L|282:76,1,93.5000028533936,2|8,1:0|0:0,0:0:0:0:
416,56,76430,1,0,1:0:0:0:
416,56,76516,1,0,1:0:0:0:
416,56,76601,2,0,P|395:25|320:30,1,93.5000028533936,10|0,0:0|1:0,0:0:0:0:
211,60,76944,1,8,0:0:0:0:
157,193,77116,5,2,1:0:0:0:
109,125,77287,1,8,0:0:0:0:
52,277,77459,5,6,1:2:0:0:
19,347,77630,1,8,0:0:0:0:
225,226,77801,5,0,1:0:0:0:
246,247,77887,1,0,1:0:0:0:
246,275,77973,1,8,0:0:0:0:
134,376,78144,5,0,1:0:0:0:
143,347,78230,1,0,1:0:0:0:
169,329,78316,1,8,0:0:0:0:
305,384,78487,5,2,1:0:0:0:
335,376,78573,1,0,1:0:0:0:
358,368,78659,1,8,0:0:0:0:
512,270,78830,5,2,1:0:0:0:
480,264,78916,1,0,1:0:0:0:
446,258,79001,2,0,B|401:245|401:245|397:248|397:248|340:234,1,93.5000028533936,12|0,0:0|0:0,0:0:0:0:
253,61,79344,5,0,1:0:0:0:
313,124,79516,1,8,0:0:0:0:
135,221,79687,5,0,1:0:0:0:
169,152,79859,1,8,0:0:0:0:
43,45,80030,5,0,1:0:0:0:
87,117,80201,1,8,0:0:0:0:
26,274,80373,5,2,1:0:0:0:
34,326,80459,1,0,1:0:0:0:
84,342,80544,1,8,0:0:0:0:
126,324,80630,1,0,1:0:0:0:
153,289,80716,5,0,1:0:0:0:
190,278,80801,1,0,1:0:0:0:
222,272,80887,1,8,0:0:0:0:
248,251,80973,5,0,1:0:0:0:
271,257,81059,1,0,1:0:0:0:
290,264,81144,1,0,1:0:0:0:
330,266,81230,5,10,0:0:0:0:
370,298,81316,1,0,1:0:0:0:
368,353,81401,1,0,1:0:0:0:
316,378,81487,1,0,1:0:0:0:
276,355,81573,1,6,1:2:0:0:
428,103,82944,6,0,P|391:69|316:105,1,101.999996887207,6|8,1:2|0:0,0:0:0:0:
291,135,83201,1,0,1:0:0:0:
291,135,83287,1,0,1:0:0:0:
57,10,83459,2,0,L|209:33,1,152.999995330811,10|0,0:0|0:0,0:0:0:0:
221,47,83801,1,8,0:0:0:0:
82,101,83973,1,2,1:0:0:0:
84,237,84144,1,8,0:0:0:0:
91,248,84230,1,0,1:0:0:0:
103,248,84316,6,0,P|139:219|140:159,1,101.999996887207,2|8,1:0|0:0,0:0:0:0:
19,305,84659,1,0,1:0:0:0:
203,366,84830,2,0,L|309:335,1,101.999996887207,10|0,0:0|1:0,0:0:0:0:
425,209,85173,1,8,0:0:0:0:
389,284,85344,1,2,1:0:0:0:
499,328,85516,5,8,0:0:0:0:
339,157,85687,2,0,L|228:139,1,101.999996887207,6|8,1:2|0:0,0:0:0:0:
460,67,86030,1,0,1:0:0:0:
458,51,86116,1,0,1:0:0:0:
441,41,86201,6,0,B|400:53|400:53|399:58|399:58|345:75,1,101.999996887207,10|0,0:0|1:0,0:0:0:0:
99,121,86544,1,8,0:0:0:0:
238,140,86716,2,0,P|208:179|159:186,1,101.999996887207,2|8,1:0|0:0,0:0:0:0:
21,88,87059,5,2,1:0:0:0:
87,38,87230,1,8,0:0:0:0:
175,270,87401,5,0,1:0:0:0:
72,206,87573,1,8,0:0:0:0:
0,384,87744,6,0,L|111:352,1,101.999996887207,2|8,1:0|0:0,0:0:0:0:
330,257,88087,1,6,1:2:0:0:
284,346,88259,1,8,0:0:0:0:
239,142,88430,6,0,L|206:31,1,101.999996887207,6|8,1:2|0:0,0:0:0:0:
234,25,88687,1,0,1:0:0:0:
234,25,88773,1,0,1:0:0:0:
447,136,88945,2,0,P|409:84|313:112,1,152.999995330811,10|0,0:0|0:0,0:0:0:0:
321,115,89287,1,8,0:0:0:0:
204,226,89459,1,0,1:0:0:0:
43,69,89630,1,8,0:0:0:0:
43,69,89716,1,0,1:0:0:0:
43,69,89802,6,0,L|148:102,1,101.999996887207,2|8,1:0|0:0,0:0:0:0:
267,290,90145,1,0,1:0:0:0:
94,174,90316,2,0,L|122:272,1,101.999996887207,10|0,0:0|1:0,0:0:0:0:
0,384,90659,1,8,0:0:0:0:
46,303,90830,1,0,1:0:0:0:
196,365,91002,1,8,0:0:0:0:
345,249,91173,6,0,B|392:263|392:263|395:269|395:269|442:283,1,101.999996887207,6|0,1:2|0:0,0:0:0:0:
256,63,91516,5,8,0:0:0:0:
223,105,91602,1,0,1:0:0:0:
244,162,91687,1,0,1:0:0:0:
299,175,91773,1,0,1:0:0:0:
335,144,91859,1,0,1:0:0:0:
374,125,91944,5,0,1:0:0:0:
405,132,92030,1,0,1:0:0:0:
427,149,92116,1,0,1:0:0:0:
437,170,92201,1,0,1:0:0:0:
449,179,92287,5,0,1:0:0:0:
462,182,92373,1,0,1:0:0:0:
474,177,92459,1,0,1:0:0:0:
477,167,92544,5,4,1:2:0:0:
345,249,92716,1,0,1:0:0:0:
163,198,92887,1,8,0:0:0:0:
140,204,92973,1,0,1:0:0:0:
114,211,93059,1,0,1:0:0:0:
93,218,93144,1,0,1:0:0:0:
68,225,93230,1,6,1:2:0:0:
210,358,93401,5,0,1:0:0:0:
250,263,93573,1,2,1:0:0:0:
143,114,93744,1,8,0:0:0:0:
143,114,93830,1,0,1:0:0:0:
143,114,93916,6,0,L|174:7,1,101.999996887207,6|8,1:2|0:0,0:0:0:0:
328,119,94259,1,0,1:0:0:0:
328,119,94344,1,0,1:0:0:0:
328,119,94431,2,0,L|209:150,1,101.999996887207,10|0,0:0|1:0,0:0:0:0:
385,32,94773,1,8,0:0:0:0:
487,148,94945,1,0,1:0:0:0:
387,273,95116,1,8,0:0:0:0:
377,269,95202,1,0,1:0:0:0:
370,260,95288,2,0,P|370:199|421:171,1,101.999996887207,2|8,1:0|0:0,0:0:0:0:
508,378,95631,1,0,1:0:0:0:
509,379,95716,1,0,1:0:0:0:
508,378,95802,6,0,L|409:349,1,101.999996887207,10|0,0:0|1:0,0:0:0:0:
236,384,96145,1,8,0:0:0:0:
280,275,96316,1,2,1:0:0:0:
300,299,96401,1,0,1:0:0:0:
294,325,96487,1,8,0:0:0:0:
83,293,96659,2,0,L|182:321,1,101.999996887207,6|8,1:2|0:0,0:0:0:0:
77,163,97002,1,0,1:0:0:0:
91,149,97088,1,0,1:0:0:0:
113,147,97173,6,0,P|147:177|142:244,1,101.999996887207,10|0,0:0|1:0,0:0:0:0:
0,321,97516,1,8,0:0:0:0:
0,119,97688,2,0,L|29:0,1,101.999996887207,2|8,1:0|0:0,0:0:0:0:
220,19,98031,5,2,1:0:0:0:
137,54,98202,1,8,0:0:0:0:
257,190,98373,1,0,1:0:0:0:
288,200,98459,1,0,1:0:0:0:
319,210,98545,1,8,0:0:0:0:
409,12,98716,6,0,L|437:109,1,101.999996887207,2|8,1:0|0:0,0:0:0:0:
343,296,99059,1,6,1:2:0:0:
403,230,99231,1,8,0:0:0:0:
501,334,99402,6,0,P|470:371|402:360,1,101.999996887207,6|8,1:2|0:0,0:0:0:0:
397,379,99659,1,0,0:0:0:0:
397,379,99745,1,0,1:0:0:0:
320,210,99917,2,0,L|218:227,1,101.999996887207,10|0,0:0|1:0,0:0:0:0:
112,300,100259,1,8,0:0:0:0:
118,166,100431,1,2,1:0:0:0:
141,180,100516,1,0,1:0:0:0:
143,207,100602,1,8,0:0:0:0:
0,371,100774,6,0,L|31:261,1,101.999996887207,2|8,1:0|0:0,0:0:0:0:
97,66,101117,1,0,1:0:0:0:
97,66,101201,1,0,1:0:0:0:
97,66,101288,2,0,L|120:177,1,101.999996887207,10|0,0:0|1:0,0:0:0:0:
19,22,101631,1,8,0:0:0:0:
197,116,101802,1,2,1:0:0:0:
216,122,101887,1,0,1:0:0:0:
233,126,101974,1,8,0:0:0:0:
370,3,102145,2,0,L|266:32,1,101.999996887207,6|0,1:2|0:0,0:0:0:0:
467,50,102488,5,8,0:0:0:0:
424,68,102574,1,0,1:0:0:0:
417,113,102659,1,0,1:0:0:0:
442,143,102745,1,0,1:0:0:0:
475,168,102831,5,8,0:0:0:0:
478,213,102916,1,0,1:0:0:0:
447,241,103002,1,0,1:0:0:0:
405,237,103088,1,0,1:0:0:0:
383,205,103173,1,8,0:0:0:0:
351,185,103259,1,0,1:0:0:0:
307,194,103345,1,0,1:0:0:0:
290,225,103431,1,0,1:0:0:0:
302,261,103516,1,4,1:2:0:0:
210,195,103687,5,0,1:0:0:0:
185,186,103773,1,0,1:0:0:0:
161,179,103859,1,8,0:0:0:0:
138,172,103944,1,0,1:0:0:0:
116,165,104030,1,0,1:0:0:0:
83,355,104201,5,6,1:2:0:0:
145,279,104373,1,8,0:0:0:0:
17,117,104544,5,2,1:0:0:0:
33,254,104716,1,8,0:0:0:0:
49,244,104801,1,0,1:0:0:0:
57,221,104887,1,6,1:2:0:0:
167,4,105059,6,0,L|193:102,1,101.999996887207,8|0,0:0|1:0,0:0:0:0:
352,154,105401,1,10,0:0:0:0:
379,69,105573,1,0,1:0:0:0:
292,44,105744,1,8,0:0:0:0:
432,165,105916,1,2,1:0:0:0:
458,157,106001,1,0,1:0:0:0:
482,151,106087,1,8,0:0:0:0:
372,289,106259,6,0,L|275:254,1,101.999996887207,2|8,1:0|0:0,0:0:0:0:
471,377,106601,1,0,1:0:0:0:
488,358,106687,1,0,1:0:0:0:
484,331,106773,1,10,0:0:0:0:
368,382,106944,1,0,1:0:0:0:
275,254,107116,1,8,0:0:0:0:
195,349,107287,1,2,1:0:0:0:
220,341,107373,1,0,1:0:0:0:
243,334,107459,1,8,0:0:0:0:
101,384,107630,6,0,B|124:349|103:291|79:322|60:281|86:233,1,152.999995330811,6|0,1:2|0:0,0:0:0:0:
137,188,107973,1,2,1:0:0:0:
159,203,108058,1,0,1:0:0:0:
158,231,108144,1,10,0:0:0:0:
48,138,108316,1,0,1:0:0:0:
106,51,108487,1,8,0:0:0:0:
246,163,108659,1,2,1:0:0:0:
268,152,108744,1,0,1:0:0:0:
279,129,108830,1,8,0:0:0:0:
106,51,109001,6,0,L|203:79,1,101.999996887207,2|8,1:0|0:0,0:0:0:0:
302,15,109344,1,0,1:0:0:0:
302,15,109430,1,0,1:0:0:0:
302,15,109516,1,8,0:0:0:0:
403,166,109687,2,0,P|362:133|369:70,1,101.999996887207,2|8,1:0|0:0,0:0:0:0:
453,1,110030,1,2,1:0:0:0:
509,144,110201,1,8,0:0:0:0:
509,144,110287,1,0,1:0:0:0:
509,144,110373,6,0,B|496:195|496:195|498:200|498:200|484:253,1,101.999996887207,6|8,1:2|0:0,0:0:0:0:
512,342,110716,1,0,1:0:0:0:
512,342,110801,1,0,1:0:0:0:
512,342,110887,2,0,P|481:293|378:301,1,152.999995330811,10|0,0:0|0:0,0:0:0:0:
324,268,111230,1,8,0:0:0:0:
216,372,111401,1,2,1:0:0:0:
240,369,111487,1,0,1:0:0:0:
257,350,111573,1,8,0:0:0:0:
163,198,111744,6,0,L|195:294,1,101.999996887207,2|8,1:0|0:0,0:0:0:0:
307,89,112087,1,0,1:0:0:0:
307,89,112173,1,0,1:0:0:0:
307,89,112259,2,0,L|289:193,1,101.999996887207,10|0,0:0|1:0,0:0:0:0:
232,28,112601,1,8,0:0:0:0:
82,171,112773,1,2,1:0:0:0:
58,176,112858,1,0,1:0:0:0:
35,161,112944,1,8,0:0:0:0:
222,140,113116,6,0,P|187:102|117:123,1,101.999996887207,6|8,1:2|0:0,0:0:0:0:
300,283,113459,1,2,1:0:0:0:
332,309,113544,1,0,1:0:0:0:
371,305,113630,1,2,1:0:0:0:
393,274,113716,1,0,1:0:0:0:
391,236,113801,5,0,1:0:0:0:
370,205,113887,1,0,1:0:0:0:
363,165,113973,1,0,1:0:0:0:
387,131,114059,1,0,1:0:0:0:
429,130,114144,1,0,1:0:0:0:
465,152,114230,5,0,1:0:0:0:
460,166,114316,1,0,1:0:0:0:
456,181,114401,1,0,1:0:0:0:
454,195,114487,1,12,0:2:0:0:
327,78,114744,5,0,1:0:0:0:
327,78,114830,1,8,0:0:0:0:
388,9,115001,1,0,1:0:0:0:
248,116,115173,5,2,1:0:0:0:
103,33,115344,1,8,0:0:0:0:
77,54,115430,1,0,1:0:0:0:
72,90,115516,1,6,1:2:0:0:
91,113,115601,1,0,1:0:0:0:
121,127,115687,1,0,1:0:0:0:
141,148,115773,1,0,1:0:0:0:
145,176,115859,6,0,L|132:283,1,101.999996887207,6|8,1:2|0:0,0:0:0:0:
7,384,116202,1,0,1:0:0:0:
7,384,116287,1,0,1:0:0:0:
7,384,116374,2,0,B|59:369|59:369|62:364|62:364|114:347,1,101.999996887207,10|0,0:0|1:0,0:0:0:0:
219,276,116716,1,8,0:0:0:0:
269,384,116888,1,2,1:0:0:0:
288,367,116973,1,0,1:0:0:0:
288,339,117059,1,8,0:0:0:0:
197,176,117231,6,0,L|218:275,1,101.999996887207,2|8,1:0|0:0,0:0:0:0:
407,258,117574,1,0,1:0:0:0:
407,258,117659,1,0,1:0:0:0:
407,258,117745,2,0,L|301:227,1,101.999996887207,10|0,0:0|1:0,0:0:0:0:
452,329,118088,1,8,0:0:0:0:
512,200,118259,5,2,1:0:0:0:
455,136,118431,1,8,0:0:0:0:
512,14,118602,6,0,L|411:30,1,101.999996887207,6|8,1:2|0:0,0:0:0:0:
302,119,118945,1,0,1:0:0:0:
302,119,119031,1,0,1:0:0:0:
302,119,119116,2,0,B|261:107|261:107|260:102|260:102|206:85,1,101.999996887207,10|0,0:0|1:0,0:0:0:0:
307,28,119459,1,8,0:0:0:0:
156,156,119631,2,0,L|57:182,1,101.999996887207,2|8,1:0|0:0,0:0:0:0:
195,276,119974,5,2,1:0:0:0:
241,198,120145,1,8,0:0:0:0:
96,72,120316,5,0,1:0:0:0:
156,156,120488,1,8,0:0:0:0:
98,329,120659,6,0,L|0:358,1,101.999996887207,6|8,1:2|0:0,0:0:0:0:
188,381,121002,1,2,1:0:0:0:
286,331,121174,1,8,0:0:0:0:
421,384,121345,6,0,P|450:353|432:289,1,101.999996887207,6|8,1:2|0:0,0:0:0:0:
343,155,121687,1,2,1:0:0:0:
404,97,121860,2,0,P|452:114|469:167,1,101.999996887207,10|0,0:0|1:0,0:0:0:0:
505,237,122116,1,0,1:0:0:0:
505,237,122202,1,8,0:0:0:0:
363,284,122374,1,2,1:0:0:0:
210,169,122545,1,8,0:0:0:0:
210,169,122631,1,0,1:0:0:0:
210,169,122717,6,0,B|174:23|174:23|115:-8,1,203.999993774414,6|0,1:2|1:0,0:0:0:0:
266,229,123230,1,2,1:0:0:0:
212,363,123401,1,8,0:0:0:0:
183,384,123487,1,0,1:0:0:0:
151,377,123574,1,0,1:0:0:0:
50,175,123745,5,2,1:0:0:0:
41,215,123830,1,0,1:0:0:0:
34,251,123917,1,0,1:0:0:0:
24,288,124001,1,0,1:0:0:0:
18,325,124087,6,0,L|110:303,1,93.5000028533936,6|0,1:2|0:0,0:0:0:0:
292,319,124430,1,8,0:0:0:0:
292,319,124601,1,0,1:0:0:0:
180,195,124773,2,0,B|224:211|224:211|227:216|227:216|267:228,1,93.5000028533936,8|0,0:0|1:0,0:0:0:0:
384,306,125116,5,8,0:0:0:0:
449,228,125287,1,0,1:0:0:0:
345,129,125458,6,0,P|351:82|400:53,1,93.5000028533936,10|0,0:0|1:0,0:0:0:0:
427,147,125801,1,10,0:0:0:0:
287,41,125973,2,0,L|190:64,1,93.5000028533936,2|8,1:0|0:0,0:0:0:0:
31,41,126316,5,2,1:0:0:0:
83,99,126487,1,10,0:0:0:0:
28,224,126658,1,0,1:0:0:0:
28,224,126830,6,0,L|64:328,1,93.5000028533936,10|0,0:0|1:0,0:0:0:0:
194,213,127173,5,8,0:0:0:0:
270,333,127344,1,0,1:0:0:0:
270,333,127516,2,0,P|225:334|196:291,1,93.5000028533936,8|0,0:0|1:0,0:0:0:0:
369,233,127859,5,8,0:0:0:0:
369,233,128030,1,0,1:0:0:0:
462,374,128201,2,0,L|428:270,1,93.5000028533936,10|0,0:0|1:0,0:0:0:0:
496,208,128544,5,10,0:0:0:0:
437,107,128716,2,0,L|462:8,1,93.5000028533936,2|8,1:0|0:0,0:0:0:0:
323,152,129059,1,0,1:0:0:0:
211,36,129230,6,0,P|156:24|100:80,1,140.25000428009,4|0,1:2|1:0,0:0:0:0:
54,140,129573,6,0,L|86:252,1,93.5000028533936,6|0,1:2|0:0,0:0:0:0:
0,374,129916,1,8,0:0:0:0:
0,374,130087,1,0,1:0:0:0:
137,357,130259,2,0,P|110:319|50:326,1,93.5000028533936,8|0,0:0|1:0,0:0:0:0:
214,384,130602,1,8,0:0:0:0:
272,331,130773,1,0,1:0:0:0:
380,384,130944,6,0,B|423:372|423:372|427:375|427:375|478:360,1,93.5000028533936,10|0,0:0|1:0,0:0:0:0:
352,301,131287,1,10,0:0:0:0:
386,178,131459,2,0,P|422:214|415:266,1,93.5000028533936,2|8,1:0|0:0,0:0:0:0:
249,218,131802,5,2,1:0:0:0:
234,138,131973,1,10,0:0:0:0:
305,90,132144,1,2,1:0:0:0:
149,183,132316,6,0,B|105:166|105:166|103:161|103:161|58:146,1,93.5000028533936,14|0,0:2|1:0,0:0:0:0:
181,262,132659,1,8,0:0:0:0:
181,262,132830,1,0,1:0:0:0:
117,378,133002,2,0,L|92:282,1,93.5000028533936,8|0,0:0|1:0,0:0:0:0:
64,148,133345,5,8,0:0:0:0:
136,86,133516,1,0,1:0:0:0:
0,23,133687,6,0,P|31:-5|83:7,1,93.5000028533936,6|0,1:2|0:0,0:0:0:0:
224,96,134030,1,10,0:0:0:0:
237,101,134116,1,8,0:0:0:0:
252,96,134201,1,2,1:0:0:0:
259,85,134287,1,0,1:0:0:0:
258,69,134373,2,0,L|244:24,1,46.7500014266968,8|0,0:0|1:0,0:0:0:0:
329,128,134544,2,0,L|401:149,1,46.7500014266968,0|0,1:0|1:0,0:0:0:0:
276,193,134716,1,0,1:0:0:0:
369,291,134887,1,0,1:0:0:0:
180,374,135059,5,6,1:2:0:0:
155,376,135144,1,0,1:0:0:0:
142,356,135230,2,0,L|162:283,1,50.9999984436036,8|0,0:0|1:0,0:0:0:0:
288,282,135402,1,0,1:0:0:0:
288,282,135488,1,0,1:0:0:0:
288,282,135574,2,0,L|220:305,1,50.9999984436036,8|0,0:0|1:0,0:0:0:0:
117,209,135744,1,0,1:0:0:0:
117,209,135830,1,0,1:0:0:0:
117,209,135916,2,0,L|185:232,1,50.9999984436036,8|0,0:0|1:0,0:0:0:0:
49,258,136088,6,0,L|63:322,3,50.9999984436036,0|0|8|0,1:0|1:0|0:0|1:0,0:0:0:0:
79,128,136431,6,0,L|46:13,1,101.999996887207,6|8,1:2|0:0,0:0:0:0:
241,65,136774,1,2,1:0:0:0:
241,65,136859,1,2,1:0:0:0:
241,65,136945,2,0,P|215:106|157:112,1,101.999996887207,10|2,0:0|1:0,0:0:0:0:
314,8,137288,1,8,0:0:0:0:
314,8,137374,1,0,1:0:0:0:
314,8,137459,2,0,L|372:32,1,50.9999984436036,2|0,1:0|1:0,0:0:0:0:
473,73,137630,2,0,L|415:97,1,50.9999984436036,10|0,0:0|1:0,0:0:0:0:
360,215,137802,6,0,B|353:171|353:171|349:167|349:167|338:115,1,101.999996887207,6|8,1:2|0:0,0:0:0:0:
461,295,138145,1,0,1:0:0:0:
461,295,138231,1,0,1:0:0:0:
461,295,138317,2,0,L|395:270,1,50.9999984436036,8|0,0:0|1:0,0:0:0:0:
340,324,138487,1,0,1:0:0:0:
233,245,138659,1,8,0:0:0:0:
119,346,138830,1,0,1:0:0:0:
136,334,138916,1,0,1:0:0:0:
146,316,139001,1,8,0:0:0:0:
144,297,139087,1,0,1:0:0:0:
133,280,139174,6,0,B|88:265|88:265|83:267|83:267|26:251,1,101.999996887207,6|8,1:2|0:0,0:0:0:0:
130,101,139517,1,2,1:0:0:0:
130,101,139602,1,2,1:0:0:0:
130,101,139688,2,0,L|157:199,1,101.999996887207,10|2,0:0|1:0,0:0:0:0:
0,181,140031,1,10,0:0:0:0:
0,181,140117,1,2,1:0:0:0:
0,181,140202,2,0,L|16:110,1,50.9999984436036,2|0,1:0|1:0,0:0:0:0:
51,55,140374,2,0,L|37:7,1,50.9999984436036,10|0,0:0|1:0,0:0:0:0:
130,101,140545,6,0,B|237:130,1,101.999996887207,6|8,1:2|0:0,0:0:0:0:
302,177,140888,1,0,1:0:0:0:
302,177,140974,1,0,1:0:0:0:
302,177,141060,2,0,L|364:157,1,50.9999984436036,8|0,0:0|1:0,0:0:0:0:
403,89,141231,2,0,L|417:40,3,50.9999984436036,0|0|10|0,1:0|1:0|0:0|1:0,0:0:0:0:
507,159,141573,2,0,L|492:110,3,50.9999984436036,2|0|10|0,1:0|1:0|0:0|1:0,0:0:0:0:
434,199,141917,6,0,L|405:319,1,101.999996887207,6|10,1:2|0:0,0:0:0:0:
353,360,142260,1,2,1:0:0:0:
353,360,142345,1,0,1:0:0:0:
353,360,142431,2,0,P|309:384|260:364,1,101.999996887207,10|2,0:0|1:0,0:0:0:0:
201,322,142774,1,8,0:0:0:0:
201,322,142860,1,0,1:0:0:0:
201,322,142945,2,0,L|132:335,1,50.9999984436036,2|0,1:0|1:0,0:0:0:0:
255,255,143117,2,0,L|303:271,1,50.9999984436036,10|0,0:0|1:0,0:0:0:0:
189,202,143288,6,0,L|74:231,1,101.999996887207,6|8,1:2|0:0,0:0:0:0:
0,294,143630,1,0,1:0:0:0:
0,294,143716,1,0,1:0:0:0:
0,294,143801,2,0,L|22:224,1,50.9999984436036,0|0,1:0|1:0,0:0:0:0:
82,151,143973,2,0,L|64:103,3,50.9999984436036,0|0|0|0,1:0|1:0|1:0|1:0,0:0:0:0:
49,24,144316,2,0,L|0:10,3,50.9999984436036,0|0|0|0,1:0|1:0|1:0|1:0,0:0:0:0:
136,81,144659,6,0,B|186:66|186:66|192:68|192:68|246:53,1,101.999996887207,14|0,0:2|1:0,0:0:0:0:
353,12,145001,1,10,0:0:0:0:
353,12,145087,1,0,1:0:0:0:
353,12,145173,2,0,L|294:-1,3,50.9999984436036,2|0|0|0,1:0|1:0|1:0|1:0,0:0:0:0:
424,65,145516,1,0,1:0:0:0:
443,102,145601,1,0,1:0:0:0:
429,141,145687,1,0,1:0:0:0:
394,156,145773,1,0,1:0:0:0:
355,182,145859,1,0,1:0:0:0:
354,228,145944,1,8,0:0:0:0:
387,264,146030,6,0,L|489:242,1,101.999996887207,6|0,1:2|0:0,0:0:0:0:
316,378,146373,1,0,1:0:0:0:
316,378,146459,1,0,1:0:0:0:
316,378,146544,2,0,L|190:351,1,101.999996887207,8|0,0:0|1:0,0:0:0:0:
109,295,146887,1,8,0:0:0:0:
0,338,147059,1,2,1:0:0:0:
0,338,147144,1,0,1:0:0:0:
0,338,147230,6,0,P|35:376|92:366,1,101.999996887207,10|2,0:0|1:0,0:0:0:0:
193,265,147573,1,8,0:0:0:0:
112,153,147744,1,0,1:0:0:0:
112,153,147830,1,0,1:0:0:0:
112,153,147916,2,0,L|87:42,1,101.999996887207,10|0,0:0|1:0,0:0:0:0:
50,220,148259,1,8,0:0:0:0:
232,135,148430,1,2,1:0:0:0:
221,115,148516,1,0,1:0:0:0:
198,109,148601,1,8,0:0:0:0:
280,234,148773,6,0,L|378:208,1,101.999996887207,2|8,1:0|0:0,0:0:0:0:
458,109,149116,1,0,1:0:0:0:
452,122,149201,1,0,1:0:0:0:
447,135,149287,1,8,0:0:0:0:
504,206,149459,1,0,1:0:0:0:
455,283,149630,1,8,0:0:0:0:
504,379,149801,1,2,1:0:0:0:
504,379,149887,1,2,1:0:0:0:
504,379,149973,1,10,0:0:0:0:
371,307,150144,6,0,P|326:304|289:353,1,101.999996887207,2|8,1:0|0:0,0:0:0:0:
200,373,150487,1,0,1:0:0:0:
200,373,150573,1,0,1:0:0:0:
200,373,150659,2,0,P|155:376|118:327,1,101.999996887207,8|0,0:0|1:0,0:0:0:0:
52,269,151001,1,8,0:0:0:0:
115,194,151173,1,0,1:0:0:0:
115,194,151259,1,0,1:0:0:0:
115,194,151344,1,8,0:0:0:0:
62,109,151516,5,6,1:2:0:0:
132,28,151687,2,0,B|89:19|89:19|84:21|84:21|33:8,1,101.999996887207,8|0,0:0|1:0,0:0:0:0:
193,148,152030,1,8,0:0:0:0:
302,90,152201,1,0,1:0:0:0:
302,90,152287,1,0,1:0:0:0:
302,90,152373,2,0,P|353:94|382:141,1,101.999996887207,8|2,0:0|1:0,0:0:0:0:
345,208,152630,1,2,1:0:0:0:
345,208,152716,1,10,0:0:0:0:
434,281,152887,6,0,L|455:381,1,101.999996887207,2|8,1:0|0:0,0:0:0:0:
491,173,153230,1,0,1:0:0:0:
491,173,153316,1,0,1:0:0:0:
491,173,153401,2,0,L|517:50,1,101.999996887207,10|0,0:0|1:0,0:0:0:0:
454,0,153744,1,8,0:0:0:0:
391,55,153916,1,2,1:0:0:0:
391,55,154001,1,0,1:0:0:0:
391,55,154087,1,8,0:0:0:0:
257,0,154259,5,2,1:0:0:0:
304,85,154430,1,8,0:0:0:0:
179,161,154601,1,0,1:0:0:0:
157,166,154687,1,0,1:0:0:0:
150,149,154773,2,0,B|166:100|166:100|165:96|165:96|180:44,1,101.999996887207,8|0,0:0|1:0,0:0:0:0:
265,178,155116,1,8,0:0:0:0:
182,307,155287,1,2,1:0:0:0:
383,384,155459,5,8,0:0:0:0:
290,285,155630,1,6,1:2:0:0:
401,16,155974,5,0,1:0:0:0:
340,76,156145,1,0,1:0:0:0:
463,170,156316,5,0,1:0:0:0:
425,99,156488,1,2,1:0:0:0:
261,17,156659,5,2,1:0:0:0:
339,173,156830,1,2,1:0:0:0:
175,92,157001,2,0,P|119:92|79:169,1,140.25000428009,6|0,1:2|0:0,0:0:0:0:
112,232,157344,2,0,B|98:278|98:278|95:278|95:278|82:329,1,93.5000028533936,0|0,1:0|0:0,0:0:0:0:
0,106,157687,1,12,0:0:0:0:
9,366,158030,5,2,1:0:0:0:
85,319,158201,1,0,1:0:0:0:
240,383,158373,5,2,1:0:0:0:
189,317,158544,1,0,1:0:0:0:
314,205,158716,5,0,1:0:0:0:
320,339,158887,1,0,1:0:0:0:
299,321,158973,1,0,1:0:0:0:
301,292,159059,1,8,0:0:0:0:
419,363,159230,5,0,1:0:0:0:
497,202,159401,1,10,0:0:0:0:
512,296,159573,1,0,1:0:0:0:
512,296,159659,1,0,1:0:0:0:
512,296,159744,6,0,B|416:265|416:265|380:289,1,140.25000428009,6|0,1:2|0:0,0:0:0:0:
301,292,160087,2,0,P|258:280|232:225,1,93.5000028533936,2|2,1:0|0:0,0:0:0:0:
297,112,160430,2,0,L|315:213,1,93.5000028533936,12|0,0:2|0:0,0:0:0:0:
151,235,160773,5,0,1:0:0:0:
195,169,160944,1,0,1:0:0:0:
82,36,161116,5,2,1:0:0:0:
131,101,161287,1,0,1:0:0:0:
231,36,161459,5,0,1:0:0:0:
379,129,161629,1,0,1:0:0:0:
404,121,161715,1,0,1:0:0:0:
427,115,161801,1,14,0:2:0:0:
331,41,161972,5,0,1:0:0:0:
282,112,162143,1,2,1:0:0:0:
314,204,162316,1,0,1:0:0:0:
314,204,162401,1,0,1:0:0:0:
314,204,162487,2,0,B|381:223|381:223|387:221|387:221|473:247,1,140.25000428009,6|0,1:2|0:0,0:0:0:0:
510,290,162830,2,0,P|471:324|420:316,1,93.5000028533936,0|0,1:0|0:0,0:0:0:0:
265,331,163173,6,0,L|353:300,1,93.5000028533936,12|0,0:2|0:0,0:0:0:0:
201,265,163516,1,2,1:0:0:0:
127,313,163687,1,2,1:0:0:0:
19,195,163859,5,2,1:0:0:0:
51,278,164030,1,0,1:0:0:0:
161,112,164201,5,0,1:0:0:0:
146,191,164373,1,0,1:0:0:0:
146,191,164459,1,0,1:0:0:0:
146,191,164544,1,8,0:0:0:0:
365,18,164887,5,2,1:0:0:0:
365,18,165230,2,0,L|378:120,1,93.5000028533936,6|0,1:2|0:0,0:0:0:0:
196,35,165573,2,0,L|286:74,1,93.5000028533936,8|0,0:0|0:0,0:0:0:0:
426,190,165916,1,0,1:0:0:0:
426,190,166087,1,0,1:0:0:0:
479,53,166259,2,0,P|505:103|486:157,1,93.5000028533936,14|0,0:2|0:0,0:0:0:0:
352,228,166601,1,10,0:0:0:0:
337,252,166687,1,0,1:0:0:0:
342,280,166773,1,2,1:0:0:0:
366,296,166859,1,0,1:0:0:0:
395,294,166944,2,0,L|461:272,3,46.7500014266968,2|0|0|0,1:0|1:0|1:0|1:0,0:0:0:0:
353,377,167287,5,10,0:0:0:0:
324,365,167373,1,0,1:0:0:0:
299,354,167459,1,2,1:0:0:0:
273,341,167544,1,0,1:0:0:0:
253,360,167630,5,2,1:0:0:0:
236,366,167716,1,0,1:0:0:0:
221,374,167801,1,2,1:0:0:0:
205,380,167887,1,0,1:0:0:0:
176,357,167973,5,6,1:2:0:0:
75,292,168144,5,8,0:0:0:0:
55,253,168230,1,0,1:0:0:0:
71,209,168316,1,2,1:0:0:0:
106,190,168401,1,2,1:0:0:0:
145,197,168487,2,0,L|244:223,1,93.5000028533936,10|2,0:0|1:0,0:0:0:0:
142,86,168830,1,10,0:0:0:0:
270,91,169001,1,2,1:0:0:0:
270,91,169087,1,2,1:0:0:0:
270,91,169173,6,0,P|251:50|185:41,1,93.5000028533936,10|2,0:0|1:0,0:0:0:0:
315,170,169516,1,10,0:0:0:0:
412,132,169687,1,2,1:0:0:0:
412,132,169773,1,2,1:0:0:0:
412,132,169859,1,10,0:0:0:0:
457,295,170030,5,2,1:0:0:0:
394,219,170201,1,10,0:0:0:0:
502,120,170373,1,2,1:0:0:0:
507,96,170459,1,2,1:0:0:0:
495,78,170544,1,10,0:0:0:0:
394,219,170716,6,0,L|501:200,1,93.5000028533936,6|10,1:2|0:0,0:0:0:0:
302,342,171059,1,2,1:0:0:0:
302,342,171144,1,2,1:0:0:0:
302,342,171230,2,0,L|197:306,1,93.5000028533936,10|2,0:2|1:0,1:0:0:0:
117,326,171573,1,10,0:0:0:0:
252,228,171744,1,2,1:0:0:0:
252,228,171830,1,2,1:0:0:0:
252,228,171916,6,0,B|240:183|240:183|236:182|236:182|217:109,1,93.5000028533936,10|2,0:0|1:0,0:0:0:0:
297,0,172259,1,10,0:0:0:0:
366,107,172430,1,2,1:0:0:0:
356,134,172516,1,2,1:0:0:0:
331,147,172601,1,10,0:0:0:0:
173,6,172773,5,2,1:0:0:0:
283,76,172944,1,10,0:0:0:0:
152,190,173116,1,2,1:0:0:0:
135,184,173201,1,2,1:0:0:0:
116,175,173287,1,10,0:0:0:0:
0,313,173459,6,0,L|91:293,1,93.5000028533936,6|8,1:2|0:0,0:0:0:0:
243,381,173801,1,2,1:0:0:0:
243,381,173887,1,2,1:0:0:0:
243,381,173973,2,0,P|191:373|169:332,1,93.5000028533936,10|2,0:0|1:0,0:0:0:0:
316,220,174316,1,10,0:0:0:0:
399,380,174487,1,2,1:0:0:0:
419,368,174573,1,2,1:0:0:0:
426,343,174659,1,10,0:0:0:0:
255,293,174830,6,0,L|381:323,1,93.5000028533936,6|8,1:2|0:0,0:0:0:0:
462,127,175173,1,2,1:0:0:0:
462,127,175259,1,2,1:0:0:0:
462,127,175345,2,0,L|347:161,1,93.5000028533936,10|0,0:0|1:0,0:0:0:0:
512,194,175688,1,10,0:0:0:0:
349,74,175859,1,2,1:0:0:0:
326,67,175945,1,2,1:0:0:0:
302,59,176031,5,2,1:0:0:0:
88,219,176201,1,6,1:2:0:0:
349,340,177401,5,0,1:0:0:0:
458,86,177573,1,14,0:0:0:0:
461,111,178087,5,2,1:0:0:0:
294,277,178601,5,2,1:0:0:0:
352,211,178773,1,0,1:0:0:0:
288,33,178944,1,6,1:2:0:0:
89,349,180316,5,4,1:2:0:0:
190,199,180573,1,0,1:0:0:0:
190,199,180659,1,8,0:0:0:0:
225,276,180830,1,0,1:0:0:0:
99,116,181001,5,0,1:0:0:0:
67,196,181173,1,0,1:0:0:0:
224,20,181344,5,0,1:0:0:0:
264,106,181516,1,0,1:0:0:0:
140,271,181687,6,0,P|66:280|13:333,1,152.999995330811,4|0,1:2|0:0,0:0:0:0:
176,356,182201,1,0,1:0:0:0:
176,356,182373,2,0,L|251:370,2,76.4999976654053,12|0|0,0:0|0:0|0:0,0:0:0:0:
312,306,182887,5,0,1:0:0:0:
312,306,183059,1,0,1:0:0:0:
312,306,183230,1,0,1:0:0:0:
395,384,183401,2,0,P|400:346|409:308,1,76.4999976654053,0|0,1:0|1:0,0:0:0:0:
453,296,183659,1,0,1:0:0:0:
453,296,183744,1,4,1:2:0:0:
276,22,184087,5,0,1:0:0:0:
276,22,184259,1,0,1:0:0:0:
276,22,184430,2,0,P|347:26|360:96,1,152.999995330811,4|2,1:2|0:0,0:0:0:0:
187,204,184944,1,2,1:0:0:0:
249,146,185116,1,14,0:0:0:0:
249,146,185287,2,0,L|319:173,1,76.4999976654053,0|2,0:0|0:0,0:0:0:0:
121,261,185630,6,0,P|98:230|100:193,1,76.4999976654053,2|0,0:0|1:0,0:0:0:0:
40,327,185973,1,0,1:0:0:0:
133,363,186144,2,0,L|203:335,1,76.4999976654053,2|0,1:0|1:0,0:0:0:0:
241,355,186401,1,0,1:0:0:0:
241,355,186487,1,6,1:0:0:0:
469,173,186830,5,10,0:0:0:0:
450,277,187001,1,8,0:0:0:0:
367,206,187173,6,0,B|406:164|361:81|315:135|278:45|322:9,1,229.499992996216,6|0,1:2|1:0,0:0:0:0:
405,42,187859,1,12,0:0:0:0:
405,42,188201,2,0,P|444:43|482:47,1,76.4999976654053
250,137,188544,5,0,1:0:0:0:
250,137,188716,1,0,1:0:0:0:
250,137,188887,2,0,B|252:179|252:179|255:185|255:185|256:212,1,76.4999976654053,0|0,1:0|1:0,0:0:0:0:
233,248,189144,1,0,1:0:0:0:
233,248,189230,1,0,1:0:0:0:
52,303,189573,5,0,1:0:0:0:
52,303,189744,1,0,1:0:0:0:
52,303,189916,2,0,P|69:233|141:231,1,152.999995330811,4|2,1:2|0:0,0:0:0:0:
292,333,190430,1,2,1:0:0:0:
289,235,190601,1,14,0:0:0:0:
203,279,190773,2,0,L|199:355,1,76.4999976654053,2|0,0:0|0:0,0:0:0:0:
377,291,191116,5,2,1:0:0:0:
377,291,191287,1,0,1:0:0:0:
377,291,191459,1,0,1:0:0:0:
377,197,191630,2,0,P|361:162|327:147,1,76.4999976654053,2|0,1:0|0:0,0:0:0:0:
283,161,191887,1,0,1:0:0:0:
283,161,191973,1,6,1:0:0:0:
191,191,192144,1,0,1:0:0:0:
203,1,192316,5,10,0:0:0:0:
197,97,192487,1,8,0:0:0:0:
69,0,192659,6,0,P|90:73|103:148,1,152.999995330811,6|0,1:2|0:0,0:0:0:0:
40,227,193173,1,0,1:0:0:0:
40,227,193344,2,0,B|39:265|39:265|37:271|37:271|36:303,2,76.4999976654053,12|0|0,0:0|0:0|0:0,0:0:0:0:
111,374,193859,5,0,1:0:0:0:
111,374,194030,1,0,1:0:0:0:
111,374,194201,1,0,1:0:0:0:
169,300,194373,2,0,L|245:292,1,76.4999976654053,0|0,1:0|1:0,0:0:0:0:
275,326,194630,1,0,1:0:0:0:
275,326,194716,1,8,0:0:0:0:
404,72,195059,5,0,1:0:0:0:
404,72,195230,1,0,1:0:0:0:
404,72,195401,2,0,L|251:58,1,152.999995330811,4|2,1:2|0:0,0:0:0:0:
76,77,195916,1,2,1:0:0:0:
150,36,196087,1,14,0:0:0:0:
150,36,196259,2,0,P|164:70|155:106,1,76.4999976654053,2|0,0:0|0:0,0:0:0:0:
5,119,196601,2,0,P|-9:84|0:48,1,76.4999976654053,2|0,1:0|1:0,0:0:0:0:
86,239,196944,5,0,1:0:0:0:
86,239,197116,1,2,1:0:0:0:
157,305,197287,1,0,1:0:0:0:
157,305,197373,1,0,1:0:0:0:
157,305,197459,2,0,B|193:303|193:303|197:301|197:301|232:299,1,76.4999976654053,10|0,0:0|0:0,0:0:0:0:
347,149,197801,2,0,B|311:147|311:147|307:145|307:145|271:143,1,76.4999976654053,2|2,1:0|1:0,0:0:0:0:
432,277,198144,6,0,B|393:232|420:159|480:193|508:122|473:77,1,229.499992996216,6|0,1:2|1:0,0:0:0:0:
390,66,198830,1,12,0:2:0:0:
390,66,199173,1,0,0:0:0:0:
241,307,199516,5,0,1:0:0:0:
241,307,199687,1,0,1:0:0:0:
241,307,199859,1,0,1:0:0:0:
339,377,200030,1,0,1:0:0:0:
339,377,200116,1,0,1:0:0:0:
339,377,200202,2,0,B|336:342|336:342|337:336|337:336|335:300,1,76.4999976654053,4|0,1:2|0:0,0:0:0:0:
145,160,200544,6,0,P|95:184|85:238,1,114.749996498108,0|0,1:0|0:0,0:0:0:0:
157,286,200887,1,10,0:2:0:0:
157,286,201230,5,0,1:0:0:0:
248,218,201401,1,0,1:0:0:0:
487,147,201573,5,0,1:0:0:0:
373,236,201744,1,0,1:0:0:0:
257,0,201916,5,0,1:0:0:0:
344,137,202087,1,8,0:0:0:0:
107,193,202259,6,0,P|87:160|83:122,1,76.4999976654053,0|0,1:0|0:0,0:0:0:0:
144,69,202516,2,0,P|153:32|177:3,1,76.4999976654053,0|0,1:0|0:0,0:0:0:0:
257,0,202773,5,0,1:0:0:0:
281,26,202859,1,0,1:0:0:0:
286,58,202944,1,0,1:0:0:0:
276,83,203030,1,0,1:0:0:0:
257,104,203116,1,0,1:0:0:0:
243,127,203201,1,0,1:0:0:0:
243,150,203287,5,12,0:0:0:0:
15,335,203630,6,0,L|106:353,1,93.5000028533936,2|8,1:0|0:0,0:0:0:0:
170,288,203973,1,0,1:0:0:0:
170,288,204059,1,0,1:0:0:0:
170,288,204144,1,10,0:0:0:0:
242,149,204316,2,0,P|270:186|259:230,1,93.5000028533936,0|8,1:0|0:0,0:0:0:0:
115,173,204659,1,2,1:0:0:0:
118,148,204744,1,0,0:0:0:0:
103,123,204830,1,8,0:0:0:0:
31,169,205001,6,0,L|38:262,1,93.5000028533936,0|8,1:0|0:0,0:0:0:0:
184,93,205344,1,0,1:0:0:0:
184,93,205430,1,0,1:0:0:0:
184,93,205516,2,0,L|191:0,1,93.5000028533936,8|0,0:0|1:0,0:0:0:0:
242,149,205858,1,8,0:0:0:0:
350,34,206030,1,0,1:0:0:0:
330,53,206116,1,0,1:0:0:0:
333,79,206201,1,8,0:0:0:0:
488,234,206372,5,6,1:2:0:0:
416,88,206543,1,8,0:0:0:0:
316,224,206716,1,0,1:0:0:0:
316,224,206801,1,0,1:0:0:0:
316,224,206887,2,0,L|320:317,1,93.5000028533936,10|0,0:0|1:0,0:0:0:0:
236,367,207229,1,8,0:0:0:0:
58,324,207401,1,0,1:0:0:0:
35,302,207487,1,0,1:0:0:0:
36,271,207573,1,0,1:0:0:0:
123,266,207744,6,0,P|151:301|146:347,1,93.5000028533936,2|8,1:0|0:0,0:0:0:0:
50,152,208087,1,0,1:0:0:0:
50,152,208173,1,0,1:0:0:0:
50,152,208259,2,0,P|85:123|131:128,1,93.5000028533936,10|0,0:0|1:0,0:0:0:0:
235,209,208600,1,8,0:0:0:0:
301,120,208772,2,0,L|299:26,1,93.5000028533936,2|0,1:0|1:0,0:0:0:0:
326,0,209030,5,0,1:0:0:0:
326,0,209115,1,6,1:2:0:0:
423,83,209286,1,8,0:0:0:0:
416,277,209459,1,0,1:0:0:0:
416,277,209544,1,0,1:0:0:0:
416,277,209630,2,0,P|383:244|385:199,1,93.5000028533936,10|0,0:0|1:0,0:0:0:0:
495,210,209972,1,8,0:0:0:0:
506,311,210144,1,2,1:0:0:0:
490,344,210230,1,0,1:0:0:0:
464,360,210316,1,0,1:0:0:0:
363,356,210487,6,0,L|269:351,1,93.5000028533936,0|8,1:0|0:0,0:0:0:0:
126,245,210829,1,0,1:0:0:0:
126,245,210915,1,0,1:0:0:0:
126,245,211001,2,0,L|219:240,1,93.5000028533936,8|0,0:0|1:0,0:0:0:0:
76,352,211343,1,8,0:0:0:0:
9,257,211515,1,0,1:0:0:0:
6,232,211601,1,0,1:0:0:0:
17,207,211686,1,8,0:0:0:0:
40,3,211858,5,6,1:2:0:0:
107,130,212029,1,8,0:0:0:0:
191,12,212200,1,0,1:0:0:0:
191,12,212286,1,0,1:0:0:0:
191,12,212372,2,0,B|191:58|191:58|189:62|189:62|189:105,1,93.5000028533936,10|0,0:0|1:0,0:0:0:0:
225,135,212630,1,0,1:0:0:0:
225,135,212715,1,8,0:0:0:0:
336,96,212887,1,2,1:0:0:0:
349,63,212972,1,0,1:0:0:0:
336,30,213058,1,8,0:0:0:0:
308,220,213230,5,6,1:2:0:0:
329,256,213315,1,0,1:0:0:0:
365,276,213401,1,0,1:0:0:0:
405,272,213487,1,0,1:0:0:0:
436,243,213572,1,0,1:0:0:0:
451,202,213658,1,0,1:0:0:0:
440,161,213744,1,2,1:0:0:0:
406,132,213830,1,0,1:0:0:0:
366,147,213915,5,8,0:0:0:0:
361,190,214001,1,0,1:0:0:0:
356,232,214087,1,0,1:0:0:0:
349,275,214172,1,0,1:0:0:0:
324,305,214258,1,10,0:0:0:0:
327,325,214344,1,0,1:0:0:0:
329,344,214430,1,0,1:0:0:0:
333,364,214515,1,0,1:0:0:0:
337,384,214601,5,2,1:2:0:0:
210,271,214773,1,8,0:0:0:0:
113,368,214944,1,0,1:0:0:0:
113,368,215030,1,0,1:0:0:0:
113,368,215116,2,0,B|109:322|109:322|107:317|107:317|104:274,1,93.5000028533936,10|0,0:0|1:0,0:0:0:0:
16,99,215459,2,0,B|12:144|12:144|10:150|10:150|7:192,1,93.5000028533936,8|2,0:0|1:0,0:0:0:0:
38,221,215716,1,0,1:0:0:0:
38,221,215801,1,8,0:0:0:0:
171,97,215973,6,0,P|177:49|132:14,1,93.5000028533936,0|8,1:2|0:0,0:0:0:0:
328,96,216316,1,0,1:0:0:0:
316,91,216401,1,0,1:0:0:0:
305,87,216487,2,0,P|299:132|326:169,1,93.5000028533936,8|0,0:0|1:0,0:0:0:0:
421,105,216830,1,8,0:0:0:0:
469,25,217001,1,0,1:0:0:0:
441,10,217087,1,0,1:0:0:0:
407,11,217173,1,8,0:0:0:0:
326,169,217344,6,0,L|335:308,1,140.25000428009,6|0,1:2|0:0,0:0:0:0:
280,369,217687,1,0,1:0:0:0:
280,369,217773,1,0,1:0:0:0:
280,369,217859,1,10,0:0:0:0:
105,291,218030,2,0,L|11:286,1,93.5000028533936,0|8,1:0|0:0,0:0:0:0:
232,173,218373,2,0,L|325:168,1,93.5000028533936,2|8,1:0|0:0,0:0:0:0:
388,117,218630,1,0,1:0:0:0:
388,117,218716,1,2,1:0:0:0:
162,25,218887,5,8,0:0:0:0:
91,169,219059,1,0,1:0:0:0:
94,192,219144,1,0,1:0:0:0:
97,213,219230,1,10,0:0:0:0:
240,277,219401,5,0,1:0:0:0:
325,168,219573,1,12,0:2:0:0:
240,277,219744,2,0,B|329:285|329:285|339:310|360:323,1,140.25000428009,0|0,1:0|0:0,0:0:0:0:
427,281,220087,6,0,B|424:237|424:237|422:233|422:233|419:188,1,93.5000028533936,6|8,1:2|0:0,0:0:0:0:
333,75,220430,1,0,1:0:0:0:
333,75,220516,1,0,1:0:0:0:
333,75,220601,2,0,B|330:119|330:119|328:122|328:122|325:167,1,93.5000028533936,10|0,0:0|1:0,0:0:0:0:
360,323,220944,5,8,0:0:0:0:
425,361,221116,1,2,1:0:0:0:
145,384,221287,5,8,0:0:0:0:
239,277,221459,2,0,P|239:231|211:195,1,93.5000028533936,2|8,1:0|0:0,0:0:0:0:
140,236,221801,1,0,1:0:0:0:
134,259,221887,1,0,1:0:0:0:
137,282,221973,1,10,0:0:0:0:
248,377,222144,1,0,1:0:0:0:
211,195,222316,1,8,0:0:0:0:
50,319,222487,1,2,1:0:0:0:
33,294,222573,1,0,1:0:0:0:
32,262,222659,1,8,0:0:0:0:
28,96,222830,6,0,B|60:81|98:89|98:89|123:117|157:115,1,140.25000428009,6|0,1:2|0:0,0:0:0:0:
212,52,223173,1,0,1:0:0:0:
212,52,223259,1,0,1:0:0:0:
212,52,223344,2,0,B|258:48|258:48|262:51|262:51|305:48,1,93.5000028533936,8|0,0:0|1:0,0:0:0:0:
383,125,223687,1,8,0:0:0:0:
496,240,223859,1,2,1:0:0:0:
491,210,223944,1,0,1:0:0:0:
487,181,224030,1,8,0:0:0:0:
281,354,224201,5,2,1:0:0:0:
281,354,224287,1,0,1:0:0:0:
281,354,224373,2,0,P|288:288|351:270,1,140.25000428009,12|0,0:2|0:0,0:0:0:0:
377,312,224716,1,0,1:0:0:0:
213,235,224887,2,0,B|181:241|142:217|170:199|138:164|99:173,1,140.25000428009,8|0,0:0|1:0,0:0:0:0:
48,238,225230,1,8,0:0:0:0:
51,265,225316,1,0,1:0:0:0:
53,288,225401,1,0,1:0:0:0:
286,184,225573,5,2,1:0:0:0:
193,66,225744,1,0,1:0:0:0:
204,35,225830,1,0,1:0:0:0:
229,20,225916,1,8,0:0:0:0:
262,17,226001,1,0,1:0:0:0:
287,29,226087,1,0,1:0:0:0:
304,53,226173,1,0,1:0:0:0:
313,93,226259,5,8,0:0:0:0:
336,121,226344,1,0,1:0:0:0:
362,133,226430,1,0,1:0:0:0:
394,135,226516,1,0,1:0:0:0:
428,129,226601,5,10,0:0:0:0:
464,112,226687,1,0,1:0:0:0:
479,76,226773,1,0,1:0:0:0:
472,37,226859,1,0,1:0:0:0:
439,19,226944,1,6,1:2:0:0:
149,350,228316,5,6,1:0:0:0:
149,350,228659,1,0,1:0:0:0:
11,142,228830,2,0,L|180:159,1,170,10|0,0:0|0:0,0:0:0:0:
229,233,229344,1,2,1:0:0:0:
229,233,229687,1,2,1:0:0:0:
351,173,229859,1,0,1:0:0:0:
376,188,229944,1,0,1:0:0:0:
382,213,230030,1,0,1:0:0:0:
263,320,230201,1,8,0:0:0:0:
289,311,230287,1,0,1:0:0:0:
317,302,230373,5,6,1:2:0:0:
180,159,230544,1,0,1:0:0:0:
460,142,230716,5,2,1:0:0:0:
411,309,230887,1,0,1:0:0:0:
181,372,231059,6,0,P|170:290|228:232,1,170,6|0,1:2|1:0,0:0:0:0:
272,67,231573,2,0,L|266:151,1,85,10|0,0:0|1:0,0:0:0:0:
49,258,231916,1,0,1:0:0:0:
49,258,232001,1,0,1:0:0:0:
49,258,232087,2,0,L|43:173,1,85,14|0,0:2|0:0,0:0:0:0:
192,105,232430,5,2,1:0:0:0:
266,151,232601,1,0,1:0:0:0:
341,198,232773,1,0,1:0:0:0:
375,190,232859,1,0,1:0:0:0:
405,185,232944,1,0,1:0:0:0:
432,179,233030,1,0,1:0:0:0:
453,136,233116,5,2,1:0:0:0:
453,136,233201,1,0,1:0:0:0:
366,85,233373,6,0,L|345:81,2,21.25,0|0|0,1:0|1:0|1:0,0:0:0:0:
484,28,233630,1,0,1:0:0:0:
484,28,233716,1,0,1:0:0:0:
484,28,233801,1,2,1:0:0:0:
375,0,233973,1,0,1:0:0:0:
464,305,234144,6,0,L|452:135,1,170,14|0,0:0|1:0,0:0:0:0:
341,197,234659,2,0,P|319:232|325:274,1,85,0|2,1:0|0:0,0:0:0:0:
254,370,235001,1,0,1:0:0:0:
210,361,235087,1,0,1:0:0:0:
169,353,235173,6,0,P|157:292|197:244,1,127.5,6|0,1:2|1:0,0:0:0:0:
130,191,235516,2,0,B|96:196|63:169|83:164|53:136|21:139,1,127.5,12|0,0:2|0:0,0:0:0:0:
102,82,235859,5,2,1:0:0:0:
127,64,235944,1,0,1:0:0:0:
156,59,236030,1,0,1:0:0:0:
186,64,236116,1,0,1:0:0:0:
210,80,236201,1,2,1:0:0:0:
259,180,236373,5,0,1:0:0:0:
284,206,236459,1,0,1:0:0:0:
316,208,236544,1,14,0:2:0:0:
397,180,236716,1,8,0:0:0:0:
397,180,236887,1,0,1:0:0:0:
328,101,237059,1,6,1:0:0:0:
468,32,237230,5,0,1:0:0:0:
497,60,237316,1,0,1:0:0:0:
512,101,237401,1,0,1:0:0:0:
510,144,237487,1,0,1:0:0:0:
494,182,237573,1,4,1:0:0:0:
389,315,237744,5,8,0:0:0:0:
389,315,237830,1,0,1:0:0:0:
389,315,237916,1,0,1:0:0:0:
277,384,238087,1,0,1:0:0:0:
275,263,238259,5,0,1:0:0:0:
254,223,238344,1,0,1:0:0:0:
216,201,238430,1,0,1:0:0:0:
170,199,238516,1,0,1:0:0:0:
136,229,238601,5,2,1:0:0:0:
120,242,238687,1,0,1:0:0:0:
104,251,238773,1,0,1:0:0:0:
86,256,238859,1,0,1:0:0:0:
48,231,238944,5,2,1:0:0:0:
36,179,239030,1,0,1:0:0:0:
53,133,239116,1,0,1:0:0:0:
102,111,239201,1,0,1:0:0:0:
156,125,239287,5,6,1:2:0:0:
165,338,239459,1,8,0:0:0:0:
338,206,239630,1,0,1:0:0:0:
338,206,239716,1,0,1:0:0:0:
338,206,239801,2,0,B|333:156|333:156|331:153|331:153|326:104,1,101.999996887207,10|0,0:0|1:0,0:0:0:0:
423,116,240144,5,8,0:0:0:0:
449,214,240316,1,2,1:0:0:0:
443,237,240401,1,0,1:0:0:0:
431,253,240487,1,8,0:0:0:0:
211,271,240659,6,0,P|307:281|345:371,1,203.999993774414,2|0,1:0|1:0,0:0:0:0:
353,378,241087,1,0,1:0:0:0:
353,378,241173,2,0,B|402:372|402:372|409:368|409:368|453:363,1,101.999996887207,10|0,0:0|1:0,0:0:0:0:
254,356,241516,1,8,0:0:0:0:
226,167,241687,1,2,1:0:0:0:
68,273,241859,1,8,0:0:0:0:
226,167,242030,6,0,L|216:65,1,101.999996887207,6|8,1:2|0:0,0:0:0:0:
16,102,242373,1,0,1:0:0:0:
16,102,242459,1,0,1:0:0:0:
16,102,242544,2,0,L|6:203,1,101.999996887207,10|0,0:0|1:0,0:0:0:0:
211,272,242887,1,8,0:0:0:0:
332,126,243059,1,2,1:0:0:0:
337,104,243144,1,0,1:0:0:0:
342,85,243230,1,8,0:0:0:0:
413,24,243401,6,0,P|455:49|459:98,1,101.999996887207,2|8,1:0|0:0,0:0:0:0:
502,230,243744,1,0,1:0:0:0:
486,241,243830,1,0,1:0:0:0:
471,251,243916,1,8,0:0:0:0:
381,326,244087,2,0,L|369:224,1,101.999996887207,6|8,1:2|0:0,0:0:0:0:
188,135,244430,5,0,1:0:0:0:
145,158,244516,1,8,0:0:0:0:
120,199,244601,1,8,0:0:0:0:
114,246,244687,1,0,1:0:0:0:
134,290,244773,5,6,1:2:0:0:
234,239,244944,1,8,0:0:0:0:
39,152,245116,5,0,1:0:0:0:
10,250,245287,2,0,B|16:297|16:297|15:304|15:304|20:351,1,101.999996887207,10|0,0:0|1:0,0:0:0:0:
236,341,245630,5,8,0:0:0:0:
323,287,245801,2,0,B|329:240|329:240|328:233|328:233|333:185,1,101.999996887207,2|8,1:0|0:0,0:0:0:0:
457,7,246144,6,0,B|520:62|520:62|477:116,1,152.999995330811,6|0,1:2|0:0,0:0:0:0:
402,137,246487,2,0,P|353:142|332:186,1,101.999996887207,0|10,1:0|0:0,0:0:0:0:
339,374,246830,2,0,P|387:368|408:324,1,101.999996887207,0|8,1:0|0:0,0:0:0:0:
256,231,247173,2,0,B|193:286|193:286|235:340,1,152.999995330811,2|0,1:0|0:0,0:0:0:0:
212,369,247516,5,6,1:2:0:0:
157,149,247687,1,8,0:0:0:0:
9,293,247859,1,0,1:0:0:0:
9,293,247944,1,0,1:0:0:0:
9,293,248030,2,0,B|11:244|11:244|8:239|8:239|9:191,1,101.999996887207,8|0,0:0|1:0,0:0:0:0:
59,44,248373,1,8,0:0:0:0:
114,247,248544,1,0,1:0:0:0:
252,89,248716,1,8,0:0:0:0:
215,19,248887,5,4,1:2:0:0:
215,19,249230,1,8,0:0:0:0:
450,57,249401,1,0,1:0:0:0:
281,249,249573,1,10,0:0:0:0:
248,223,249659,1,0,1:0:0:0:
246,180,249744,1,0,1:0:0:0:
276,155,249830,1,0,1:0:0:0:
316,164,249916,5,2,1:0:0:0:
342,189,250001,1,0,1:0:0:0:
362,210,250087,1,0,1:0:0:0:
380,229,250173,1,0,1:0:0:0:
399,249,250259,5,6,1:2:0:0:
497,210,250430,2,0,L|513:109,1,101.999996887207,8|0,0:0|1:0,0:0:0:0:
482,84,250687,1,0,1:0:0:0:
482,84,250773,1,10,0:0:0:0:
495,310,250945,1,0,1:0:0:0:
495,310,251116,1,8,0:0:0:0:
404,358,251288,1,2,1:0:0:0:
378,366,251373,1,0,1:0:0:0:
354,372,251459,1,8,0:0:0:0:
212,384,251631,6,0,P|194:337|212:290,1,101.999996887207,2|8,1:0|0:0,0:0:0:0:
283,243,251973,1,0,1:0:0:0:
301,265,252059,1,0,1:0:0:0:
301,290,252145,1,8,0:0:0:0:
103,315,252316,1,0,1:0:0:0:
137,214,252488,1,8,0:0:0:0:
173,113,252659,1,2,1:0:0:0:
173,113,252745,1,0,1:0:0:0:
173,113,252831,1,8,0:0:0:0:
325,24,253002,6,0,B|350:57|333:116|307:87|291:129|320:175,1,152.999995330811,6|0,1:2|0:0,0:0:0:0:
374,217,253345,1,2,1:0:0:0:
395,200,253430,1,0,1:0:0:0:
392,172,253516,1,10,0:0:0:0:
242,48,253688,1,0,1:0:0:0:
156,9,253859,1,8,0:0:0:0:
242,200,254031,1,2,1:0:0:0:
242,200,254117,1,0,1:0:0:0:
242,200,254202,1,8,0:0:0:0:
159,365,254373,6,0,B|162:312|162:312|159:307|159:307|161:263,1,101.999996887207,2|8,1:0|0:0,0:0:0:0:
55,283,254716,1,0,1:0:0:0:
57,302,254802,1,0,1:0:0:0:
59,320,254888,1,8,0:0:0:0:
241,199,255059,2,0,P|281:229|278:278,1,101.999996887207,2|8,1:0|0:0,0:0:0:0:
143,159,255401,6,0,P|153:87|222:64,1,152.999995330811,6|0,1:2|1:0,0:0:0:0:
282,115,255744,2,0,B|337:106|337:106|362:74|362:74|418:66,1,152.999995330811,6|0,1:2|0:0,0:0:0:0:
479,132,256088,1,0,1:0:0:0:
479,132,256173,1,0,1:0:0:0:
479,132,256259,6,0,B|472:206|472:206|474:217|474:217|468:284,1,152.999995330811,10|0,0:0|0:0,0:0:0:0:
400,325,256602,1,8,0:0:0:0:
278,276,256773,1,2,1:0:0:0:
281,251,256859,1,0,1:0:0:0:
299,237,256945,1,8,0:0:0:0:
199,377,257116,6,0,B|154:411|80:353|141:325|95:266|47:285,1,203.999993774414,6|0,1:2|1:0,0:0:0:0:
51,283,257544,1,0,1:0:0:0:
59,290,257631,2,0,B|59:243|59:243|57:237|57:237|57:188,1,101.999996887207,10|0,0:0|1:0,0:0:0:0:
173,42,257973,1,8,0:0:0:0:
237,160,258145,1,0,1:0:0:0:
212,179,258230,1,0,1:0:0:0:
185,179,258316,1,8,0:0:0:0:
303,50,258488,6,0,P|356:99|338:170,1,152.999995330811,6|0,1:2|0:0,0:0:0:0:
338,252,258831,1,2,1:0:0:0:
336,292,258916,1,0,1:0:0:0:
348,320,259002,1,2,1:0:0:0:
375,340,259088,1,0,1:0:0:0:
422,327,259173,5,0,1:0:0:0:
436,288,259259,1,0,1:0:0:0:
448,246,259345,1,0,1:0:0:0:
459,205,259431,1,0,1:0:0:0:
469,163,259516,1,0,1:0:0:0:
449,126,259602,5,0,1:0:0:0:
444,112,259688,1,0,1:0:0:0:
438,96,259773,1,0,1:0:0:0:
433,81,259859,1,8,0:0:0:0:
303,50,260030,5,0,1:0:0:0:
295,87,260116,1,0,1:0:0:0:
307,126,260201,1,8,0:0:0:0:
334,154,260287,1,0,1:0:0:0:
373,164,260373,1,0,1:0:0:0:
223,18,260544,2,0,B|174:23|174:23|166:21|166:21|121:24,1,101.999996887207,2|8,1:0|0:0,0:0:0:0:
97,60,260801,1,0,1:0:0:0:
97,60,260887,1,14,0:0:0:0:
27,332,261059,5,0,1:0:0:0:
27,332,261144,1,0,1:0:0:0:
27,332,261230,1,6,1:2:0:0:
132,384,261401,2,0,P|141:334|113:293,1,101.999996887207,8|0,0:0|0:0,0:0:0:0:
227,152,261744,2,0,L|240:304,1,152.999995330811,10|0,0:0|0:0,0:0:0:0:
310,347,262087,1,8,0:0:0:0:
407,219,262259,1,2,1:0:0:0:
310,347,262430,1,8,0:0:0:0:
498,379,262601,6,0,L|484:277,1,101.999996887207,2|8,1:0|0:0,0:0:0:0:
378,131,262944,1,0,1:0:0:0:
338,153,263030,1,0,1:0:0:0:
326,190,263116,1,10,0:0:0:0:
467,151,263287,1,0,1:0:0:0:
356,31,263459,1,8,0:0:0:0:
508,0,263630,1,2,1:0:0:0:
508,0,263716,1,0,1:0:0:0:
508,0,263801,1,8,0:0:0:0:
214,68,263973,5,6,1:2:0:0:
130,226,264144,2,0,B|128:177|128:177|125:170|125:170|122:125,1,101.999996887207,8|2,0:0|0:0,0:0:0:0:
82,100,264401,1,0,1:0:0:0:
82,100,264487,1,10,0:0:0:0:
0,215,264659,5,0,1:0:0:0:
64,331,264830,1,8,0:0:0:0:
185,335,265001,1,2,1:0:0:0:
217,312,265087,1,0,1:0:0:0:
231,277,265173,1,8,0:0:0:0:
325,190,265344,6,0,P|375:198|409:235,1,101.999996887207,2|8,1:0|0:0,0:0:0:0:
424,384,265687,2,0,P|374:375|340:338,1,101.999996887207,0|8,1:0|0:0,0:0:0:0:
409,235,266030,1,2,1:0:0:0:
476,138,266201,1,8,0:0:0:0:
394,35,266373,1,2,1:0:0:0:
358,48,266459,1,0,1:0:0:0:
322,63,266544,1,8,0:0:0:0:
189,179,266716,6,0,B|206:142|191:102|191:102|161:78|158:37,1,152.999995330811,2|0,1:0|0:0,0:0:0:0:
226,0,267059,1,6,1:2:0:0:
226,0,267230,1,10,0:0:0:0:
77,128,267401,1,8,0:0:0:0:
56,167,267487,1,0,1:0:0:0:
60,210,267573,1,0,1:0:0:0:
229,249,267744,5,2,1:0:0:0:
249,255,267830,1,0,1:0:0:0:
270,261,267916,1,0,1:0:0:0:
290,269,268001,1,0,1:0:0:0:
306,275,268087,6,0,B|304:324|304:324|301:330|301:330|298:376,1,101.999996887207,6|0,1:2|0:0,0:0:0:0:
477,198,268430,2,0,B|475:148|475:148|472:142|472:142|469:96,1,101.999996887207,0|2,1:0|1:0,0:0:0:0:
400,50,268687,5,0,1:0:0:0:
359,38,268773,1,0,1:0:0:0:
320,50,268859,1,0,1:0:0:0:
293,73,268944,1,0,1:0:0:0:
281,105,269030,1,0,1:0:0:0:
282,141,269116,5,2,1:0:0:0:
289,157,269201,1,0,1:0:0:0:
297,172,269287,1,0,1:0:0:0:
304,187,269373,1,0,1:0:0:0:
311,201,269459,6,0,B|282:249|207:213|248:186|204:137|154:162,1,191.249994163513,6|0,1:2|0:2,0:1:0:0:
105,230,270830,2,0,B|109:273|109:273|107:277|107:277|109:314,1,85,12|0,0:0|0:0,0:0:0:0:
179,367,271173,1,0,1:0:0:0:
154,161,271344,2,0,B|158:118|158:118|156:114|156:114|158:76,1,85,12|0,0:0|0:0,0:0:0:0:
85,21,271687,1,0,1:0:0:0:
10,68,271859,1,0,1:0:0:0:
62,140,272030,1,0,1:0:0:0:
233,33,272201,6,0,B|302:39|302:39|343:80|343:80|406:86,1,191.249994163513,6|0,1:2|0:0,0:1:0:0:
494,137,273573,2,0,B|493:99|493:99|495:91|495:91|493:52,1,85,14|0,0:0|0:0,0:0:0:0:
322,206,273916,1,2,1:0:0:0:
406,86,274087,2,0,B|366:118|387:174|408:158|438:200|416:240,1,170,14|0,0:0|0:0,0:0:0:0:
347,309,274601,2,0,L|220:293,1,127.5,0|0,1:0|0:0,0:0:0:0:
164,354,274944,5,6,1:1:0:0:
164,354,275287,1,0,1:0:0:0:
220,293,275459,6,0,B|246:250|214:202|198:223|159:191|176:143,1,172.124994747162,2|0,1:0|0:0,0:1:0:0:
121,83,276316,2,0,B|76:84|76:84|72:87|72:87|37:87,1,85,12|0,0:0|0:0,0:0:0:0:
176,142,276659,1,0,1:0:0:0:
227,2,276830,2,0,B|272:3|272:3|275:6|275:6|310:6,1,85,12|0,0:0|0:0,0:0:0:0:
379,107,277173,1,0,1:0:0:0:
313,153,277344,1,0,1:0:0:0:
270,88,277516,1,0,1:0:0:0:
429,168,277687,5,0,1:0:0:0:
426,196,277773,1,0,1:0:0:0:
423,224,277859,1,0,1:0:0:0:
420,252,277944,1,0,1:0:0:0:
393,284,278030,5,0,1:0:0:0:
367,306,278116,1,0,1:0:0:0:
337,328,278201,1,0,1:0:0:0:
309,348,278287,1,0,1:0:0:0:
269,342,278373,5,0,1:0:0:0:
243,311,278459,1,0,1:0:0:0:
242,270,278544,1,0,1:0:0:0:
274,241,278630,1,0,1:0:0:0:
318,252,278716,5,8,0:0:0:0:
395,382,278887,1,0,1:0:0:0:
148,353,279059,5,0,1:0:0:0:
50,274,279230,1,0,1:0:0:0:
40,237,279316,1,0,1:0:0:0:
49,198,279401,1,0,1:0:0:0:
80,167,279487,1,0,1:0:0:0:
129,169,279573,1,0,1:0:0:0:
129,169,279659,1,0,1:0:0:0:
129,169,279744,6,0,B|180:169|180:169|202:154|202:154|251:154,1,127.5,12|0,0:0|0:0,0:0:0:0:
317,99,280087,1,0,1:0:0:0:
323,79,280173,1,0,1:0:0:0:
322,56,280259,1,0,1:0:0:0:
315,35,280344,1,0,1:0:0:0:
302,22,280430,1,2,1:0:0:0:
491,256,280773,5,8,0:0:0:0:
378,358,280944,1,0,1:0:0:0:
378,358,281030,1,0,1:0:0:0:
378,358,281116,2,0,L|369:264,1,93.5000028533936,8|0,0:0|1:0,0:0:0:0:
235,321,281459,5,8,0:0:0:0:
149,256,281630,1,0,1:0:0:0:
149,256,281716,1,0,1:0:0:0:
149,256,281801,2,0,B|148:303|148:303|145:307|145:307|143:355,1,93.5000028533936,10|0,0:0|1:0,0:0:0:0:
255,149,282144,5,10,0:0:0:0:
161,148,282316,2,0,P|154:102|182:66,1,93.5000028533936,2|8,1:0|0:0,0:0:0:0:
337,10,282659,5,2,1:0:0:0:
344,96,282830,1,10,0:0:0:0:
508,50,283001,1,2,1:0:0:0:
508,50,283087,1,0,1:0:0:0:
508,50,283173,6,0,L|415:40,1,93.5000028533936,14|0,0:0|1:0,0:0:0:0:
423,282,283516,5,8,0:0:0:0:
360,192,283687,1,0,1:0:0:0:
360,192,283773,1,0,1:0:0:0:
360,192,283859,2,0,L|452:182,1,93.5000028533936,8|0,0:0|1:0,0:0:0:0:
344,96,284202,1,8,0:0:0:0:
161,148,284373,5,0,1:0:0:0:
161,148,284459,1,0,0:0:0:0:
161,148,284544,2,0,B|158:194|158:194|160:199|160:199|157:241,1,93.5000028533936,10|0,0:0|1:0,0:0:0:0:
164,384,284887,1,10,0:0:0:0:
93,336,285059,1,2,1:0:0:0:
64,340,285144,1,0,0:0:0:0:
40,345,285230,5,12,0:0:0:0:
157,240,285401,1,2,1:0:0:0:
69,87,285573,1,0,1:0:0:0:
80,72,285659,1,0,1:0:0:0:
95,61,285744,1,0,1:0:0:0:
112,54,285830,1,0,1:0:0:0:
131,52,285916,6,0,B|174:51|174:51|179:54|179:54|223:54,1,93.5000028533936,14|0,0:0|1:0,0:0:0:0:
360,192,286259,1,8,0:0:0:0:
452,182,286430,1,0,1:0:0:0:
452,182,286516,1,0,1:0:0:0:
451,182,286602,2,0,P|452:136|422:101,1,93.5000028533936,8|0,0:0|1:0,0:0:0:0:
278,261,286945,1,8,0:0:0:0:
261,346,287116,1,0,1:0:0:0:
118,384,287287,6,0,B|115:342|115:342|112:338|112:338|108:291,1,93.5000028533936,10|0,0:0|1:0,0:0:0:0:
82,196,287630,1,10,0:0:0:0:
35,112,287802,2,0,P|4:146|2:191,1,93.5000028533936,2|8,1:0|0:0,0:0:0:0:
171,149,288145,5,2,1:0:0:0:
128,65,288316,1,10,0:0:0:0:
278,8,288487,5,2,1:0:0:0:
278,8,288573,1,0,1:0:0:0:
278,8,288659,2,0,L|270:148,1,140.25000428009,14|0,0:0|1:0,0:0:0:0:
360,192,289001,1,0,1:0:0:0:
360,192,289087,1,0,1:0:0:0:
360,192,289173,2,0,L|362:238,3,46.7500014266968,0|0|0|0,1:0|1:0|1:0|1:0,0:0:0:0:
438,295,289516,5,0,1:0:0:0:
438,295,289601,1,0,1:0:0:0:
438,295,289687,2,0,L|435:341,1,46.7500014266968,8|0,0:0|1:0,0:0:0:0:
501,241,289859,2,0,L|503:194,1,46.7500014266968,0|0,1:0|1:0,0:0:0:0:
446,137,290030,5,2,1:0:0:0:
349,76,290201,1,0,1:0:0:0:
262,262,290373,1,2,1:0:0:0:
262,262,290459,1,0,1:0:0:0:
262,262,290544,1,2,1:0:0:0:
121,362,290716,5,14,0:0:0:0:
17,286,290887,1,0,1:0:0:0:
17,286,290973,1,0,1:0:0:0:
17,286,291059,1,8,0:0:0:0:
127,202,291230,5,0,1:0:0:0:
127,202,291316,1,0,1:0:0:0:
127,202,291401,2,0,P|164:233|165:283,1,101.999996887207,4|8,1:2|0:0,0:0:0:0:
44,155,291744,1,0,1:0:0:0:
44,155,291830,1,0,1:0:0:0:
44,155,291916,2,0,L|52:104,1,50.9999984436036,8|0,0:0|1:0,0:0:0:0:
125,47,292087,2,0,L|175:55,3,50.9999984436036,0|0|8|0,1:0|1:0|0:0|1:0,0:0:0:0:
223,129,292430,2,0,L|273:120,3,50.9999984436036,0|0|8|0,1:0|1:0|0:0|1:0,0:0:0:0:
368,138,292773,6,0,B|365:90|365:90|361:82|361:82|358:37,1,101.999996887207,2|8,1:2|0:0,0:0:0:0:
470,191,293116,1,2,1:0:0:0:
470,191,293201,1,0,1:0:0:0:
470,190,293287,2,0,P|429:220|422:269,1,101.999996887207,10|0,0:0|1:0,0:0:0:0:
297,378,293630,1,10,0:0:0:0:
383,355,293801,1,2,1:0:0:0:
240,312,293973,1,10,0:0:0:0:
163,384,294144,6,0,B|159:333|159:333|156:328|156:328|152:283,1,101.999996887207,2|8,1:2|0:0,0:0:0:0:
71,193,294487,1,0,1:0:0:0:
71,193,294573,1,0,1:0:0:0:
71,193,294659,2,0,L|66:243,1,50.9999984436036,8|0,0:0|1:0,0:0:0:0:
145,134,294830,2,0,L|140:83,3,50.9999984436036,0|0|8|0,1:0|1:0|0:0|1:0,0:0:0:0:
202,21,295173,5,0,1:0:0:0:
217,23,295259,1,0,1:0:0:0:
232,25,295344,1,8,0:0:0:0:
247,27,295430,1,0,1:0:0:0:
262,30,295516,2,0,P|300:70|294:117,1,101.999996887207,2|8,1:2|0:0,0:0:0:0:
423,212,295859,1,2,1:0:0:0:
423,212,295944,1,0,1:0:0:0:
423,212,296030,6,0,B|422:162|422:162|419:156|419:156|418:110,1,101.999996887207,10|0,0:0|1:0,0:0:0:0:
295,113,296373,1,8,0:0:0:0:
297,238,296544,1,0,1:0:0:0:
297,238,296630,1,0,1:0:0:0:
297,238,296716,2,0,L|297:288,1,50.9999984436036,8|0,0:0|1:0,0:0:0:0:
181,383,296887,6,0,P|130:333|158:267,1,152.999995330811,6|0,1:2|0:0,0:0:0:0:
200,199,297230,1,0,1:0:0:0:
200,199,297316,1,0,1:0:0:0:
200,199,297402,2,0,L|194:148,1,50.9999984436036,8|0,0:0|1:0,0:0:0:0:
124,98,297573,2,0,L|129:47,3,50.9999984436036,0|0|8|0,1:0|1:0|0:0|1:0,0:0:0:0:
72,177,297916,2,0,L|66:227,3,50.9999984436036,0|0|8|0,1:0|1:0|0:0|1:0,0:0:0:0:
7,123,298259,6,0,B|4:78|4:78|2:72|2:72|0:21,1,101.999996887207,6|8,1:2|0:0,0:0:0:0:
230,34,298602,1,2,1:0:0:0:
230,34,298687,1,0,1:0:0:0:
230,34,298773,2,0,L|129:47,1,101.999996887207,10|0,0:0|1:0,0:0:0:0:
294,170,299116,1,10,0:0:0:0:
382,37,299287,1,2,1:0:0:0:
304,84,299459,1,10,0:0:0:0:
360,236,299630,6,0,L|512:222,1,152.999995330811,6|0,1:2|0:0,0:0:0:0:
512,314,299973,1,0,1:0:0:0:
512,314,300059,1,0,1:0:0:0:
512,314,300145,2,0,L|508:364,1,50.9999984436036,8|0,0:0|1:0,0:0:0:0:
416,375,300316,2,0,L|412:324,3,50.9999984436036,0|0|8|0,1:0|1:0|0:0|1:0,0:0:0:0:
317,330,300659,2,0,L|313:380,3,50.9999984436036,0|0|8|0,1:0|1:0|0:0|1:0,0:0:0:0:
226,373,301001,5,6,1:2:0:0:
121,185,301173,1,8,0:0:0:0:
226,373,301344,1,2,1:0:0:0:
30,382,301516,1,10,0:0:0:0:
30,382,301601,1,0,0:0:0:0:
30,382,301687,6,0,B|27:333|27:333|24:328|24:328|21:281,1,101.999996887207,0|8,1:0|0:0,0:0:0:0:
130,84,302030,2,0,B|127:133|127:133|124:138|124:138|121:185,1,101.999996887207,0|8,1:0|0:0,0:0:0:0:
88,215,302287,1,0,1:0:0:0:
88,215,302373,1,4,0:0:0:0:
256,192,302459,12,0,303659,0:0:0:0:
406,330,303744,5,0,1:0:0:0:
406,330,303830,1,0,1:0:0:0:
406,330,303916,2,0,L|403:296,1,33.9999989624024,8|0,0:0|1:0,0:0:0:0:
457,238,304030,2,0,L|459:204,3,33.9999989624024,0|0|0|0,1:0|1:0|1:0|1:0,0:0:0:0:
402,144,304259,2,0,L|399:110,2,33.9999989624024,0|0|0,1:0|1:0|1:0,0:0:0:0:
434,75,304430,5,12,0:0:0:0:
268,0,304773,1,0,1:0:0:0:
92,312,305116,6,0,B|154:301|154:301|172:280|172:280|233:270,1,152.999995330811,4|0,0:0|0:0,0:0:0:0:
310,307,305459,1,4,3:2:0:0:
256,192,305544,12,0,311716,0:0:0:0:
