osu file format v14

[General]
AudioFilename: FACT - Ape.mp3
AudioLeadIn: 0
PreviewTime: 52067
Countdown: 1
SampleSet: Normal
StackLeniency: 0.7
Mode: 0
LetterboxInBreaks: 0
WidescreenStoryboard: 0

[Editor]
DistanceSpacing: 0.9
BeatDivisor: 4
GridSize: 4
TimelineZoom: 1.6

[Metadata]
Title:Ape
TitleUnicode:Ape
Artist:FACT
ArtistUnicode:FACT
Creator:Spark-desu
Version:Crazy
Source:
Tags:
BeatmapID:839330
BeatmapSetID:384018

[Difficulty]
HPDrainRate:5
CircleSize:4
OverallDifficulty:7
ApproachRate:9.4
SliderMultiplier:1.8
SliderTickRate:1

[Events]
//Background and Video events
0,0,"1650583.jpg",0,0
//Break Periods
2,44688,53422
2,171611,176074
//Storyboard Layer 0 (Background)
//Storyboard Layer 1 (Fail)
//Storyboard Layer 2 (Pass)
//Storyboard Layer 3 (Foreground)
//Storyboard Sound Samples

[TimingPoints]
5078.52010199101,300,4,1,0,70,1,0
24278,315.789473684211,4,1,0,70,1,0
137961,300,4,1,0,70,1,0
171562,315.789473684211,4,1,0,70,1,0

[HitObjects]
232,232,5078,5,8,0:0:0:0:
188,208,6278,5,8,0:0:0:0:
184,168,7478,5,8,0:0:0:0:
216,128,8678,5,8,0:0:0:0:
256,104,9878,5,8,0:0:0:0:
304,120,11078,5,8,0:0:0:0:
312,160,12278,5,8,0:0:0:0:
308,208,13478,5,8,0:0:0:0:
224,112,14378,2,0,P|184:88|128:84,1,90
340,128,14678,1,0,0:0:0:0:
204,103,14978,6,0,P|245:87|288:100,1,90
268,324,15278,1,0,0:0:0:0:
88,288,15428,1,0,0:0:0:0:
288,168,15578,1,0,0:0:0:0:
328,160,15653,1,0,0:0:0:0:
368,168,15728,1,0,0:0:0:0:
372,296,15878,2,0,P|327:292|289:314,1,90
240,180,16177,1,0,0:0:0:0:
148,48,16328,1,0,0:0:0:0:
224,252,16478,1,0,0:0:0:0:
376,84,16628,1,0,0:0:0:0:
312,264,16778,5,0,0:0:0:0:
276,280,16853,1,0,0:0:0:0:
236,284,16928,1,0,0:0:0:0:
164,40,17078,1,0,0:0:0:0:
468,52,17228,1,0,0:0:0:0:
340,220,17378,1,0,0:0:0:0:
144,56,17528,5,0,0:0:0:0:
264,264,17678,2,0,P|225:242|180:244,1,90
60,248,17978,1,0,0:0:0:0:
28,80,18128,1,0,0:0:0:0:
236,32,18278,1,0,0:0:0:0:
336,300,18578,5,0,0:0:0:0:
128,184,18728,1,0,0:0:0:0:
336,80,18878,1,0,0:0:0:0:
336,300,19028,1,0,0:0:0:0:
224,148,19178,2,0,P|196:188|208:260,2,90
248,248,19778,6,0,P|206:264|164:251,1,90
244,72,20077,1,0,0:0:0:0:
436,152,20228,1,0,0:0:0:0:
156,140,20378,1,0,0:0:0:0:
192,124,20453,1,0,0:0:0:0:
224,100,20528,1,0,0:0:0:0:
112,260,20678,2,0,P|156:263|194:241,1,90
280,44,20978,1,0,0:0:0:0:
380,200,21128,1,0,0:0:0:0:
136,56,21278,1,0,0:0:0:0:
144,284,21428,1,0,0:0:0:0:
296,96,21578,5,0,0:0:0:0:
324,124,21653,1,0,0:0:0:0:
340,160,21728,1,0,0:0:0:0:
160,336,21878,1,0,0:0:0:0:
104,104,22028,1,0,0:0:0:0:
336,232,22178,1,0,0:0:0:0:
120,72,22328,5,0,0:0:0:0:
240,212,22478,2,0,P|278:233|323:231,1,90
360,52,22778,1,0,0:0:0:0:
488,200,22928,1,0,0:0:0:0:
276,336,23078,1,0,0:0:0:0:
176,84,23378,5,0,0:0:0:0:
384,200,23528,1,0,0:0:0:0:
176,304,23678,1,0,0:0:0:0:
176,84,23828,1,0,0:0:0:0:
236,288,23978,2,0,P|264:248|224:124,1,180
260,72,24593,6,0,B|240:124|232:168,1,90
240,264,24909,1,0,0:0:0:0:
132,324,25225,1,0,0:0:0:0:
68,156,25541,5,0,0:0:0:0:
220,88,25856,2,0,P|276:64|324:56,1,90
416,140,26172,1,0,0:0:0:0:
412,276,26330,1,0,0:0:0:0:
340,184,26488,1,0,0:0:0:0:
252,48,26804,5,0,0:0:0:0:
176,112,27120,2,0,P|144:164|108:168,1,90
168,256,27435,2,0,P|228:240|260:260,1,90
392,304,27751,1,0,0:0:0:0:
168,272,28067,5,0,0:0:0:0:
300,184,28383,2,0,P|252:152|220:116,1,90
320,44,28699,1,0,0:0:0:0:
420,132,28856,1,0,0:0:0:0:
332,128,29014,1,0,0:0:0:0:
44,108,29330,5,0,0:0:0:0:
164,216,29646,2,0,P|120:260|76:268,1,90
200,340,29962,2,0,P|252:332|292:292,1,90
352,192,30278,1,0,0:0:0:0:
228,36,30593,5,0,0:0:0:0:
236,140,30909,2,0,P|180:152|124:136,1,90
148,260,31225,1,0,0:0:0:0:
264,328,31383,1,0,0:0:0:0:
252,228,31541,1,0,0:0:0:0:
16,180,31856,5,0,0:0:0:0:
164,184,32172,2,0,P|168:128|144:84,1,90
304,84,32488,2,0,P|268:120|272:168,1,90
352,272,32804,1,0,0:0:0:0:
180,344,33120,5,0,0:0:0:0:
268,240,33435,2,0,P|337:264|373:288,1,90
464,200,33751,1,0,0:0:0:0:
360,116,33909,1,0,0:0:0:0:
372,208,34067,1,0,0:0:0:0:
40,136,34383,5,0,0:0:0:0:
116,272,34699,1,0,0:0:0:0:
300,324,35014,2,0,P|308:272|288:240,1,90
288,124,35330,1,0,0:0:0:0:
176,44,35646,5,0,0:0:0:0:
172,140,35962,2,0,P|116:160|64:152,1,90
124,244,36278,1,0,0:0:0:0:
244,300,36435,1,0,0:0:0:0:
228,200,36593,1,0,0:0:0:0:
480,156,36909,5,0,0:0:0:0:
348,212,37225,2,0,P|348:264|372:308,1,90
228,328,37541,2,0,P|236:260|264:224,1,90
248,124,37856,1,0,0:0:0:0:
20,72,38172,5,0,0:0:0:0:
208,88,38488,2,0,P|176:124|128:144,1,90
180,248,38804,1,0,0:0:0:0:
308,212,38962,1,0,0:0:0:0:
232,308,39120,1,0,0:0:0:0:
440,356,39435,5,0,0:0:0:0:
376,216,39751,2,0,P|316:208|300:172,1,90
376,88,40067,2,0,P|316:96|300:132,1,90
252,232,40383,1,0,0:0:0:0:
148,336,40699,5,0,0:0:0:0:
172,216,41014,2,0,P|120:232|72:212,1,90
140,104,41330,1,0,0:0:0:0:
264,48,41488,1,0,0:0:0:0:
236,140,41646,1,0,0:0:0:0:
468,256,41962,5,0,0:0:0:0:
288,192,42278,2,0,P|236:232|192:248,1,90
104,156,42593,2,0,P|160:140|188:104,1,90
288,40,42909,1,0,0:0:0:0:
496,88,43225,5,0,0:0:0:0:
292,316,43856,1,0,0:0:0:0:
196,220,44014,1,0,0:0:0:0:
340,200,44172,1,0,0:0:0:0:
216,168,44488,5,0,0:0:0:0:
252,136,53962,5,0,0:0:0:0:
416,156,54120,1,0,0:0:0:0:
308,272,54278,1,0,0:0:0:0:
200,208,54435,1,0,0:0:0:0:
56,268,54593,2,0,P|100:216|148:196,1,90
344,56,54909,5,0,0:0:0:0:
384,60,54988,1,0,0:0:0:0:
424,64,55067,1,0,0:0:0:0:
400,296,55225,5,0,0:0:0:0:
360,292,55304,1,0,0:0:0:0:
320,284,55383,1,0,0:0:0:0:
144,168,55541,6,0,L|32:168,1,90
376,284,55856,5,0,0:0:0:0:
240,60,56014,1,0,0:0:0:0:
108,288,56172,1,0,0:0:0:0:
400,236,56330,1,0,0:0:0:0:
184,88,56488,5,0,0:0:0:0:
160,328,56646,1,0,0:0:0:0:
396,160,56804,1,0,0:0:0:0:
120,120,56962,1,0,0:0:0:0:
228,352,57120,1,0,0:0:0:0:
408,28,57435,6,0,P|356:56|336:84,1,90
68,352,57751,2,0,P|100:300|144:272,1,90
268,36,58067,5,0,0:0:0:0:
368,284,58225,1,0,0:0:0:0:
464,80,58383,1,0,0:0:0:0:
304,312,58541,1,0,0:0:0:0:
180,84,58699,1,0,0:0:0:0:
88,300,58856,1,0,0:0:0:0:
8,52,59014,6,0,P|44:100|80:120,1,90
336,260,59330,1,0,0:0:0:0:
152,56,59488,1,0,0:0:0:0:
32,292,59646,1,0,0:0:0:0:
216,80,59804,1,0,0:0:0:0:
136,336,59962,1,0,0:0:0:0:
128,296,60041,1,0,0:0:0:0:
144,260,60120,1,0,0:0:0:0:
392,72,60278,5,0,0:0:0:0:
356,84,60356,1,0,0:0:0:0:
324,112,60435,1,0,0:0:0:0:
324,324,60593,1,0,0:0:0:0:
152,96,60751,1,0,0:0:0:0:
120,312,60909,6,0,P|180:312|180:272,1,90
188,76,61225,1,0,0:0:0:0:
332,284,61383,1,0,0:0:0:0:
132,116,61541,5,0,0:0:0:0:
376,160,61699,1,0,0:0:0:0:
228,344,61856,1,0,0:0:0:0:
196,88,62014,1,0,0:0:0:0:
60,300,62172,5,0,0:0:0:0:
64,276,62251,1,0,0:0:0:0:
72,256,62330,1,0,0:0:0:0:
88,240,62409,1,0,0:0:0:0:
104,228,62488,1,0,0:0:0:0:
120,212,62567,1,0,0:0:0:0:
136,196,62646,5,0,0:0:0:0:
148,176,62725,1,0,0:0:0:0:
160,156,62804,1,0,0:0:0:0:
172,136,62883,1,0,0:0:0:0:
188,120,62962,1,0,0:0:0:0:
208,108,63041,1,0,0:0:0:0:
228,100,63120,1,0,0:0:0:0:
252,96,63199,1,0,0:0:0:0:
276,96,63278,1,0,0:0:0:0:
296,104,63356,1,0,0:0:0:0:
316,116,63435,5,0,0:0:0:0:
484,160,63593,1,0,0:0:0:0:
296,216,63750,1,0,0:0:0:0:
320,248,63829,1,0,0:0:0:0:
356,268,63908,1,0,0:0:0:0:
464,88,64066,5,0,0:0:0:0:
256,144,64224,1,0,0:0:0:0:
372,276,64382,1,0,0:0:0:0:
176,296,64540,1,0,0:0:0:0:
340,116,64699,2,0,B|284:160|228:180|152:160|96:96,1,270
208,344,65646,2,0,B|188:288|224:252|244:204|176:144,1,180
112,24,66278,1,0,0:0:0:0:
408,120,66593,5,0,0:0:0:0:
328,216,66751,1,0,0:0:0:0:
196,144,66909,1,0,0:0:0:0:
368,60,67067,1,0,0:0:0:0:
228,208,67225,1,0,0:0:0:0:
264,192,67541,5,0,0:0:0:0:
264,160,67856,1,0,0:0:0:0:
264,124,68172,1,0,0:0:0:0:
264,44,68330,5,0,0:0:0:0:
140,228,68488,1,0,0:0:0:0:
368,136,68646,1,0,0:0:0:0:
140,48,68804,1,0,0:0:0:0:
160,84,68883,1,0,0:0:0:0:
188,112,68962,1,0,0:0:0:0:
420,224,69120,1,0,0:0:0:0:
128,284,69278,1,0,0:0:0:0:
300,92,69435,1,0,0:0:0:0:
16,196,69751,6,0,P|64:152|80:168,1,90
176,216,70067,2,0,L|256:276,2,90
376,260,70699,1,0,0:0:0:0:
396,96,71014,5,0,0:0:0:0:
232,144,71172,1,0,0:0:0:0:
412,216,71330,1,0,0:0:0:0:
272,112,71488,1,0,0:0:0:0:
372,272,71646,1,0,0:0:0:0:
248,52,71962,1,0,0:0:0:0:
36,136,72278,5,0,0:0:0:0:
320,144,72435,1,0,0:0:0:0:
240,280,72593,1,0,0:0:0:0:
260,316,72672,1,0,0:0:0:0:
292,340,72751,1,0,0:0:0:0:
412,172,72909,1,0,0:0:0:0:
124,208,73067,1,0,0:0:0:0:
372,336,73225,1,0,0:0:0:0:
352,300,73304,1,0,0:0:0:0:
324,272,73383,1,0,0:0:0:0:
112,144,73541,5,0,0:0:0:0:
412,152,73699,1,0,0:0:0:0:
268,80,73856,1,0,0:0:0:0:
240,108,73935,1,0,0:0:0:0:
224,144,74014,1,0,0:0:0:0:
24,320,74172,5,0,0:0:0:0:
196,96,74330,1,0,0:0:0:0:
4,256,74488,1,0,0:0:0:0:
224,44,74646,1,0,0:0:0:0:
148,344,74804,1,0,0:0:0:0:
432,356,75120,1,0,0:0:0:0:
448,320,75199,1,0,0:0:0:0:
452,280,75278,1,0,0:0:0:0:
416,156,75435,2,0,P|393:117|393:73,1,90
252,220,75751,1,0,0:0:0:0:
328,64,75909,5,0,0:0:0:0:
124,168,76067,1,0,0:0:0:0:
128,208,76146,1,0,0:0:0:0:
144,244,76225,1,0,0:0:0:0:
388,130,76383,6,0,P|431:142|468:168,1,90
312,364,76699,1,0,0:0:0:0:
128,132,76856,1,0,0:0:0:0:
32,276,77014,1,0,0:0:0:0:
64,300,77093,1,0,0:0:0:0:
104,308,77172,1,0,0:0:0:0:
260,148,77330,2,0,P|232:182|189:192,1,90
320,268,77646,5,0,0:0:0:0:
292,92,77804,1,0,0:0:0:0:
464,244,77962,1,0,0:0:0:0:
432,216,78041,1,0,0:0:0:0:
392,208,78120,1,0,0:0:0:0:
152,344,78278,1,0,0:0:0:0:
44,132,78435,5,0,0:0:0:0:
264,36,78593,1,0,0:0:0:0:
280,256,78751,1,0,0:0:0:0:
88,188,78909,1,0,0:0:0:0:
312,64,79067,1,0,0:0:0:0:
348,280,79225,1,0,0:0:0:0:
128,236,79383,1,0,0:0:0:0:
356,80,79541,1,0,0:0:0:0:
40,148,79856,5,0,0:0:0:0:
80,136,79935,1,0,0:0:0:0:
120,140,80014,1,0,0:0:0:0:
252,308,80172,2,0,P|208:299|166:314,1,90
272,144,80488,1,0,0:0:0:0:
368,324,80646,1,0,0:0:0:0:
124,212,80804,5,0,0:0:0:0:
336,72,80962,1,0,0:0:0:0:
392,280,81120,5,0,0:0:0:0:
372,244,81199,1,0,0:0:0:0:
340,220,81278,1,0,0:0:0:0:
196,152,81435,2,0,P|189:109|219:77,1,90
424,128,81751,1,0,0:0:0:0:
488,308,81909,1,0,0:0:0:0:
376,92,82067,2,0,P|400:136|376:160,1,90
192,264,82383,5,0,0:0:0:0:
152,272,82462,1,0,0:0:0:0:
112,260,82541,1,0,0:0:0:0:
40,104,82699,6,0,B|96:72|144:100,1,90
288,220,83014,2,0,P|247:202|203:211,1,90
264,60,83330,1,0,0:0:0:0:
236,316,83488,5,0,0:0:0:0:
260,76,83646,1,0,0:0:0:0:
164,296,83804,1,0,0:0:0:0:
320,112,83962,1,0,0:0:0:0:
112,248,84120,1,0,0:0:0:0:
352,172,84278,1,0,0:0:0:0:
80,184,84435,1,0,0:0:0:0:
344,244,84593,1,0,0:0:0:0:
88,116,84751,1,0,0:0:0:0:
312,304,84909,1,0,0:0:0:0:
456,132,85225,5,0,0:0:0:0:
412,80,85383,1,0,0:0:0:0:
381,174,85541,6,0,P|437:154|461:118,1,90
312,172,85856,5,0,0:0:0:0:
268,120,86014,1,0,0:0:0:0:
237,214,86172,6,0,P|293:194|317:158,1,90
168,212,86488,5,0,0:0:0:0:
124,160,86646,1,0,0:0:0:0:
93,254,86804,6,0,P|149:234|173:198,1,90
208,104,87120,6,0,P|248:72|296:72,1,90
408,104,87435,2,0,P|444:148|432:176,1,90
368,252,87751,1,0,0:0:0:0:
304,300,87909,1,0,0:0:0:0:
224,316,88067,2,0,P|156:300|152:272,1,90
320,188,88383,5,0,0:0:0:0:
256,236,88541,1,0,0:0:0:0:
176,252,88699,2,0,P|108:236|104:208,1,90
268,136,89014,1,0,0:0:0:0:
204,184,89172,1,0,0:0:0:0:
124,200,89330,2,0,P|56:184|52:156,1,90
56,60,89646,6,0,P|100:32|156:40,1,90
256,72,89962,2,0,P|324:92|352:80,1,90
448,96,90278,5,0,0:0:0:0:
372,120,90435,1,0,0:0:0:0:
432,176,90593,2,0,P|388:232|356:220,1,90
356,164,90909,5,0,0:0:0:0:
280,188,91067,1,0,0:0:0:0:
340,244,91225,2,0,P|296:300|264:288,1,90
252,216,91541,5,0,0:0:0:0:
176,240,91699,1,0,0:0:0:0:
236,296,91856,2,0,P|192:352|160:340,1,90
88,288,92172,6,0,P|72:236|104:192,1,90
48,104,92488,2,0,P|84:64|136:56,1,90
240,60,92804,5,0,0:0:0:0:
300,116,92962,1,0,0:0:0:0:
232,56,93120,2,0,L|316:132,1,90
216,144,93435,5,0,0:0:0:0:
276,200,93593,1,0,0:0:0:0:
208,140,93751,2,0,L|292:216,1,90
192,236,94067,5,0,0:0:0:0:
252,292,94225,1,0,0:0:0:0:
184,232,94383,2,0,L|268:308,1,90
336,328,94699,1,0,0:0:0:0:
408,292,94856,1,0,0:0:0:0:
460,228,95014,5,0,0:0:0:0:
476,148,95172,1,0,0:0:0:0:
464,68,95330,2,0,P|408:40|364:44,1,90
244,80,95646,1,0,0:0:0:0:
300,196,95804,1,0,0:0:0:0:
160,112,95962,2,0,P|140:164|164:200,1,90
240,280,96278,5,0,0:0:0:0:
132,356,96435,1,0,0:0:0:0:
96,208,96593,2,0,P|168:172|204:188,1,90
328,208,96909,1,0,0:0:0:0:
236,112,97067,1,0,0:0:0:0:
380,104,97225,2,0,P|432:136|452:180,1,90
320,288,97541,5,0,0:0:0:0:
164,240,97699,1,0,0:0:0:0:
304,184,97856,2,0,P|236:152|192:156,1,90
80,228,98172,1,0,0:0:0:0:
220,332,98330,1,0,0:0:0:0:
352,220,98488,2,0,P|312:176|256:152,1,90
420,80,98804,5,0,0:0:0:0:
288,32,98962,1,0,0:0:0:0:
372,172,99120,2,0,P|316:176|264:196,1,90
140,240,99435,1,0,0:0:0:0:
252,152,99593,1,0,0:0:0:0:
112,108,99751,2,0,P|104:164|112:204,1,90
204,340,100067,5,0,0:0:0:0:
348,220,100225,1,0,0:0:0:0:
208,188,100383,1,0,0:0:0:0:
180,156,100462,1,0,0:0:0:0:
168,116,100541,1,0,0:0:0:0:
212,20,100699,5,0,0:0:0:0:
344,100,100856,1,0,0:0:0:0:
256,216,101014,5,0,0:0:0:0:
228,244,101093,1,0,0:0:0:0:
192,268,101172,1,0,0:0:0:0:
112,276,101330,1,0,0:0:0:0:
48,224,101488,1,0,0:0:0:0:
28,144,101646,1,0,0:0:0:0:
108,124,101804,1,0,0:0:0:0:
124,32,101962,1,0,0:0:0:0:
188,84,102120,1,0,0:0:0:0:
272,60,102278,2,0,P|312:96|340:152,1,90
376,216,102593,5,0,0:0:0:0:
264,304,102751,1,0,0:0:0:0:
140,256,102909,5,0,0:0:0:0:
116,224,102987,1,0,0:0:0:0:
108,184,103066,1,0,0:0:0:0:
112,52,103225,1,0,0:0:0:0:
212,124,103383,1,0,0:0:0:0:
244,28,103541,2,0,P|296:44|324:76,1,90
184,92,104014,5,0,0:0:0:0:
356,200,104330,1,0,0:0:0:0:
276,220,104488,2,0,P|273:176|302:143,1,90
376,128,104804,1,0,0:0:0:0:
256,192,105120,12,8,107329,0:0:0:0:
160,124,107646,5,0,0:0:0:0:
88,312,107962,1,0,0:0:0:0:
328,188,108278,1,0,0:0:0:0:
116,176,108593,1,0,0:0:0:0:
296,264,108751,5,0,0:0:0:0:
292,32,108909,1,0,0:0:0:0:
120,240,109067,1,0,0:0:0:0:
396,168,109225,1,0,0:0:0:0:
412,204,109304,1,0,0:0:0:0:
420,244,109383,1,0,0:0:0:0:
232,180,109541,1,0,0:0:0:0:
472,88,109699,1,0,0:0:0:0:
244,24,109856,1,0,0:0:0:0:
368,228,110014,1,0,0:0:0:0:
100,108,110172,6,0,B|100:180|128:216|180:248|228:268,1,180
432,48,110804,1,0,0:0:0:0:
48,168,111120,1,0,0:0:0:0:
192,32,111278,5,0,0:0:0:0:
272,204,111435,1,0,0:0:0:0:
308,224,111514,1,0,0:0:0:0:
348,220,111593,1,0,0:0:0:0:
460,24,111751,1,0,0:0:0:0:
204,132,111909,1,0,0:0:0:0:
428,264,112067,1,0,0:0:0:0:
400,292,112146,1,0,0:0:0:0:
364,312,112225,1,0,0:0:0:0:
188,312,112383,2,0,P|144:284|128:224,1,90
80,76,112699,1,0,0:0:0:0:
320,24,113014,5,0,0:0:0:0:
136,284,113330,1,0,0:0:0:0:
480,200,113646,1,0,0:0:0:0:
260,116,113804,5,0,0:0:0:0:
292,328,113962,1,0,0:0:0:0:
252,320,114041,1,0,0:0:0:0:
216,300,114120,1,0,0:0:0:0:
64,160,114278,1,0,0:0:0:0:
232,24,114435,1,0,0:0:0:0:
340,184,114593,1,0,0:0:0:0:
300,172,114672,1,0,0:0:0:0:
264,152,114751,1,0,0:0:0:0:
72,128,114909,2,0,P|120:132|168:156,1,90
232,292,115225,1,0,0:0:0:0:
256,292,115304,5,0,0:0:0:0:
280,292,115383,1,0,0:0:0:0:
304,288,115462,1,0,0:0:0:0:
324,284,115541,1,0,0:0:0:0:
344,276,115620,1,0,0:0:0:0:
364,268,115699,1,0,0:0:0:0:
380,252,115778,1,0,0:0:0:0:
396,236,115856,5,0,0:0:0:0:
408,216,115935,1,0,0:0:0:0:
416,196,116014,1,0,0:0:0:0:
420,176,116093,1,0,0:0:0:0:
420,152,116172,1,0,0:0:0:0:
416,128,116251,1,0,0:0:0:0:
408,108,116330,1,0,0:0:0:0:
396,88,116409,1,0,0:0:0:0:
292,32,116488,5,0,0:0:0:0:
204,160,116646,1,0,0:0:0:0:
336,200,116803,1,0,0:0:0:0:
372,184,116882,1,0,0:0:0:0:
404,160,116961,1,0,0:0:0:0:
416,272,117119,5,0,0:0:0:0:
252,296,117277,1,0,0:0:0:0:
360,336,117435,1,0,0:0:0:0:
316,200,117593,1,0,0:0:0:0:
260,140,117751,6,0,B|248:196|212:224|156:236|108:228|60:204|36:176,1,270
16,72,118699,5,0,0:0:0:0:
240,56,119014,1,0,0:0:0:0:
132,240,119330,1,0,0:0:0:0:
160,40,119646,1,0,0:0:0:0:
280,108,119804,1,0,0:0:0:0:
128,104,119962,1,0,0:0:0:0:
264,180,120120,1,0,0:0:0:0:
104,172,120278,1,0,0:0:0:0:
296,352,120593,5,0,0:0:0:0:
472,136,120909,1,0,0:0:0:0:
224,36,121225,1,0,0:0:0:0:
160,124,121383,5,0,0:0:0:0:
132,232,121541,1,0,0:0:0:0:
172,232,121620,1,0,0:0:0:0:
208,216,121699,1,0,0:0:0:0:
188,112,121856,5,0,0:0:0:0:
260,188,122014,1,0,0:0:0:0:
232,72,122172,1,0,0:0:0:0:
272,60,122251,1,0,0:0:0:0:
312,64,122330,1,0,0:0:0:0:
320,192,122488,5,0,0:0:0:0:
412,112,122646,1,0,0:0:0:0:
492,192,122804,2,0,B|472:248|444:264|384:292|328:296|280:288|236:272,1,270
420,208,123751,5,0,0:0:0:0:
244,288,124067,1,0,0:0:0:0:
296,152,124383,1,0,0:0:0:0:
352,344,124699,1,0,0:0:0:0:
232,276,124856,1,0,0:0:0:0:
384,280,125014,1,0,0:0:0:0:
248,204,125172,1,0,0:0:0:0:
108,176,125330,5,0,0:0:0:0:
180,320,125488,1,0,0:0:0:0:
304,280,125646,1,0,0:0:0:0:
316,240,125725,1,0,0:0:0:0:
312,200,125804,1,0,0:0:0:0:
232,76,125962,1,0,0:0:0:0:
388,152,126120,1,0,0:0:0:0:
220,228,126278,1,0,0:0:0:0:
236,264,126356,1,0,0:0:0:0:
268,292,126435,1,0,0:0:0:0:
444,332,126593,5,0,0:0:0:0:
288,128,126751,1,0,0:0:0:0:
128,308,126909,1,0,0:0:0:0:
108,272,126988,1,0,0:0:0:0:
100,232,127067,1,0,0:0:0:0:
204,28,127225,5,0,0:0:0:0:
272,248,127383,1,0,0:0:0:0:
452,72,127541,1,0,0:0:0:0:
152,168,127699,1,0,0:0:0:0:
356,76,127856,6,0,P|324:52|268:52,1,90
148,96,128172,1,0,0:0:0:0:
248,200,128330,1,0,0:0:0:0:
396,288,128488,2,0,P|420:244|416:196,1,90
376,100,128804,1,0,0:0:0:0:
272,192,128962,1,0,0:0:0:0:
176,100,129120,5,0,0:0:0:0:
196,64,129199,1,0,0:0:0:0:
236,40,129278,1,0,0:0:0:0:
384,56,129435,2,0,P|392:112|348:160,1,90
288,216,129751,2,0,P|248:220|188:268,1,90
104,312,130067,1,0,0:0:0:0:
264,348,130225,5,0,0:0:0:0:
388,248,130383,2,0,P|404:300|376:340,1,90
264,348,130699,1,0,0:0:0:0:
168,256,130856,1,0,0:0:0:0:
292,152,131014,1,0,0:0:0:0:
376,288,131172,1,0,0:0:0:0:
280,248,131330,2,0,P|239:266|215:303,1,90
224,156,131646,5,0,0:0:0:0:
440,72,131804,1,0,0:0:0:0:
352,268,131962,6,0,P|324:308|280:324,1,90
48,272,132278,1,0,0:0:0:0:
96,120,132435,1,0,0:0:0:0:
232,32,132593,2,0,B|264:72|272:120|260:176|228:200,1,180
144,252,133067,5,0,0:0:0:0:
172,148,133225,2,0,P|210:169|268:172,1,90
368,212,133541,2,0,P|324:236|272:252,1,90
192,256,133856,1,0,0:0:0:0:
92,256,134014,1,0,0:0:0:0:
160,328,134172,5,0,0:0:0:0:
196,348,134251,1,0,0:0:0:0:
236,352,134330,1,0,0:0:0:0:
384,328,134488,2,0,P|392:272|348:224,1,90
264,168,134804,1,0,0:0:0:0:
112,60,134962,1,0,0:0:0:0:
120,184,135120,1,0,0:0:0:0:
264,36,135278,5,0,0:0:0:0:
388,136,135435,2,0,P|404:84|376:44,1,90
264,36,135751,1,0,0:0:0:0:
168,128,135909,1,0,0:0:0:0:
292,232,136067,1,0,0:0:0:0:
376,96,136225,1,0,0:0:0:0:
280,144,136383,2,0,P|240:156|200:200,1,90
128,280,136699,5,0,0:0:0:0:
440,312,136856,1,0,0:0:0:0:
352,116,137014,6,0,P|324:76|280:60,1,90
48,112,137330,1,0,0:0:0:0:
96,264,137488,1,0,0:0:0:0:
232,352,137646,2,0,B|264:312|272:264|260:208|228:184,1,180
192,40,138261,6,0,P|144:100|136:128,1,90
320,348,138711,1,0,0:0:0:0:
352,276,138861,1,0,0:0:0:0:
312,84,139161,2,0,P|240:100|220:128,1,90
144,180,139461,1,0,0:0:0:0:
248,212,139611,1,0,0:0:0:0:
444,116,139911,2,0,P|400:88|348:80,1,90
320,40,140361,6,0,P|368:100|376:128,1,90
376,240,140661,1,0,0:0:0:0:
268,172,140811,1,0,0:0:0:0:
200,84,141111,2,0,P|272:100|292:128,1,90
192,200,141561,1,0,0:0:0:0:
72,228,141711,1,0,0:0:0:0:
68,116,141861,2,0,P|112:88|164:80,1,90
328,160,142311,1,0,0:0:0:0:
188,224,142461,1,0,0:0:0:0:
160,24,142761,5,0,0:0:0:0:
320,40,143061,2,0,P|368:100|376:128,1,90
192,348,143511,1,0,0:0:0:0:
160,276,143661,1,0,0:0:0:0:
200,84,143961,2,0,P|272:100|292:128,1,90
368,180,144261,1,0,0:0:0:0:
264,212,144411,1,0,0:0:0:0:
68,116,144711,2,0,P|112:88|164:80,1,90
320,344,145161,6,0,P|368:284|376:256,1,90
376,144,145461,1,0,0:0:0:0:
268,212,145611,1,0,0:0:0:0:
200,300,145911,2,0,P|272:284|292:256,1,90
192,184,146361,1,0,0:0:0:0:
72,156,146511,1,0,0:0:0:0:
68,268,146661,2,0,P|112:296|164:304,1,90
328,224,147111,5,0,0:0:0:0:
188,160,147261,1,0,0:0:0:0:
348,28,147561,1,0,0:0:0:0:
496,180,147861,2,0,P|460:224|424:220,1,90
184,108,148311,1,0,0:0:0:0:
152,184,148461,1,0,0:0:0:0:
332,248,148761,6,0,P|380:232|408:200,1,90
300,160,149061,1,0,0:0:0:0:
416,112,149211,1,0,0:0:0:0:
184,24,149511,2,0,P|136:60|116:96,1,90
192,256,149961,1,0,0:0:0:0:
268,84,150261,6,0,P|320:100|340:132,1,90
424,332,150711,1,0,0:0:0:0:
344,312,150861,1,0,0:0:0:0:
256,192,151161,1,0,0:0:0:0:
80,152,152061,5,0,0:0:0:0:
232,304,152361,6,0,P|285:247|292:216,1,90
320,120,152661,1,0,0:0:0:0:
160,112,152811,1,0,0:0:0:0:
232,256,152961,1,0,0:0:0:0:
376,152,153111,5,0,0:0:0:0:
216,96,153261,1,0,0:0:0:0:
120,212,153411,1,0,0:0:0:0:
252,256,153561,5,0,0:0:0:0:
336,120,153711,1,0,0:0:0:0:
168,152,153861,1,0,0:0:0:0:
312,320,154011,1,0,0:0:0:0:
392,88,154161,5,0,0:0:0:0:
124,80,154311,1,0,0:0:0:0:
260,340,154461,1,0,0:0:0:0:
392,88,154611,1,0,0:0:0:0:
124,80,154761,5,0,0:0:0:0:
100,112,154836,1,0,0:0:0:0:
88,152,154911,1,0,0:0:0:0:
80,284,155061,1,0,0:0:0:0:
180,176,155211,1,0,0:0:0:0:
248,256,155361,1,0,0:0:0:0:
324,224,155511,5,0,0:0:0:0:
224,124,155661,1,0,0:0:0:0:
352,120,155811,1,0,0:0:0:0:
252,40,155961,6,0,P|180:52|172:64,1,90
136,104,156261,6,0,P|100:144|80:200,1,90
80,228,156561,6,0,P|88:280|128:316,1,90
160,332,156861,6,0,P|204:328|252:308,1,90
324,208,157161,5,0,0:0:0:0:
160,160,157311,2,0,P|184:208|224:236,1,90
344,268,157611,1,0,0:0:0:0:
272,152,157761,1,0,0:0:0:0:
192,256,157911,5,0,0:0:0:0:
328,220,158061,1,0,0:0:0:0:
428,168,158211,1,0,0:0:0:0:
288,108,158361,5,0,0:0:0:0:
176,264,158511,1,0,0:0:0:0:
344,232,158661,1,0,0:0:0:0:
188,88,158811,1,0,0:0:0:0:
120,296,158961,5,0,0:0:0:0:
388,304,159111,1,0,0:0:0:0:
252,44,159261,1,0,0:0:0:0:
120,296,159411,1,0,0:0:0:0:
128,84,159561,5,0,0:0:0:0:
104,116,159636,1,0,0:0:0:0:
92,156,159711,1,0,0:0:0:0:
72,280,159861,1,0,0:0:0:0:
208,200,160011,1,0,0:0:0:0:
196,296,160161,1,0,0:0:0:0:
288,228,160311,5,0,0:0:0:0:
224,124,160461,1,0,0:0:0:0:
344,100,160611,1,0,0:0:0:0:
252,40,160761,6,0,P|180:52|172:64,1,90
136,104,161061,6,0,P|100:144|80:200,1,90
84,248,161361,5,0,0:0:0:0:
136,312,161511,1,0,0:0:0:0:
212,344,161661,1,0,0:0:0:0:
292,348,161811,1,0,0:0:0:0:
372,328,161961,1,0,0:0:0:0:
452,48,162261,5,0,0:0:0:0:
384,296,162411,1,0,0:0:0:0:
320,48,162561,1,0,0:0:0:0:
260,264,162711,1,0,0:0:0:0:
216,28,162861,1,0,0:0:0:0:
168,268,163011,1,0,0:0:0:0:
128,68,163161,1,0,0:0:0:0:
64,312,163311,1,0,0:0:0:0:
28,128,163461,1,0,0:0:0:0:
304,136,163611,5,0,0:0:0:0:
44,64,163761,1,0,0:0:0:0:
272,200,163911,1,0,0:0:0:0:
104,24,164061,1,0,0:0:0:0:
220,248,164211,1,0,0:0:0:0:
356,324,164361,5,0,0:0:0:0:
392,304,164436,1,0,0:0:0:0:
416,272,164511,1,0,0:0:0:0:
452,128,164661,5,0,0:0:0:0:
216,40,164811,1,0,0:0:0:0:
232,288,164961,1,0,0:0:0:0:
328,80,165111,1,0,0:0:0:0:
120,252,165261,1,0,0:0:0:0:
140,44,165411,1,0,0:0:0:0:
40,192,165561,6,0,P|88:172|120:140,1,90
164,100,165861,2,0,P|216:84|268:100,1,90
312,116,166161,2,0,P|352:152|384:176,1,90
432,212,166461,2,0,P|472:256|488:300,1,90
392,340,166761,1,0,0:0:0:0:
356,336,166836,1,0,0:0:0:0:
316,332,166911,1,0,0:0:0:0:
236,320,167061,5,0,0:0:0:0:
272,184,167211,1,0,0:0:0:0:
152,240,167361,1,0,0:0:0:0:
172,108,167511,1,0,0:0:0:0:
244,256,167661,1,0,0:0:0:0:
96,164,167811,1,0,0:0:0:0:
260,64,167961,5,0,0:0:0:0:
208,240,168111,1,0,0:0:0:0:
64,116,168261,1,0,0:0:0:0:
252,24,168411,1,0,0:0:0:0:
224,288,168561,5,0,0:0:0:0:
444,96,168711,1,0,0:0:0:0:
200,92,168861,1,0,0:0:0:0:
416,296,169011,1,0,0:0:0:0:
312,56,169161,1,0,0:0:0:0:
304,96,169236,1,0,0:0:0:0:
296,136,169311,1,0,0:0:0:0:
228,336,169461,5,0,0:0:0:0:
52,136,169611,1,0,0:0:0:0:
332,132,169761,1,0,0:0:0:0:
68,240,169911,1,0,0:0:0:0:
264,44,170061,1,0,0:0:0:0:
136,292,170211,1,0,0:0:0:0:
176,32,170361,5,0,0:0:0:0:
44,80,170511,1,0,0:0:0:0:
52,120,170586,1,0,0:0:0:0:
68,156,170661,1,0,0:0:0:0:
196,248,170961,5,0,0:0:0:0:
200,132,171111,5,0,0:0:0:0:
316,136,171261,5,0,0:0:0:0:
312,252,171411,5,0,0:0:0:0:
252,44,176614,5,0,0:0:0:0:
124,308,176930,1,0,0:0:0:0:
428,248,177246,1,0,0:0:0:0:
216,208,177404,1,0,0:0:0:0:
352,84,177562,1,0,0:0:0:0:
428,248,177719,1,0,0:0:0:0:
216,208,177877,1,0,0:0:0:0:
428,248,178193,5,0,0:0:0:0:
252,48,178509,1,0,0:0:0:0:
144,188,178667,1,0,0:0:0:0:
324,188,178825,1,0,0:0:0:0:
252,48,178983,1,0,0:0:0:0:
144,188,179140,5,0,0:0:0:0:
152,208,179219,1,0,0:0:0:0:
164,228,179298,1,0,0:0:0:0:
180,244,179377,1,0,0:0:0:0:
196,256,179456,1,0,0:0:0:0:
216,268,179535,1,0,0:0:0:0:
236,280,179614,5,0,0:0:0:0:
256,288,179693,1,0,0:0:0:0:
276,292,179772,1,0,0:0:0:0:
300,292,179851,1,0,0:0:0:0:
320,288,179930,1,0,0:0:0:0:
340,280,180009,1,0,0:0:0:0:
360,272,180088,1,0,0:0:0:0:
380,260,180167,5,0,0:0:0:0:
396,244,180246,1,0,0:0:0:0:
408,228,180325,1,0,0:0:0:0:
416,208,180404,5,0,0:0:0:0:
304,92,180562,1,0,0:0:0:0:
332,188,180719,1,0,0:0:0:0:
372,184,180798,1,0,0:0:0:0:
408,164,180877,1,0,0:0:0:0:
464,296,181035,5,0,0:0:0:0:
256,240,181193,1,0,0:0:0:0:
372,108,181351,1,0,0:0:0:0:
176,88,181509,1,0,0:0:0:0:
272,168,181667,6,0,B|260:224|224:252|168:264|120:256|72:232|48:204,1,270
248,24,182614,1,0,0:0:0:0:
412,216,182930,1,0,0:0:0:0:
140,252,183246,1,0,0:0:0:0:
160,216,183562,6,0,P|201:200|243:214,1,90
276,236,183798,1,0,0:0:0:0:
308,260,183877,1,0,0:0:0:0:
192,120,184035,1,0,0:0:0:0:
336,104,184193,1,0,0:0:0:0:
132,140,184509,1,0,0:0:0:0:
56,344,184825,1,0,0:0:0:0:
296,276,185140,6,0,P|248:248|200:248,1,90
176,252,185377,1,0,0:0:0:0:
136,264,185456,1,0,0:0:0:0:
68,168,185614,1,0,0:0:0:0:
216,120,185772,1,0,0:0:0:0:
296,276,185930,1,0,0:0:0:0:
328,100,186088,1,0,0:0:0:0:
356,72,186167,1,0,0:0:0:0:
392,56,186246,1,0,0:0:0:0:
456,180,186404,1,0,0:0:0:0:
392,316,186562,1,0,0:0:0:0:
268,212,186719,6,0,B|256:156|228:124|180:104|112:120|84:152|72:200,1,270
248,360,187667,1,0,0:0:0:0:
412,168,187983,1,0,0:0:0:0:
140,132,188298,1,0,0:0:0:0:
180,212,188614,6,0,P|221:227|263:213,1,90
296,188,188851,1,0,0:0:0:0:
324,156,188930,1,0,0:0:0:0:
440,56,189088,1,0,0:0:0:0:
400,228,189246,1,0,0:0:0:0:
232,208,189404,5,0,0:0:0:0:
120,292,189562,1,0,0:0:0:0:
96,260,189640,1,0,0:0:0:0:
88,220,189719,1,0,0:0:0:0:
196,112,189877,5,0,0:0:0:0:
364,228,190035,1,0,0:0:0:0:
364,80,190193,1,0,0:0:0:0:
328,64,190272,1,0,0:0:0:0:
288,56,190351,5,0,0:0:0:0:
128,60,190509,1,0,0:0:0:0:
212,268,190667,1,0,0:0:0:0:
64,92,190825,1,0,0:0:0:0:
72,132,190904,1,0,0:0:0:0:
92,168,190983,1,0,0:0:0:0:
304,240,191140,5,0,0:0:0:0:
456,140,191298,1,0,0:0:0:0:
264,40,191456,1,0,0:0:0:0:
232,64,191535,1,0,0:0:0:0:
212,100,191614,1,0,0:0:0:0:
176,280,191772,2,0,P|180:224|192:180,1,90
316,80,192088,5,0,0:0:0:0:
460,220,192246,1,0,0:0:0:0:
256,264,192404,1,0,0:0:0:0:
376,80,192562,1,0,0:0:0:0:
296,288,192719,1,0,0:0:0:0:
264,316,192798,1,0,0:0:0:0:
224,320,192877,1,0,0:0:0:0:
32,228,193035,6,0,P|20:184|48:128,1,90
180,36,193351,1,0,0:0:0:0:
288,184,193509,1,0,0:0:0:0:
92,184,193667,1,0,0:0:0:0:
108,220,193746,1,0,0:0:0:0:
136,248,193825,1,0,0:0:0:0:
300,288,193983,2,0,P|344:284|372:244,1,90
344,100,194298,1,0,0:0:0:0:
124,116,194456,5,0,0:0:0:0:
232,240,194614,1,0,0:0:0:0:
332,136,194772,1,0,0:0:0:0:
152,196,194930,1,0,0:0:0:0:
120,224,195009,1,0,0:0:0:0:
100,260,195088,1,0,0:0:0:0:
188,336,195246,6,0,P|229:352|280:340,1,90
376,240,195562,1,0,0:0:0:0:
344,216,195640,1,0,0:0:0:0:
304,204,195719,1,0,0:0:0:0:
80,208,195877,1,0,0:0:0:0:
212,84,196035,1,0,0:0:0:0:
172,280,196193,5,0,0:0:0:0:
208,300,196272,1,0,0:0:0:0:
248,304,196351,1,0,0:0:0:0:
396,168,196509,2,0,P|357:191|304:184,1,90
172,120,196825,1,0,0:0:0:0:
244,328,197140,5,0,0:0:0:0:
76,216,197298,1,0,0:0:0:0:
192,96,197456,1,0,0:0:0:0:
328,200,197614,1,0,0:0:0:0:
224,320,197772,1,0,0:0:0:0:
264,340,197851,1,0,0:0:0:0:
304,340,197930,1,0,0:0:0:0:
484,240,198088,6,0,P|496:196|468:140,1,90
324,24,198404,1,0,0:0:0:0:
204,176,198562,1,0,0:0:0:0:
412,180,198719,1,0,0:0:0:0:
408,220,198798,1,0,0:0:0:0:
392,256,198877,1,0,0:0:0:0:
256,320,199035,2,0,P|212:329|168:292,1,90
140,156,199351,1,0,0:0:0:0:
388,116,199509,5,0,0:0:0:0:
264,276,199667,1,0,0:0:0:0:
160,116,199825,1,0,0:0:0:0:
360,196,199983,1,0,0:0:0:0:
392,224,200062,1,0,0:0:0:0:
416,256,200140,1,0,0:0:0:0:
448,140,200298,6,0,P|406:156|373:186,1,90
288,56,200614,1,0,0:0:0:0:
328,44,200693,1,0,0:0:0:0:
368,44,200772,1,0,0:0:0:0:
492,212,200930,1,0,0:0:0:0:
244,168,201088,1,0,0:0:0:0:
392,304,201246,5,0,0:0:0:0:
356,324,201325,1,0,0:0:0:0:
316,332,201404,1,0,0:0:0:0:
120,208,201562,1,0,0:0:0:0:
320,36,201877,5,0,0:0:0:0:
464,288,202035,1,0,0:0:0:0:
264,80,202193,1,0,0:0:0:0:
408,336,202351,1,0,0:0:0:0:
200,104,202509,5,0,0:0:0:0:
336,344,202667,1,0,0:0:0:0:
132,80,202825,1,0,0:0:0:0:
268,316,202983,1,0,0:0:0:0:
32,288,203140,5,0,0:0:0:0:
176,60,203298,1,0,0:0:0:0:
360,260,203456,1,0,0:0:0:0:
92,232,203614,1,0,0:0:0:0:
256,28,203772,1,0,0:0:0:0:
244,300,203930,1,0,0:0:0:0:
320,32,204088,5,0,0:0:0:0:
180,292,204246,1,0,0:0:0:0:
484,216,204404,1,0,0:0:0:0:
176,120,204562,1,0,0:0:0:0:
456,284,204719,1,0,0:0:0:0:
280,32,204877,1,0,0:0:0:0:
32,160,205035,5,0,0:0:0:0:
264,352,205193,1,0,0:0:0:0:
268,104,205351,1,0,0:0:0:0:
60,348,205509,1,0,0:0:0:0:
348,236,205667,1,0,0:0:0:0:
380,208,205746,1,0,0:0:0:0:
408,180,205825,1,0,0:0:0:0:
236,344,205983,5,0,0:0:0:0:
84,136,206140,1,0,0:0:0:0:
360,96,206298,1,0,0:0:0:0:
344,132,206377,1,0,0:0:0:0:
328,168,206456,1,0,0:0:0:0:
152,348,206614,1,0,0:0:0:0:
200,244,206772,1,0,0:0:0:0:
376,272,206930,5,0,0:0:0:0:
400,240,207009,1,0,0:0:0:0:
420,204,207088,1,0,0:0:0:0:
432,164,207167,1,0,0:0:0:0:
428,124,207246,1,0,0:0:0:0:
412,88,207325,1,0,0:0:0:0:
384,60,207404,1,0,0:0:0:0:
348,40,207483,1,0,0:0:0:0:
308,28,207562,1,0,0:0:0:0:
268,24,207640,5,0,0:0:0:0:
228,32,207719,1,0,0:0:0:0:
188,44,207798,1,0,0:0:0:0:
152,60,207877,1,0,0:0:0:0:
120,88,207956,1,0,0:0:0:0:
96,120,208035,1,0,0:0:0:0:
76,156,208114,1,0,0:0:0:0:
68,196,208193,1,0,0:0:0:0:
72,236,208272,1,0,0:0:0:0:
84,276,208351,5,0,0:0:0:0:
108,308,208430,1,0,0:0:0:0:
140,332,208509,1,0,0:0:0:0:
176,348,208588,1,0,0:0:0:0:
216,352,208667,1,0,0:0:0:0:
256,348,208746,1,0,0:0:0:0:
296,336,208825,1,0,0:0:0:0:
332,320,208904,1,0,0:0:0:0:
364,296,208983,1,0,0:0:0:0:
392,268,209062,5,0,0:0:0:0:
416,236,209140,1,0,0:0:0:0:
436,200,209219,1,0,0:0:0:0:
448,160,209298,1,0,0:0:0:0:
456,120,209377,1,0,0:0:0:0:
456,80,209456,1,0,0:0:0:0:
456,32,210088,5,0,0:0:0:0:
148,140,210562,5,0,0:0:0:0:
296,324,210719,1,0,0:0:0:0:
392,112,210877,1,0,0:0:0:0:
96,104,211035,1,0,0:0:0:0:
240,344,211193,1,0,0:0:0:0:
424,168,211351,1,0,0:0:0:0:
160,60,211509,1,0,0:0:0:0:
172,332,211667,1,0,0:0:0:0:
256,192,211825,5,0,0:0:0:0:
256,176,211983,1,0,0:0:0:0:
