osu file format v14

[General]
AudioFilename: audio.mp3
AudioLeadIn: 0
PreviewTime: -1
Countdown: 1
SampleSet: None
StackLeniency: 0.7
Mode: 0
LetterboxInBreaks: 0
WidescreenStoryboard: 0

[Editor]
DistanceSpacing: 1.1
BeatDivisor: 1
GridSize: 32
TimelineZoom: 1

[Metadata]
Title:YA JEBAL TVOU TELKU
TitleUnicode:YA JEBAL TVOU TELKU
Artist:FACE
ArtistUnicode:FACE
Creator:Thiefofsky
Version:Hard
Source:
Tags:
BeatmapID:1439569
BeatmapSetID:680872

[Difficulty]
HPDrainRate:5
CircleSize:5
OverallDifficulty:5
ApproachRate:5
SliderMultiplier:1.4
SliderTickRate:1

[Events]
//Background and Video events
0,0,"ыы.jpeg",0,0
//Break Periods
2,124113,131731
2,146420,150716
//Storyboard Layer 0 (Background)
//Storyboard Layer 1 (Fail)
//Storyboard Layer 2 (Pass)
//Storyboard Layer 3 (Foreground)
//Storyboard Sound Samples

[TimingPoints]
22822.6155678016,474.608448030375,4,1,0,100,1,0

[HitObjects]
0,192,1465,6,0,B|224:128|160:160,2,140
384,128,3838,1,0,0:0:0:0:
224,288,4787,1,0,0:0:0:0:
416,96,8109,2,0,B|224:160|384:96|352:96,3,140
416,160,11432,1,0,0:0:0:0:
64,128,15228,2,0,L|256:64,3,140
196,83,17127,2,0,L|256:224,4,140
256,96,20924,1,0,0:0:0:0:
416,96,21398,1,0,0:0:0:0:
224,128,24246,1,0,0:0:0:0:
288,32,24721,1,0,0:0:0:0:
192,160,25195,1,0,0:0:0:0:
320,32,25670,1,0,0:0:0:0:
192,160,26144,1,0,0:0:0:0:
320,32,26619,1,0,0:0:0:0:
192,160,27094,1,0,0:0:0:0:
384,192,27568,1,0,0:0:0:0:
224,128,28043,1,0,0:0:0:0:
384,128,28517,1,0,0:0:0:0:
224,192,28992,1,0,0:0:0:0:
384,96,29467,1,0,0:0:0:0:
224,160,29941,1,0,0:0:0:0:
384,128,30416,1,0,0:0:0:0:
224,160,30890,1,0,0:0:0:0:
352,64,31365,1,0,0:0:0:0:
192,128,31840,1,0,0:0:0:0:
352,96,32314,1,0,0:0:0:0:
192,128,32789,1,0,0:0:0:0:
352,96,33264,1,0,0:0:0:0:
256,224,33738,1,0,0:0:0:0:
160,96,34213,1,0,0:0:0:0:
320,96,34687,1,0,0:0:0:0:
192,192,35162,1,0,0:0:0:0:
128,64,35637,1,0,0:0:0:0:
256,128,36111,1,0,0:0:0:0:
160,224,36586,1,0,0:0:0:0:
288,160,37060,1,0,0:0:0:0:
128,160,37535,1,0,0:0:0:0:
288,128,38010,1,0,0:0:0:0:
256,288,38484,1,0,0:0:0:0:
160,160,38959,1,0,0:0:0:0:
320,128,39433,1,0,0:0:0:0:
160,192,39908,1,0,0:0:0:0:
192,64,40383,1,0,0:0:0:0:
352,128,40857,1,0,0:0:0:0:
192,192,41332,1,0,0:0:0:0:
352,160,41806,1,0,0:0:0:0:
192,160,42281,1,0,0:0:0:0:
352,128,42756,1,0,0:0:0:0:
192,160,43230,1,0,0:0:0:0:
352,128,43705,1,0,0:0:0:0:
192,160,44179,1,0,0:0:0:0:
192,96,44654,1,0,0:0:0:0:
320,192,45129,1,0,0:0:0:0:
160,128,45603,1,0,0:0:0:0:
320,160,46078,1,0,0:0:0:0:
160,160,46553,1,0,0:0:0:0:
320,192,47027,1,0,0:0:0:0:
256,160,47502,1,0,0:0:0:0:
256,160,47976,1,0,0:0:0:0:
256,160,48451,1,0,0:0:0:0:
96,160,48926,1,0,0:0:0:0:
256,128,49400,1,0,0:0:0:0:
96,192,49875,1,0,0:0:0:0:
64,64,50349,1,0,0:0:0:0:
192,160,50824,1,0,0:0:0:0:
352,160,51299,1,0,0:0:0:0:
256,192,51773,1,0,0:0:0:0:
128,128,52248,1,0,0:0:0:0:
256,192,52722,1,0,0:0:0:0:
384,160,53197,1,0,0:0:0:0:
192,192,53672,1,0,0:0:0:0:
352,96,54146,1,0,0:0:0:0:
192,192,54621,1,0,0:0:0:0:
192,160,56994,1,0,0:0:0:0:
192,160,57469,1,0,0:0:0:0:
192,160,57943,1,0,0:0:0:0:
192,160,58418,1,0,0:0:0:0:
192,160,58892,1,0,0:0:0:0:
192,160,59367,1,0,0:0:0:0:
192,160,59842,1,0,0:0:0:0:
192,160,60316,1,0,0:0:0:0:
96,32,60791,2,0,L|224:96,15,140
64,192,68385,1,0,0:0:0:0:
192,160,68859,1,0,0:0:0:0:
32,160,69334,1,0,0:0:0:0:
192,128,69808,1,0,0:0:0:0:
320,224,70283,1,0,0:0:0:0:
192,160,70758,1,0,0:0:0:0:
352,128,71232,1,0,0:0:0:0:
192,192,71707,1,0,0:0:0:0:
256,32,72181,1,0,0:0:0:0:
192,160,72656,1,0,0:0:0:0:
32,128,73131,1,0,0:0:0:0:
192,160,73605,1,0,0:0:0:0:
128,320,74080,1,0,0:0:0:0:
128,160,74554,1,0,0:0:0:0:
288,192,75029,1,0,0:0:0:0:
128,224,75504,1,0,0:0:0:0:
288,160,75978,1,0,0:0:0:0:
192,288,76453,1,0,0:0:0:0:
224,128,76927,1,0,0:0:0:0:
352,224,77402,1,0,0:0:0:0:
224,128,77877,1,0,0:0:0:0:
352,224,78351,1,0,0:0:0:0:
192,128,78826,1,0,0:0:0:0:
352,224,79301,1,0,0:0:0:0:
192,128,79775,1,0,0:0:0:0:
352,224,80250,1,0,0:0:0:0:
192,128,80724,1,0,0:0:0:0:
352,224,81199,1,0,0:0:0:0:
192,128,81674,1,0,0:0:0:0:
320,224,82148,1,0,0:0:0:0:
320,224,82623,1,0,0:0:0:0:
192,128,83097,1,0,0:0:0:0:
192,64,83572,1,0,0:0:0:0:
192,64,84047,1,0,0:0:0:0:
192,64,84521,1,0,0:0:0:0:
192,64,84996,1,0,0:0:0:0:
192,64,85470,1,0,0:0:0:0:
192,64,85945,1,0,0:0:0:0:
192,64,86420,1,0,0:0:0:0:
192,64,86894,1,0,0:0:0:0:
192,64,87369,1,0,0:0:0:0:
320,64,87843,1,0,0:0:0:0:
448,96,88318,1,0,0:0:0:0:
320,64,88793,1,0,0:0:0:0:
480,96,89267,1,0,0:0:0:0:
320,64,89742,1,0,0:0:0:0:
480,96,90217,1,0,0:0:0:0:
320,64,90691,1,0,0:0:0:0:
160,96,91166,2,0,L|320:256,3,140
128,160,93064,2,0,L|256:64,3,140
160,256,94963,2,0,P|288:128|256:160,3,140
128,128,96861,1,0,0:0:0:0:
256,64,97336,1,0,0:0:0:0:
128,128,97810,1,0,0:0:0:0:
288,64,98285,1,0,0:0:0:0:
128,128,98759,1,0,0:0:0:0:
288,64,99234,1,0,0:0:0:0:
128,128,99709,1,0,0:0:0:0:
288,32,100183,1,0,0:0:0:0:
160,128,100658,1,0,0:0:0:0:
160,128,101133,1,0,0:0:0:0:
160,128,101607,1,0,0:0:0:0:
160,128,102082,1,0,0:0:0:0:
160,128,102556,1,0,0:0:0:0:
160,128,103031,1,0,0:0:0:0:
160,128,103506,1,0,0:0:0:0:
160,128,103980,1,0,0:0:0:0:
160,128,104455,1,0,0:0:0:0:
160,128,104929,1,0,0:0:0:0:
160,128,105404,1,0,0:0:0:0:
160,128,105879,1,0,0:0:0:0:
160,128,106353,1,0,0:0:0:0:
160,128,106828,1,0,0:0:0:0:
160,128,107302,1,0,0:0:0:0:
160,128,107777,1,0,0:0:0:0:
320,128,108252,1,0,0:0:0:0:
448,128,108726,1,0,0:0:0:0:
448,128,109201,1,0,0:0:0:0:
448,128,109675,1,0,0:0:0:0:
448,128,110150,1,0,0:0:0:0:
448,128,110625,1,0,0:0:0:0:
448,128,111099,1,0,0:0:0:0:
448,128,111574,1,0,0:0:0:0:
448,128,112049,1,0,0:0:0:0:
448,128,112523,1,0,0:0:0:0:
448,128,112998,1,0,0:0:0:0:
448,128,113472,1,0,0:0:0:0:
288,128,113947,2,0,L|128:160,3,140
150,155,115371,1,0,0:0:0:0:
288,160,115845,2,0,L|416:96,3,140
416,96,117269,1,0,0:0:0:0:
256,128,117744,2,0,L|128:288,3,140
168,237,119168,1,0,0:0:0:0:
288,128,119642,2,0,L|-96:320,1,420
32,160,122490,2,0,L|544:128,1,420
160,256,132931,6,0,L|288:160,8,140
96,128,141474,2,0,B|-160:96|288:96,5,280
160,160,151916,5,0,0:0:0:0:
160,160,153814,1,0,0:0:0:0:
160,160,154763,1,0,0:0:0:0:
160,160,155712,1,0,0:0:0:0:
160,160,156662,1,0,0:0:0:0:
160,160,157611,1,0,0:0:0:0:
160,160,158560,1,0,0:0:0:0:
160,160,159509,1,0,0:0:0:0:
160,160,160459,1,0,0:0:0:0:
160,160,161408,1,0,0:0:0:0:
160,160,162357,1,0,0:0:0:0:
160,160,163306,1,0,0:0:0:0:
160,160,164255,1,0,0:0:0:0:
256,192,165205,12,0,166154,0:0:0:0:
