osu file format v14

[General]
AudioFilename: audio.mp3
AudioLeadIn: 0
PreviewTime: 78989
Countdown: 1
SampleSet: Soft
StackLeniency: 0.5
Mode: 0
LetterboxInBreaks: 0
EpilepsyWarning: 1
WidescreenStoryboard: 1

[Editor]
Bookmarks: 1854,27811,52807,78989,104080,117171,130262,155352,174440,199258,218895,243980,269277
DistanceSpacing: 0.7
BeatDivisor: 6
GridSize: 4
TimelineZoom: 1.740002

[Metadata]
Title:Kagaribito
TitleUnicode:カガリビト
Artist:F9
ArtistUnicode:F9
Creator:ponbot
Version:Extreme feat. a_Blue
Source:
Tags:millstones japanese folk satellite a_blue yamadarknesss captin1 scubdomino
BeatmapID:3617539
BeatmapSetID:1734430

[Difficulty]
HPDrainRate:6
CircleSize:4
OverallDifficulty:8.6
ApproachRate:9.6
SliderMultiplier:1.8
SliderTickRate:2

[Events]
//Background and Video events
0,0,"kagaribito.jpg",0,0
//Break Periods
//Storyboard Layer 0 (Background)
//Storyboard Layer 1 (Fail)
//Storyboard Layer 2 (Pass)
//Storyboard Layer 3 (Foreground)
//Storyboard Layer 4 (Overlay)
//Storyboard Sound Samples

[TimingPoints]
1854,291.26213592233,3,2,10,40,1,0
1854,-133.333333333333,3,2,10,40,0,0
1999,-133.333333333333,3,2,17,40,0,0
2145,-133.333333333333,3,2,18,40,0,0
2290,-133.333333333333,3,2,13,40,0,0
2436,-133.333333333333,3,2,14,40,0,0
2581,-133.333333333333,3,2,15,40,0,0
2727,-133.333333333333,3,2,16,40,0,0
2872,-133.333333333333,3,2,17,40,0,0
3019,-133.333333333333,3,2,18,40,0,0
3164,-133.333333333333,3,2,13,40,0,0
3310,-133.333333333333,3,2,14,40,0,0
3455,-133.333333333333,3,2,19,40,0,0
3601,-133.333333333333,3,2,20,40,0,0
3746,-133.333333333333,3,2,17,40,0,0
3892,-133.333333333333,3,2,18,40,0,0
4038,-133.333333333333,3,2,13,40,0,0
4184,-133.333333333333,3,2,21,40,0,0
4329,-133.333333333333,3,2,22,40,0,0
4475,-133.333333333333,3,2,23,40,0,0
4620,-133.333333333333,3,2,24,40,0,0
4766,-133.333333333333,3,2,25,40,0,0
4863,-133.333333333333,3,2,26,40,0,0
4912,-133.333333333333,3,2,27,40,0,0
4960,-133.333333333333,3,2,28,40,0,0
5057,-133.333333333333,3,2,29,40,0,0
5203,-133.333333333333,3,2,30,40,0,0
5275,-133.333333333333,3,2,31,40,0,0
5494,-133.333333333333,3,2,11,40,0,0
5640,-133.333333333333,3,2,32,40,0,0
5785,-133.333333333333,3,2,33,40,0,0
5931,-133.333333333333,3,2,34,40,0,0
6222,-133.333333333333,3,2,35,40,0,0
6368,-133.333333333333,3,2,36,40,0,0
6513,-133.333333333333,3,2,37,40,0,0
6804,-133.333333333333,3,2,38,40,0,0
6951,-133.333333333333,3,2,39,40,0,0
7096,-133.333333333333,3,2,40,40,0,0
7241,-133.333333333333,3,2,41,40,0,0
7387,-133.333333333333,3,2,42,40,0,0
7533,-133.333333333333,3,2,43,40,0,0
7679,-133.333333333333,3,2,44,40,0,0
7824,-133.333333333333,3,2,45,40,0,0
7970,-133.333333333333,3,2,46,40,0,0
8115,-133.333333333333,3,2,47,40,0,0
8261,-133.333333333333,3,2,48,40,0,0
8406,-133.333333333333,3,2,49,40,0,0
8553,289.855072463768,3,2,10,40,1,0
8553,-133.333333333333,3,2,10,40,0,0
8697,-133.333333333333,3,2,50,40,0,0
8842,-133.333333333333,3,2,18,40,0,0
8987,-133.333333333333,3,2,13,40,0,0
9132,-133.333333333333,3,2,14,40,0,0
9276,-133.333333333333,3,2,15,40,0,0
9422,-133.333333333333,3,2,16,40,0,0
9567,-133.333333333333,3,2,50,40,0,0
9711,-133.333333333333,3,2,18,40,0,0
9857,-133.333333333333,3,2,13,40,0,0
10002,-133.333333333333,3,2,14,40,0,0
10146,-133.333333333333,3,2,650,40,0,0
10152,-133.333333333333,3,2,19,40,0,0
10291,-133.333333333333,3,2,20,50,0,0
10436,-133.333333333333,3,2,17,50,0,0
10581,-133.333333333333,3,2,18,50,0,0
10726,-133.333333333333,3,2,13,50,0,0
10871,-133.333333333333,3,2,21,50,0,0
11016,-133.333333333333,3,2,51,50,0,0
11161,-133.333333333333,3,2,23,60,0,0
11306,-133.333333333333,3,2,24,60,0,0
11451,-133.333333333333,3,2,25,60,0,0
11548,-133.333333333333,3,2,26,60,0,0
11596,-133.333333333333,3,2,27,60,0,0
11644,-133.333333333333,3,2,28,60,0,0
11741,-133.333333333333,3,2,29,60,0,0
11886,-133.333333333333,3,2,603,60,0,0
11891,-133.333333333333,3,2,30,60,0,0
12031,285.714285714286,3,2,52,70,1,0
12173,-100,3,2,11,70,0,0
12316,-117.647058823529,3,2,53,70,0,0
12458,-117.647058823529,3,2,33,70,0,0
12602,-117.647058823529,3,2,54,70,0,0
12888,-117.647058823529,3,2,55,70,0,0
13031,-117.647058823529,3,2,600,70,0,0
13036,-117.647058823529,3,2,36,70,0,0
13173,-117.647058823529,3,2,56,70,0,0
13459,-117.647058823529,3,2,57,70,0,0
13602,-117.647058823529,3,2,58,70,0,0
13745,-117.647058823529,3,2,59,70,0,0
13751,279.06976744186,5,2,59,70,1,0
13890,-100,5,2,60,70,0,0
14029,-100,5,2,61,70,0,0
14169,-100,5,2,10,70,0,0
14309,-100,5,2,62,70,0,0
14448,-100,5,2,63,70,0,0
14588,-100,5,2,64,70,0,0
14727,-100,5,2,10,70,0,0
14867,-100,5,2,11,70,0,0
15006,-100,5,2,65,70,0,0
15145,275.229357798165,3,2,11,50,1,0
15145,-200,3,2,11,50,0,0
15282,-200,3,2,66,50,0,0
15557,-200,3,2,67,50,0,0
15970,-200,3,2,68,50,0,0
16177,-200,3,2,66,50,0,0
16245,-200,3,2,69,50,0,0
16382,-200,3,2,66,50,0,0
16521,-200,3,2,70,50,0,0
16796,-200,3,2,71,50,0,0
17071,-200,3,2,66,50,0,0
17208,-200,3,2,67,50,0,0
17346,-200,3,2,66,50,0,0
17622,-200,3,2,72,50,0,0
17897,-200,3,2,73,50,0,0
18035,-200,3,2,651,50,0,0
18040,-200,3,2,73,50,0,0
18172,275.229357798165,3,2,74,50,1,0
18172,-200,3,2,74,50,0,0
18447,-200,3,2,66,50,0,0
18584,-200,3,2,75,50,0,0
18722,-200,3,2,66,50,0,0
18997,-200,3,2,68,50,0,0
19272,-200,3,2,76,50,0,0
19547,-200,3,2,69,50,0,0
19823,-200,3,2,71,50,0,0
20235,-200,3,2,67,50,0,0
20649,-200,3,2,68,50,0,0
20924,-200,3,2,66,50,0,0
21061,-200,3,2,77,50,0,0
21199,-200,3,2,66,50,0,0
21474,-200,3,2,78,50,0,0
21611,-200,3,2,66,50,0,0
21887,-200,3,2,75,50,0,0
22025,-200,3,2,66,50,0,0
22300,-200,3,2,68,50,0,0
22575,-200,3,2,69,50,0,0
22850,-200,3,2,70,50,0,0
22987,-200,3,2,66,50,0,0
23126,-200,3,2,79,50,0,0
23401,-200,3,2,66,50,0,0
23538,-200,3,2,75,50,0,0
23951,-200,3,2,72,50,0,0
24227,-200,3,2,73,50,0,0
24502,275.229357798165,3,2,80,50,1,0
24502,-200,3,2,80,50,0,0
24777,-200,3,2,66,50,0,0
24914,-200,3,2,75,50,0,0
25052,-200,3,2,66,50,0,0
25327,-200,3,2,68,50,0,0
25602,-200,3,2,76,50,0,0
25878,-200,3,2,69,50,0,0
26153,-125,3,2,79,50,0,0
26290,-125,3,2,66,50,0,0
26565,-125,3,2,75,50,0,0
26703,-125,3,2,77,50,0,0
27811,270.27027027027,3,2,81,70,1,0
27946,-100,3,2,82,70,0,0
28081,-100,3,2,83,70,0,0
28216,-100,3,2,84,70,0,0
28351,-100,3,2,85,70,0,0
28621,-100,3,2,86,70,0,0
28756,-100,3,2,87,70,0,0
28801,-100,3,2,88,70,0,0
28846,-100,3,2,89,70,0,0
28891,-100,3,2,90,70,0,0
29027,-100,3,2,91,70,0,0
29162,-100,3,2,92,70,0,0
29297,-100,3,2,93,70,0,0
29432,-100,3,2,94,70,0,0
29567,-100,3,2,95,70,0,0
29702,-100,3,2,96,70,0,0
29838,-100,3,2,84,70,0,0
29973,-100,3,2,652,70,0,0
29978,-100,3,2,97,70,0,0
30108,-100,3,2,98,70,0,0
30243,-100,3,2,99,70,0,0
30288,-100,3,2,100,70,0,0
30333,-100,3,2,88,70,0,0
30378,-100,3,2,101,70,0,0
30513,-100,3,2,102,70,0,0
30648,-100,3,2,103,70,0,0
30783,270.27027027027,3,2,104,70,1,0
30918,-100,3,2,105,70,0,0
31053,-100,3,2,106,70,0,0
31188,-100,3,2,84,70,0,0
31323,-100,3,2,12,70,0,0
31458,-100,3,2,107,70,0,0
31593,-100,3,2,108,70,0,0
31638,-100,3,2,109,70,0,0
31683,-100,3,2,110,70,0,0
31728,-100,3,2,111,70,0,0
31864,-100,3,2,112,70,0,0
31999,-100,3,2,13,70,0,0
32134,-100,3,2,113,70,0,0
32269,-100,3,2,114,70,0,0
32404,-100,3,2,115,70,0,0
32539,-100,3,2,116,70,0,0
32674,-100,3,2,117,70,0,0
32741,-100,3,2,14,70,0,0
32945,-100,3,2,653,70,0,0
32950,-100,3,2,118,70,0,0
33080,-100,3,2,97,70,0,0
33215,-100,3,2,119,70,0,0
33260,-100,3,2,88,70,0,0
33305,-100,3,2,89,70,0,0
33350,-100,3,2,66,70,0,0
33485,-100,3,2,120,70,0,0
33620,-100,3,2,121,70,0,0
33755,-100,3,2,122,70,0,0
34026,-100,3,2,81,70,0,0
34161,-100,3,2,82,70,0,0
34296,-100,3,2,83,70,0,0
34431,-100,3,2,84,70,0,0
34566,-100,3,2,85,70,0,0
34837,-100,3,2,123,70,0,0
34972,-100,3,2,87,70,0,0
35017,-100,3,2,88,70,0,0
35062,-100,3,2,89,70,0,0
35107,-100,3,2,90,70,0,0
35242,-100,3,2,91,70,0,0
35377,-100,3,2,92,70,0,0
35512,-100,3,2,93,70,0,0
35647,-100,3,2,94,70,0,0
35782,-100,3,2,124,70,0,0
35918,-100,3,2,96,70,0,0
36053,-100,3,2,84,70,0,0
36188,-100,3,2,654,70,0,0
36193,-100,3,2,125,70,0,0
36323,-100,3,2,98,70,0,0
36458,-100,3,2,99,70,0,0
36503,-100,3,2,100,70,0,0
36548,-100,3,2,88,70,0,0
36593,-100,3,2,101,70,0,0
36728,-100,3,2,102,70,0,0
36864,-100,3,2,103,70,0,0
36909,-100,3,2,102,70,0,0
36999,270.27027027027,3,2,104,70,1,0
37134,-100,3,2,655,70,0,0
37139,-100,3,2,105,70,0,0
37269,-100,3,2,126,70,0,0
37404,-100,3,2,84,70,0,0
37539,-100,3,2,12,70,0,0
37674,-100,3,2,107,70,0,0
37809,-100,3,2,127,70,0,0
37854,-100,3,2,109,70,0,0
37899,-100,3,2,110,70,0,0
37944,-100,3,2,111,70,0,0
38080,-100,3,2,112,70,0,0
38215,-100,3,2,13,70,0,0
38350,-100,3,2,128,70,0,0
38485,-100,3,2,114,70,0,0
38620,-100,3,2,115,70,0,0
38755,-100,3,2,129,70,0,0
38890,-100,3,2,604,70,0,0
38895,-100,3,2,117,70,0,0
38957,-100,3,2,10,70,0,0
39026,-100,3,2,130,70,0,0
39161,-100,3,2,118,70,0,0
39296,-100,3,2,97,70,0,0
39431,-100,3,2,15,70,0,0
39566,-100,3,2,97,70,0,0
39701,-100,3,2,98,70,0,0
39836,-100,3,2,131,70,0,0
39971,-100,3,2,132,70,0,0
40107,-100,3,2,133,70,0,0
40243,265.486725663717,3,2,16,50,1,0
41039,-100,3,2,66,50,0,0
46614,-111.111111111111,3,2,66,65,0,0
49402,-111.111111111111,3,2,17,65,0,0
49446,-111.111111111111,3,2,66,65,0,0
49535,272.727272727273,3,2,17,65,1,0
49671,-100,3,2,651,65,0,0
49676,-100,3,2,17,65,0,0
49944,-100,3,2,134,65,0,0
50216,-100,3,2,135,65,0,0
50489,-100,3,2,651,65,0,0
50494,-100,3,2,135,65,0,0
50762,-100,3,2,136,65,0,0
51171,-133.333333333333,3,2,137,50,0,0
51580,-133.333333333333,3,2,138,50,0,0
51716,-133.333333333333,3,2,139,50,0,0
51852,-133.333333333333,3,2,140,50,0,0
51989,-133.333333333333,3,2,141,50,0,0
52125,-133.333333333333,3,2,142,50,0,0
52261,-133.333333333333,3,2,143,50,0,0
52397,-133.333333333333,3,2,144,50,0,0
52535,-133.333333333333,3,2,145,50,0,0
52671,-133.333333333333,3,2,146,50,0,0
52807,-166.666666666667,3,2,18,50,0,0
53079,-166.666666666667,3,2,656,50,0,0
53085,-166.666666666667,3,2,147,50,0,0
53352,-166.666666666667,3,2,148,50,0,0
53625,-166.666666666667,3,2,149,50,0,0
53897,-166.666666666667,3,2,150,50,0,0
54171,-166.666666666667,3,2,151,50,0,0
54444,-166.666666666667,3,2,149,50,0,0
54716,-166.666666666667,3,2,152,50,0,0
54989,-166.666666666667,3,2,153,50,0,0
55262,-166.666666666667,3,2,154,50,0,0
55534,-166.666666666667,3,2,150,50,0,0
55807,-166.666666666667,3,2,151,50,0,0
56080,-166.666666666667,3,2,155,50,0,0
56352,-166.666666666667,3,2,147,50,0,0
56625,-166.666666666667,3,2,148,50,0,0
56898,-166.666666666667,3,2,155,50,0,0
57170,-166.666666666667,3,2,156,50,0,0
57443,-166.666666666667,3,2,157,50,0,0
57716,-166.666666666667,3,2,158,50,0,0
57988,-166.666666666667,3,2,159,50,0,0
58261,-166.666666666667,3,2,160,50,0,0
58535,-166.666666666667,3,2,158,50,0,0
58807,-166.666666666667,3,2,161,50,0,0
59080,-166.666666666667,3,2,162,50,0,0
59353,-166.666666666667,3,2,12,50,0,0
59625,-166.666666666667,3,2,147,50,0,0
59898,-166.666666666667,3,2,148,50,0,0
60171,-166.666666666667,3,2,13,50,0,0
60443,-166.666666666667,3,2,163,50,0,0
60716,-166.666666666667,3,2,151,50,0,0
60989,-166.666666666667,3,2,13,50,0,0
61262,-166.666666666667,3,2,152,50,0,0
61535,-166.666666666667,3,2,153,50,0,0
61807,-166.666666666667,3,2,14,50,0,0
62080,-166.666666666667,3,2,163,50,0,0
62353,-166.666666666667,3,2,151,50,0,0
62625,-166.666666666667,3,2,15,50,0,0
62897,-166.666666666667,3,2,147,50,0,0
63171,-166.666666666667,3,2,148,50,0,0
63444,-166.666666666667,3,2,16,50,0,0
63716,-166.666666666667,3,2,156,50,0,0
63989,-166.666666666667,3,2,157,50,0,0
64262,-166.666666666667,3,2,158,65,0,0
64535,-166.666666666667,3,2,164,65,0,0
64671,-166.666666666667,3,2,10,65,0,0
64807,-166.666666666667,3,2,165,65,0,0
65080,-166.666666666667,3,2,166,65,0,0
65216,-166.666666666667,3,2,167,65,0,0
65489,-166.666666666667,3,2,168,65,0,0
65625,-166.666666666667,3,2,169,65,0,0
65762,-166.666666666667,3,2,170,65,0,0
65898,-125,3,2,171,65,0,0
66170,-125,3,2,172,65,0,0
66307,-125,3,2,13,65,0,0
66444,-125,3,2,173,65,0,0
66580,-125,3,2,174,65,0,0
66716,-125,3,2,149,65,0,0
66853,-125,3,2,175,65,0,0
66920,-125,3,2,176,65,0,0
67125,-125,3,2,177,65,0,0
67262,-125,3,2,178,65,0,0
67398,-125,3,2,179,65,0,0
67535,-125,3,2,149,65,0,0
67671,-125,3,2,180,65,0,0
67807,-125,3,2,181,65,0,0
67944,-125,3,2,13,65,0,0
68080,-125,3,2,182,65,0,0
68216,-125,3,2,174,65,0,0
68353,-125,3,2,149,65,0,0
68489,-125,3,2,183,65,0,0
68557,-125,3,2,17,65,0,0
68762,-125,3,2,27,65,0,0
68898,-125,3,2,184,65,0,0
69035,-125,3,2,179,65,0,0
69171,-125,3,2,155,65,0,0
69307,-125,3,2,185,65,0,0
69444,-125,3,2,186,65,0,0
69580,-125,3,2,187,65,0,0
69716,-125,3,2,188,65,0,0
69989,-125,3,2,155,65,0,0
70125,-125,3,2,608,65,0,0
70130,-125,3,2,189,65,0,0
70261,-125,3,2,190,65,0,0
70398,-125,3,2,187,65,0,0
70535,-125,3,2,191,65,0,0
70671,-125,3,2,158,65,0,0
70944,-125,3,2,192,65,0,0
71011,-125,3,2,193,65,0,0
71216,-125,3,2,13,65,0,0
71353,-125,3,2,194,65,0,0
71625,-125,3,2,195,65,0,0
71693,-125,3,2,196,65,0,0
71898,-125,3,2,197,65,0,0
72035,-125,3,2,198,65,0,0
72171,-125,3,2,18,65,0,0
72444,-125,3,2,149,65,0,0
72580,-125,3,2,606,65,0,0
72585,-125,3,2,180,65,0,0
72716,-125,3,2,199,65,0,0
72853,-125,3,2,13,65,0,0
72989,-125,3,2,200,65,0,0
73125,-125,3,2,174,65,0,0
73262,-125,3,2,149,65,0,0
73398,-125,3,2,605,65,0,0
73403,-125,3,2,175,65,0,0
73534,-125,3,2,201,65,0,0
73671,-125,3,2,177,65,0,0
73807,-125,3,2,178,65,0,0
73943,-125,3,2,179,65,0,0
74080,-125,3,2,149,65,0,0
74216,-125,3,2,180,65,0,0
74352,-125,3,2,202,65,0,0
74489,-125,3,2,13,65,0,0
74625,-125,3,2,203,65,0,0
74761,-125,3,2,174,65,0,0
74898,-125,3,2,149,65,0,0
75034,-125,3,2,657,65,0,0
75039,-125,3,2,204,65,0,0
75171,-125,3,2,19,65,0,0
75307,-125,3,2,27,65,0,0
75444,-125,3,2,205,65,0,0
75580,-125,3,2,179,65,0,0
75716,-125,3,2,155,65,0,0
75853,-125,3,2,189,65,0,0
75988,-125,3,2,186,65,0,0
76125,-125,3,1,600,65,0,0
76130,-125,3,2,187,65,0,0
76262,-125,3,2,188,65,0,0
76535,-125,3,2,155,65,0,0
76671,-125,3,2,189,65,0,0
76807,-125,3,2,190,65,0,0
76944,-125,3,2,658,65,0,0
76948,-125,3,2,187,65,0,0
77080,-125,3,2,191,65,0,0
77216,-125,3,2,158,65,0,0
77489,-125,3,2,206,65,0,0
77625,-125,3,2,207,65,0,0
77762,-125,3,2,198,65,0,0
77898,-125,3,2,208,65,0,0
78171,-125,3,2,158,65,0,0
78307,-125,3,2,192,65,0,0
78444,-125,3,2,209,65,0,0
78580,-125,3,2,210,65,0,0
78625,-125,3,2,211,65,0,0
78853,-125,3,2,212,65,0,0
78897,-125,3,2,19,65,0,0
78989,-100,3,2,19,65,0,0
79261,-100,3,2,213,65,0,0
79398,-100,3,2,214,65,0,0
79535,-100,3,2,213,65,0,0
79807,-100,3,2,215,65,0,0
79943,-100,3,2,651,65,0,0
79948,-100,3,2,215,65,0,0
80080,-100,3,2,174,65,0,0
80216,-100,3,2,216,65,0,0
80353,-100,3,2,217,65,0,0
80625,-100,3,2,218,65,0,0
80897,-100,3,2,10,65,0,0
81035,-100,3,2,219,65,0,0
81171,-100,3,2,220,65,0,0
81307,-100,3,2,221,65,0,0
81580,-100,3,2,651,65,0,0
81585,-100,3,2,221,65,0,0
81716,-100,3,2,222,65,0,0
81853,-100,3,2,223,65,0,0
81989,272.727272727273,3,2,224,65,1,0
82261,-100,3,2,225,65,0,0
82398,-100,3,2,226,65,0,0
82534,-100,3,2,227,65,0,0
82670,-100,3,2,228,65,0,0
82943,-100,3,2,651,65,0,0
82948,-100,3,2,228,65,0,0
83079,-100,3,2,174,65,0,0
83216,-100,3,2,216,65,0,0
83352,-100,3,2,229,65,0,0
83488,-100,3,2,10,65,0,0
83625,-100,3,2,230,65,0,0
83761,-100,3,2,651,65,0,0
83766,-100,3,2,231,65,0,0
84170,-100,3,2,232,65,0,0
84306,-100,3,2,233,65,0,0
84579,-100,3,2,234,65,0,0
84716,-100,3,2,175,65,0,0
84852,-100,3,2,235,65,0,0
84989,-100,3,2,236,65,0,0
85125,-100,3,2,237,65,0,0
85261,-100,3,2,20,65,0,0
85397,-100,3,2,651,65,0,0
85402,-100,3,2,20,65,0,0
85534,-100,3,2,238,65,0,0
85670,-100,3,2,239,65,0,0
85807,-100,3,2,240,65,0,0
85943,-100,3,2,241,65,0,0
86079,-100,3,2,242,65,0,0
86215,-100,3,2,651,65,0,0
86220,-100,3,2,242,65,0,0
86352,-100,3,2,174,65,0,0
86489,-100,3,2,243,65,0,0
86625,-100,3,2,217,65,0,0
86898,-100,3,2,244,65,0,0
87170,-100,3,2,245,65,0,0
87307,-100,3,2,237,65,0,0
87443,-100,3,2,231,65,0,0
87579,-100,3,2,246,65,0,0
87852,-100,3,2,247,65,0,0
87989,-100,3,2,248,65,0,0
88125,-100,3,2,249,65,0,0
88261,272.727272727273,3,2,224,65,1,0
88397,-100,3,2,250,65,0,0
88669,-100,3,2,66,65,0,0
88806,-100,3,2,251,65,0,0
88942,-100,3,2,252,65,0,0
89215,-100,3,2,253,65,0,0
89351,-100,3,2,254,65,0,0
89488,-100,3,2,255,65,0,0
89624,-100,3,2,256,65,0,0
89760,-100,3,2,174,65,0,0
89897,-100,3,2,21,65,0,0
90033,-100,3,2,257,65,0,0
90170,-100,3,2,179,65,0,0
90306,-100,3,2,258,65,0,0
90442,-100,3,2,259,65,0,0
90579,-100,3,2,260,65,0,0
90715,-100,3,2,261,65,0,0
90851,-100,3,2,262,65,0,0
90988,-100,3,2,174,65,0,0
91124,-100,3,2,263,65,0,0
91261,-100,3,2,264,65,0,0
91397,-100,3,2,265,65,0,0
91533,-90.9090909090909,3,2,22,75,0,1
91670,-90.9090909090909,3,2,612,75,0,1
91674,-90.9090909090909,3,2,266,75,0,1
91805,-90.9090909090909,3,2,23,75,0,1
92079,-90.9090909090909,3,2,24,75,0,1
92351,-90.9090909090909,3,2,267,75,0,1
92487,-90.9090909090909,3,2,198,75,0,1
92624,-90.9090909090909,3,2,25,75,0,1
92897,-90.9090909090909,3,2,26,75,0,1
93170,-90.9090909090909,3,2,268,75,0,1
93442,-90.9090909090909,3,2,28,75,0,1
93579,-90.9090909090909,3,2,269,75,0,1
93715,-90.9090909090909,3,2,29,75,0,1
93851,-90.9090909090909,3,2,270,75,0,1
94124,-90.9090909090909,3,2,659,75,0,1
94129,-90.9090909090909,3,2,271,75,0,1
94261,-90.9090909090909,3,2,27,75,0,1
94397,-90.9090909090909,3,2,272,75,0,1
94533,272.727272727273,3,2,273,75,1,1
94533,-90.9090909090909,3,2,273,75,0,1
94805,-90.9090909090909,3,2,31,75,0,1
94942,-90.9090909090909,3,2,274,75,0,1
95078,-90.9090909090909,3,2,30,75,0,1
95214,-90.9090909090909,3,2,237,75,0,1
95351,-90.9090909090909,3,2,275,75,0,1
95487,-90.9090909090909,3,2,660,75,0,1
95492,-90.9090909090909,3,2,276,75,0,1
95623,-90.9090909090909,3,2,32,75,0,1
95760,-90.9090909090909,3,2,277,75,0,1
95896,-90.9090909090909,3,2,33,75,0,1
96033,-90.9090909090909,3,2,278,75,0,1
96169,-90.9090909090909,3,2,279,75,0,1
96305,-90.9090909090909,3,2,257,75,0,1
96442,-90.9090909090909,3,2,34,75,0,1
96578,-90.9090909090909,3,2,280,75,0,1
96714,-90.9090909090909,3,2,35,75,0,1
96850,-90.9090909090909,3,2,281,75,0,1
97260,-90.9090909090909,3,2,282,75,0,1
97396,-90.9090909090909,3,2,283,75,0,1
97533,-90.9090909090909,3,2,236,75,0,1
97669,-90.9090909090909,3,2,237,75,0,1
97805,-83.3333333333333,3,2,36,75,0,1
97941,-83.3333333333333,3,2,657,75,0,1
97946,-83.3333333333333,3,2,204,75,0,1
98078,-83.3333333333333,3,2,37,75,0,1
98214,-83.3333333333333,3,2,284,75,0,1
98351,-83.3333333333333,3,2,38,75,0,1
98623,-83.3333333333333,3,2,285,75,0,1
98896,-83.3333333333333,3,2,39,75,0,1
99033,-83.3333333333333,3,2,286,75,0,1
99169,-83.3333333333333,3,2,40,75,0,1
99442,-83.3333333333333,3,2,287,75,0,1
99578,-83.3333333333333,3,2,613,75,0,1
99583,-83.3333333333333,3,2,288,75,0,1
99714,-83.3333333333333,3,2,41,75,0,1
99851,-83.3333333333333,3,2,289,75,0,1
99987,-83.3333333333333,3,2,25,75,0,1
100123,-83.3333333333333,3,2,290,75,0,1
100533,-83.3333333333333,3,2,42,75,0,1
100808,272.727272727273,3,2,291,75,1,1
100808,-83.3333333333333,3,2,291,75,0,1
100944,-83.3333333333333,3,2,657,75,0,1
100949,-83.3333333333333,3,2,204,75,0,1
101080,-83.3333333333333,3,2,43,75,0,1
101216,-83.3333333333333,3,2,177,75,0,1
101353,-83.3333333333333,3,2,44,75,0,1
101626,-83.3333333333333,3,2,252,75,0,1
101762,-83.3333333333333,3,2,33,75,0,1
101898,-83.3333333333333,3,2,45,75,0,1
102035,-83.3333333333333,3,2,255,75,0,1
102171,-83.3333333333333,3,2,46,75,0,1
102308,-83.3333333333333,3,2,174,75,0,1
102444,-83.3333333333333,3,2,47,75,0,1
102580,-83.3333333333333,3,2,651,75,0,1
102585,-83.3333333333333,3,2,47,75,0,1
102717,-83.3333333333333,3,2,292,75,0,1
102853,-83.3333333333333,3,2,293,75,0,1
102989,-83.3333333333333,3,2,294,75,0,1
103126,-83.3333333333333,3,2,237,75,0,1
103262,-83.3333333333333,3,2,295,75,0,1
103398,-83.3333333333333,3,2,296,75,0,1
103535,-83.3333333333333,3,2,297,75,0,1
103671,-83.3333333333333,3,2,298,75,0,1
103808,-83.3333333333333,3,2,70,75,0,1
103944,-83.3333333333333,3,2,299,75,0,1
104080,-142.857142857143,3,2,149,50,0,0
104352,-142.857142857143,3,2,147,50,0,0
104626,-142.857142857143,3,2,148,50,0,0
104898,-142.857142857143,3,2,13,50,0,0
105170,-142.857142857143,3,2,150,50,0,0
105444,-142.857142857143,3,2,151,50,0,0
105717,-142.857142857143,3,2,13,50,0,0
105989,-142.857142857143,3,2,152,50,0,0
106262,-142.857142857143,3,2,153,50,0,0
106535,-142.857142857143,3,2,14,50,0,0
106808,-142.857142857143,3,2,150,50,0,0
107080,-142.857142857143,3,2,151,50,0,0
107353,-142.857142857143,3,2,16,50,0,0
107626,-142.857142857143,3,2,147,50,0,0
107898,-142.857142857143,3,2,148,50,0,0
108171,-142.857142857143,3,2,16,50,0,0
108444,-142.857142857143,3,2,156,50,0,0
108717,-142.857142857143,3,2,157,50,0,0
108989,-142.857142857143,3,2,20,50,0,0
109125,-142.857142857143,3,2,651,50,0,0
109130,-142.857142857143,3,2,20,50,0,0
109262,-142.857142857143,3,2,159,50,0,0
109535,-142.857142857143,3,2,160,50,0,0
109808,-142.857142857143,3,2,20,50,0,0
110080,-142.857142857143,3,2,161,50,0,0
110353,-142.857142857143,3,2,162,50,0,0
110489,-142.857142857143,3,2,66,50,0,0
110626,-125,3,2,12,50,0,0
110898,-125,3,2,147,50,0,0
111171,-125,3,2,148,50,0,0
111444,-125,3,2,13,50,0,0
111716,-125,3,2,150,50,0,0
111989,-125,3,2,151,50,0,0
112262,-125,3,2,13,50,0,0
112535,-125,3,2,152,50,0,0
112808,-125,3,2,153,50,0,0
113080,-125,3,2,14,50,0,0
113353,-125,3,2,150,50,0,0
113626,-125,3,2,151,50,0,0
113898,-125,3,2,15,50,0,0
114170,-125,3,2,147,50,0,0
114307,-125,3,2,651,50,0,0
114312,-125,3,2,147,50,0,0
114444,-125,3,2,148,50,0,0
114717,-125,3,2,16,50,0,0
114853,-125,3,2,651,50,0,0
114858,-125,3,2,16,50,0,0
114989,-125,3,2,156,50,0,0
115262,-125,3,2,157,50,0,0
115535,-125,3,2,158,65,0,0
115808,-125,3,2,159,65,0,0
115944,-125,3,2,10,65,0,0
116080,-125,3,2,165,65,0,0
116353,-125,3,2,661,65,0,0
116358,-125,3,2,166,65,0,0
116489,-125,3,2,167,65,0,0
116762,-125,3,2,168,65,0,0
116898,-125,3,2,169,65,0,0
117035,-125,3,2,170,65,0,0
117171,-100,3,2,300,65,0,0
117443,-100,3,2,301,65,0,0
117580,-100,3,2,13,65,0,0
117717,-100,3,2,302,65,0,0
117853,-100,3,2,174,65,0,0
117989,-90.9090909090909,3,2,303,65,0,0
118126,-90.9090909090909,3,2,662,65,0,0
118130,-90.9090909090909,3,2,304,65,0,0
118262,-200,3,2,301,65,0,0
118398,-125,3,2,27,65,0,0
118535,-125,3,2,305,65,0,0
118671,-125,3,2,179,65,0,0
118808,-100,3,2,306,65,0,0
118944,-100,3,2,606,65,0,0
118949,-100,3,2,180,65,0,0
119080,-100,3,2,307,65,0,0
119217,-100,3,2,13,65,0,0
119353,-100,3,2,308,65,0,0
119489,-100,3,2,174,65,0,0
119626,-90.9090909090909,3,2,309,65,0,0
119762,-90.9090909090909,3,2,657,65,0,0
119767,-90.9090909090909,3,2,204,65,0,0
119898,-200,3,2,21,65,0,0
120035,-100,3,2,22,65,0,0
120171,-66.6666666666667,3,2,310,65,0,0
120308,-100,3,2,311,65,0,0
120444,-100,3,2,312,65,0,0
120580,-100,3,2,608,65,0,0
120585,-100,3,2,189,65,0,0
120717,-100,3,2,313,65,0,0
120853,-100,3,2,187,65,0,0
120989,-100,3,2,314,65,0,0
121262,-90.9090909090909,3,2,315,65,0,0
121398,-90.9090909090909,3,2,663,65,0,0
121403,-90.9090909090909,3,2,185,65,0,0
121535,-100,3,2,316,65,0,0
121671,-100,3,2,317,65,0,0
121808,-100,3,2,318,65,0,0
121944,-100,3,2,319,65,0,0
122217,-100,3,2,609,65,0,0
122221,-100,3,2,192,65,0,0
122352,-100,3,2,307,65,0,0
122489,-100,3,2,13,65,0,0
122626,-200,3,2,320,65,0,0
122762,-100,3,2,320,65,0,0
122898,-100,3,2,321,65,0,0
123035,-50,3,2,196,65,0,0
123171,-50,3,2,322,65,0,0
123308,-50,3,2,323,65,0,0
123444,-66.6666666666667,3,2,23,65,0,0
123580,-66.6666666666667,3,2,651,65,0,0
123585,-66.6666666666667,3,2,23,65,0,0
123717,-90.9090909090909,3,2,324,65,0,0
123853,-90.9090909090909,3,2,606,65,0,0
123858,-90.9090909090909,3,2,180,65,0,0
123989,-90.9090909090909,3,2,301,65,0,0
124126,-90.9090909090909,3,2,13,65,0,0
124262,-90.9090909090909,3,2,302,65,0,0
124398,-90.9090909090909,3,2,174,65,0,0
124535,-83.3333333333333,3,2,325,65,0,0
124671,-83.3333333333333,3,2,662,65,0,0
124676,-83.3333333333333,3,2,304,65,0,0
124808,-200,3,2,301,65,0,0
124944,-90.9090909090909,3,2,177,65,0,0
125080,-90.9090909090909,3,2,305,65,0,0
125217,-90.9090909090909,3,2,179,65,0,0
125353,-90.9090909090909,3,2,326,65,0,0
125489,-90.9090909090909,3,2,606,65,0,0
125494,-90.9090909090909,3,2,180,65,0,0
125625,-90.9090909090909,3,2,307,65,0,0
125762,-90.9090909090909,3,2,13,65,0,0
125898,-90.9090909090909,3,2,308,65,0,0
126035,-90.9090909090909,3,2,174,65,0,0
126171,-83.3333333333333,3,2,309,65,0,0
126307,-83.3333333333333,3,2,657,65,0,0
126312,-83.3333333333333,3,2,204,65,0,0
126444,-200,3,2,21,65,0,0
126580,-100,3,2,22,65,0,0
126717,-50,3,2,310,65,0,0
126853,-66.6666666666667,3,2,311,65,0,0
126989,-90.9090909090909,3,2,312,65,0,0
127126,-90.9090909090909,3,2,608,65,0,0
127130,-90.9090909090909,3,2,189,65,0,0
127262,-90.9090909090909,3,2,313,65,0,0
127398,-90.9090909090909,3,2,187,65,0,0
127535,-90.9090909090909,3,2,314,65,0,0
127808,-83.3333333333333,3,2,315,65,0,0
127944,-83.3333333333333,3,2,663,65,0,0
127949,-83.3333333333333,3,2,185,65,0,0
128080,-90.9090909090909,3,2,316,65,0,0
128217,-90.9090909090909,3,2,317,65,0,0
128353,-90.9090909090909,3,2,318,65,0,0
128489,-90.9090909090909,3,2,319,65,0,0
128762,-90.9090909090909,3,2,206,65,0,0
128898,-90.9090909090909,3,2,322,65,0,0
129034,-90.9090909090909,3,2,198,65,0,0
129171,-90.9090909090909,3,2,327,65,0,0
129444,-90.9090909090909,3,2,321,65,0,0
129580,-90.9090909090909,3,2,192,65,0,0
129716,-90.9090909090909,3,2,322,65,0,0
129853,-90.9090909090909,3,2,328,65,0,0
129898,-90.9090909090909,3,2,329,65,0,0
130262,-100,3,2,19,65,0,0
130535,-100,3,2,213,65,0,0
130671,-100,3,2,214,65,0,0
130808,-100,3,2,213,65,0,0
131080,-100,3,2,215,65,0,0
131353,-100,3,2,174,65,0,0
131489,-100,3,2,216,65,0,0
131626,-100,3,2,217,65,0,0
131898,-100,3,2,218,65,0,0
132170,-100,3,2,10,65,0,0
132308,-100,3,2,219,65,0,0
132444,-100,3,2,220,65,0,0
132580,-100,3,2,221,65,0,0
132989,-100,3,2,222,65,0,0
133125,-100,3,2,330,65,0,0
133262,272.727272727273,3,2,224,65,1,0
133534,-100,3,2,225,65,0,0
133671,-100,3,2,226,65,0,0
133807,-100,3,2,227,65,0,0
133875,-100,3,2,228,65,0,0
134352,-100,3,2,174,65,0,0
134489,-100,3,2,216,65,0,0
134625,-100,3,2,229,65,0,0
134762,-100,3,2,10,65,0,0
134898,-100,3,2,230,65,0,0
135170,-100,3,2,10,65,0,0
135307,-100,3,2,331,65,0,0
135443,-100,3,2,232,65,0,0
135580,-100,3,2,233,65,0,0
135852,-100,3,2,234,65,0,0
135988,-100,3,1,601,65,0,0
135993,-100,3,2,175,65,0,0
136125,-100,3,2,235,65,0,0
136262,-100,3,2,236,65,0,0
136398,-100,3,2,237,65,0,0
136534,-100,3,2,20,65,0,0
136806,-100,3,2,238,65,0,0
136943,-100,3,2,239,65,0,0
137080,-100,3,2,240,65,0,0
137216,-100,3,2,278,65,0,0
137352,-100,3,2,242,65,0,0
137624,-100,3,2,174,65,0,0
137762,-100,3,2,243,65,0,0
137897,-100,3,2,217,65,0,0
138034,-100,3,2,10,65,0,0
138171,-100,3,2,244,65,0,0
138443,-100,3,2,245,65,0,0
138580,-100,3,2,237,65,0,0
138716,-100,3,2,231,65,0,0
138852,-100,3,2,246,65,0,0
139125,-100,3,2,332,65,0,0
139262,-100,3,2,248,65,0,0
139398,-100,3,2,249,65,0,0
139531,272.727272727273,3,2,224,65,1,0
139803,-100,3,2,250,65,0,0
139939,-100,3,2,66,65,0,0
140076,-100,3,2,251,65,0,0
140212,-100,3,2,252,65,0,0
140485,-100,3,2,333,65,0,0
140621,-100,3,2,254,65,0,0
140757,-100,3,2,255,65,0,0
140894,-100,3,2,256,65,0,0
141030,-100,3,2,174,65,0,0
141167,-100,3,2,21,65,0,0
141303,-100,3,2,615,65,0,0
141308,-100,3,2,334,65,0,0
141439,-100,3,2,179,65,0,0
141576,-100,3,2,335,65,0,0
141712,-100,3,2,259,65,0,0
141849,-100,3,2,260,65,0,0
141985,-100,3,2,336,65,0,0
142121,-100,3,2,262,65,0,0
142257,-100,3,2,337,65,0,0
142394,-100,3,2,338,65,0,0
142531,-100,3,2,339,65,0,0
142667,-100,3,2,265,65,0,0
142803,-90.9090909090909,3,2,48,75,0,1
142940,-90.9090909090909,3,2,616,75,0,1
142944,-90.9090909090909,3,2,340,75,0,1
143075,-90.9090909090909,3,2,49,75,0,1
143349,-90.9090909090909,3,2,52,75,0,1
143485,-90.9090909090909,3,2,237,75,0,1
143621,-90.9090909090909,3,2,341,75,0,1
143757,-90.9090909090909,3,2,198,75,0,1
143894,-90.9090909090909,3,2,25,75,0,1
144030,-90.9090909090909,3,2,278,75,0,1
144167,-90.9090909090909,3,2,50,75,0,1
144303,-90.9090909090909,3,2,120,75,0,1
144440,-90.9090909090909,3,2,342,75,0,1
144576,-90.9090909090909,3,2,617,75,0,1
144581,-90.9090909090909,3,2,343,75,0,1
144712,-90.9090909090909,3,2,28,75,0,1
144849,-90.9090909090909,3,2,344,75,0,1
144985,-90.9090909090909,3,2,29,75,0,1
145121,-90.9090909090909,3,2,332,75,0,1
145258,-90.9090909090909,3,2,270,75,0,1
145394,-90.9090909090909,3,2,271,75,0,1
145531,-90.9090909090909,3,2,27,75,0,1
145667,-90.9090909090909,3,2,345,75,0,1
145806,272.727272727273,3,2,273,75,1,1
145806,-90.9090909090909,3,2,273,75,0,1
146078,-90.9090909090909,3,2,31,75,0,1
146215,-90.9090909090909,3,2,274,75,0,1
146351,-90.9090909090909,3,2,30,75,0,1
146487,-90.9090909090909,3,2,237,75,0,1
146624,-90.9090909090909,3,2,275,75,0,1
146760,-90.9090909090909,3,2,346,75,0,1
146828,-90.9090909090909,3,2,32,75,0,1
147033,-90.9090909090909,3,2,277,75,0,1
147169,-90.9090909090909,3,2,33,75,0,1
147306,-90.9090909090909,3,2,278,75,0,1
147442,-90.9090909090909,3,2,279,75,0,1
147578,-90.9090909090909,3,2,257,75,0,1
147715,-90.9090909090909,3,2,34,75,0,1
147851,-90.9090909090909,3,2,280,75,0,1
147987,-90.9090909090909,3,2,35,75,0,1
148123,-90.9090909090909,3,2,281,75,0,1
148532,-90.9090909090909,3,2,282,75,0,1
148669,-90.9090909090909,3,2,283,75,0,1
148806,-90.9090909090909,3,2,236,75,0,1
148942,-90.9090909090909,3,2,237,75,0,1
149078,-83.3333333333333,3,2,36,75,0,1
149215,-83.3333333333333,3,2,607,75,0,1
149219,-83.3333333333333,3,2,183,75,0,1
149351,-83.3333333333333,3,2,37,75,0,1
149487,-83.3333333333333,3,2,284,75,0,1
149624,-83.3333333333333,3,2,38,75,0,1
149896,-83.3333333333333,3,2,285,75,0,1
150168,-83.3333333333333,3,2,39,75,0,1
150306,-83.3333333333333,3,2,255,75,0,1
150442,-83.3333333333333,3,2,40,75,0,1
150715,-83.3333333333333,3,2,287,75,0,1
150851,-83.3333333333333,3,2,613,75,0,1
150856,-83.3333333333333,3,2,288,75,0,1
150987,-83.3333333333333,3,2,41,75,0,1
151124,-83.3333333333333,3,2,289,75,0,1
151260,-83.3333333333333,3,2,25,75,0,1
151396,-83.3333333333333,3,2,290,75,0,1
151805,-83.3333333333333,3,2,42,75,0,1
152080,272.727272727273,3,2,291,75,1,1
152080,-83.3333333333333,3,2,291,75,0,1
152216,-83.3333333333333,3,2,607,75,0,1
152221,-83.3333333333333,3,2,183,75,0,1
152352,-83.3333333333333,3,2,43,75,0,1
152488,-83.3333333333333,3,2,177,75,0,1
152625,-83.3333333333333,3,2,44,75,0,1
152898,-83.3333333333333,3,2,252,75,0,1
153034,-83.3333333333333,3,2,33,75,0,1
153170,-83.3333333333333,3,2,45,75,0,1
153306,-83.3333333333333,3,2,255,75,0,1
153443,-83.3333333333333,3,2,46,75,0,1
153580,-83.3333333333333,3,2,174,75,0,1
153716,-71.4285714285714,3,2,51,75,0,1
153852,-71.4285714285714,3,2,615,75,0,1
153857,-71.4285714285714,3,2,334,75,0,1
153988,-71.4285714285714,3,2,179,75,0,1
154125,-71.4285714285714,3,2,347,75,0,1
154261,-71.4285714285714,3,2,294,75,0,1
154398,-71.4285714285714,3,2,179,75,0,1
154534,-71.4285714285714,3,2,348,75,0,1
154670,-71.4285714285714,3,2,349,75,0,1
154807,-71.4285714285714,3,2,66,75,0,1
154943,-71.4285714285714,3,2,349,75,0,1
155080,-71.4285714285714,3,2,66,75,0,1
155216,-71.4285714285714,3,2,299,75,0,1
155352,272.727272727273,5,2,53,50,1,0
155488,-100,5,2,350,50,0,0
155624,-100,5,2,351,50,0,0
155760,-100,5,2,352,50,0,0
155806,-100,5,2,351,50,0,0
155897,-200,5,2,353,50,0,0
156033,-200,5,2,354,50,0,0
156170,-200,5,2,353,50,0,0
156306,-200,5,2,355,50,0,0
156442,-200,5,2,356,50,0,0
156715,-200,5,2,53,50,0,0
156851,-200,5,2,350,50,0,0
156988,-200,5,2,351,50,0,0
157124,-200,5,2,352,50,0,0
157170,-200,5,2,351,50,0,0
157261,-200,5,2,353,50,0,0
157397,-200,5,2,354,50,0,0
157533,-200,5,2,353,50,0,0
157670,-200,5,2,352,50,0,0
157806,-200,5,2,356,50,0,0
158079,272.727272727273,3,2,54,50,1,0
158215,-100,3,2,357,50,0,0
158351,-100,3,2,358,50,0,0
158488,-100,3,2,359,50,0,0
158624,-100,3,2,358,50,0,0
158760,-100,3,2,357,50,0,0
158897,-100,3,2,55,45,0,0
159033,-100,3,2,360,45,0,0
159169,-100,3,2,361,45,0,0
159306,-100,3,2,362,45,0,0
159442,-100,3,2,361,45,0,0
159578,-100,3,2,360,45,0,0
159715,-100,3,2,56,40,0,0
159851,-100,3,2,363,40,0,0
159988,-100,3,2,364,40,0,0
160124,-100,3,2,365,40,0,0
160260,-100,3,2,364,40,0,0
160396,-100,3,2,363,40,0,0
160533,-100,3,2,366,30,0,0
160669,-100,3,2,367,30,0,0
160806,-100,3,2,363,40,0,0
160942,-100,3,2,368,40,0,0
161079,-100,3,2,360,50,0,0
161215,-100,3,2,369,50,0,0
161351,-100,3,2,370,60,0,0
162169,-200,3,2,370,60,0,0
162988,272.727272727273,5,2,371,50,1,0
162988,-250,5,2,371,50,0,0
163124,-250,5,2,372,50,0,0
163260,-250,5,2,373,50,0,0
163396,-250,5,2,664,50,0,0
163401,-250,5,2,374,50,0,0
163533,-250,5,2,375,50,0,0
163669,-250,5,2,376,50,0,0
163806,-250,5,2,377,50,0,0
163942,-250,5,2,378,50,0,0
164078,-250,5,2,379,50,0,0
164215,-250,5,2,380,50,0,0
164351,-250,5,2,381,50,0,0
164488,-250,5,2,382,50,0,0
164624,-250,5,2,383,50,0,0
164715,-250,5,2,66,50,0,0
164760,-250,5,2,384,50,0,0
164806,-250,5,2,66,50,0,0
164897,-250,5,2,385,50,0,0
165033,-250,5,2,386,50,0,0
165169,-250,5,2,377,50,0,0
165306,-250,5,2,387,50,0,0
165442,-250,5,2,388,50,0,0
165578,-250,5,2,389,50,0,0
165715,272.727272727273,3,2,390,50,1,0
165851,-100,3,2,391,50,0,0
165987,-100,3,2,373,50,0,0
166078,-100,3,2,66,50,0,0
166124,-100,3,2,392,50,0,0
166169,-100,3,2,66,50,0,0
166260,-250,3,2,393,50,0,0
166396,-250,3,2,376,50,0,0
166533,-250,3,2,394,50,0,0
166669,-250,3,2,376,50,0,0
166805,-250,3,2,393,50,0,0
166942,-250,3,2,395,50,0,0
167078,-250,3,2,396,50,0,0
167214,-250,3,2,397,50,0,0
167351,-250,3,2,398,50,0,0
167487,-250,3,2,399,50,0,0
167533,-250,3,2,400,50,0,0
167760,-250,3,2,401,50,0,0
167896,-250,3,2,402,50,0,0
168033,-250,3,2,403,50,0,0
168169,-250,3,2,404,50,0,0
168305,-250,3,2,405,50,0,0
168442,-250,3,2,376,50,0,0
168578,-250,3,2,406,50,0,0
168714,272.727272727273,5,2,407,50,1,0
168850,-100,5,2,408,50,0,0
168986,-250,5,2,373,50,0,0
169077,-250,5,2,66,50,0,0
169123,-250,5,2,665,50,0,0
169127,-250,5,2,392,50,0,0
169168,-250,5,2,66,50,0,0
169259,-250,5,2,375,50,0,0
169395,-250,5,2,376,50,0,0
169532,-250,5,2,377,50,0,0
169668,-250,5,2,378,50,0,0
169804,-250,5,2,379,50,0,0
169941,-250,5,2,409,50,0,0
170077,-250,5,2,410,50,0,0
170214,-250,5,2,382,50,0,0
170350,-250,5,2,383,50,0,0
170441,-250,5,2,66,50,0,0
170486,-250,5,2,384,50,0,0
170532,-250,5,2,66,50,0,0
170623,-250,5,2,385,50,0,0
170759,-250,5,2,386,50,0,0
170895,-250,5,2,377,50,0,0
171032,-250,5,2,387,50,0,0
171168,-250,5,2,388,50,0,0
171304,-250,5,2,389,50,0,0
171441,272.727272727273,3,2,390,50,1,0
171577,-100,3,2,391,50,0,0
171713,-100,3,2,373,50,0,0
171804,-100,3,2,66,50,0,0
171850,-100,3,2,392,50,0,0
171895,-100,3,2,66,50,0,0
171986,-100,3,2,393,50,0,0
172122,-100,3,2,376,50,0,0
172259,-100,3,2,394,50,0,0
172395,-100,3,2,376,50,0,0
172531,-100,3,2,411,50,0,0
172668,-100,3,2,395,50,0,0
172804,-100,3,2,396,50,0,0
172940,-100,3,2,397,50,0,0
173077,-250,3,2,398,50,0,0
173213,-250,3,2,666,50,0,0
173218,-250,3,2,399,50,0,0
173259,-250,3,2,400,50,0,0
173486,-250,3,2,401,50,0,0
173622,-250,3,2,412,50,0,0
173759,-250,3,2,403,50,0,0
173895,-250,3,2,404,50,0,0
174031,-250,3,2,403,50,0,0
174168,-250,3,2,62,50,0,0
174304,-250,3,2,413,50,0,0
174440,272.727272727273,5,2,414,50,1,0
174440,-250,5,2,414,50,0,0
174576,-250,5,2,667,50,0,0
174581,-250,5,2,415,50,0,0
174712,-250,5,2,416,50,0,0
174803,-250,5,2,66,50,0,0
174849,-250,5,2,417,50,0,0
174894,-250,5,2,66,50,0,0
174985,-250,5,2,418,50,0,0
175121,-250,5,2,169,50,0,0
175258,-250,5,2,419,50,0,0
175394,-250,5,2,420,50,0,0
175530,-250,5,2,421,50,0,0
175667,-250,5,2,422,50,0,0
175803,-250,5,2,423,50,0,0
175940,-250,5,2,424,50,0,0
176076,-250,5,2,425,50,0,0
176167,-250,5,2,66,50,0,0
176212,-250,5,2,384,50,0,0
176258,-250,5,2,66,50,0,0
176349,-250,5,2,426,50,0,0
176485,-250,5,2,427,50,0,0
176621,-250,5,2,419,50,0,0
176757,-250,5,2,428,50,0,0
176894,-250,5,2,429,50,0,0
177030,-250,5,2,389,50,0,0
177167,272.727272727273,3,2,430,50,1,0
177303,-100,3,2,431,50,0,0
177439,-100,3,2,432,50,0,0
177530,-100,3,2,66,50,0,0
177576,-100,3,2,433,50,0,0
177621,-100,3,2,66,50,0,0
177712,-100,3,2,393,50,0,0
177848,-100,3,2,434,50,0,0
177985,-100,3,2,435,50,0,0
178120,-100,3,2,436,50,0,0
178257,-100,3,2,437,50,0,0
178394,-100,3,2,438,50,0,0
178530,-100,3,2,439,50,0,0
178667,-100,3,2,440,50,0,0
178803,-100,3,2,441,50,0,0
178939,-100,3,2,442,50,0,0
178984,-100,3,2,443,50,0,0
179076,-250,3,2,443,50,0,0
179212,-250,3,2,444,50,0,0
179348,-250,3,2,445,50,0,0
179485,-250,3,2,446,50,0,0
179621,-250,3,2,447,50,0,0
179757,-250,3,2,405,50,0,0
179894,-250,3,2,448,50,0,0
180030,-250,3,2,406,50,0,0
180168,272.727272727273,5,2,57,50,1,0
180304,-100,5,2,449,50,0,0
180440,-100,5,2,432,50,0,0
180577,-100,5,2,378,50,0,0
180621,-100,5,2,450,50,0,0
180713,-250,5,2,450,50,0,0
180849,-250,5,2,451,50,0,0
180986,-250,5,2,452,50,0,0
181122,-250,5,2,453,50,0,0
181258,-250,5,2,454,50,0,0
181394,-250,5,2,455,50,0,0
181531,-250,5,2,58,50,0,0
181668,-250,5,2,456,50,0,0
181804,-250,5,2,425,50,0,0
181940,-250,5,2,457,50,0,0
181985,-250,5,2,458,50,0,0
182213,-250,5,2,459,50,0,0
182349,-250,5,2,460,50,0,0
182485,-250,5,2,461,50,0,0
182622,-250,5,2,462,50,0,0
182758,-250,5,2,179,50,0,0
182895,272.727272727273,3,2,59,50,1,0
183031,-100,3,2,463,50,0,0
183167,-100,3,2,464,50,0,0
183258,-100,3,2,66,50,0,0
183304,-100,3,2,465,50,0,0
183348,-100,3,2,66,50,0,0
183440,-100,3,2,466,50,0,0
183576,-250,3,2,169,50,0,0
183713,-250,3,2,624,50,0,0
183717,-250,3,2,467,50,0,0
183848,-250,3,2,420,50,0,0
183985,-250,3,2,437,50,0,0
184122,-250,3,2,468,50,0,0
184258,-250,3,2,469,50,0,0
184395,-250,3,2,470,50,0,0
184531,-250,3,2,60,50,0,0
184667,-250,3,2,471,50,0,0
184804,-250,3,2,472,50,0,0
184894,-250,3,2,473,50,0,0
184985,-250,3,2,474,50,0,0
185076,-250,3,2,475,50,0,0
185212,-250,3,2,476,50,0,0
185349,-250,3,2,70,50,0,0
185485,-250,3,2,477,50,0,0
185622,-250,3,2,478,50,0,0
185758,-250,3,2,255,50,0,0
185895,-250,3,2,479,50,0,0
186031,-250,3,2,345,50,0,0
186167,-250,3,2,61,40,0,0
186985,-250,3,2,66,40,0,0
197485,-250,3,2,651,40,0,0
197490,-250,3,2,66,40,0,0
197622,-250,3,2,480,50,0,0
197894,-250,3,2,10,50,0,0
198031,-250,3,2,480,50,0,0
198167,-250,3,2,10,50,0,0
198440,-250,3,2,481,50,0,0
198576,-250,3,2,482,50,0,0
198713,-250,3,2,483,50,0,0
198849,-250,3,2,484,50,0,0
198985,-250,3,2,485,50,0,0
199122,-250,3,2,486,50,0,0
199258,-100,3,2,487,55,0,0
199530,-100,3,2,488,55,0,0
199804,-100,3,2,489,55,0,0
200076,-100,3,2,490,55,0,0
200349,-100,3,2,491,55,0,0
200622,-100,3,2,492,55,0,0
200758,-100,3,2,493,55,0,0
200895,-100,3,2,494,55,0,0
201031,-100,3,2,651,55,0,0
201036,-100,3,2,494,55,0,0
201167,-100,3,2,495,55,0,0
201303,-100,3,2,10,55,0,0
201440,-100,3,2,496,55,0,0
201576,-100,3,2,497,55,0,0
201985,-100,3,2,498,55,0,0
202054,-100,3,2,499,55,0,0
202076,-100,3,2,10,55,0,0
202122,-100,3,2,500,55,0,0
202167,-100,3,2,501,55,0,0
202395,-100,3,2,10,55,0,0
202531,-100,3,2,487,55,0,0
202667,-100,3,2,651,55,0,0
202672,-100,3,2,488,55,0,0
203076,-100,3,2,502,55,0,0
203212,-100,3,2,490,55,0,0
203485,-100,3,2,651,55,0,0
203490,-100,3,2,490,55,0,0
203622,-100,3,2,503,55,0,0
203895,-100,3,2,504,55,0,0
204031,-100,3,2,505,55,0,0
204167,-100,3,2,506,55,0,0
204439,-100,3,2,66,55,0,0
204576,-100,3,2,507,55,0,0
204712,-100,3,2,494,55,0,0
204849,-100,3,2,507,55,0,0
205121,-100,3,2,651,55,0,0
205126,-100,3,2,507,55,0,0
205258,-100,3,2,508,55,0,0
205395,-100,3,2,509,55,0,0
205531,-100,3,2,510,55,0,0
205667,-100,3,2,179,55,0,0
205804,-100,3,2,511,55,0,0
205940,-100,3,2,651,55,0,0
205945,-100,3,2,488,55,0,0
206349,-100,3,2,489,55,0,0
206622,-50,3,2,512,55,0,0
206758,-133.333333333333,3,2,512,55,0,0
206895,-66.6666666666667,3,2,513,55,0,0
207031,-79.9999999999999,3,2,66,55,0,0
207167,-100,3,2,514,55,0,0
207304,-57.1428571428571,3,2,515,55,0,0
207440,-200,3,2,516,55,0,0
207576,-200,3,2,495,55,0,0
207849,-200,3,2,10,55,0,0
207985,-200,3,2,496,55,0,0
208122,-50,3,2,497,55,0,0
208258,-200,3,2,497,55,0,0
208394,-200,3,2,651,55,0,0
208399,-200,3,2,497,55,0,0
208531,-200,3,2,517,55,0,0
208599,-200,3,2,499,55,0,0
208667,-80,3,2,237,55,0,0
208804,-80,3,2,501,55,0,0
208940,-80,3,2,10,55,0,0
209076,-80,3,2,511,55,0,0
209213,-80,3,2,66,55,0,0
209349,-80,3,2,488,55,0,0
209622,-80,3,2,502,55,0,0
209758,-80,3,2,490,55,0,0
209895,-66.6666666666667,3,2,490,55,0,0
210167,-66.6666666666667,3,2,503,55,0,0
210440,-66.6666666666667,3,2,504,55,0,0
210531,-66.6666666666667,3,2,10,55,0,0
210576,-66.6666666666667,3,2,518,55,0,0
210622,-66.6666666666667,3,2,10,55,0,0
210713,-66.6666666666667,3,2,506,55,0,0
210849,-66.6666666666667,3,2,66,55,0,0
211122,-66.6666666666667,3,2,507,55,0,0
211258,-66.6666666666667,3,2,494,55,0,0
211395,-66.6666666666667,3,2,519,55,0,0
211804,-66.6666666666667,3,2,520,55,0,0
211895,-66.6666666666667,3,2,66,55,0,0
211940,-66.6666666666667,3,2,521,55,0,0
211985,-66.6666666666667,3,2,66,55,0,0
212076,-66.6666666666667,3,2,522,55,0,0
212212,-66.6666666666667,3,2,179,55,0,0
212349,-66.6666666666667,3,2,62,55,0,0
212758,-66.6666666666667,3,2,340,55,0,0
213167,-66.6666666666667,3,2,253,55,0,0
213576,-66.6666666666667,3,2,523,55,0,0
213985,-66.6666666666667,3,2,524,55,0,0
214395,-66.6666666666667,3,2,340,55,0,0
214804,-66.6666666666667,3,2,525,55,0,0
215213,-66.6666666666667,3,2,526,55,0,0
215622,-66.6666666666667,3,2,527,55,0,0
217258,-66.6666666666667,3,2,63,65,0,0
217395,-100,3,2,528,65,0,0
217531,-66.6666666666667,3,2,529,65,0,0
217667,-66.6666666666667,3,2,528,65,0,0
217804,-100,3,2,477,65,0,0
217940,-66.6666666666667,3,2,528,65,0,0
218076,-66.6666666666667,3,2,64,65,0,0
218213,-100,3,2,530,65,0,0
218349,-100,3,2,24,65,0,0
218485,-100,3,2,25,65,0,0
218622,-100,3,2,531,65,0,0
218758,-100,3,2,532,65,0,0
218895,-76.9230769230769,3,2,65,65,0,1
219031,-76.9230769230769,3,2,626,65,0,1
219036,-76.9230769230769,3,2,533,65,0,1
219167,-76.9230769230769,3,2,534,65,0,1
219304,-76.9230769230769,3,2,206,65,0,1
219440,-76.9230769230769,3,2,535,65,0,1
219576,-76.9230769230769,3,2,536,65,0,1
219713,-76.9230769230769,3,2,537,65,0,1
219849,-76.9230769230769,3,2,627,65,0,1
219854,-76.9230769230769,3,2,538,65,0,1
219985,-76.9230769230769,3,2,539,65,0,1
220258,-76.9230769230769,3,2,540,65,0,1
220395,-76.9230769230769,3,2,65,65,0,1
220531,-76.9230769230769,3,2,541,65,0,1
220667,-76.9230769230769,3,2,627,65,0,1
220672,-76.9230769230769,3,2,538,65,0,1
220803,-76.9230769230769,3,2,542,65,0,1
220940,-76.9230769230769,3,2,543,65,0,1
221076,-76.9230769230769,3,2,544,65,0,1
221213,-76.9230769230769,3,2,545,65,0,1
221485,-76.9230769230769,3,2,546,65,0,1
221622,-76.9230769230769,3,2,547,65,0,1
221758,-76.9230769230769,3,2,10,65,0,1
221892,272.727272727273,3,2,548,65,1,1
221892,-76.9230769230769,3,2,548,65,0,1
222028,-76.9230769230769,3,2,627,65,0,1
222033,-76.9230769230769,3,2,538,65,0,1
222164,-76.9230769230769,3,2,307,65,0,1
222301,-76.9230769230769,3,2,549,65,0,1
222437,-76.9230769230769,3,2,66,65,0,1
222710,-76.9230769230769,3,2,550,65,0,1
222846,-76.9230769230769,3,2,288,65,0,1
222982,-76.9230769230769,3,2,551,65,0,1
223255,-76.9230769230769,3,2,552,65,0,1
223392,-76.9230769230769,3,2,10,65,0,1
223528,-76.9230769230769,3,2,553,65,0,1
223664,-76.9230769230769,3,2,554,65,0,1
223801,-76.9230769230769,3,2,555,65,0,1
223937,-76.9230769230769,3,2,556,65,0,1
224073,-76.9230769230769,3,2,557,65,0,1
224210,-76.9230769230769,3,2,558,65,0,1
224346,-76.9230769230769,3,2,559,65,0,1
224482,-76.9230769230769,3,2,560,65,0,1
224619,-76.9230769230769,3,2,561,65,0,1
224686,-76.9230769230769,3,2,555,65,0,1
224892,-76.9230769230769,3,2,562,65,0,1
225164,-76.9230769230769,3,2,66,65,0,1
225300,-76.9230769230769,3,2,196,65,0,1
225437,-76.9230769230769,3,2,563,65,0,1
225710,-76.9230769230769,3,2,564,65,0,1
225982,-76.9230769230769,3,2,565,65,0,1
226119,-76.9230769230769,3,2,36,65,0,1
226254,-76.9230769230769,3,2,566,65,0,1
226392,-76.9230769230769,3,2,255,65,0,1
226528,-76.9230769230769,3,2,567,65,0,1
226664,-76.9230769230769,3,2,10,65,0,1
226801,-76.9230769230769,3,2,568,65,0,1
226937,-76.9230769230769,3,2,657,65,0,1
226942,-76.9230769230769,3,2,204,65,0,1
227073,-76.9230769230769,3,2,569,65,0,1
227210,-76.9230769230769,3,2,570,65,0,1
227346,-76.9230769230769,3,2,571,65,0,1
227482,-76.9230769230769,3,2,170,65,0,1
227619,-76.9230769230769,3,2,572,65,0,1
227755,-76.9230769230769,3,2,573,65,0,1
227892,-76.9230769230769,3,2,574,65,0,1
228028,-76.9230769230769,3,2,179,65,0,1
228164,272.727272727273,3,2,575,65,1,1
228164,-76.9230769230769,3,2,575,65,0,1
228300,-76.9230769230769,3,2,628,65,0,1
228305,-76.9230769230769,3,2,576,65,0,1
228436,-76.9230769230769,3,2,577,65,0,1
228573,-76.9230769230769,3,2,206,65,0,1
228709,-76.9230769230769,3,2,578,65,0,1
228845,-76.9230769230769,3,2,332,65,0,1
228982,-76.9230769230769,3,2,579,65,0,1
229118,-76.9230769230769,3,2,560,65,0,1
229254,-76.9230769230769,3,2,282,65,0,1
229391,-76.9230769230769,3,2,580,65,0,1
229527,-76.9230769230769,3,2,462,65,0,1
229663,-76.9230769230769,3,2,581,65,0,1
229800,-76.9230769230769,3,2,67,65,0,1
229936,-76.9230769230769,3,2,629,65,0,1
229941,-76.9230769230769,3,2,582,65,0,1
230072,-76.9230769230769,3,2,583,65,0,1
230209,-76.9230769230769,3,2,175,65,0,1
230345,-76.9230769230769,3,2,169,65,0,1
230482,-76.9230769230769,3,2,170,65,0,1
230618,-76.9230769230769,3,2,584,65,0,1
230754,-76.9230769230769,3,2,204,65,0,1
230891,-76.9230769230769,3,2,68,65,0,1
231027,-76.9230769230769,3,2,69,65,0,1
231164,-76.9230769230769,3,2,585,65,0,1
231300,-76.9230769230769,3,2,586,65,0,1
231436,-76.9230769230769,3,2,70,65,0,1
231573,-76.9230769230769,3,2,626,65,0,1
231577,-76.9230769230769,3,2,533,65,0,1
231708,-76.9230769230769,3,2,71,65,0,1
231845,-76.9230769230769,3,2,206,65,0,1
231982,-76.9230769230769,3,2,72,65,0,1
232118,-76.9230769230769,3,2,536,65,0,1
232254,-76.9230769230769,3,2,537,65,0,1
232390,-76.9230769230769,3,2,587,65,0,1
232527,-76.9230769230769,3,2,73,65,0,1
232800,-76.9230769230769,3,2,74,65,0,1
232936,-76.9230769230769,3,2,65,65,0,1
233073,-76.9230769230769,3,2,541,65,0,1
233209,-76.9230769230769,3,2,627,65,0,1
233214,-76.9230769230769,3,2,538,65,0,1
233345,-76.9230769230769,3,2,75,65,0,1
233482,-76.9230769230769,3,2,543,65,0,1
233618,-76.9230769230769,3,2,76,65,0,1
233754,-76.9230769230769,3,2,545,65,0,1
234027,-76.9230769230769,3,2,588,65,0,1
234164,-76.9230769230769,3,2,77,65,0,1
234436,272.727272727273,3,2,78,75,1,1
234436,-76.9230769230769,3,2,78,75,0,1
234572,-76.9230769230769,3,2,627,75,0,1
234577,-76.9230769230769,3,2,538,75,0,1
234708,-76.9230769230769,3,2,79,75,0,1
234845,-76.9230769230769,3,2,549,75,0,1
234981,-76.9230769230769,3,2,28,75,0,1
235254,-76.9230769230769,3,2,550,75,0,1
235390,-76.9230769230769,3,2,234,75,0,1
235526,-76.9230769230769,3,2,80,75,0,1
235799,-76.9230769230769,3,2,81,75,0,1
236072,-76.9230769230769,3,2,553,75,0,1
236208,-76.9230769230769,3,2,554,75,0,1
236345,-76.9230769230769,3,2,82,75,0,1
236481,-76.9230769230769,3,2,556,75,0,1
236617,-76.9230769230769,3,2,83,75,0,1
236754,-76.9230769230769,3,2,558,75,0,1
236890,-76.9230769230769,3,2,559,75,0,1
237026,-76.9230769230769,3,2,560,75,0,1
237163,-76.9230769230769,3,2,561,75,0,1
237298,-76.9230769230769,3,2,555,75,0,1
237436,-76.9230769230769,3,2,562,75,0,1
237708,-76.9230769230769,3,2,66,75,0,1
237845,-76.9230769230769,3,2,192,75,0,1
237981,-76.9230769230769,3,2,84,75,0,1
238254,-76.9230769230769,3,2,85,75,0,1
238526,-76.9230769230769,3,2,565,75,0,1
238662,-76.9230769230769,3,2,11,75,0,1
238799,-76.9230769230769,3,2,86,75,0,1
238935,-76.9230769230769,3,2,255,75,0,1
239072,-76.9230769230769,3,2,87,75,0,1
239345,-76.9230769230769,3,2,568,75,0,1
239481,-76.9230769230769,3,2,183,75,0,1
239617,-76.9230769230769,3,2,88,75,0,1
239754,-76.9230769230769,3,2,570,75,0,1
239890,-76.9230769230769,3,2,89,75,0,1
240026,-76.9230769230769,3,2,170,75,0,1
240163,-76.9230769230769,3,2,572,75,0,1
240299,-76.9230769230769,3,2,573,75,0,1
240436,-76.9230769230769,3,2,90,75,0,1
240572,-76.9230769230769,3,2,179,75,0,1
240708,272.727272727273,3,2,589,75,1,1
240708,-76.9230769230769,3,2,589,75,0,1
240844,-76.9230769230769,3,2,628,75,0,1
240849,-76.9230769230769,3,2,576,75,0,1
240980,-76.9230769230769,3,2,91,75,0,1
241117,-76.9230769230769,3,2,590,75,0,1
241253,-76.9230769230769,3,2,92,75,0,1
241389,-76.9230769230769,3,2,332,75,0,1
241526,-76.9230769230769,3,2,591,75,0,1
241662,-76.9230769230769,3,2,560,75,0,1
241798,-76.9230769230769,3,2,282,75,0,1
241935,-76.9230769230769,3,2,592,75,0,1
242071,-76.9230769230769,3,2,462,75,0,1
242208,-76.9230769230769,3,2,581,75,0,1
242344,-76.9230769230769,3,2,93,75,0,1
242480,-76.9230769230769,3,2,629,75,0,1
242485,-76.9230769230769,3,2,582,75,0,1
242616,-76.9230769230769,3,2,593,75,0,1
242753,-76.9230769230769,3,2,304,75,0,1
242889,-76.9230769230769,3,2,169,75,0,1
243026,-76.9230769230769,3,2,170,75,0,1
243162,-76.9230769230769,3,2,584,75,0,1
243298,-76.9230769230769,3,2,204,75,0,1
243435,-76.9230769230769,3,2,301,75,0,1
243708,-76.9230769230769,3,2,594,75,0,1
243844,-76.9230769230769,3,2,66,75,0,1
243980,-90.9090909090909,3,2,94,65,0,1
244117,-90.9090909090909,3,2,607,65,0,1
244121,-90.9090909090909,3,2,183,65,0,1
244252,-90.9090909090909,3,2,595,65,0,1
244389,-90.9090909090909,3,2,177,65,0,1
244526,-90.9090909090909,3,2,596,65,0,1
244662,-90.9090909090909,3,2,543,65,0,1
244793,266.666666666667,3,2,597,65,1,1
244793,-90.9090909090909,3,2,597,65,0,1
244926,-90.9090909090909,3,2,631,65,0,1
244931,-90.9090909090909,3,2,598,65,0,1
245059,-90.9090909090909,3,2,569,65,0,1
245193,-90.9090909090909,3,2,255,65,0,1
245326,-90.9090909090909,3,2,599,65,0,1
245459,-90.9090909090909,3,2,85,65,0,1
245593,263.157894736842,3,2,600,65,1,1
245593,-66.6666666666667,3,2,600,65,0,1
245724,-66.6666666666667,3,2,601,65,0,1
245856,-57.1428571428571,3,2,602,65,0,1
245987,-57.1428571428571,3,2,603,65,0,1
246119,-80,3,2,604,65,0,1
246250,-80,3,2,668,65,0,1
246256,-80,3,2,581,65,0,1
246382,-80,3,2,605,65,0,1
246513,-80,3,2,606,65,0,1
246645,-80,3,2,607,65,0,1
246777,-80,3,2,608,65,0,1
246908,-80,3,2,609,65,0,1
247039,-80,3,2,145,65,0,1
247171,-83.3333333333333,3,2,610,65,0,1
247302,-83.3333333333333,3,2,632,65,0,1
247308,-83.3333333333333,3,2,611,65,0,1
247434,-83.3333333333333,3,2,612,65,0,1
247565,-83.3333333333333,3,2,613,65,0,1
247697,-83.3333333333333,3,2,614,65,0,1
247828,-83.3333333333333,3,2,615,65,0,1
247960,-83.3333333333333,3,2,616,65,0,1
248092,-83.3333333333333,3,2,617,65,0,1
248223,-83.3333333333333,3,2,618,65,0,1
248355,-83.3333333333333,3,2,619,65,0,1
248486,-83.3333333333333,3,2,620,65,0,1
248617,-83.3333333333333,3,2,85,65,0,1
248749,-83.3333333333333,3,2,621,65,0,1
248880,-83.3333333333333,3,2,601,65,0,1
249013,-83.3333333333333,3,2,622,65,0,1
249144,-83.3333333333333,3,2,603,65,0,1
249276,-83.3333333333333,3,2,623,65,0,1
249407,-83.3333333333333,3,2,581,65,0,1
249539,-83.3333333333333,3,2,624,65,0,1
249671,-83.3333333333333,3,2,606,65,0,1
249802,-83.3333333333333,3,2,625,65,0,1
249934,-83.3333333333333,3,2,626,65,0,1
250065,-83.3333333333333,3,2,571,65,0,1
250328,-83.3333333333333,3,2,95,65,0,1
250460,-83.3333333333333,3,2,634,65,0,1
250466,-83.3333333333333,3,2,627,65,0,1
250591,-83.3333333333333,3,2,628,65,0,1
250723,-83.3333333333333,3,2,629,65,0,1
250855,-83.3333333333333,3,2,630,65,0,1
250986,-83.3333333333333,3,2,170,65,0,1
251118,-83.3333333333333,3,2,631,65,0,1
251249,-83.3333333333333,3,2,669,65,0,1
251256,-83.3333333333333,3,2,632,65,0,1
251381,-83.3333333333333,3,2,633,65,0,1
251512,-83.3333333333333,3,2,634,65,0,1
251644,-83.3333333333333,3,2,567,65,0,1
251776,-83.3333333333333,3,2,581,65,0,1
251907,-83.3333333333333,3,2,635,65,0,1
252039,-83.3333333333333,3,2,635,65,0,1
252045,-83.3333333333333,3,2,636,65,0,1
252170,-83.3333333333333,3,2,637,65,0,1
252302,-83.3333333333333,3,2,638,65,0,1
252434,-83.3333333333333,3,2,639,65,0,1
252565,-83.3333333333333,3,2,170,65,0,1
252697,-83.3333333333333,3,2,640,65,0,1
252828,-83.3333333333333,3,2,670,65,0,1
252835,-83.3333333333333,3,2,641,65,0,1
252960,-83.3333333333333,3,2,642,65,0,1
253092,-83.3333333333333,3,2,643,65,0,1
253223,-83.3333333333333,3,2,644,65,0,1
253355,-83.3333333333333,3,2,278,65,0,1
253486,-83.3333333333333,3,2,645,65,0,1
253618,-83.3333333333333,3,2,637,65,0,1
253624,-83.3333333333333,3,2,646,65,0,1
253749,-83.3333333333333,3,2,647,65,0,1
253881,-83.3333333333333,3,2,648,65,0,1
254013,-83.3333333333333,3,2,649,65,0,1
254144,-83.3333333333333,3,2,332,65,0,1
254276,-83.3333333333333,3,2,650,65,0,1
254407,-83.3333333333333,3,2,651,65,0,1
254539,-83.3333333333333,3,2,652,65,0,1
254671,-83.3333333333333,3,2,671,65,0,1
254677,-83.3333333333333,3,2,653,65,0,1
254802,-83.3333333333333,3,2,654,65,0,1
254934,-83.3333333333333,3,2,672,65,0,1
254940,-83.3333333333333,3,2,237,65,0,1
255065,-83.3333333333333,3,2,655,65,0,1
255196,-83.3333333333333,3,2,656,65,0,1
255328,-83.3333333333333,3,2,657,65,0,1
255459,-83.3333333333333,3,2,658,65,0,1
255592,-83.3333333333333,3,2,659,65,0,1
255723,-83.3333333333333,3,2,332,65,0,1
255855,-83.3333333333333,3,2,660,65,0,1
255986,-83.3333333333333,3,2,661,65,0,1
256118,-83.3333333333333,3,2,662,65,0,1
256249,-83.3333333333333,3,2,663,65,0,1
256381,-83.3333333333333,3,2,664,65,0,1
256513,-83.3333333333333,3,2,237,65,0,1
256645,-83.3333333333333,3,2,96,75,0,1
256776,-83.3333333333333,3,2,631,75,0,1
256782,-83.3333333333333,3,2,598,75,0,1
256907,-83.3333333333333,3,2,97,75,0,1
257039,-83.3333333333333,3,2,634,75,0,1
257171,-83.3333333333333,3,2,98,75,0,1
257302,-83.3333333333333,3,2,543,75,0,1
257434,-83.3333333333333,3,2,665,75,0,1
257565,-83.3333333333333,3,2,631,75,0,1
257572,-83.3333333333333,3,2,598,75,0,1
257697,-83.3333333333333,3,2,99,75,0,1
257828,-83.3333333333333,3,2,673,75,0,1
257835,-83.3333333333333,3,2,619,75,0,1
257960,-83.3333333333333,3,2,100,75,0,1
258091,-83.3333333333333,3,2,85,75,0,1
258223,-83.3333333333333,3,2,666,75,0,1
258355,-83.3333333333333,3,2,601,75,0,1
258486,-83.3333333333333,3,2,101,75,0,1
258618,-83.3333333333333,3,2,603,75,0,1
258749,-83.3333333333333,3,2,102,75,0,1
258880,-83.3333333333333,3,2,581,75,0,1
259013,-83.3333333333333,3,2,667,75,0,1
259144,-83.3333333333333,3,2,674,75,0,1
259151,-83.3333333333333,3,2,606,75,0,1
259276,-83.3333333333333,3,2,103,75,0,1
259407,-83.3333333333333,3,2,608,75,0,1
259539,-83.3333333333333,3,2,104,75,0,1
259671,-83.3333333333333,3,2,145,75,0,1
259802,-83.3333333333333,3,2,610,75,0,1
259934,-83.3333333333333,3,2,632,75,0,1
259940,-83.3333333333333,3,2,611,75,0,1
260065,-83.3333333333333,3,2,105,75,0,1
260197,-83.3333333333333,3,2,613,75,0,1
260328,-83.3333333333333,3,2,106,75,0,1
260459,-83.3333333333333,3,2,615,75,0,1
260592,-83.3333333333333,3,2,616,75,0,1
260723,-83.3333333333333,3,2,668,75,0,1
260855,-83.3333333333333,3,2,107,75,0,1
260986,-83.3333333333333,3,2,673,75,0,1
260993,-83.3333333333333,3,2,619,75,0,1
261118,-83.3333333333333,3,2,108,75,0,1
261249,-83.3333333333333,3,2,675,75,0,1
261256,-83.3333333333333,3,2,85,75,0,1
261381,-83.3333333333333,3,2,621,75,0,1
261513,-83.3333333333333,3,2,601,75,0,1
261644,-83.3333333333333,3,2,109,75,0,1
261775,-83.3333333333333,3,2,669,75,0,1
261907,-83.3333333333333,3,2,110,75,0,1
262039,-83.3333333333333,3,2,581,75,0,1
262171,-83.3333333333333,3,2,624,75,0,1
262302,-83.3333333333333,3,2,606,75,0,1
262434,-83.3333333333333,3,2,625,75,0,1
262565,-83.3333333333333,3,2,626,75,0,1
262697,-83.3333333333333,3,2,571,75,0,1
262960,-83.3333333333333,3,2,95,75,0,1
263092,-83.3333333333333,3,2,634,75,0,1
263098,-83.3333333333333,3,2,627,75,0,1
263223,-83.3333333333333,3,2,111,75,0,1
263355,-83.3333333333333,3,2,629,75,0,1
263486,-83.3333333333333,3,2,112,75,0,1
263617,-83.3333333333333,3,2,170,75,0,1
263749,-83.3333333333333,3,2,631,75,0,1
263880,-83.3333333333333,3,2,669,75,0,1
263887,-83.3333333333333,3,2,632,75,0,1
264013,-83.3333333333333,3,2,113,75,0,1
264144,-83.3333333333333,3,2,634,75,0,1
264276,-83.3333333333333,3,2,87,75,0,1
264407,-83.3333333333333,3,2,581,75,0,1
264539,-83.3333333333333,3,2,670,75,0,1
264671,-83.3333333333333,3,2,636,75,0,1
264802,-83.3333333333333,3,2,114,75,0,1
264934,-83.3333333333333,3,2,638,75,0,1
265065,-83.3333333333333,3,2,636,75,0,1
265072,-83.3333333333333,3,2,639,75,0,1
265197,-83.3333333333333,3,2,170,75,0,1
265328,-83.3333333333333,3,2,640,75,0,1
265459,-83.3333333333333,3,2,641,75,0,1
265592,-83.3333333333333,3,2,115,75,0,1
265723,-83.3333333333333,3,2,671,75,0,1
265855,-83.3333333333333,3,2,116,75,0,1
265986,-83.3333333333333,3,2,278,75,0,1
266118,-83.3333333333333,3,2,117,75,0,1
266249,-83.3333333333333,3,2,672,75,0,1
266381,-83.3333333333333,3,2,118,75,0,1
266513,-83.3333333333333,3,2,673,75,0,1
266644,-83.3333333333333,3,2,119,75,0,1
266776,-83.3333333333333,3,2,332,75,0,1
266907,-83.3333333333333,3,2,674,75,0,1
267039,-83.3333333333333,3,2,675,75,0,1
267170,-83.3333333333333,3,2,120,75,0,1
267302,-83.3333333333333,3,2,676,75,0,1
267434,-83.3333333333333,3,2,121,75,0,1
267565,-83.3333333333333,3,2,581,75,0,1
267697,-83.3333333333333,3,2,122,75,0,1
267828,-83.3333333333333,3,2,676,75,0,1
267835,-83.3333333333333,3,2,677,75,0,1
267960,-83.3333333333333,3,2,583,75,0,1
268092,-83.3333333333333,3,2,678,75,0,1
268223,-83.3333333333333,3,2,679,75,0,1
268354,-83.3333333333333,3,2,170,75,0,1
268486,-83.3333333333333,3,2,584,75,0,1
268618,-83.3333333333333,3,2,606,75,0,1
268749,-83.3333333333333,3,2,680,75,0,1
268881,-83.3333333333333,3,2,681,75,0,1
269013,-83.3333333333333,3,2,571,75,0,1
269277,266.666666666667,3,2,123,50,1,0
269277,-166.666666666667,3,2,123,50,0,0
269410,-166.666666666667,3,2,631,50,0,0
269415,-166.666666666667,3,2,598,50,0,0
269543,-166.666666666667,3,2,642,50,0,0
269549,-166.666666666667,3,2,682,50,0,0
269676,-166.666666666667,3,2,177,50,0,0
269810,-166.666666666667,3,2,70,50,0,0
269943,-166.666666666667,3,2,543,50,0,0
270077,-166.666666666667,3,2,683,50,0,0
270210,-166.666666666667,3,2,643,50,0,0
270215,-166.666666666667,3,2,684,50,0,0
270333,-166.666666666667,3,2,662,50,0,0
270349,-166.666666666667,3,2,304,50,0,0
270477,-166.666666666667,3,2,685,50,0,0
270610,-166.666666666667,3,2,599,50,0,0
270743,-166.666666666667,3,2,239,50,0,0
270877,-166.666666666667,3,2,686,50,0,0
271010,-166.666666666667,3,2,644,50,0,0
271015,-166.666666666667,3,2,687,50,0,0
271143,-166.666666666667,3,2,688,50,0,0
271277,-166.666666666667,3,2,198,50,0,0
271410,-166.666666666667,3,2,69,50,0,0
271543,-166.666666666667,3,2,581,50,0,0
271677,-166.666666666667,3,2,689,50,0,0
271810,-166.666666666667,3,2,631,50,0,0
271815,-166.666666666667,3,2,598,50,0,0
271943,-166.666666666667,3,2,595,50,0,0
272077,-166.666666666667,3,2,458,50,0,0
272210,-166.666666666667,3,2,690,50,0,0
272343,-166.666666666667,3,2,114,50,0,0
272477,269.058295964126,3,2,691,50,1,0
272477,-166.666666666667,3,2,691,50,0,0
272611,-166.666666666667,3,2,632,50,0,0
272617,-166.666666666667,3,2,611,50,0,0
272746,-166.666666666667,3,2,304,50,0,0
272880,-166.666666666667,3,2,168,50,0,0
273014,-166.666666666667,3,2,679,50,0,0
273149,-166.666666666667,3,2,581,50,0,0
273284,-166.666666666667,3,2,683,50,0,0
273418,-166.666666666667,3,2,677,50,0,0
273424,-166.666666666667,3,2,668,50,0,0
273553,-166.666666666667,3,2,301,50,0,0
273687,-166.666666666667,3,2,678,50,0,0
273693,-166.666666666667,3,2,255,50,0,0
273822,-166.666666666667,3,2,692,50,0,0
273956,-166.666666666667,3,2,85,50,0,0
274091,-166.666666666667,3,2,686,50,0,0
274225,-166.666666666667,3,2,601,50,0,0
274360,-166.666666666667,3,2,301,50,0,0
274494,-166.666666666667,3,2,198,50,0,0
274629,-166.666666666667,3,2,69,50,0,0
274763,-166.666666666667,3,2,581,50,0,0
274898,-166.666666666667,3,2,689,50,0,0
275033,-166.666666666667,3,2,606,50,0,0
275167,-166.666666666667,3,2,301,50,0,0
275302,-166.666666666667,3,2,33,50,0,0
275436,-166.666666666667,3,2,70,50,0,0
275570,-166.666666666667,3,2,66,50,0,0
275705,272.727272727273,3,2,691,50,1,0
275705,-166.666666666667,3,2,691,50,0,0
275841,-166.666666666667,3,2,627,50,0,0
275846,-166.666666666667,3,2,538,50,0,0
275977,-166.666666666667,3,2,679,50,0,0
275983,-166.666666666667,3,2,558,50,0,0
276114,-166.666666666667,3,2,168,50,0,0
276250,-166.666666666667,3,2,679,50,0,0
276386,-166.666666666667,3,2,170,50,0,0
276523,-166.666666666667,3,2,683,50,0,0
276659,-166.666666666667,3,2,613,50,0,0
276664,-166.666666666667,3,2,288,50,0,0
276795,-166.666666666667,3,2,301,50,0,0
276932,-166.666666666667,3,2,680,50,0,0
276937,-166.666666666667,3,2,177,50,0,0
277068,-166.666666666667,3,2,599,50,0,0
277204,-166.666666666667,3,2,581,50,0,0
277341,-166.666666666667,3,2,693,50,0,0
277477,-166.666666666667,3,2,627,50,0,0
277482,-166.666666666667,3,2,538,50,0,0
277613,-166.666666666667,3,2,304,50,0,0
277750,-166.666666666667,3,2,198,50,0,0
277886,-166.666666666667,3,2,462,50,0,0
278023,-166.666666666667,3,2,170,50,0,0
278159,-166.666666666667,3,2,694,50,0,0
278295,-166.666666666667,3,2,627,50,0,0
278300,-166.666666666667,3,2,538,50,0,0
278432,-166.666666666667,3,2,606,50,0,0
278437,-166.666666666667,3,2,180,50,0,0
278568,-166.666666666667,3,2,660,50,0,0
278573,-166.666666666667,3,2,276,50,0,0
278705,-166.666666666667,3,2,169,50,0,0
278841,-166.666666666667,3,2,241,50,0,0
278977,275.229357798165,3,2,695,50,1,0
278977,-200,3,2,695,50,0,0
279114,-200,3,2,645,50,0,0
279120,-200,3,2,696,50,0,0
279252,-200,3,2,646,50,0,0
279257,-200,3,2,697,50,0,0
279389,-200,3,2,698,50,0,0
279527,-200,3,2,699,50,0,0
279664,-200,3,2,332,50,0,0
279802,-200,3,2,700,50,0,0
279939,-200,3,2,681,50,0,0
279945,-200,3,2,701,50,0,0
280077,-200,3,2,282,50,0,0
280214,-200,3,2,682,50,0,0
280220,-200,3,2,698,50,0,0
280353,-200,3,2,702,50,0,0
280490,-200,3,2,500,50,0,0
280628,-200,3,2,703,50,0,0
280765,-200,3,2,704,50,0,0
280903,-200,3,2,705,50,0,0
281040,-200,3,2,168,50,0,0
281178,-200,3,2,706,50,0,0
281315,-200,3,2,332,50,0,0
281454,-200,3,2,707,50,0,0
281591,-200,3,2,708,50,0,0
281729,-200,3,2,705,50,0,0
281866,-200,3,2,698,50,0,0
282004,-200,3,2,706,50,0,0
282142,-200,3,2,709,50,0,0
282279,277.777777777778,3,2,710,40,1,0
282279,-200,3,2,710,40,0,0
282417,-200,3,2,607,40,0,0
282423,-200,3,2,183,40,0,0
282556,-200,3,2,642,40,0,0
282562,-200,3,2,682,40,0,0
282695,-200,3,2,177,40,0,0
282834,-200,3,2,70,40,0,0
282972,-200,3,2,543,40,0,0
283112,-200,3,2,683,40,0,0
283251,-200,3,2,613,40,0,0
283256,-200,3,2,288,40,0,0
283389,-200,3,2,304,40,0,0
283529,-200,3,2,685,40,0,0
283667,-200,3,2,599,40,0,0
283805,-200,3,2,239,40,0,0
283945,-200,3,2,686,40,0,0
284084,-200,3,2,609,40,0,0
284089,-200,3,2,192,40,0,0
284222,-200,3,2,688,40,0,0
284362,-200,3,2,198,40,0,0
284500,-200,3,2,69,40,0,0
284639,-200,3,2,581,40,0,0
284779,-200,3,2,689,40,0,0
284917,-200,3,2,607,40,0,0
284923,-200,3,2,183,40,0,0
285056,-200,3,2,595,40,0,0
285195,-200,3,2,458,40,0,0
285334,-200,3,2,690,40,0,0
285472,-200,3,2,114,40,0,0
285612,280.373831775701,3,2,711,40,1,0
285612,-200,3,2,711,40,0,0
285752,-200,3,2,627,40,0,0
285757,-200,3,2,538,40,0,0
285892,-200,3,2,662,40,0,0
285897,-200,3,2,304,40,0,0
286032,-200,3,2,168,40,0,0
286172,-200,3,2,679,40,0,0
286312,-200,3,2,581,40,0,0
286453,-200,3,2,712,40,0,0
286593,-200,3,2,600,40,0,0
286598,-200,3,2,36,40,0,0
286733,-200,3,2,301,40,0,0
286873,-200,3,2,647,40,0,0
286879,-200,3,2,286,40,0,0
287013,-200,3,2,692,40,0,0
287154,-200,3,2,713,40,0,0
287294,283.018867924528,3,2,714,40,1,0
287294,-200,3,2,714,40,0,0
287435,-200,3,2,196,40,0,0
287577,-200,3,2,301,40,0,0
287718,-200,3,2,198,40,0,0
287860,-200,3,2,69,40,0,0
288001,-200,3,2,581,40,0,0
288143,-200,3,2,715,40,0,0
288284,-200,3,2,204,40,0,0
288425,-200,3,2,301,40,0,0
288567,-200,3,2,33,40,0,0
288708,-200,3,2,70,40,0,0
288850,-200,3,2,66,40,0,0
288992,285.714285714286,3,2,711,40,1,0
288992,-250,3,2,711,40,0,0
289134,-250,3,2,627,40,0,0
289140,-250,3,2,538,40,0,0
289277,-250,3,2,606,40,0,0
289283,-250,3,2,180,40,0,0
289420,-250,3,2,168,40,0,0
289563,-250,3,2,679,40,0,0
289705,-250,3,2,170,40,0,0
289849,-250,3,2,712,40,0,0
289992,-250,3,2,613,40,0,0
289997,-250,3,2,288,40,0,0
290134,-250,3,2,301,40,0,0
290277,-250,3,2,648,40,0,0
290283,-250,3,2,27,40,0,0
290420,-250,3,2,599,40,0,0
290563,-250,3,2,716,40,0,0
290706,-250,3,2,717,40,0,0
290849,-250,3,2,627,40,0,0
290854,-250,3,2,538,40,0,0
290991,-250,3,2,304,40,0,0
291134,-250,3,2,198,40,0,0
291276,-250,3,2,462,40,0,0
291419,-250,3,2,170,40,0,0
291563,-250,3,2,718,40,0,0
291706,-250,3,2,627,40,0,0
291711,-250,3,2,538,40,0,0
291849,-250,3,2,558,40,0,0
291992,-250,3,2,346,40,0,0
292134,-250,3,2,417,40,0,0
292277,-250,3,2,278,40,0,0
292420,288.461538461539,3,2,714,40,1,0
292420,-333.333333333333,3,2,714,40,0,0
292564,-333.333333333333,3,2,609,40,0,0
292569,-333.333333333333,3,2,192,40,0,0
292708,-333.333333333333,3,2,683,40,0,0
292713,-333.333333333333,3,2,719,40,0,0
292852,-333.333333333333,3,2,177,40,0,0
292996,-333.333333333333,3,2,720,40,0,0
293140,-333.333333333333,3,2,19,40,0,0
293285,-333.333333333333,3,2,715,40,0,0
293429,-333.333333333333,3,2,36,40,0,0
293573,-333.333333333333,3,2,721,40,0,0
293718,-333.333333333333,3,2,611,40,0,0
293722,-333.333333333333,3,2,253,40,0,0
293862,-333.333333333333,3,2,690,40,0,0
294006,-333.333333333333,3,2,722,40,0,0
294150,-333.333333333333,3,2,723,40,0,0
294295,-333.333333333333,3,2,183,40,0,0
294439,-333.333333333333,3,2,724,40,0,0
294583,-333.333333333333,3,2,685,40,0,0
294727,-333.333333333333,3,2,679,40,0,0
294871,-333.333333333333,3,2,725,40,0,0
295006,434.782608695653,3,2,726,30,1,0
295006,-500,3,2,726,30,0,0
295440,-500,3,2,66,30,0,0
295875,441.176470588236,4,2,66,30,1,0
295875,-500,4,2,66,30,0,0
296757,600,5,2,66,30,1,0
296757,-1000,5,2,66,30,0,0
299607,789.473684210526,4,2,66,20,1,0
301185,-100,4,2,66,10,0,0
305922,-100,4,2,66,5,0,0

[Colours]
Combo1 : 217,191,255
Combo2 : 255,187,170
Combo3 : 255,232,170

[HitObjects]
149,167,1854,6,0,P|157:127|167:88,2,67.5000000000002,2|2|2,2:2|2:2|2:2,0:0:0:0:
213,231,2290,2,0,P|253:239|292:249,2,67.5000000000002,2|2|2,2:2|2:2|2:2,0:0:0:0:
149,295,2727,2,0,P|141:335|131:374,1,67.5000000000002,2|2,2:2|2:2,0:0:0:0:
85,231,3019,2,0,P|45:223|6:213,1,67.5000000000002,2|2,2:2|2:2,0:0:0:0:
149,167,3310,2,0,P|157:127|167:88,1,67.5000000000002,2|2,2:2|2:2,0:0:0:0:
278,245,3601,6,0,P|270:285|260:324,1,67.5000000000002,2|2,2:2|2:2,0:0:0:0:
347,356,3892,1,2,2:2:0:0:
401,278,4038,1,2,2:2:0:0:
499,324,4184,2,0,P|491:291|484:258,1,67.5000000000002,2|2,2:2|2:2,0:0:0:0:
354,202,4475,5,2,2:2:0:0:
439,162,4620,1,2,2:2:0:0:
297,53,4766,1,2,2:2:0:0:
301,61,4863,1,2,2:2:0:0:
298,69,4960,1,2,2:2:0:0:
301,77,5057,2,0,P|263:79|225:74,1,67.5000000000002,2|2,2:2|2:2,0:0:0:0:
114,92,5349,6,0,P|115:59|123:25,1,67.5000000000002,2|2,2:2|2:2,0:0:0:0:
107,249,5640,2,0,P|105:281|97:315,1,67.5000000000002,2|2,2:2|2:2,0:0:0:0:
62,172,5931,2,0,P|30:170|-4:160,1,67.5000000000002,2|0,2:2|2:2,0:0:0:0:
211,72,6222,2,0,P|243:73|277:81,1,67.5000000000002,2|2,2:2|2:2,0:0:0:0:
320,256,6514,2,0,B|257:227|250:254|186:227,1,135,2|2,2:2|2:2,0:0:0:0:
230,155,6951,1,2,2:2:0:0:
277,330,7096,6,0,P|333:348|382:345,1,67.5000000000002,2|2,2:2|2:2,0:0:0:0:
427,348,7387,1,2,2:2:0:0:
427,348,7533,1,2,2:2:0:0:
427,348,7679,2,0,P|414:290|387:249,1,67.5000000000002,2|2,2:2|2:2,0:0:0:0:
368,209,7970,2,0,P|324:248|302:292,1,67.5000000000002,2|2,2:2|2:2,0:0:0:0:
302,138,8261,1,2,2:2:0:0:
302,138,8407,1,2,2:2:0:0:
396,116,8553,6,0,P|451:134|500:131,2,67.5000000000002,2|2|2,2:2|2:2|2:2,0:0:0:0:
266,44,8987,2,0,P|210:25|161:28,2,67.5000000000002,2|2|2,2:2|2:2|2:2,0:0:0:0:
302,138,9422,2,0,P|294:175|287:222,1,67.5000000000002,2|2,2:2|2:2,0:0:0:0:
241,276,9712,2,0,P|273:283|307:288,1,67.5000000000002,2|2,2:2|2:2,0:0:0:0:
132,170,10002,2,0,B|62:175|67:187|0:192,1,135,2|2,2:2|2:2,0:0:0:0:
0,192,10437,5,2,2:2:0:0:
102,82,10581,1,2,2:2:0:0:
102,82,10726,1,2,2:2:0:0:
102,82,10871,2,0,L|84:5,1,67.5000000000002,2|2,2:2|2:2,0:0:0:0:
218,135,11161,5,2,2:2:0:0:
178,250,11306,1,2,2:2:0:0:
314,139,11451,1,2,2:2:0:0:
326,144,11548,1,2,2:2:0:0:
334,133,11644,1,2,2:2:0:0:
346,138,11741,2,0,B|422:152|402:122|484:134,1,135.465755149842,2|2,2:2|2:2,0:0:0:0:
406,100,12173,5,2,2:2:0:0:
345,222,12316,2,0,P|306:223|270:203,1,76.5000000000003,2|2,2:2|2:2,0:0:0:0:
441,298,12602,2,0,P|480:297|516:317,1,76.5000000000003,2|0,2:2|2:2,0:0:0:0:
275,375,12888,2,0,B|195:395|207:351|124:373,2,153.000000000001,2|2|2,2:2|2:2|2:2,0:0:0:0:
335,310,13602,1,2,2:2:0:0:
107,71,13751,5,2,0:0:0:0:
61,273,13890,1,10,2:2:0:0:
168,192,14030,1,10,2:2:0:0:
0,152,14169,1,2,1:1:0:0:
83,171,14309,5,10,2:2:0:0:
256,72,14448,1,10,2:2:0:0:
256,72,14518,1,8,2:2:0:0:
256,72,14588,1,10,2:2:0:0:
429,171,14727,1,10,2:3:0:0:
370,216,14867,5,10,2:3:0:0:
416,99,15006,1,10,2:2:0:0:
499,195,15145,2,0,L|485:254,2,45,6|2|2,1:1|2:2|2:2,0:0:0:0:
416,99,15557,5,2,2:2:0:0:
416,99,15695,2,0,L|312:86,1,90,0|2,2:2|2:2,0:0:0:0:
482,15,16108,6,0,L|505:8,2,22.5,0|2|2,2:2|2:2|2:2,0:0:0:0:
326,87,16383,1,2,2:2:0:0:
326,87,16521,2,0,L|262:96,1,45,2|0,2:2|2:2,0:0:0:0:
176,24,16796,6,0,L|215:74,1,45,2|0,2:2|2:2,0:0:0:0:
197,186,17071,2,0,L|221:126,1,45,2|2,2:2|2:2,0:0:0:0:
281,93,17346,1,2,2:2:0:0:
281,93,17484,1,0,2:2:0:0:
125,230,17622,5,2,2:2:0:0:
110,226,17713,1,0,2:2:0:0:
100,237,17805,1,0,2:2:0:0:
84,237,17897,2,0,P|50:239|15:254,1,60,2|0,2:2|0:0,0:0:0:0:
0,320,18172,6,0,L|45:333,1,45,2|0,2:2|2:2,0:0:0:0:
69,155,18447,2,0,L|25:167,1,45,2|2,2:2|2:2,0:0:0:0:
156,303,18722,1,2,2:2:0:0:
156,303,18860,1,2,2:2:0:0:
256,232,18997,5,2,2:2:0:0:
256,232,19066,1,0,0:0:0:0:
256,232,19135,1,0,0:0:0:0:
356,303,19272,2,0,L|403:294,1,45,2|0,2:2|0:0,0:0:0:0:
256,344,19548,2,0,L|256:389,1,45,2|0,2:2|2:2,0:0:0:0:
156,303,19823,5,2,2:2:0:0:
280,152,19960,2,0,B|273:105|262:111|256:65,1,90,0|2,2:2|2:2,0:0:0:0:
256,65,20373,2,0,L|206:58,1,45,0|0,2:2|2:2,0:0:0:0:
331,22,20649,6,0,L|337:-3,2,22.5,2|0|0,2:2|0:0|0:0,0:0:0:0:
396,95,20924,1,2,2:2:0:0:
396,95,21061,1,2,2:2:0:0:
396,95,21199,2,0,L|451:90,1,45,2|0,2:2|2:2,0:0:0:0:
232,216,21474,6,0,L|187:211,2,45,2|2|2,1:2|2:2|2:2,0:0:0:0:
308,284,21887,1,2,2:2:0:0:
308,284,22025,2,0,L|359:273,1,45,2|0,2:2|2:2,0:0:0:0:
408,213,22300,1,2,2:2:0:0:
422,225,22438,2,0,L|452:232,2,22.5,0|0|2,2:2|2:2|2:2,0:0:0:0:
274,366,22713,1,0,2:2:0:0:
274,366,22850,2,0,L|211:359,1,45,2|2,2:2|2:2,0:0:0:0:
428,308,23126,6,0,B|475:317|468:302|517:313,1,90,2|2,1:2|2:2,0:0:0:0:
187,211,23538,2,0,B|140:220|147:205|98:216,1,90,2|0,1:2|2:2,0:0:0:0:
36,270,23951,2,0,L|10:266,2,22.5,2|0|0,2:2|2:2|2:2,0:0:0:0:
168,132,24227,5,2,2:2:0:0:
182,133,24318,1,0,2:2:0:0:
193,123,24410,1,0,2:2:0:0:
207,125,24502,2,0,B|256:125|247:115|295:115,1,90,2|2,1:2|2:2,0:0:0:0:
150,47,24914,5,2,2:2:0:0:
141,54,25052,2,0,L|89:46,1,45,2|0,2:2|2:2,0:0:0:0:
287,201,25327,2,0,L|281:231,2,22.5,2|0|0,2:2|2:2|2:2,0:0:0:0:
440,108,25602,1,2,2:2:0:0:
440,108,25740,1,0,2:2:0:0:
440,108,25878,2,0,L|494:98,1,45,2|0,2:2|2:2,0:0:0:0:
320,0,26153,6,0,P|307:35|305:90,1,72,2|2,1:2|2:2,0:0:0:0:
359,137,26359,1,2,2:2:0:0:
359,137,26428,2,0,P|367:181|369:216,1,72,2|2,2:2|1:2,0:0:0:0:
280,300,26703,1,8,2:2:0:0:
455,198,26841,2,0,L|533:215,1,72,8|2,2:2|2:2,0:0:0:0:
358,134,27116,5,8,2:2:0:0:
378,338,27254,1,8,2:2:0:0:
253,181,27391,1,10,2:2:0:0:
229,362,27529,5,8,2:2:0:0:
237,95,27667,1,8,2:2:0:0:
106,326,27811,2,0,L|44:253,1,90,2|2,2:2|2:2,0:0:0:0:
170,152,28081,5,2,2:2:0:0:
224,8,28216,1,2,1:2:0:0:
319,125,28351,2,0,B|359:136|359:136|403:99|403:99|442:109,1,135,2|0,2:2|0:0,0:0:0:0:
459,92,28621,2,0,L|446:157,1,45,2|0,2:2|0:0,0:0:0:0:
409,197,28756,2,0,L|418:225,3,30,2|2|2|2,2:2|2:2|2:2|2:2,0:0:0:0:
492,200,29027,1,2,2:2:0:0:
387,61,29162,1,10,2:2:0:0:
248,166,29297,1,2,2:2:0:0:
363,315,29432,6,0,L|374:226,1,90,2|2,1:2|2:2,0:0:0:0:
181,239,29702,1,2,2:2:0:0:
113,282,29838,2,0,B|218:251|183:345|286:315,1,180,2|2,1:2|2:2,0:0:0:0:
373,147,30243,2,0,P|369:95|362:58,1,90,10|2,2:2|2:2,0:0:0:0:
161,76,30513,2,0,P|152:120|149:165,1,90,2|2,2:2|2:2,0:0:0:0:
314,202,30783,5,2,1:2:0:0:
240,180,30918,1,2,2:2:0:0:
240,180,30985,1,0,0:0:0:0:
240,180,31053,1,2,2:2:0:0:
215,255,31188,1,2,1:2:0:0:
291,275,31323,5,2,2:1:0:0:
386,230,31458,1,2,2:2:0:0:
299,119,31593,1,10,2:2:0:0:
149,175,31728,1,2,2:2:0:0:
245,340,31864,1,2,2:2:0:0:
431,301,31999,1,2,2:1:0:0:
450,112,32134,1,10,2:2:0:0:
279,34,32269,1,2,1:2:0:0:
375,152,32404,5,2,1:2:0:0:
229,232,32539,2,0,L|245:341,1,90,2|2,2:2|2:2,0:0:0:0:
77,97,32810,2,0,L|57:230,1,135,2|0,1:1|0:0,0:0:0:0:
41,247,33080,1,2,2:2:0:0:
243,152,33215,2,0,L|278:141,3,30,10|2|2|2,2:2|2:2|2:2|2:2,0:0:0:0:
80,14,33485,1,2,1:2:0:0:
203,220,33620,5,10,2:2:0:0:
347,131,33755,1,10,2:2:0:0:
192,91,33891,1,8,2:2:0:0:
364,273,34026,6,0,L|456:220,1,90,2|2,1:2|2:2,0:0:0:0:
299,217,34296,1,2,2:2:0:0:
366,362,34431,1,2,1:2:0:0:
463,235,34566,2,0,L|443:102,1,135,2|0,2:2|0:0,0:0:0:0:
452,84,34837,6,0,L|397:69,1,45,10|0,2:2|0:0,0:0:0:0:
346,113,34972,2,0,L|317:120,3,30,2|2|2|2,2:2|2:2|2:2|2:2,0:0:0:0:
388,48,35242,1,2,2:2:0:0:
232,14,35377,1,10,2:2:0:0:
201,174,35512,1,2,1:2:0:0:
31,77,35647,6,0,B|67:53|67:53|110:72,1,90,2|2,1:2|2:2,0:0:0:0:
307,43,35918,1,2,2:2:0:0:
166,266,36053,2,0,L|189:88,1,180,2|2,1:2|2:2,0:0:0:0:
234,28,36458,1,10,2:2:0:0:
326,116,36593,1,2,2:2:0:0:
208,82,36728,5,10,2:2:0:0:
241,38,36819,1,0,0:0:0:0:
296,49,36909,1,0,0:0:0:0:
310,103,36999,2,0,L|287:281,1,180,2|2,1:2|2:2,0:0:0:0:
367,265,37404,1,2,1:2:0:0:
262,384,37539,2,0,P|227:357|214:315,1,90,2|2,2:1|2:2,0:0:0:0:
69,165,37809,6,0,L|74:135,3,30,10|2|2|2,2:2|2:2|2:2|2:2,0:0:0:0:
34,68,38080,1,2,2:2:0:0:
111,71,38215,1,2,1:1:0:0:
0,132,38350,1,2,2:2:0:0:
28,49,38485,5,2,1:2:0:0:
150,140,38620,1,2,1:2:0:0:
249,33,38755,2,0,L|446:91,1,180,2|2,2:2|1:2,0:0:0:0:
224,109,39161,5,10,2:2:0:0:
101,47,39296,1,10,2:2:0:0:
49,175,39431,1,2,2:1:0:0:
180,248,39566,1,10,2:2:0:0:
288,168,39701,5,10,2:2:0:0:
445,98,39836,1,10,2:2:0:0:
512,255,39971,1,10,2:2:0:0:
365,330,40107,1,10,2:2:0:0:
204,31,40243,5,6,1:1:0:0:
149,85,40641,1,0,2:2:0:0:
118,15,41039,1,2,2:2:0:0:
63,73,41437,1,0,2:2:0:0:
308,353,41835,5,2,2:2:0:0:
363,299,42234,1,2,2:2:0:0:
394,369,42632,1,2,2:2:0:0:
449,311,43030,1,2,2:2:0:0:
256,192,43428,5,2,2:2:0:0:
193,140,44225,5,2,2:2:0:0:
314,250,44490,1,2,2:2:0:0:
308,114,44756,1,2,2:2:0:0:
198,268,45021,1,2,2:2:0:0:
256,192,46083,5,2,2:2:0:0:
232,116,46349,1,2,2:2:0:0:
132,201,46481,5,0,1:1:0:0:
231,287,46614,2,0,B|286:271|286:271|328:294|328:294|383:278,1,162,4|0,1:1|2:2,0:0:0:0:
233,375,47012,2,0,B|177:359|177:359|135:382|135:382|80:366,1,162,0|0,1:1|2:2,0:0:0:0:
38,302,47411,1,2,2:2:0:0:
96,248,47676,2,0,L|78:142,1,81.0000000000001,2|0,2:2|2:2,0:0:0:0:
12,141,47942,2,0,L|30:35,1,81.0000000000001,8|0,2:2|1:1,0:0:0:0:
219,10,48207,6,0,P|285:40|324:142,1,162,0|0,1:1|2:2,0:0:0:0:
488,85,48605,2,0,P|422:115|383:217,1,162,0|0,1:1|2:2,0:0:0:0:
262,230,49004,2,0,P|257:185|242:121,1,81.0000000000001,8|0,2:2|2:2,0:0:0:0:
449,231,49269,1,0,1:1:0:0:
425,270,49358,1,0,0:0:0:0:
451,308,49446,1,0,0:0:0:0:
430,348,49535,6,0,L|235:307,1,180,6|0,1:1|2:2,0:0:0:0:
123,194,49944,2,0,B|25:175|66:270|-30:322,1,180,2|0,1:2|2:2,0:0:0:0:
353,195,50353,2,0,P|383:100|354:-5,1,180,10|0,2:2|2:2,0:0:0:0:
154,3,50762,2,0,P|124:98|153:203,1,180,2|0,1:2|1:1,0:0:0:0:
265,369,51171,6,0,B|214:238|293:304|244:160,1,202.500000000001,2|2,1:2|1:2,0:0:0:0:
266,18,51716,5,10,2:2:0:0:
251,97,51853,1,10,2:2:0:0:
325,70,51989,5,2,2:2:0:0:
194,42,52125,1,10,2:2:0:0:
146,178,52262,5,10,2:2:0:0:
356,150,52398,1,10,2:2:0:0:
421,335,52535,5,10,2:2:0:0:
78,265,52671,1,10,2:2:0:0:
252,355,52807,6,0,B|230:255|287:287|264:189,1,162,6|0,1:1|0:0,0:0:0:0:
184,156,53353,1,2,2:2:0:0:
344,325,53625,2,0,L|469:299,1,108,2|2,2:2|2:2,0:0:0:0:
169,384,54171,1,2,2:2:0:0:
356,150,54444,2,0,L|320:29,2,108,2|2|2,2:2|2:2|2:2,0:0:0:0:
116,237,55262,2,0,L|80:358,2,108,2|2|2,2:2|2:2|2:2,0:0:0:0:
64,168,55944,1,0,2:2:0:0:
212,273,56080,6,0,P|288:252|302:223,1,108,2|2,2:2|2:2,0:0:0:0:
85,340,56625,1,2,2:2:0:0:
198,66,56898,2,0,L|175:198,1,108,2|2,2:2|2:2,0:0:0:0:
128,16,57444,1,2,2:2:0:0:
362,170,57716,2,0,L|469:151,2,108,2|2|2,2:2|2:2|2:2,0:0:0:0:
133,335,58535,2,0,B|129:278|115:285|112:229,1,108,2|2,2:2|2:2,0:0:0:0:
193,238,58944,1,0,2:2:0:0:
54,327,59080,2,0,L|-3:319,1,53.9999999999999,2|0,2:2|2:2,0:0:0:0:
207,156,59353,6,0,P|259:159|308:133,1,108,2|2,2:3|2:2,0:0:0:0:
242,79,59762,1,0,2:2:0:0:
310,230,59898,2,0,L|289:283,1,53.9999999999999,2|0,2:2|2:2,0:0:0:0:
392,133,60171,2,0,L|374:70,1,53.9999999999999,2|0,2:3|0:0,0:0:0:0:
466,188,60444,2,0,L|522:178,1,53.9999999999999,2|0,2:2|2:2,0:0:0:0:
413,256,60716,1,2,2:2:0:0:
223,319,60989,6,0,P|276:317|320:347,1,108,2|2,2:3|2:2,0:0:0:0:
320,347,61398,1,0,2:2:0:0:
320,347,61535,1,2,2:2:0:0:
175,224,61807,1,2,2:3:0:0:
119,276,61944,1,0,2:2:0:0:
52,239,62080,2,0,L|-16:227,1,53.9999999999999,2|0,2:2|0:0,0:0:0:0:
219,160,62353,2,0,L|271:192,1,53.9999999999999,2|0,2:2|2:2,0:0:0:0:
38,146,62625,6,0,L|-4:37,1,108,2|2,2:3|2:2,0:0:0:0:
0,45,63035,1,0,2:2:0:0:
0,45,63171,1,2,2:2:0:0:
195,0,63444,1,2,2:3:0:0:
323,146,63716,1,2,2:2:0:0:
394,117,63853,1,0,2:2:0:0:
317,20,63989,1,2,2:2:0:0:
275,84,64125,1,0,2:2:0:0:
392,40,64262,1,2,1:2:0:0:
403,31,64535,5,2,2:2:0:0:
321,160,64671,1,0,1:1:0:0:
313,7,64807,1,10,2:2:0:0:
406,124,64944,1,8,2:2:0:0:
262,84,65080,1,2,2:2:0:0:
416,137,65216,5,8,2:2:0:0:
221,165,65353,1,14,2:2:0:0:
438,218,65489,1,10,2:2:0:0:
217,254,65625,1,10,2:2:0:0:
416,299,65762,1,10,2:2:0:0:
246,339,65898,6,0,B|168:329|184:366|105:359,1,144,2|2,1:2|2:2,0:0:0:0:
106,359,66307,1,2,1:2:0:0:
29,185,66444,2,0,L|-2:260,1,72,2|2,2:2|2:2,0:0:0:0:
289,150,66716,2,0,L|261:83,1,72,10|2,2:2|2:2,0:0:0:0:
167,27,66989,5,2,2:2:0:0:
120,185,67125,1,2,2:2:0:0:
27,47,67262,1,2,2:2:0:0:
261,83,67398,1,2,1:2:0:0:
341,23,67535,6,0,L|434:8,1,72,2|2,1:2|2:2,0:0:0:0:
471,158,67807,1,2,2:2:0:0:
387,126,67944,1,2,1:2:0:0:
222,252,68080,2,0,P|214:217|209:181,1,72,2|2,2:2|2:2,0:0:0:0:
448,240,68353,2,0,P|444:276|435:311,1,72,10|2,2:2|2:2,0:0:0:0:
268,376,68625,5,10,2:3:0:0:
303,281,68762,1,2,1:2:0:0:
367,359,68898,1,10,2:2:0:0:
181,384,69035,1,10,2:2:0:0:
64,202,69171,6,0,L|-25:187,1,72,2|2,1:2|2:2,0:0:0:0:
250,58,69444,2,0,L|329:39,1,72,2|2,2:2|1:2,0:0:0:0:
49,86,69716,1,2,2:2:0:0:
265,174,69853,1,0,2:2:0:0:
155,14,69989,2,0,B|133:94|175:77|152:155,1,144,10|2,2:2|2:2,0:0:0:0:
64,202,70398,1,2,2:2:0:0:
265,271,70535,2,0,L|245:352,1,72,2|0,2:2|1:1,0:0:0:0:
125,382,70807,6,0,L|134:299,1,72,2|2,1:2|2:2,0:0:0:0:
0,155,71080,1,2,2:2:0:0:
145,231,71216,1,2,1:2:0:0:
264,117,71353,1,10,2:2:0:0:
264,117,71489,2,0,L|351:126,1,72,8|2,2:2|2:2,0:0:0:0:
202,48,71762,5,10,2:2:0:0:
290,202,71898,1,10,2:2:0:0:
240,272,72035,1,10,2:2:0:0:
435,132,72171,2,0,L|514:119,1,72,10|0,2:3|2:2,0:0:0:0:
348,0,72444,6,0,B|328:78|359:63|337:142,1,144,2|2,1:2|2:2,0:0:0:0:
432,350,72853,2,0,L|420:270,1,72,2|2,1:2|2:2,0:0:0:0:
470,201,73125,1,2,2:2:0:0:
248,332,73262,2,0,P|174:308|184:255,1,144,10|2,2:2|2:2,0:0:0:0:
267,255,73671,1,2,2:2:0:0:
115,372,73807,2,0,L|36:359,1,72,2|2,2:2|1:2,0:0:0:0:
276,247,74080,6,0,L|355:237,1,72,2|2,1:2|2:2,0:0:0:0:
84,143,74353,1,2,2:2:0:0:
35,270,74489,2,0,P|24:226|22:188,1,72,2|2,1:2|2:2,0:0:0:0:
146,87,74762,1,2,2:2:0:0:
70,38,74898,2,0,P|137:51|204:17,1,144,10|10,2:2|2:3,0:0:0:0:
383,117,75307,5,2,1:2:0:0:
254,85,75444,1,10,2:2:0:0:
336,0,75580,1,10,2:2:0:0:
426,199,75716,2,0,L|515:182,1,72,2|2,1:2|2:2,0:0:0:0:
256,320,75989,2,0,B|179:301|191:344|113:326,1,144,2|2,2:2|2:2,0:0:0:0:
40,285,76398,1,0,2:2:0:0:
123,169,76535,2,0,P|128:205|123:240,1,72,10|2,2:2|2:2,0:0:0:0:
320,384,76807,2,0,P|354:337|433:349,1,144,2|2,2:2|2:2,0:0:0:0:
432,348,77216,1,0,1:1:0:0:
503,208,77353,5,2,1:2:0:0:
402,251,77489,1,10,2:2:0:0:
359,150,77625,1,10,2:2:0:0:
459,107,77762,1,2,1:2:0:0:
289,208,77898,1,10,2:2:0:0:
155,68,78035,1,8,2:2:0:0:
155,68,78171,2,0,L|63:90,1,72,2|2,1:2|2:2,0:0:0:0:
211,0,78444,5,10,2:2:0:0:
243,69,78535,1,8,2:2:0:0:
205,134,78625,1,8,2:2:0:0:
213,210,78716,2,0,L|194:297,1,72,10|2,2:2|2:2,0:0:0:0:
116,348,78989,6,0,P|70:304|58:177,1,180,6|2,1:1|2:2,0:0:0:0:
125,157,79398,1,2,2:2:0:0:
211,297,79535,2,0,L|192:384,1,90,2|0,2:2|0:0,0:0:0:0:
132,236,79807,2,0,L|329:194,1,180,10|2,2:2|2:2,0:0:0:0:
359,258,80216,1,2,2:2:0:0:
470,135,80353,2,0,B|489:95|489:95|466:40,1,90,2|0,1:2|0:0,0:0:0:0:
265,3,80625,6,0,L|284:181,1,180,2|0,1:2|2:2,0:0:0:0:
438,317,81035,2,0,B|456:275|456:275|437:235,1,90,2|2,1:2|2:2,0:0:0:0:
230,237,81307,1,8,2:2:0:0:
161,196,81444,2,0,B|101:263|101:263|159:332,1,180,10|2,2:2|1:2,0:0:0:0:
227,371,81853,1,2,2:2:0:0:
368,183,81989,6,0,L|388:5,1,180,2|2,1:2|2:2,0:0:0:0:
289,207,82398,2,0,P|306:249|362:262,1,90,2|2,2:2|1:2,0:0:0:0:
451,175,82670,1,0,2:2:0:0:
294,124,82807,2,0,P|216:77|124:8,1,180,10|2,2:2|2:2,0:0:0:0:
85,225,83216,1,2,2:2:0:0:
11,187,83352,2,0,P|25:135|67:117,1,90,2|0,1:2|2:2,0:0:0:0:
127,155,83625,6,0,L|104:350,1,180,2|0,1:2|2:2,0:0:0:0:
208,373,84034,1,2,1:2:0:0:
191,297,84170,1,2,2:2:0:0:
30,375,84307,5,8,2:2:0:0:
270,319,84443,1,10,2:2:0:0:
70,307,84579,1,10,2:2:0:0:
274,239,84716,5,2,1:2:0:0:
326,376,84852,1,2,2:2:0:0:
128,363,84989,1,10,2:2:0:0:
475,255,85125,1,10,2:2:0:0:
196,217,85261,6,0,B|155:114|231:143|191:37,1,180,6|2,1:1|2:2,0:0:0:0:
258,0,85670,1,2,2:2:0:0:
33,73,85807,2,0,P|79:75|127:89,1,90,2|2,2:2|2:2,0:0:0:0:
357,239,86079,2,0,L|338:93,1,135,10|0,2:2|0:0,0:0:0:0:
356,85,86352,6,0,P|410:90|444:104,1,90,2|2,2:2|2:2,0:0:0:0:
272,251,86625,2,0,P|249:201|244:165,1,90,2|0,1:2|0:0,0:0:0:0:
455,243,86898,2,0,P|428:292|311:380,1,180,2|2,1:2|2:2,0:0:0:0:
140,290,87307,1,2,1:2:0:0:
95,355,87443,1,2,2:2:0:0:
74,246,87579,5,8,2:2:0:0:
236,202,87716,1,10,2:2:0:0:
267,369,87852,1,2,2:2:0:0:
149,211,87989,6,0,L|164:107,1,90,2|2,1:2|2:2,0:0:0:0:
323,109,88261,1,2,1:2:0:0:
153,17,88397,1,0,2:2:0:0:
337,28,88533,5,2,2:2:0:0:
244,114,88670,1,2,2:2:0:0:
373,169,88806,1,2,1:2:0:0:
404,84,88942,1,0,2:2:0:0:
290,187,89079,2,0,L|314:296,1,90,10|2,2:2|2:2,0:0:0:0:
230,286,89351,5,2,2:2:0:0:
143,365,89488,1,2,2:2:0:0:
142,263,89624,5,2,1:2:0:0:
244,384,89761,1,2,2:2:0:0:
152,179,89897,5,6,1:1:0:0:
41,206,90033,1,2,2:2:0:0:
71,313,90170,1,2,2:2:0:0:
232,157,90306,6,0,L|211:34,1,90,6|2,1:2|2:2,0:0:0:0:
133,100,90579,5,10,2:2:0:0:
309,130,90715,1,10,2:2:0:0:
162,256,90851,1,10,2:2:0:0:
249,1,90988,5,2,1:2:0:0:
341,245,91124,1,2,2:2:0:0:
487,66,91261,1,10,2:2:0:0:
82,163,91397,1,10,2:2:0:0:
82,163,91533,6,0,L|277:199,1,198,6|2,1:1|2:1,0:0:0:0:
341,245,91942,1,0,2:2:0:0:
408,17,92079,2,0,B|336:32|336:32|312:78|312:78|241:94,1,198,2|10,2:1|2:2,0:0:0:0:
179,24,92488,1,2,2:2:0:0:
67,63,92624,6,0,B|37:103|37:103|50:150,1,99,2|0,2:1|2:2,0:0:0:0:
233,172,92897,2,0,B|246:219|246:219|217:260,1,99,2|0,1:1|0:0,0:0:0:0:
35,262,93170,2,0,P|126:290|164:378,1,198,2|2,1:2|2:1,0:0:0:0:
340,209,93579,2,0,P|389:204|424:171,1,99,2|2,1:2|2:1,0:0:0:0:
403,0,93851,1,8,2:2:0:0:
482,14,93988,2,0,P|390:42|353:130,1,198,10|2,2:2|1:1,0:0:0:0:
278,152,94397,1,2,2:2:0:0:
308,338,94533,6,0,B|421:302|382:384|502:341,1,198,2|2,1:2|2:1,0:0:0:0:
261,168,94942,2,0,P|265:217|263:266,1,99,2|2,2:2|1:1,0:0:0:0:
214,326,95214,1,2,2:2:0:0:
21,241,95351,2,0,L|26:42,1,198,10|2,2:2|2:1,0:0:0:0:
104,261,95760,1,2,2:2:0:0:
114,105,95896,2,0,P|161:120|171:177,1,99,2|2,1:1|2:2,0:0:0:0:
97,182,96169,5,2,1:2:0:0:
44,314,96305,1,2,2:2:0:0:
184,339,96442,1,2,2:1:0:0:
251,210,96578,2,0,L|385:235,1,99,2|2,1:2|2:1,0:0:0:0:
357,376,96851,1,8,2:2:0:0:
250,291,96987,1,10,2:2:0:0:
330,303,97123,1,8,2:2:0:0:
277,364,97260,5,2,1:2:0:0:
198,350,97396,1,2,2:2:0:0:
179,243,97533,1,10,2:2:0:0:
300,188,97669,1,10,2:2:0:0:
386,359,97805,6,0,P|471:293|487:182,1,216,6|2,1:1|2:1,0:0:0:0:
250,60,98214,1,2,2:2:0:0:
205,125,98351,2,0,B|87:161|121:61|23:31,1,216,2|10,2:1|2:2,0:0:0:0:
0,105,98760,1,0,2:2:0:0:
179,215,98896,6,0,L|295:179,1,108,2|2,2:1|2:2,0:0:0:0:
310,111,99169,2,0,L|413:143,1,108,2|0,1:1|0:0,0:0:0:0:
482,274,99442,2,0,B|364:238|398:338|300:368,1,216,2|2,1:2|2:1,0:0:0:0:
148,289,99851,1,2,1:2:0:0:
165,210,99987,1,2,2:1:0:0:
228,306,100123,1,8,2:2:0:0:
129,369,100260,1,10,2:2:0:0:
68,273,100396,1,0,2:2:0:0:
245,227,100533,6,0,L|262:118,1,108,2|0,1:1|2:2,0:0:0:0:
465,76,100808,2,0,L|497:290,1,216,2|2,1:2|2:1,0:0:0:0:
395,134,101217,1,2,2:2:0:0:
275,43,101353,1,2,1:1:0:0:
348,203,101489,1,0,2:2:0:0:
359,47,101626,1,10,2:2:0:0:
354,63,101762,1,2,2:2:0:0:
217,170,101898,5,2,1:1:0:0:
32,224,102035,1,10,2:2:0:0:
196,305,102171,1,2,2:1:0:0:
91,111,102308,1,10,2:2:0:0:
110,355,102444,2,0,B|225:294|185:386|325:382,1,216,6|2,1:1|1:2,0:0:0:0:
279,297,102853,5,2,2:2:0:0:
320,133,102989,1,10,2:2:0:0:
444,225,103126,1,10,2:2:0:0:
416,46,103262,1,10,2:2:0:0:
241,116,103398,1,10,2:2:0:0:
331,210,103535,5,10,2:2:0:0:
200,43,103671,1,10,2:2:0:0:
0,110,103808,1,10,2:2:0:0:
132,271,103944,1,10,2:2:0:0:
158,113,104080,6,0,B|164:181|194:155|202:232,1,126,6|2,1:2|2:2,0:0:0:0:
132,271,104489,1,0,2:2:0:0:
132,271,104626,2,0,L|56:258,1,62.9999999999999,2|0,2:2|2:2,0:0:0:0:
272,368,104898,6,0,P|322:339|398:338,1,126,2|2,2:3|2:2,0:0:0:0:
510,266,105308,1,0,2:2:0:0:
510,266,105444,2,0,P|509:232|496:196,1,62.9999999999999,2|0,2:2|2:2,0:0:0:0:
316,104,105717,6,0,B|251:120|267:141|202:160,1,126,2|2,2:3|2:2,0:0:0:0:
151,225,106126,1,0,2:2:0:0:
61,127,106262,2,0,B|95:133|94:140|127:147,1,62.9999999999999,2|0,2:2|2:2,0:0:0:0:
178,81,106535,1,2,2:3:0:0:
119,24,106671,1,0,2:2:0:0:
41,51,106808,1,2,2:2:0:0:
41,51,107080,5,2,2:2:0:0:
119,24,107217,1,0,2:2:0:0:
178,81,107353,2,0,P|217:90|262:78,1,62.9999999999999,2|0,2:3|0:0,0:0:0:0:
380,183,107626,2,0,P|326:171|244:182,1,126,2|2,2:2|2:2,0:0:0:0:
153,204,108035,1,0,0:0:0:0:
153,204,108171,2,0,B|169:148|162:135|178:79,2,126,2|2|2,2:3|2:2|2:2,0:0:0:0:
219,267,108853,1,0,2:2:0:0:
73,315,108989,6,0,B|139:321|129:338|194:348,1,126,2|2,2:3|2:2,0:0:0:0:
275,333,109398,1,0,2:2:0:0:
355,348,109535,2,0,L|427:334,1,62.9999999999999,2|0,2:2|0:0,0:0:0:0:
480,283,109808,5,2,2:3:0:0:
416,232,109944,1,0,2:2:0:0:
442,154,110080,1,2,2:2:0:0:
505,206,110217,5,0,2:2:0:0:
352,168,110353,1,2,2:2:0:0:
483,82,110489,1,2,2:2:0:0:
406,36,110626,6,0,L|246:66,1,144,2|2,2:3|2:2,0:0:0:0:
200,110,111035,1,0,2:2:0:0:
124,87,111171,1,2,2:2:0:0:
0,192,111444,6,0,P|35:184|87:176,1,72,2|0,2:3|0:0,0:0:0:0:
150,183,111717,1,2,2:2:0:0:
208,235,111853,1,0,2:2:0:0:
211,313,111989,1,2,2:2:0:0:
155,370,112126,1,0,2:2:0:0:
86,330,112262,6,0,P|80:294|72:259,1,72,2|0,2:3|0:0,0:0:0:0:
221,164,112535,2,0,P|212:199|207:234,1,72,2|0,2:2|2:2,0:0:0:0:
75,340,112808,6,0,P|69:304|61:269,1,72,2|0,2:2|2:2,0:0:0:0:
231,173,113080,2,0,P|223:208|218:244,1,72,2|0,2:3|0:0,0:0:0:0:
275,299,113353,1,2,2:2:0:0:
343,258,113489,1,0,0:0:0:0:
369,348,113626,1,2,2:2:0:0:
388,192,113762,1,0,2:2:0:0:
448,342,113898,6,0,P|469:281|473:253,1,72,2|0,2:3|0:0,0:0:0:0:
406,114,114171,2,0,B|395:44|473:61|460:-16,1,144,2|2,2:2|2:2,0:0:0:0:
346,18,114580,1,0,0:0:0:0:
492,157,114717,2,0,P|421:140|347:153,1,144,2|2,2:3|2:2,0:0:0:0:
287,209,115126,1,0,2:2:0:0:
260,126,115262,1,2,2:2:0:0:
203,190,115398,1,0,2:2:0:0:
118,170,115535,6,0,L|98:91,1,72,2|0,1:2|0:0,0:0:0:0:
100,100,115739,1,0,0:0:0:0:
100,100,115808,1,2,2:2:0:0:
169,49,115944,1,0,1:1:0:0:
23,22,116080,1,10,2:2:0:0:
0,170,116217,2,0,P|56:179|92:264,1,144,8|8,2:2|2:2,0:0:0:0:
166,299,116626,1,14,2:2:0:0:
88,337,116762,5,10,2:2:0:0:
242,205,116898,1,10,2:2:0:0:
402,333,117035,1,10,2:2:0:0:
471,284,117171,6,0,L|451:94,1,180,2|2,1:2|2:2,0:0:0:0:
506,3,117580,1,2,1:2:0:0:
339,88,117717,2,0,P|303:63|255:65,1,90,2|2,2:2|2:2,0:0:0:0:
174,89,117989,6,0,B|174:75|165:67|165:67|163:43|144:29|144:29|192:43|174:89,1,148.5,10|0,2:2|0:0,0:0:0:0:
236,137,118262,6,0,L|232:159,1,22.5,2|0,2:2|0:0,0:0:0:0:
193,225,118398,2,0,L|204:296,1,72,2|2,2:2|2:2,0:0:0:0:
126,308,118671,5,2,1:2:0:0:
353,361,118808,2,0,L|381:183,1,180,2|2,1:2|2:2,0:0:0:0:
450,250,119217,1,2,1:2:0:0:
283,294,119353,2,0,L|268:382,1,90,2|2,2:2|2:2,0:0:0:0:
458,174,119626,6,0,B|482:118|425:120|425:120|450:136|458:173,1,148.5,10|0,2:2|0:0,0:0:0:0:
381,184,119898,6,0,P|366:172|361:158,1,22.5,10|0,2:3|0:0,0:0:0:0:
335,53,120035,6,0,P|349:71|346:116,1,45,6|0,2:3|0:0,0:0:0:0:
291,141,120171,6,0,L|201:156,1,67.5,10|0,2:2|2:2,0:0:0:0:
122,296,120308,2,0,L|77:288,1,45,10|0,2:2|2:2,0:0:0:0:
0,276,120444,6,0,P|2:187|94:141,1,180,2|2,1:2|2:2,0:0:0:0:
165,231,120853,1,2,1:2:0:0:
205,298,120989,2,0,L|164:401,1,90,2|0,2:2|2:2,0:0:0:0:
150,154,121262,6,0,B|155:123|137:97|137:97|166:98|174:121|174:121|159:132|150:154,1,148.5,10|0,2:2|0:0,0:0:0:0:
224,181,121535,6,0,L|317:156,1,90,2|2,2:2|2:2,0:0:0:0:
340,85,121808,2,0,L|426:108,1,90,2|0,2:2|1:1,0:0:0:0:
420,356,122080,6,0,L|388:178,1,180,2|2,1:2|2:2,0:0:0:0:
260,90,122489,1,2,1:2:0:0:
407,0,122626,6,0,L|403:22,1,22.5,10|0,2:2|2:2,0:0:0:0:
182,76,122762,2,0,L|166:164,1,90,8|2,2:2|2:2,0:0:0:0:
274,208,123035,6,0,B|256:190|238:189|238:189|267:177|274:208,1,90,10|0,2:2|0:0,0:0:0:0:
90,149,123171,6,0,B|83:173|91:189|91:189|66:170|90:149,1,90,10|0,2:2|0:0,0:0:0:0:
114,337,123308,6,0,B|138:330|148:315|148:315|144:346|114:337,1,90,10|0,2:2|0:0,0:0:0:0:
149,240,123444,6,0,B|248:242|206:344|279:381,1,202.5,10|0,2:3|0:0,0:0:0:0:
341,328,123717,6,0,B|358:306|358:306|335:115,1,198,2|2,1:2|2:2,0:0:0:0:
406,371,124126,1,2,1:2:0:0:
439,218,124262,2,0,B|428:209|428:209|416:113,1,99,2|2,2:2|2:2,0:0:0:0:
330,60,124535,6,0,B|297:41|286:3|286:3|262:23|305:63|330:60,1,162,10|0,2:2|0:0,0:0:0:0:
428,40,124808,6,0,L|406:45,1,22.5,2|0,2:2|0:0,0:0:0:0:
261,119,124944,2,0,L|163:99,1,99,2|2,2:2|2:2,0:0:0:0:
201,29,125217,1,2,1:2:0:0:
89,82,125353,6,0,B|74:159|74:159|95:193|95:193|78:272,1,198,2|2,1:2|2:2,0:0:0:0:
18,320,125762,1,2,1:2:0:0:
175,382,125898,2,0,B|154:285,1,99,2|2,2:2|2:2,0:0:0:0:
424,347,126171,6,0,B|429:311|454:299|454:299|483:327|483:327|450:327|424:347,1,162,10|0,2:2|0:0,0:0:0:0:
345,345,126444,6,0,B|349:323,1,22.5,10|0,2:3|0:0,0:0:0:0:
294,271,126580,6,0,B|284:227,1,45,6|0,2:3|0:0,0:0:0:0:
343,177,126717,6,0,P|355:143|348:84,1,90,10|0,2:2|2:2,0:0:0:0:
196,44,126853,6,0,P|184:74|188:114,1,67.5,10|0,2:2|2:2,0:0:0:0:
217,185,126989,6,0,P|136:202|31:267,1,198,2|2,1:2|2:2,0:0:0:0:
260,254,127398,1,2,1:2:0:0:
135,292,127535,2,0,P|178:301|230:331,1,99,2|0,2:2|2:2,0:0:0:0:
415,196,127808,6,0,B|472:223|468:153|468:153|450:182|415:196,1,162,10|0,2:2|0:0,0:0:0:0:
343,264,128080,6,0,L|330:162,1,99,2|2,2:2|2:2,0:0:0:0:
393,118,128353,2,0,L|405:19,1,99,2|0,2:2|1:1,0:0:0:0:
329,11,128626,5,2,1:2:0:0:
146,78,128762,1,10,2:2:0:0:
261,235,128898,2,0,L|248:133,1,99,10|2,2:2|1:2,0:0:0:0:
118,1,129171,5,10,2:2:0:0:
316,90,129308,1,8,2:2:0:0:
145,157,129444,5,2,1:2:0:0:
221,7,129580,1,2,2:2:0:0:
235,23,129717,5,10,2:2:0:0:
189,86,129808,1,8,2:2:0:0:
248,136,129898,1,8,2:2:0:0:
210,205,129989,2,0,B|221:246|221:246|217:257|217:257|232:310,1,99,10|8,2:2|2:2,0:0:0:0:
368,356,130262,6,0,L|152:328,1,180,6|2,1:1|2:2,0:0:0:0:
64,372,130671,1,2,2:2:0:0:
0,320,130808,2,0,L|16:220,1,90,2|0,2:2|2:2,0:0:0:0:
116,92,131080,2,0,L|88:4,1,90,10|0,2:2|2:2,0:0:0:0:
100,188,131353,2,0,L|224:168,1,90,2|2,2:2|2:2,0:0:0:0:
330,255,131626,2,0,L|226:275,1,90,2|0,1:2|0:0,0:0:0:0:
316,376,131898,6,0,L|524:348,1,180,2|0,1:2|2:2,0:0:0:0:
512,268,132308,1,2,1:2:0:0:
388,144,132444,1,2,2:2:0:0:
380,256,132580,1,8,2:2:0:0:
512,144,132717,2,0,L|464:20,1,90,10|0,2:2|2:2,0:0:0:0:
240,248,132989,2,0,L|288:372,1,90,2|2,1:2|2:2,0:0:0:0:
312,168,133262,6,0,L|104:136,1,180,2|2,1:2|2:2,0:0:0:0:
0,232,133671,2,0,L|112:212,1,90,2|2,2:2|2:2,0:0:0:0:
156,264,133943,1,0,2:2:0:0:
240,76,134080,2,0,L|220:-12,1,90,10|0,2:2|2:2,0:0:0:0:
157,108,134352,1,2,2:2:0:0:
241,296,134489,2,0,L|331:285,1,90,2|2,2:2|1:2,0:0:0:0:
408,308,134762,5,0,2:2:0:0:
512,132,134898,2,0,P|498:88|478:40,1,90,2|0,1:2|0:0,0:0:0:0:
392,48,135171,2,0,P|375:90|362:133,1,90,0|2,2:2|2:2,0:0:0:0:
284,184,135443,1,2,2:2:0:0:
324,300,135580,1,8,2:2:0:0:
184,380,135716,5,10,2:2:0:0:
28,340,135852,2,0,P|48:228|72:132,1,180,10|2,2:2|2:2,0:0:0:0:
132,96,136262,1,10,2:2:0:0:
0,0,136398,1,10,2:2:0:0:
160,188,136534,6,0,L|340:148,1,180,6|2,1:1|2:2,0:0:0:0:
408,204,136943,1,2,2:2:0:0:
512,92,137080,2,0,L|512:2,1,90,2|2,2:2|2:2,0:0:0:0:
328,160,137352,2,0,L|324:276,1,90,10|0,2:2|0:0,0:0:0:0:
484,328,137625,2,0,L|368:324,1,90,2|2,2:2|2:2,0:0:0:0:
280,64,137898,2,0,L|396:60,1,90,2|0,1:2|2:2,0:0:0:0:
200,324,138171,6,0,L|180:140,1,180,2|2,1:2|2:2,0:0:0:0:
96,280,138580,2,0,P|104:364|112:388,1,90,2|2,1:2|2:2,0:0:0:0:
292,240,138852,1,8,2:2:0:0:
280,140,138989,2,0,P|275:95|264:52,1,90,10|2,2:2|2:2,0:0:0:0:
8,108,139262,2,0,P|60:124|104:124,1,90,2|2,1:2|2:2,0:0:0:0:
204,296,139531,6,0,L|176:396,1,90,2|0,1:2|0:0,0:0:0:0:
381,228,139803,2,0,L|276:242,1,90,2|2,2:2|2:2,0:0:0:0:
140,216,140076,1,2,1:2:0:0:
24,32,140349,2,0,L|113:20,1,90,10|2,2:2|2:2,0:0:0:0:
240,4,140621,2,0,L|216:100,1,90,2|2,2:2|2:2,0:0:0:0:
272,380,140894,2,0,L|296:284,1,90,2|2,1:2|2:2,0:0:0:0:
336,148,141167,6,0,L|176:236,1,180,6|2,1:1|2:2,0:0:0:0:
178,235,141576,2,0,L|196:328,1,90,6|2,1:2|2:2,0:0:0:0:
412,352,141849,1,10,2:2:0:0:
336,148,141985,1,10,2:2:0:0:
296,40,142121,2,0,L|400:25,1,90,10|2,2:2|1:2,0:0:0:0:
482,120,142394,1,2,2:2:0:0:
474,17,142531,5,10,2:2:0:0:
408,196,142667,1,10,2:2:0:0:
432,300,142803,2,0,B|358:285|358:285|322:257|322:257|242:241,1,198,6|2,1:1|2:1,0:0:0:0:
40,320,143212,1,0,2:2:0:0:
124,384,143349,2,0,L|140:286,1,99,2|2,2:1|2:2,0:0:0:0:
48,64,143621,2,0,L|72:168,1,99,10|2,2:2|2:2,0:0:0:0:
0,220,143894,6,0,P|46:204|95:193,1,99,2|2,2:1|2:2,0:0:0:0:
272,264,144167,2,0,L|256:372,1,99,2|2,1:1|2:2,0:0:0:0:
500,184,144440,2,0,P|412:188|376:88,1,198,2|2,1:2|2:1,0:0:0:0:
484,8,144849,2,0,P|472:56|460:124,1,99,2|2,1:2|2:1,0:0:0:0:
292,176,145121,1,10,2:2:0:0:
88,152,145258,2,0,P|76:92|60:40,1,99,10|2,2:2|2:2,0:0:0:0:
228,4,145531,2,0,P|202:42|144:48,1,99,2|2,1:1|2:2,0:0:0:0:
8,200,145806,6,0,P|72:180|172:272,1,198,2|2,1:2|2:1,0:0:0:0:
248,280,146215,1,2,2:2:0:0:
52,380,146351,2,0,B|48:332|48:332|68:284,1,99,2|2,1:1|2:2,0:0:0:0:
252,104,146624,2,0,B|256:152|256:152|236:200,1,99,10|2,2:2|2:2,0:0:0:0:
268,360,146896,1,2,2:1:0:0:
160,312,147033,1,2,2:2:0:0:
276,368,147169,2,0,L|388:356,1,99,2|2,1:1|2:2,0:0:0:0:
508,176,147442,6,0,P|456:220|412:228,1,99,2|2,1:2|2:2,0:0:0:0:
208,132,147715,2,0,P|256:168|304:180,1,99,2|2,2:1|1:2,0:0:0:0:
440,4,147987,2,0,P|436:68|416:128,1,99,2|8,2:1|2:2,0:0:0:0:
320,76,148260,1,10,2:2:0:0:
184,8,148396,2,0,L|76:0,1,99,8|2,2:2|1:2,0:0:0:0:
0,84,148669,5,2,2:2:0:0:
196,120,148806,1,10,2:2:0:0:
124,304,148942,1,10,2:2:0:0:
32,280,149078,2,0,L|260:252,1,216,6|2,1:1|2:1,0:0:0:0:
192,368,149487,1,2,2:2:0:0:
400,384,149624,2,0,L|356:260,1,108,2|0,2:1|2:2,0:0:0:0:
416,88,149896,2,0,P|400:168|392:216,1,108,10|0,2:2|0:0,0:0:0:0:
468,280,150169,2,0,L|496:168,1,108,2|2,2:1|2:2,0:0:0:0:
264,232,150442,2,0,L|300:352,1,108,2|0,1:1|2:2,0:0:0:0:
312,140,150715,6,0,L|64:116,1,216,2|2,1:2|2:1,0:0:0:0:
28,196,151124,1,2,1:2:0:0:
112,328,151260,1,2,2:1:0:0:
256,268,151396,1,8,2:2:0:0:
420,328,151533,2,0,L|448:216,1,108,10|0,2:2|0:0,0:0:0:0:
294,33,151806,2,0,L|314:157,1,108,2|0,1:1|2:2,0:0:0:0:
152,192,152080,6,0,L|372:156,1,216,2|2,1:2|2:1,0:0:0:0:
408,48,152489,1,2,2:2:0:0:
512,192,152625,2,0,L|484:308,1,108,2|0,1:1|2:2,0:0:0:0:
368,368,152898,2,0,L|396:244,1,108,10|2,2:2|2:2,0:0:0:0:
113,185,153170,2,0,P|167:176|220:168,1,108,2|10,1:1|2:2,0:0:0:0:
280,32,153443,2,0,P|306:78|294:129,1,108,2|10,2:1|2:2,0:0:0:0:
82,342,153716,6,0,B|38:361|19:319|19:319|98:293|104:369|192:345,1,252,6|2,1:1|1:2,0:0:0:0:
422,246,154125,1,2,2:2:0:0:
422,246,154261,2,0,B|327:218|327:218|278:241,1,126,10|10,2:2|2:2,0:0:0:0:
212,205,154534,5,10,2:2:0:0:
373,323,154670,1,10,2:2:0:0:
212,205,154807,1,10,2:2:0:0:
318,102,154943,1,10,2:2:0:0:
212,205,155080,1,10,2:2:0:0:
448,149,155216,1,10,2:2:0:0:
241,0,155352,5,6,1:1:0:0:
171,35,155624,1,2,2:2:0:0:
153,20,155715,1,0,0:0:0:0:
138,38,155806,1,0,0:0:0:0:
122,34,155897,2,0,L|67:55,1,45,2|2,2:2|2:2,0:0:0:0:
47,116,156170,1,2,2:2:0:0:
170,179,156306,1,2,2:2:0:0:
19,366,156442,5,2,2:2:0:0:
19,366,156715,1,2,2:1:0:0:
85,327,156988,1,2,2:2:0:0:
103,342,157079,1,0,0:0:0:0:
118,324,157170,1,0,0:0:0:0:
134,328,157261,2,0,L|189:307,1,45,2|2,2:2|2:2,0:0:0:0:
251,338,157533,1,2,2:2:0:0:
318,216,157670,1,2,2:2:0:0:
185,190,157806,2,0,L|178:235,1,45,2|0,2:2|2:2,0:0:0:0:
252,258,158079,5,6,1:1:0:0:
90,309,158215,1,2,2:2:0:0:
38,146,158351,1,2,2:2:0:0:
200,96,158488,1,2,2:2:0:0:
151,160,158624,5,2,2:2:0:0:
171,177,158760,1,2,2:2:0:0:
111,231,158897,6,0,B|120:262|120:262|98:329,1,90,6|2,1:1|2:2,0:0:0:0:
165,365,159169,1,2,2:2:0:0:
309,200,159306,1,2,2:2:0:0:
115,93,159442,5,2,2:2:0:0:
121,70,159579,1,2,2:2:0:0:
186,26,159715,6,0,L|296:51,1,90,6|2,1:1|2:2,0:0:0:0:
330,97,159988,2,0,L|417:77,1,90,2|2,2:2|2:2,0:0:0:0:
346,15,160260,1,2,2:2:0:0:
255,123,160397,1,2,1:2:0:0:
384,200,160533,1,2,1:2:0:0:
473,81,160669,5,10,2:2:0:0:
346,15,160806,1,10,2:2:0:0:
255,123,160942,1,10,2:2:0:0:
277,224,161079,1,10,2:2:0:0:
147,295,161215,1,10,2:2:0:0:
25,127,161351,5,2,1:2:0:0:
25,127,161488,1,2,2:2:0:0:
54,55,161760,5,2,2:2:0:0:
54,55,161897,1,2,2:2:0:0:
115,102,162169,6,0,L|121:136,3,22.5,2|0|0|0,2:2|0:0|2:2|0:0,0:0:0:0:
185,74,162442,6,0,L|188:51,3,22.5,2|0|0|0,2:2|0:0|2:2|0:0,0:0:0:0:
252,113,162715,5,2,2:2:0:0:
277,106,162783,1,0,0:0:0:0:
299,100,162851,1,0,2:2:0:0:
322,91,162919,1,0,0:0:0:0:
342,60,162988,6,0,L|390:75,1,36,6|2,2:2|2:2,0:0:0:0:
454,67,163260,2,0,L|441:151,1,72,2|2,2:2|2:2,0:0:0:0:
333,227,163806,2,0,L|338:262,2,36,2|2|2,2:2|2:2|2:2,0:0:0:0:
367,156,164351,1,2,2:2:0:0:
465,312,164624,5,2,2:2:0:0:
465,312,164715,1,2,2:2:0:0:
465,312,164806,1,2,2:2:0:0:
465,312,164897,2,0,L|416:328,1,36,2|2,2:2|2:2,0:0:0:0:
376,374,165169,2,0,L|333:366,1,36,2|2,2:2|2:2,0:0:0:0:
255,257,165442,6,0,L|259:221,2,36.132,2|2|2,2:2|2:2|2:2,0:0:0:0:
171,367,165987,5,2,2:2:0:0:
171,367,166078,1,2,2:2:0:0:
171,367,166169,1,2,2:2:0:0:
171,367,166260,2,0,L|136:374,1,36,2|2,2:2|2:2,0:0:0:0:
53,297,166533,2,0,L|64:263,1,36,2|2,2:2|2:2,0:0:0:0:
172,229,166805,2,0,L|195:255,1,36,2|2,2:2|2:2,0:0:0:0:
151,374,167078,2,0,L|116:372,1,36,2|2,2:2|2:2,0:0:0:0:
55,276,167351,5,2,2:2:0:0:
55,276,167442,1,0,2:2:0:0:
55,276,167533,1,0,2:2:0:0:
55,276,167624,2,0,L|75:246,1,36,2|2,2:2|2:2,0:0:0:0:
188,241,167896,2,0,L|204:273,1,36,2|2,2:2|2:2,0:0:0:0:
353,315,168169,6,0,L|345:364,2,36,2|2|2,2:2|2:2|2:2,0:0:0:0:
298,261,168578,1,2,2:2:0:0:
423,183,168714,5,2,2:2:0:0:
423,183,168986,2,0,L|426:206,2,24,2|2|2,2:2|2:2|2:2,0:0:0:0:
478,129,169259,1,2,2:2:0:0:
334,40,169532,6,0,L|283:54,1,36,2|2,2:2|2:2,0:0:0:0:
250,110,169804,1,2,2:2:0:0:
250,110,170077,1,2,2:2:0:0:
186,65,170350,5,2,2:2:0:0:
186,65,170441,1,2,2:2:0:0:
186,65,170532,1,2,2:2:0:0:
186,65,170623,2,0,L|135:51,1,36,2|2,2:2|2:2,0:0:0:0:
39,225,170895,2,0,L|73:215,1,36,2|2,2:2|2:2,0:0:0:0:
109,148,171168,6,0,L|99:113,2,36.132,2|2|2,2:2|2:2|2:2,0:0:0:0:
153,311,171713,5,2,2:2:0:0:
153,311,171804,1,2,2:2:0:0:
153,311,171895,1,2,2:2:0:0:
153,311,171986,1,2,2:2:0:0:
228,320,172122,1,2,2:2:0:0:
307,331,172259,1,2,2:2:0:0:
381,344,172395,1,2,2:2:0:0:
397,330,172531,5,2,2:2:0:0:
275,258,172668,1,2,2:2:0:0:
302,351,172804,1,2,2:2:0:0:
403,252,172941,1,2,2:2:0:0:
337,207,173077,6,0,L|330:163,3,24,2|0|0|2,2:2|2:2|2:2|2:2,0:0:0:0:
375,120,173486,5,2,2:2:0:0:
495,163,173622,1,2,2:2:0:0:
424,259,173759,1,2,2:2:0:0:
421,182,173895,5,2,2:2:0:0:
445,97,174031,1,2,2:2:0:0:
298,161,174168,1,2,2:2:0:0:
324,31,174304,1,2,2:2:0:0:
341,43,174440,6,0,L|358:114,1,72,6|2,2:2|2:2,0:0:0:0:
375,137,174803,1,2,2:2:0:0:
352,156,174894,1,2,2:2:0:0:
372,177,174985,1,2,2:2:0:0:
144,109,175258,1,2,2:2:0:0:
148,187,175394,1,2,2:2:0:0:
172,111,175530,1,2,2:2:0:0:
75,223,175803,5,2,2:2:0:0:
162,201,175940,1,2,2:2:0:0:
250,182,176076,5,2,2:2:0:0:
263,187,176167,1,2,2:2:0:0:
277,184,176258,1,2,2:2:0:0:
290,190,176349,2,0,P|309:186|329:183,1,36,2|2,2:2|2:2,0:0:0:0:
368,256,176621,2,0,P|386:259|408:268,1,36,2|2,2:2|2:2,0:0:0:0:
207,317,176894,2,0,P|189:324|171:335,1,36,2|2,2:2|2:2,0:0:0:0:
285,383,177167,5,2,2:2:0:0:
101,299,177439,1,2,2:2:0:0:
74,313,177530,1,2,2:2:0:0:
44,307,177621,1,2,2:2:0:0:
24,284,177712,1,2,2:2:0:0:
77,221,177848,1,2,2:2:0:0:
77,221,178121,5,2,2:2:0:0:
154,237,178257,1,2,2:2:0:0:
229,212,178394,1,2,2:2:0:0:
152,228,178530,1,2,2:2:0:0:
75,206,178667,1,2,2:2:0:0:
149,115,178803,5,2,2:2:0:0:
186,103,178894,1,0,2:2:0:0:
213,120,178985,1,0,2:2:0:0:
213,134,179076,2,0,L|219:95,1,36,2|2,2:2|2:2,0:0:0:0:
107,51,179348,5,2,2:2:0:0:
47,119,179485,1,2,2:2:0:0:
99,38,179621,2,0,L|144:44,1,36,2|2,2:2|2:2,0:0:0:0:
223,127,179894,2,0,L|258:121,1,36,2|2,2:2|2:2,0:0:0:0:
352,62,180168,1,2,2:1:0:0:
352,62,180304,1,2,2:2:0:0:
456,88,180440,5,2,2:2:0:0:
478,105,180531,1,0,2:2:0:0:
492,130,180622,1,0,2:2:0:0:
497,158,180713,2,0,L|484:204,1,36,2|2,2:2|2:2,0:0:0:0:
420,237,180986,1,2,2:2:0:0:
411,279,181122,1,2,2:2:0:0:
439,311,181258,1,2,2:2:0:0:
446,319,181531,6,0,L|412:328,1,36,2|2,2:1|2:2,0:0:0:0:
277,384,181804,1,2,2:2:0:0:
279,355,181895,1,0,2:2:0:0:
295,331,181986,1,0,2:2:0:0:
319,316,182077,2,0,P|314:291|305:270,1,36,2|2,2:2|2:2,0:0:0:0:
219,275,182349,2,0,P|214:250|205:229,1,36,2|2,2:2|2:2,0:0:0:0:
141,371,182622,2,0,P|146:346|155:325,1,36,2|2,2:2|2:2,0:0:0:0:
0,320,182895,5,2,2:1:0:0:
4,324,183167,1,2,2:2:0:0:
32,328,183258,1,2,2:2:0:0:
56,312,183349,1,2,2:2:0:0:
67,285,183440,1,2,2:2:0:0:
45,200,183576,6,0,P|84:207|127:211,1,72,2|2,2:2|2:2,0:0:0:0:
95,129,183985,5,2,2:2:0:0:
95,129,184122,1,2,2:2:0:0:
207,141,184258,1,2,2:2:0:0:
161,64,184395,1,2,2:2:0:0:
281,78,184531,2,0,L|326:70,1,36,2|2,2:1|2:2,0:0:0:0:
433,25,184804,5,2,2:2:0:0:
411,44,184895,1,2,2:2:0:0:
404,71,184985,1,2,2:2:0:0:
411,98,185076,2,0,P|420:114|424:132,1,36,2|2,2:2|2:2,0:0:0:0:
496,192,185349,2,0,P|491:209|481:225,1,36,2|2,2:2|2:2,0:0:0:0:
327,328,185622,2,0,P|332:311|342:295,1,36,2|2,2:2|2:2,0:0:0:0:
397,227,185895,1,2,2:2:0:0:
429,302,186031,1,2,2:2:0:0:
252,274,186167,6,0,L|172:290,2,72,6|0|0,1:1|2:2|2:2,0:0:0:0:
352,155,186985,2,0,L|369:79,2,72,2|2|0,2:2|2:2|2:2,0:0:0:0:
411,212,187804,5,2,2:2:0:0:
273,133,188076,2,0,L|239:144,2,24,2|0|0,2:2|2:2|2:2,0:0:0:0:
367,84,188349,2,0,L|401:95,2,24,2|0|0,2:2|2:2|2:2,0:0:0:0:
300,12,188622,1,2,2:2:0:0:
160,116,188895,2,0,L|165:144,2,24,2|0|0,2:2|2:2|2:2,0:0:0:0:
85,97,189167,1,2,2:2:0:0:
190,258,189440,6,0,L|267:238,2,72,2|0|0,2:2|2:2|2:2,0:0:0:0:
69,384,190258,2,0,L|-8:364,2,72,2|2|0,2:2|2:2|2:2,0:0:0:0:
95,372,190895,1,0,2:2:0:0:
121,361,190985,1,0,2:2:0:0:
147,350,191076,6,0,P|191:350|219:356,1,72,2|0,2:2|2:2,0:0:0:0:
200,246,191485,2,0,P|240:265|262:283,1,72,2|0,2:2|2:2,0:0:0:0:
261,282,191895,2,0,L|298:268,1,36,2|0,2:2|0:0,0:0:0:0:
365,324,192167,2,0,L|357:365,1,36,0|0,2:2|2:2,0:0:0:0:
486,338,192440,2,0,L|457:314,1,36,0|0,2:2|2:2,0:0:0:0:
391,226,192713,5,2,2:2:0:0:
178,291,192985,1,0,2:2:0:0:
176,207,193122,1,0,2:2:0:0:
248,248,193258,2,0,L|260:281,1,36,2|0,2:2|2:2,0:0:0:0:
100,251,193531,2,0,L|88:218,1,36,2|0,2:2|0:0,0:0:0:0:
300,182,193804,1,0,2:2:0:0:
300,182,193940,1,0,2:2:0:0:
300,182,194076,2,0,L|306:138,1,36,0|0,2:2|2:2,0:0:0:0:
192,48,194349,5,2,2:2:0:0:
189,54,194622,1,2,2:2:0:0:
271,39,194758,1,0,2:2:0:0:
347,75,194895,2,0,P|372:84|396:85,1,36,2|0,2:2|0:0,0:0:0:0:
189,54,195167,2,0,P|164:45|140:44,1,36,2|0,2:2|2:2,0:0:0:0:
41,89,195440,1,0,2:2:0:0:
23,112,195531,1,0,2:2:0:0:
19,140,195622,1,0,2:2:0:0:
26,167,195713,2,0,L|32:209,1,36,2|0,2:2|0:0,0:0:0:0:
114,277,195985,5,2,2:2:0:0:
34,348,196258,1,0,2:2:0:0:
34,348,196395,1,0,2:2:0:0:
34,348,196531,2,0,L|-5:338,1,36,0|0,2:2|0:0,0:0:0:0:
120,269,196804,2,0,L|159:259,1,36,2|0,2:2|0:0,0:0:0:0:
262,328,197076,2,0,L|255:363,1,36,2|0,2:2|2:2,0:0:0:0:
352,304,197349,2,0,L|347:280,2,24,0|0|0,2:2|0:0|0:0,0:0:0:0:
430,327,197622,5,2,1:2:0:0:
450,320,198031,1,2,1:2:0:0:
336,384,198167,1,8,2:2:0:0:
401,219,198304,2,0,L|387:176,1,36,8|2,2:2|2:2,0:0:0:0:
319,138,198576,5,10,2:2:0:0:
491,231,198713,1,10,2:2:0:0:
416,52,198849,1,10,2:2:0:0:
260,206,198985,1,14,2:2:0:0:
185,27,199122,1,10,2:2:0:0:
403,175,199258,6,0,L|356:372,1,180,6|2,1:2|2:2,0:0:0:0:
293,384,199667,1,0,2:2:0:0:
155,186,199804,2,0,L|53:228,1,90,2|0,2:2|2:2,0:0:0:0:
61,102,200076,6,0,B|49:58|49:58|66:17,1,90,10|0,2:2|2:2,0:0:0:0:
267,101,200349,2,0,B|279:145|279:145|261:185,1,90,2|0,2:2|2:2,0:0:0:0:
167,94,200622,2,0,L|178:4,1,90,2|2,1:2|2:2,0:0:0:0:
426,81,200895,6,0,P|456:131|468:270,1,180,2|2,1:2|2:2,0:0:0:0:
296,345,201304,2,0,P|276:306|274:261,1,90,0|2,1:1|2:2,0:0:0:0:
395,298,201576,6,0,P|376:287|354:285,1,45,8|0,2:2|0:0,0:0:0:0:
237,114,201713,2,0,P|194:108|154:128,1,90,10|0,2:2|0:0,0:0:0:0:
292,184,201985,1,2,1:2:0:0:
312,21,202122,1,2,2:2:0:0:
149,1,202258,1,2,2:2:0:0:
322,105,202395,1,8,2:2:0:0:
206,191,202531,6,0,L|182:369,1,180,2|2,1:2|2:2,0:0:0:0:
106,382,202940,1,0,2:2:0:0:
277,273,203076,2,0,B|320:261|320:261|359:285,1,90,2|0,1:2|2:2,0:0:0:0:
126,161,203349,6,0,P|141:75|220:40,1,180,10|2,2:2|2:2,0:0:0:0:
249,111,203758,1,0,0:0:0:0:
390,184,203895,1,2,1:2:0:0:
431,36,204031,1,2,2:2:0:0:
340,117,204167,5,2,1:2:0:0:
326,234,204304,1,0,0:0:0:0:
447,245,204440,1,2,2:2:0:0:
453,140,204576,1,2,1:2:0:0:
249,194,204713,1,2,2:2:0:0:
407,315,204849,6,0,L|338:301,1,45,8|0,2:2|0:0,0:0:0:0:
175,268,204985,2,0,L|151:87,1,180,10|2,2:2|1:2,0:0:0:0:
139,14,205395,1,2,2:2:0:0:
39,168,205531,6,0,L|83:176,1,45,10|0,2:2|0:0,0:0:0:0:
214,40,205667,2,0,L|258:48,1,45,10|0,2:2|0:0,0:0:0:0:
297,117,205804,6,0,L|473:81,1,180,2|2,1:2|2:2,0:0:0:0:
477,156,206213,5,0,0:0:0:0:
356,301,206349,5,2,2:2:0:0:
483,375,206485,5,0,2:2:0:0:
460,232,206622,6,0,P|438:288|431:321,1,90,10|0,2:2|0:0,0:0:0:0:
285,343,206758,6,0,P|281:325|274:307,1,33.7500000000001,0|0,2:2|0:0,0:0:0:0:
371,144,206895,6,0,P|374:177|382:210,1,67.5,2|0,2:2|0:0,0:0:0:0:
211,352,207031,6,0,P|199:328|169:295,1,56.2500000000001,2|0,2:2|0:0,0:0:0:0:
265,116,207167,6,0,P|277:134|291:152,1,45,2|0,1:2|0:0,0:0:0:0:
140,374,207304,6,0,P|101:352|52:333,1,78.7500000000001,2|0,2:2|0:0,0:0:0:0:
174,139,207440,6,0,P|184:144|194:147,3,22.5,2|0|0|0,1:2|0:0|2:2|0:0,0:0:0:0:
201,68,207713,5,2,2:2:0:0:
41,0,207849,1,0,1:1:0:0:
0,168,207985,1,2,2:2:0:0:
160,236,208122,6,0,B|178:254|182:281|182:281|195:263|179:245,1,90,8|0,2:2|0:0,0:0:0:0:
361,130,208258,2,0,L|350:41,1,90,10|2,2:2|1:2,0:0:0:0:
441,141,208667,6,0,P|465:179|462:274,1,112.5,10|2,2:2|2:2,0:0:0:0:
293,330,208940,6,0,P|269:292|272:197,1,112.5,8|2,2:2|1:2,0:0:0:0:
482,372,209213,5,2,2:2:0:0:
411,331,209349,5,2,2:2:0:0:
315,338,209485,5,0,2:2:0:0:
195,380,209622,5,2,1:2:0:0:
48,311,209758,5,0,2:2:0:0:
0,115,209895,6,0,P|100:74|168:54,1,135,10|0,2:2|2:2,0:0:0:0:
239,310,210167,2,0,P|176:287|114:260,1,135,2|0,2:2|0:0,0:0:0:0:
232,0,210440,2,0,P|264:91|286:149,1,135,2|2,1:2|2:2,0:0:0:0:
284,206,210713,5,2,1:2:0:0:
436,285,210849,1,0,2:2:0:0:
512,135,210985,1,2,2:2:0:0:
360,53,211122,5,2,1:2:0:0:
211,172,211258,1,2,2:2:0:0:
356,132,211395,1,8,2:2:0:0:
149,19,211531,5,10,2:2:0:0:
18,179,211667,1,0,2:2:0:0:
216,248,211804,1,2,1:2:0:0:
260,233,211895,1,2,2:2:0:0:
304,218,211985,1,2,2:2:0:0:
348,203,212076,5,10,2:2:0:0:
131,142,212213,1,10,2:2:0:0:
245,357,212349,1,6,1:1:0:0:
249,351,212758,1,2,2:2:0:0:
249,343,213167,1,2,2:2:0:0:
245,336,213576,1,2,2:2:0:0:
244,329,213985,1,2,2:2:0:0:
252,319,214395,5,2,2:2:0:0:
260,278,214804,5,2,2:2:0:0:
219,214,215213,5,2,2:2:0:0:
256,113,215622,5,2,2:2:0:0:
255,34,217258,5,6,1:1:0:0:
183,22,217395,2,0,L|157:60,1,45,10|0,2:2|0:0,0:0:0:0:
83,78,217531,2,0,L|107:210,1,135,10|6,2:2|1:2,0:0:0:0:
329,362,217804,6,0,L|355:324,1,45,10|0,2:2|0:0,0:0:0:0:
429,306,217940,2,0,L|404:173,1,135,10|6,2:2|1:1,0:0:0:0:
259,171,218213,6,0,L|250:215,1,45,10|0,2:2|0:0,0:0:0:0:
331,206,218349,5,10,2:3:0:0:
181,178,218485,1,10,1:3:0:0:
126,285,218622,5,10,2:2:0:0:
386,99,218758,1,10,2:2:0:0:
494,236,218895,6,0,B|399:221|399:221|366:196|366:196|243:180,1,234,6|2,1:1|2:2,0:0:0:0:
204,254,219304,1,2,2:2:0:0:
10,240,219440,2,0,P|16:149|26:99,1,117,2|2,2:2|2:2,0:0:0:0:
122,29,219713,2,0,P|179:89|175:189,1,175.5,10|0,2:2|0:0,0:0:0:0:
180,177,219985,1,2,2:2:0:0:
59,368,220122,2,0,P|90:294|143:260,1,117,0|2,2:2|1:2,0:0:0:0:
287,237,220395,1,2,2:2:0:0:
508,376,220531,6,0,L|261:338,1,234,2|2,1:2|2:2,0:0:0:0:
196,376,220940,1,2,1:2:0:0:
28,328,221076,1,2,2:2:0:0:
136,188,221213,1,8,2:2:0:0:
303,240,221349,1,10,2:2:0:0:
248,312,221485,5,2,2:2:0:0:
216,196,221622,1,2,1:2:0:0:
88,232,221758,1,0,2:2:0:0:
120,356,221892,2,0,B|208:328|208:328|236:284|236:284|348:252,1,234,2|2,1:2|2:2,0:0:0:0:
448,220,222301,2,0,P|432:280|424:336,1,117,2|2,2:2|1:2,0:0:0:0:
496,376,222573,1,0,2:2:0:0:
400,140,222710,6,0,P|320:128|252:128,1,117,10|2,2:2|2:2,0:0:0:0:
80,172,222982,1,2,2:2:0:0:
195,185,223119,1,0,2:2:0:0:
160,64,223255,2,0,P|79:59|11:64,1,117,2|0,1:2|2:2,0:0:0:0:
320,248,223528,2,0,P|401:253|469:248,1,117,2|2,1:2|2:2,0:0:0:0:
208,196,223801,1,2,2:2:0:0:
120,360,223937,1,2,1:2:0:0:
224,336,224073,1,2,2:2:0:0:
140,280,224210,1,10,2:2:0:0:
72,368,224346,5,10,2:2:0:0:
28,248,224482,1,10,2:2:0:0:
152,204,224619,1,2,2:2:0:0:
200,324,224755,1,2,2:2:0:0:
16,244,224892,5,10,2:2:0:0:
56,160,225028,1,8,2:2:0:0:
212,332,225164,6,0,P|270:324|327:312,1,117,6|2,1:1|2:2,0:0:0:0:
500,232,225437,2,0,P|442:240|385:252,1,117,2|0,2:2|2:2,0:0:0:0:
296,228,225710,2,0,P|312:156|324:108,1,117,2|0,2:2|2:2,0:0:0:0:
412,336,225982,2,0,P|360:380|308:360,1,117,10|2,2:2|2:2,0:0:0:0:
76,244,226255,1,2,2:2:0:0:
54,359,226392,1,2,2:2:0:0:
172,140,226528,2,0,P|164:82|150:25,1,117,2|0,1:2|2:2,0:0:0:0:
0,152,226801,6,0,P|114:145|191:229,1,234,2|2,1:2|2:2,0:0:0:0:
300,204,227210,2,0,P|278:258|263:315,1,117,2|2,1:2|2:2,0:0:0:0:
196,364,227482,1,10,2:2:0:0:
496,376,227619,2,0,L|472:248,1,117,10|2,2:2|2:2,0:0:0:0:
448,32,227892,2,0,L|424:160,1,117,2|2,1:2|2:2,0:0:0:0:
190,227,228164,6,0,B|84:176|84:176|0:268,1,234,2|2,1:2|2:2,0:0:0:0:
80,304,228573,1,2,2:2:0:0:
212,140,228709,2,0,L|184:16,1,117,2|2,1:2|2:2,0:0:0:0:
0,56,228982,2,0,L|144:76,1,117,10|2,2:2|2:2,0:0:0:0:
208,148,229254,1,2,2:2:0:0:
396,40,229391,1,2,2:2:0:0:
512,54,229527,1,2,1:2:0:0:
288,4,229664,5,2,2:2:0:0:
428,144,229800,2,0,L|172:168,1,234,6|2,1:1|2:2,0:0:0:0:
124,348,230209,2,0,L|8:336,1,117,6|2,1:2|2:2,0:0:0:0:
0,252,230482,1,10,2:2:0:0:
224,232,230618,1,10,2:2:0:0:
148,20,230754,1,10,2:2:0:0:
204,116,230891,5,2,1:1:0:0:
416,20,231027,1,2,2:1:0:0:
380,252,231164,1,10,2:2:0:0:
488,300,231300,5,10,2:2:0:0:
332,356,231436,2,0,L|96:324,1,234,6|2,1:1|2:1,0:0:0:0:
40,252,231845,1,2,2:2:0:0:
152,120,231982,1,2,2:1:0:0:
100,324,232118,1,2,2:2:0:0:
116,32,232254,2,0,L|-20:56,1,117,10|2,2:2|2:2,0:0:0:0:
284,140,232527,5,2,2:1:0:0:
348,192,232664,1,0,2:2:0:0:
220,248,232800,1,2,1:1:0:0:
88,296,232936,1,2,2:2:0:0:
264,376,233073,2,0,L|512:324,1,234,2|2,1:2|2:1,0:0:0:0:
508,240,233482,1,2,1:2:0:0:
464,112,233618,1,2,2:1:0:0:
348,72,233754,5,8,2:2:0:0:
404,236,233891,1,10,2:2:0:0:
468,100,234027,1,2,2:2:0:0:
432,16,234164,2,0,L|296:44,1,117,2|0,1:1|2:2,0:0:0:0:
120,256,234436,6,0,B|0:220|72:108|72:108|124:148,1,234,6|2,1:1|2:1,0:0:0:0:
132,248,234845,2,0,L|96:384,1,117,2|2,2:2|1:1,0:0:0:0:
24,380,235117,1,0,2:2:0:0:
256,328,235254,2,0,L|372:348,1,117,10|2,2:2|2:2,0:0:0:0:
448,380,235526,1,2,2:1:0:0:
224,152,235663,2,0,L|108:172,1,117,0|2,2:2|1:1,0:0:0:0:
32,204,235936,1,0,2:2:0:0:
324,212,236072,6,0,L|352:72,1,117,2|2,1:2|2:2,0:0:0:0:
240,268,236345,2,0,L|263:383,1,117,2|2,2:1|1:2,0:0:0:0:
176,184,236617,1,2,2:1:0:0:
80,144,236754,1,10,2:2:0:0:
144,260,236890,5,10,2:2:0:0:
288,220,237026,1,10,2:2:0:0:
432,180,237163,1,2,2:2:0:0:
344,136,237299,1,2,2:2:0:0:
304,300,237436,5,10,2:2:0:0:
512,196,237572,1,8,2:2:0:0:
328,48,237708,2,0,L|184:76,1,117,6|2,1:1|2:2,0:0:0:0:
32,240,237981,2,0,L|196:256,1,117,2|0,2:1|2:2,0:0:0:0:
280,368,238254,2,0,L|240:228,1,117,2|0,2:1|2:2,0:0:0:0:
384,184,238526,1,10,2:2:0:0:
368,344,238663,1,2,2:2:0:0:
168,332,238799,2,0,L|124:188,1,117,2|2,2:1|2:2,0:0:0:0:
404,268,239072,2,0,P|488:296|532:336,1,117,2|0,1:1|2:2,0:0:0:0:
384,48,239345,6,0,L|252:68,1,117,2|2,1:2|2:2,0:0:0:0:
224,176,239617,1,2,2:1:0:0:
4,200,239754,2,0,L|33:65,1,117,2|2,1:2|2:1,0:0:0:0:
48,8,240026,1,10,2:2:0:0:
304,144,240163,2,0,P|320:208|324:276,1,117,10|2,2:2|2:2,0:0:0:0:
296,344,240436,1,2,1:1:0:0:
420,192,240572,1,2,2:2:0:0:
372,384,240708,6,0,L|96:344,1,234,6|2,1:2|2:1,0:0:0:0:
200,144,241117,1,2,2:2:0:0:
200,144,241253,2,0,P|240:208|220:264,1,117,2|2,1:1|2:2,0:0:0:0:
8,92,241526,6,0,P|60:28|128:28,1,117,10|2,2:2|2:2,0:0:0:0:
192,24,241798,1,2,1:2:0:0:
360,180,241935,2,0,P|436:176|468:128,1,117,10|2,2:2|2:2,0:0:0:0:
500,24,242208,5,10,2:2:0:0:
500,24,242344,2,0,B|412:36|412:36|368:72|368:72|276:88,1,234,6|2,1:1|1:2,0:0:0:0:
280,87,242753,1,2,2:2:0:0:
312,280,242889,5,10,2:2:0:0:
336,152,243026,1,10,2:2:0:0:
208,128,243162,1,10,1:2:0:0:
180,252,243298,1,10,2:2:0:0:
392,300,243435,5,10,2:2:0:0:
147,332,243571,1,8,2:2:0:0:
109,88,243708,1,10,1:2:0:0:
355,55,243844,1,10,2:2:0:0:
226,317,243980,6,0,B|153:300|153:300|130:256|130:256|57:241,1,198,6|2,1:1|2:2,0:0:0:0:
41,167,244389,1,2,2:2:0:0:
261,115,244526,2,0,B|281:71|281:71|260:21,1,99,2|2,2:2|2:2,0:0:0:0:
250,214,244793,6,0,B|323:197|323:197|346:153|346:153|419:138,1,198,10|2,2:2|2:2,0:0:0:0:
187,74,245193,5,2,2:2:0:0:
161,237,245326,6,0,P|102:225|77:187,1,99,2|2,1:2|2:2,0:0:0:0:
116,31,245593,6,0,P|40:44|8:122,1,135,2|2,1:2|2:2,0:0:0:0:
249,136,245856,6,0,P|262:40|211:-8,1,157.5,2|2,2:2|2:2,0:0:0:0:
155,153,246119,6,0,L|174:381,1,225,2|10,1:2|2:2,0:0:0:0:
173,377,246645,1,2,2:2:0:0:
283,295,246777,1,2,2:2:0:0:
336,355,246908,2,0,L|453:378,1,112.5,2|2,1:2|2:2,0:0:0:0:
323,173,247171,6,0,P|224:203|203:304,1,216,2|2,1:2|2:2,0:0:0:0:
416,187,247566,2,0,P|409:144|402:70,1,108,2|2,2:2|1:2,0:0:0:0:
359,249,247829,1,2,2:2:0:0:
242,202,247961,6,0,P|191:221|142:244,1,108,10|2,2:2|2:2,0:0:0:0:
170,56,248224,2,0,P|212:89|256:121,1,108,2|2,2:2|2:2,0:0:0:0:
79,192,248487,2,0,P|86:138|93:84,1,108,2|2,1:2|2:2,0:0:0:0:
253,216,248750,5,2,1:2:0:0:
150,261,248882,1,2,2:2:0:0:
57,193,249014,5,2,2:2:0:0:
72,81,249145,1,2,1:2:0:0:
177,36,249277,5,2,2:2:0:0:
267,103,249408,1,10,2:2:0:0:
5,130,249540,5,10,2:2:0:0:
66,276,249671,1,10,2:2:0:0:
257,20,249803,5,2,1:2:0:0:
101,2,249935,1,2,2:2:0:0:
226,293,250066,5,10,2:2:0:0:
319,167,250198,1,8,2:2:0:0:
163,149,250329,6,0,L|189:363,1,216,6|2,1:1|2:2,0:0:0:0:
266,384,250724,1,2,2:2:0:0:
397,184,250856,2,0,B|446:162|446:162|494:186,1,108,2|2,2:2|2:2,0:0:0:0:
217,33,251119,6,0,L|-24:100,1,216,10|2,2:2|2:2,0:0:0:0:
247,117,251514,1,2,2:2:0:0:
305,0,251645,1,2,1:2:0:0:
159,140,251777,1,2,2:2:0:0:
351,251,251908,6,0,P|400:190|481:56,1,216,2|2,1:2|2:2,0:0:0:0:
252,244,252303,2,0,P|268:321|275:373,2,108,2|2|2,2:2|2:2|2:2,0:0:0:0:
307,159,252698,2,0,B|244:144|244:144|201:67|123:44,1,216,10|2,2:2|2:2,0:0:0:0:
362,103,253092,1,2,2:2:0:0:
413,300,253224,1,2,1:2:0:0:
179,196,253356,1,2,2:2:0:0:
334,16,253487,6,0,P|337:124|335:232,1,216,2|2,1:2|2:2,0:0:0:0:
91,141,253882,5,2,2:2:0:0:
91,141,254014,2,0,P|89:194|90:248,1,108,2|2,1:2|2:2,0:0:0:0:
419,174,254277,2,0,P|420:227|419:281,1,108,10|2,2:2|2:2,0:0:0:0:
7,169,254540,6,0,P|4:276|5:384,2,216,2|2|2,2:2|2:2|1:2,0:0:0:0:
189,163,255198,1,2,2:2:0:0:
296,232,255329,1,2,2:2:0:0:
251,114,255461,1,2,1:2:0:0:
215,236,255592,1,2,2:2:0:0:
318,157,255724,1,10,2:2:0:0:
189,163,255856,1,10,2:2:0:0:
321,80,255987,5,10,2:2:0:0:
260,302,256119,1,2,1:2:0:0:
178,86,256250,1,2,2:2:0:0:
373,215,256382,1,10,2:2:0:0:
138,222,256514,1,10,2:2:0:0:
504,215,256645,6,0,P|507:107|506:0,1,216,6|2,1:1|2:1,0:0:0:0:
365,294,257040,2,0,P|419:332|477:365,1,108,2|2,2:2|2:1,0:0:0:0:
387,117,257303,1,2,2:2:0:0:
250,187,257435,6,0,P|100:166|10:151,2,216,10|2|2,2:2|2:1|1:1,0:0:0:0:
286,117,258092,1,2,2:2:0:0:
423,228,258224,5,2,1:2:0:0:
319,372,258356,1,2,2:2:0:0:
179,254,258487,1,2,2:1:0:0:
407,122,258619,5,2,2:2:0:0:
230,33,258750,1,2,1:1:0:0:
313,284,258882,1,2,2:2:0:0:
4,198,259014,6,0,P|154:177|244:162,1,216,10|2,2:2|2:1,0:0:0:0:
413,40,259408,2,0,P|344:24|295:6,1,108,2|2,2:2|1:1,0:0:0:0:
138,82,259671,1,2,2:2:0:0:
353,183,259803,2,0,P|429:237|444:371,1,216,2|2,1:2|2:1,0:0:0:0:
237,246,260198,1,2,2:2:0:0:
105,344,260329,1,2,1:1:0:0:
209,376,260461,1,2,2:2:0:0:
341,276,260592,6,0,L|325:135,1,108,10|2,2:2|2:2,0:0:0:0:
38,122,260856,2,0,L|13:336,2,216,2|2|2,2:1|1:1|1:2,0:0:0:0:
136,35,261514,1,2,2:2:0:0:
219,147,261645,1,2,2:1:0:0:
238,46,261777,1,2,1:2:0:0:
132,125,261908,1,2,2:1:0:0:
269,210,262040,1,10,2:2:0:0:
370,127,262171,1,10,2:2:0:0:
291,108,262303,5,10,2:2:0:0:
313,382,262435,1,2,1:2:0:0:
449,148,262566,1,2,2:2:0:0:
200,252,262698,1,10,2:2:0:0:
465,314,262829,1,8,2:2:0:0:
269,210,262961,6,0,B|191:224|191:224|155:274|155:274|75:293,1,216,6|2,1:1|2:1,0:0:0:0:
34,227,263356,1,2,2:2:0:0:
94,16,263487,2,0,L|154:123,1,108,2|2,2:1|2:2,0:0:0:0:
343,333,263750,6,0,P|373:263|394:171,1,162,10|0,2:2|0:0,0:0:0:0:
415,159,264014,1,2,2:1:0:0:
359,0,264145,1,2,2:2:0:0:
204,48,264277,1,2,1:1:0:0:
256,201,264408,1,2,2:2:0:0:
359,92,264540,6,0,L|463:60,1,108,2|2,1:2|2:2,0:0:0:0:
288,50,264803,1,2,2:1:0:0:
286,129,264935,2,0,L|80:66,1,216,2|2,2:2|2:2,0:0:0:0:
353,274,265329,2,0,B|374:224|374:224|356:172,1,108,10|2,2:2|2:2,0:0:0:0:
108,250,265593,2,0,B|87:300|87:300|104:351,1,108,2|2,2:1|2:2,0:0:0:0:
206,128,265856,2,0,L|193:18,1,108,2|2,1:1|2:2,0:0:0:0:
155,187,266119,5,6,1:1:0:0:
251,277,266250,1,2,2:2:0:0:
233,201,266382,5,2,2:1:0:0:
191,327,266514,1,2,2:2:0:0:
79,178,266645,5,2,1:1:0:0:
285,140,266777,1,2,2:2:0:0:
35,110,266908,6,0,P|41:36|38:-20,1,108,10|2,2:2|2:2,0:0:0:0:
40,3,267106,1,0,0:0:0:0:
40,3,267171,1,2,2:1:0:0:
206,128,267303,1,2,2:2:0:0:
41,247,267435,1,2,1:1:0:0:
124,109,267566,1,2,2:2:0:0:
407,40,267698,6,0,P|401:147|405:255,1,216,6|2,1:1|2:2,0:0:0:0:
327,219,268093,1,2,1:2:0:0:
218,340,268224,1,2,2:2:0:0:
64,263,268356,1,10,2:2:0:0:
87,102,268487,1,10,2:2:0:0:
250,73,268619,1,10,2:2:0:0:
230,150,268750,5,2,1:2:0:0:
179,270,268882,1,2,2:2:0:0:
149,157,269014,1,10,2:2:0:0:
247,227,269145,1,8,2:2:0:0:
394,55,269277,6,0,P|464:89|480:165,1,162,6|2,1:1|2:2,0:0:0:0:
480,165,269810,2,0,P|464:186|457:212,1,53.9999999999999,2|2,2:2|2:2,0:0:0:0:
496,312,270077,2,0,B|434:322|434:322|409:350|409:350|344:362,1,162,2|2,2:2|2:2,0:0:0:0:
256,320,270610,5,2,2:2:0:0:
256,320,270743,1,2,2:2:0:0:
256,320,270877,2,0,B|243:261|266:272|253:207,1,108,2|2,2:2|2:2,0:0:0:0:
254,212,271277,2,0,L|307:201,1,53.9999999999999,2|2,2:2|2:2,0:0:0:0:
156,360,271543,1,2,2:2:0:0:
156,360,271677,2,0,P|103:364|55:337,1,108,2|2,2:2|2:2,0:0:0:0:
56,337,272077,2,0,L|-4:348,2,53.9999999999999,2|2|2,2:2|2:2|2:2,0:0:0:0:
37,253,272477,6,0,P|60:205|48:153,1,108,2|2,2:2|2:2,0:0:0:0:
63,67,272880,2,0,L|0:51,1,53.9999999999999,2|2,2:2|2:2,0:0:0:0:
48,153,273149,1,2,2:2:0:0:
163,114,273284,2,0,L|145:221,2,108,2|2|2,2:2|2:2|2:2,0:0:0:0:
163,114,274091,6,0,L|183:184,1,53.9999999999999,2|2,2:2|2:2,0:0:0:0:
264,180,274360,1,2,2:2:0:0:
294,46,274494,1,2,2:2:0:0:
294,46,274629,2,0,L|363:58,1,53.9999999999999,2|2,2:2|2:2,0:0:0:0:
480,32,274898,5,2,2:2:0:0:
416,99,275033,1,2,2:2:0:0:
402,161,275167,1,2,2:2:0:0:
419,199,275302,1,2,2:2:0:0:
434,231,275436,1,2,2:2:0:0:
432,246,275571,1,2,2:2:0:0:
424,250,275705,6,0,P|348:209|283:241,1,162,2|2,2:2|2:2,0:0:0:0:
285,238,276250,2,0,P|310:259|311:293,1,53.9999999999999,2|2,2:2|2:2,0:0:0:0:
238,355,276523,6,0,P|191:328|126:341,2,108,2|2|2,2:2|2:2|2:2,0:0:0:0:
139,333,277341,2,0,P|86:338|40:311,1,108,2|2,2:2|2:2,0:0:0:0:
26,225,277750,1,2,2:2:0:0:
118,174,277886,1,2,2:2:0:0:
64,89,278023,1,2,2:2:0:0:
64,89,278159,2,0,B|121:76|121:76|152:33|152:33|255:11,1,216,2|2,2:2|2:2,0:0:0:0:
254,11,278977,6,0,B|278:26|278:26|211:25|203:89,1,135,2|2,2:2|2:2,0:0:0:0:
203,85,279527,2,0,P|216:120|218:142,1,45,2|2,2:2|2:2,0:0:0:0:
276,208,279802,6,0,P|292:162|315:115,2,90,2|2|2,2:2|2:2|2:2,0:0:0:0:
156,253,280628,2,0,P|189:245|205:245,1,45,2|2,2:2|2:2,0:0:0:0:
313,308,280903,2,0,L|262:290,1,45,2|2,2:2|2:2,0:0:0:0:
205,345,281178,1,2,2:2:0:0:
381,247,281454,5,2,2:2:0:0:
381,247,281591,1,2,2:2:0:0:
454,308,281729,1,2,2:2:0:0:
470,201,281866,1,2,2:2:0:0:
481,118,282004,1,2,2:2:0:0:
488,70,282142,1,2,2:2:0:0:
493,34,282279,6,0,L|355:66,1,135,2|2,2:2|2:2,0:0:0:0:
361,64,282834,1,2,2:2:0:0:
254,27,282973,1,2,2:2:0:0:
254,27,283112,2,0,P|270:71|283:120,1,90,2|2,2:2|2:2,0:0:0:0:
281,112,283529,2,0,L|272:164,2,45,2|2|2,2:2|2:2|2:2,0:0:0:0:
193,203,283945,2,0,P|150:180|99:192,1,90,2|2,2:2|2:2,0:0:0:0:
51,244,284362,2,0,L|-9:234,2,45,2|2|2,2:2|2:2|2:2,0:0:0:0:
110,185,284779,6,0,P|114:138|111:93,1,90,2|2,2:2|2:2,0:0:0:0:
92,17,285195,1,2,2:2:0:0:
92,17,285334,2,0,L|154:9,1,45,2|2,2:2|2:2,0:0:0:0:
224,40,285612,6,0,P|269:60|302:153,1,135,2|2,2:2|2:2,0:0:0:0:
303,134,286172,2,0,P|290:168|283:195,1,45,2|2,2:2|2:2,0:0:0:0:
218,228,286453,2,0,P|227:262|240:331,2,90,2|2|2,2:2|2:2|2:2,0:0:0:0:
237,315,287294,6,0,P|203:333|190:356,1,45,2|2,2:2|2:2,0:0:0:0:
342,378,287577,2,0,L|329:318,1,45,2|2,2:2|2:2,0:0:0:0:
407,283,287860,2,0,P|445:287|460:297,1,45,2|2,2:2|2:2,0:0:0:0:
290,194,288143,5,2,2:2:0:0:
195,220,288284,1,2,2:2:0:0:
117,243,288426,1,2,2:2:0:0:
69,259,288567,1,2,2:2:0:0:
42,268,288709,1,2,2:2:0:0:
27,274,288850,1,2,2:2:0:0:
18,278,288992,6,0,L|33:164,1,108,2|2,2:2|2:2,0:0:0:0:
32,170,289563,2,0,L|21:129,1,36,2|2,2:2|2:2,0:0:0:0:
60,60,289849,2,0,P|95:57|125:39,2,72,2|2|2,2:2|2:2|2:2,0:0:0:0:
214,13,290706,6,0,L|205:85,1,72,2|2,2:2|2:2,0:0:0:0:
205,85,291134,2,0,L|217:121,2,36,2|2|2,2:2|2:2|2:2,0:0:0:0:
296,177,291563,2,0,P|252:196|235:231,1,72,2|2,2:2|2:2,0:0:0:0:
239,214,292420,6,0,P|252:255|256:297,1,81.0000000000001,2|2,2:2|2:2,0:0:0:0:
255,292,292996,2,0,L|250:327,1,27,2|2,2:2|2:2,0:0:0:0:
168,382,293285,2,0,L|194:376,1,27,2|2,2:2|2:2,0:0:0:0:
323,351,293573,2,0,L|386:364,1,54.0000000000001,2|2,2:2|2:2,0:0:0:0:
477,384,294150,5,2,2:2:0:0:
508,232,294439,2,0,L|496:195,1,27,2|2,2:2|2:2,0:0:0:0:
428,252,294727,2,0,L|419:277,1,27,2|2,2:2|2:2,0:0:0:0:
357,213,295006,6,0,L|317:208,1,36,2|2,2:2|2:2,0:0:0:0:
187,268,295875,6,0,L|211:236,1,36,2|2,2:2|2:2,0:0:0:0:
223,94,296757,6,0,L|231:112,2,18,2|2|2,2:2|2:2|2:2,0:0:0:0:
256,192,299457,6,0,L|257:189,2,2.25,0|0|2,2:2|2:2|2:2,0:0:0:0:
256,192,301185,12,0,305922,2:2:0:0:
