osu file format v14

[General]
AudioFilename: audio.mp3
AudioLeadIn: 0
PreviewTime: 162906
Countdown: 0
SampleSet: Soft
StackLeniency: 0.4
Mode: 0
LetterboxInBreaks: 0
EpilepsyWarning: 1
WidescreenStoryboard: 1

[Editor]
DistanceSpacing: 0.5
BeatDivisor: 4
GridSize: 16
TimelineZoom: 2.799999

[Metadata]
Title:Kagaribito
TitleUnicode:カガリビト
Artist:F9
ArtistUnicode:F9
Creator:Sagu
Version:Repairer
Source:
Tags:Whipstitching Person Repairers of the Deceptive World millstones kiyono 2e 4≠4 VOCALOID hatsune miku cover japanese novelty
BeatmapID:2456742
BeatmapSetID:1177997

[Difficulty]
HPDrainRate:8
CircleSize:4.5
OverallDifficulty:8.8
ApproachRate:9.5
SliderMultiplier:1.5
SliderTickRate:1

[Events]
//Background and Video events
0,0,"2e.jpg",0,0
//Break Periods
//Storyboard Layer 0 (Background)
//Storyboard Layer 1 (Fail)
//Storyboard Layer 2 (Pass)
//Storyboard Layer 3 (Foreground)
//Storyboard Layer 4 (Overlay)
//Storyboard Sound Samples

[TimingPoints]
1865,291.26213592233,3,2,2,30,1,0
7107,291.26213592233,5,2,2,35,1,0
8563,289.855072463768,3,2,2,40,1,0
11171,-100,3,2,2,50,0,0
12041,285.714285714286,3,2,2,55,1,0
12041,-89.2857142857143,3,2,2,60,0,0
12898,-80,3,2,2,65,0,0
13755,280.3738317757,5,2,1,75,1,0
15156,275.229357798165,6,2,1,45,1,0
15224,-100,6,2,2,45,0,0
16807,275.229357798165,5,2,2,45,1,0
18183,275.229357798165,6,2,2,45,1,0
21416,-100,6,2,2,5,0,0
21485,-100,6,2,2,50,0,0
23137,275.229357798165,5,2,2,50,1,0
24513,275.229357798165,6,2,2,50,1,0
26164,-100,6,2,1,60,0,0
27815,270.27027027027,6,2,1,70,1,0
27815,-80,6,2,1,70,0,0
29436,270.27027027027,5,2,1,70,1,0
29436,-80,6,2,1,70,0,0
30787,270.27027027027,6,2,1,70,1,0
30787,-80,6,2,1,70,0,0
35651,270.27027027027,5,2,1,70,1,0
35651,-80,6,2,1,70,0,0
37002,270.27027027027,6,2,1,70,1,0
37002,-80,6,2,1,70,0,0
40245,265.486725663717,6,2,36,40,1,0
40643,-100,6,2,29,40,0,0
41041,-100,6,2,34,40,0,0
41439,-100,6,2,32,40,0,0
41837,-100,6,2,31,40,0,0
42236,-100,6,2,32,40,0,0
42634,-100,6,2,34,40,0,0
43032,-100,6,2,39,40,0,0
44227,-100,6,2,37,40,0,0
44492,-100,6,2,36,40,0,0
44758,-100,6,2,34,40,0,0
45023,-100,6,2,32,40,0,0
46085,-100,6,2,29,40,0,0
46351,-100,6,2,31,40,0,0
46616,-100,6,2,32,45,0,0
46683,-100,6,2,1,45,0,0
47678,-100,6,2,31,45,0,0
47811,-100,6,2,1,45,0,0
47944,-100,6,2,32,45,0,0
48209,265.486725663717,5,2,27,50,1,0
48275,-100,5,2,1,50,0,0
49536,272.727272727273,6,2,25,55,1,0
49604,-100,6,2,1,55,0,0
49945,-100,6,2,28,55,0,0
50013,-100,6,2,1,55,0,0
50354,-100,6,2,35,55,0,0
50422,-100,6,2,1,55,0,0
50763,-100,6,2,40,55,0,0
50831,-100,6,2,1,55,0,0
51172,-100,6,2,42,60,0,0
51240,-100,6,2,1,60,0,0
51581,-100,6,2,40,60,0,0
51717,-100,6,2,38,60,0,0
51854,-200,6,2,35,60,0,0
51990,-100,6,2,33,60,0,0
52126,-100,6,2,30,60,0,0
52263,-100,6,2,27,60,0,0
52399,-100,6,2,25,60,0,0
52536,277.777777777778,6,2,22,50,1,0
52605,-100,6,2,1,50,0,0
52674,-100,6,2,20,50,0,0
52744,-100,6,2,1,50,0,0
52813,272.727272727273,6,2,1,40,1,0
52813,-133.333333333333,6,2,1,40,0,0
52881,-133.333333333333,6,2,2,40,0,0
59017,-133.333333333333,6,2,2,5,0,0
59085,-133.333333333333,6,2,2,40,0,0
59358,-113.636363636364,6,2,2,45,0,0
64267,-100,6,2,1,55,0,0
65903,-80,6,2,1,65,0,0
78994,-66.6666666666667,6,2,1,70,0,0
80631,272.727272727273,5,2,1,70,1,0
80631,-66.6666666666667,6,2,1,70,0,0
81994,272.727272727273,6,2,1,70,1,0
81994,-66.6666666666667,6,2,1,70,0,0
86903,272.727272727273,5,2,1,70,1,0
86903,-66.6666666666667,6,2,1,70,0,0
88266,272.727272727273,6,2,1,70,1,0
88266,-66.6666666666667,6,2,1,70,0,0
91538,-66.6666666666667,6,2,1,75,0,0
93175,272.727272727273,5,2,1,75,1,0
93175,-66.6666666666667,5,2,1,75,0,0
94538,272.727272727273,6,2,1,75,1,0
94538,-66.6666666666667,6,2,1,75,0,0
99447,272.727272727273,5,2,1,75,1,0
99447,-66.6666666666667,5,2,1,75,0,0
100810,272.727272727273,6,2,1,75,1,0
100810,-66.6666666666667,6,2,1,75,0,0
104082,-133.333333333333,6,2,1,45,0,0
104150,-133.333333333333,6,2,2,45,0,0
110628,-113.636363636364,6,2,2,45,0,0
115537,-100,6,2,1,55,0,0
117173,-80,6,2,1,66,0,0
130264,-66.6666666666667,6,2,1,70,0,0
131900,272.727272727273,5,2,1,70,1,0
131900,-66.6666666666667,5,2,1,70,0,0
133263,272.727272727273,6,2,1,70,1,0
133263,-66.6666666666667,6,2,1,70,0,0
138172,272.727272727273,5,2,1,70,1,0
138172,-66.6666666666667,5,2,1,70,0,0
139535,272.727272727273,6,2,1,70,1,0
139535,-66.6666666666667,6,2,1,70,0,0
142807,-66.6666666666667,6,2,1,75,0,0
144444,272.727272727273,5,2,1,75,1,0
144444,-66.6666666666667,5,2,1,75,0,0
145807,272.727272727273,6,2,1,75,1,0
145807,-66.6666666666667,6,2,1,75,0,0
150716,272.727272727273,5,2,1,75,1,0
150716,-66.6666666666667,5,2,1,75,0,0
152079,272.727272727273,6,2,1,75,1,0
152079,-66.6666666666667,6,2,1,75,0,0
155351,272.727272727273,5,2,1,55,1,0
155623,-125,5,2,1,55,0,0
155896,-166.666666666667,5,2,1,55,0,0
156714,-100,5,2,1,55,0,0
156987,-125,5,2,1,55,0,0
157260,-166.666666666667,5,2,1,55,0,0
158078,272.727272727273,3,2,1,50,1,0
158350,-125,3,2,1,50,0,0
158623,-166.666666666667,3,2,1,50,0,0
158896,-125,3,2,1,45,0,0
159168,-166.666666666667,3,2,1,45,0,0
159441,-250,3,2,1,45,0,0
159714,-166.666666666667,3,2,1,40,0,0
159987,-250,3,2,1,40,0,0
160259,-500,3,2,1,40,0,0
160532,-250,3,2,1,45,0,0
160805,-166.666666666667,3,2,1,50,0,0
161078,-125,3,2,1,55,0,0
161350,-100,3,2,1,60,0,0
162168,-83.3333333333333,3,2,1,65,0,0
162441,-62.5,3,2,1,65,0,0
162714,277.777777777778,3,2,1,70,1,0
162714,-50,3,2,1,70,0,0
162991,272.727272727273,5,2,1,50,1,0
163059,-100,5,2,2,50,0,0
165718,272.727272727273,6,2,2,50,1,0
167354,272.727272727273,5,2,2,50,1,0
171444,272.727272727273,6,2,2,50,1,0
173080,272.727272727273,5,2,2,50,1,0
174443,-100,5,2,1,50,0,0
174511,-100,5,2,2,50,0,0
177170,272.727272727273,6,2,2,50,1,0
178806,272.727272727273,5,2,2,50,1,0
182896,272.727272727273,6,2,2,50,1,0
185623,-108.695652173913,6,2,2,47,0,0
185896,277.777777777778,6,2,2,43,1,0
185896,-119.047619047619,6,2,2,43,0,0
186173,272.727272727273,6,2,1,40,1,0
186173,-133.333333333333,6,2,1,40,0,0
186241,-133.333333333333,6,2,2,40,0,0
197627,-100,6,2,1,50,0,0
199263,-80,6,2,1,60,0,0
212354,272.727272727273,4,2,21,30,1,0
212354,-200,4,2,21,30,0,0
212763,-200,4,2,26,30,0,0
213172,-200,4,2,24,30,0,0
213581,-200,4,2,31,30,0,0
213990,-200,4,2,29,30,0,0
214399,-200,4,2,26,30,0,0
214808,-200,4,2,36,30,0,0
215217,-200,4,2,43,30,0,0
215626,-200,4,2,45,30,0,0
217263,272.727272727273,6,2,1,55,1,0
218081,-100,6,2,22,60,0,0
218217,-100,6,2,23,60,0,0
218353,-100,6,2,24,60,0,0
218490,-100,6,2,26,65,0,0
218626,-100,6,2,33,65,0,0
218763,-100,6,2,34,65,0,0
218899,-80,6,2,1,70,0,0
220535,272.727272727273,5,2,1,70,1,0
220535,-80,6,2,1,70,0,0
221898,272.727272727273,6,2,1,70,1,0
221898,-80,6,2,1,70,0,0
226807,272.727272727273,5,2,1,70,1,0
226807,-80,6,2,1,70,0,0
228170,272.727272727273,6,2,1,70,1,0
228170,-80,6,2,1,70,0,0
231442,-66.6666666666667,6,2,1,75,0,0
233079,272.727272727273,5,2,1,75,1,0
233079,-66.6666666666667,6,2,1,75,0,0
234442,272.727272727273,6,2,1,75,1,0
234442,-66.6666666666667,6,2,1,75,0,0
239351,272.727272727273,5,2,1,75,1,0
239351,-66.6666666666667,5,2,1,75,0,0
240714,272.727272727273,6,2,1,75,1,0
240714,-66.6666666666667,6,2,1,75,0,0
242350,277.777777777778,6,2,1,75,1,0
242350,-66.6666666666667,6,2,1,75,0,0
243183,275.229357798165,3,2,1,75,1,0
243183,-66.6666666666667,6,2,1,75,0,0
244008,263.157894736841,6,2,1,70,1,1
244008,-66.6666666666667,6,2,1,70,0,1
244797,-66.6666666666667,6,2,1,75,0,1
245586,-66.6666666666667,6,2,1,80,0,1
256639,-57.1428571428571,6,2,1,85,0,1
269271,265.486725663717,6,2,1,40,1,0
269337,-100,6,2,2,40,0,0
270067,266.666666666667,6,2,2,40,1,0
270867,267.857142857143,6,2,2,40,1,0
274081,270.27027027027,6,2,2,40,1,0
275702,272.727272727273,6,2,2,40,1,0
278156,-133.333333333333,6,2,2,40,0,0
278974,275.229357798165,6,2,2,40,1,0
282276,277.777777777778,6,2,2,48,1,0
282276,-133.333333333333,6,2,2,48,0,0
283942,279.06976744186,6,2,2,46,1,0
283942,-133.333333333333,6,2,2,46,0,0
285616,280.373831775701,6,2,2,44,1,0
285616,-133.333333333333,6,2,2,44,0,0
286457,281.69014084507,6,2,2,44,1,0
286457,-133.333333333333,6,2,2,44,0,0
287302,283.018867924528,6,2,2,42,1,0
287302,-133.333333333333,6,2,2,42,0,0
289000,-133.333333333333,6,2,2,40,0,0
290698,285.714285714286,6,2,2,38,1,0
290698,-133.333333333333,6,2,2,38,0,0
291555,-200,6,2,2,38,0,0
292412,288.461538461538,6,2,2,36,1,0
292412,-200,6,2,2,36,0,0
293277,-200,6,2,2,34,0,0
294142,291.26213592233,6,2,2,32,1,0
294142,-200,6,2,2,32,0,0
295015,434.782608695653,3,2,21,30,1,0
295015,-200,3,2,21,30,0,0
295449,-200,3,2,26,30,0,0
295884,441.176470588236,4,2,24,28,1,0
295884,-200,4,2,24,28,0,0
296325,-200,4,2,31,28,0,0
296766,600,5,2,29,26,1,0
296766,-200,5,2,29,26,0,0
297366,-200,5,2,35,26,0,0
297966,-200,5,2,38,24,0,0
299466,-200,5,2,38,24,0,0
299541,-200,5,2,41,24,0,0
299616,789.473684210526,5,2,44,22,1,0
299616,-100,5,2,44,22,0,0
301194,-100,5,2,2,20,0,0
303168,-100,5,2,2,15,0,0
305142,-100,5,2,2,10,0,0
306326,-100,5,2,2,5,0,0

[Colours]
Combo1 : 191,191,191
Combo2 : 255,255,128
Combo3 : 255,238,85
Combo4 : 128,255,128
Combo5 : 85,255,85
Combo6 : 255,128,128
Combo7 : 255,85,85
Combo8 : 223,223,223

[HitObjects]
90,238,1865,102,0,P|46:241|10:275,1,75,2|0,0:0|0:0,0:0:0:0:
132,360,2156,2,0,P|151:320|139:272,1,75
5,336,2447,1,2,0:0:0:0:
57,384,2592,1,0,0:0:0:0:
250,131,2738,6,0,P|258:167|245:201,1,75,2|0,0:0|0:0,0:0:0:0:
181,65,3030,2,0,P|209:40|246:35,1,75
159,157,3321,1,2,0:0:0:0:
100,115,3466,1,0,0:0:0:0:
342,196,3612,102,0,P|328:230|336:266,1,75,2|0,0:0|0:0,0:0:0:0:
440,375,3903,2,0,P|417:345|382:334,1,75
233,370,4195,1,2,0:0:0:0:
297,339,4340,1,0,0:0:0:0:
325,117,4486,6,0,P|290:105|267:76,1,75,2|0,0:0|0:0,0:0:0:0:
431,11,4777,1,2,0:0:0:0:
454,54,4874,1,2,0:0:0:0:
439,102,4971,1,2,0:0:0:0:
433,152,5068,2,0,P|468:140|491:111,1,75,2|0,0:0|0:0,0:0:0:0:
499,288,5360,102,0,P|506:324|492:358,1,75,2|0,0:0|0:0,0:0:0:0:
328,380,5651,2,0,P|320:343|334:309,1,75
414,334,5942,1,2,0:0:0:0:
177,259,6233,6,0,P|184:222|170:188,1,75,2|0,0:0|0:0,0:0:0:0:
91,213,6525,1,0,0:0:0:0:
328,138,6816,2,0,P|320:101|334:67,1,75,2|0,0:0|0:0,0:0:0:0:
414,92,7107,101,2,0:0:0:0:
328,138,7252,1,0,0:0:0:0:
408,288,7398,1,0,0:0:0:0:
411,190,7543,1,0,0:0:0:0:
241,184,7689,1,2,0:0:0:0:
324,236,7835,1,0,0:0:0:0:
501,47,7980,6,0,P|514:81|507:117,1,75,2|0,0:0|0:0,0:0:0:0:
333,67,8272,2,0,P|319:101|326:137,1,75,2|0,0:0|0:0,0:0:0:0:
411,190,8563,102,0,P|447:192|477:215,1,75,2|0,0:0|0:0,0:0:0:0:
357,309,8852,2,0,P|341:275|346:238,1,75
489,292,9142,1,2,0:0:0:0:
433,335,9286,1,0,0:0:0:0:
237,145,9432,6,0,P|237:182|257:212,1,75,2|0,0:0|0:0,0:0:0:0:
295,60,9722,2,0,P|262:41|225:44,1,75
337,147,10012,1,2,0:0:0:0:
385,94,10156,1,0,0:0:0:0:
159,201,10302,102,0,P|172:235|165:271,1,75,2|0,0:0|0:0,0:0:0:0:
47,364,10591,2,0,P|69:334|105:323,1,75
248,381,10881,1,2,0:0:0:0:
183,351,11025,1,0,0:0:0:0:
187,117,11171,6,0,P|222:105|245:76,1,75,2|0,0:0|0:0,0:0:0:0:
81,11,11461,1,2,0:0:0:0:
58,54,11558,1,2,0:0:0:0:
73,102,11654,1,2,0:0:0:0:
79,152,11751,2,0,P|44:140|21:111,1,75,2|0,0:0|0:0,0:0:0:0:
14,270,12041,102,0,P|13:316|35:357,1,84.0000010253906,2|0,0:0|0:0,0:0:0:0:
224,371,12326,2,0,P|224:329|194:275,1,84.0000010253906
118,320,12612,1,2,0:0:0:0:
388,233,12898,6,0,P|387:185|421:125,1,93.75,2|0,0:0|0:0,0:0:0:0:
507,175,13183,1,0,0:0:0:0:
183,103,13469,2,0,P|184:50|145:-18,1,93.75,2|0,0:0|0:0,0:0:0:0:
49,37,13755,69,4,1:2:0:0:
183,103,13895,1,8,0:0:0:0:
68,336,14035,1,8,0:0:0:0:
50,222,14175,1,0,1:0:0:0:
54,203,14245,1,0,0:0:0:0:
58,185,14315,1,8,0:0:0:0:
228,242,14455,1,8,0:0:0:0:
210,247,14526,1,8,0:0:0:0:
193,253,14596,5,4,0:0:0:0:
183,103,14736,1,0,1:0:0:0:
68,336,14876,1,0,1:0:0:0:
58,186,15016,1,8,0:0:0:0:
228,242,15156,6,0,B|265:246|265:246|311:234,1,75,4|0,1:2|0:0,0:0:0:0:
340,173,15431,2,0,B|377:169|377:169|423:181,1,75,8|0,0:0|0:0,0:0:0:0:
452,242,15706,1,8,0:0:0:0:
285,348,15981,5,10,0:0:0:0:
148,288,16119,1,8,0:0:0:0:
129,290,16188,1,0,0:0:0:0:
111,292,16256,1,8,0:0:0:0:
1,268,16394,1,8,0:0:0:0:
35,376,16532,1,4,0:0:0:0:
188,209,16669,1,0,0:0:0:0:
356,364,16807,102,0,B|317:367|317:367|273:356,1,75,8|0,0:0|0:0,0:0:0:0:
244,295,17082,2,0,B|205:291|205:291|161:303,1,75,8|0,0:0|0:0,0:0:0:0:
58,358,17357,2,0,B|93:369|93:369|132:364,1,75,4|0,0:0|0:0,0:0:0:0:
259,203,17632,6,0,B|261:183|261:183|269:155,2,37.5,10|0|8,0:0|0:0|0:0,0:0:0:0:
202,70,17907,1,8,0:0:0:0:
155,85,17999,1,8,0:0:0:0:
106,75,18091,1,8,0:0:0:0:
71,42,18183,102,0,B|61:80|61:80|67:139,1,75,8|0,0:0|0:0,0:0:0:0:
126,168,18458,2,0,B|136:206|136:206|130:265,1,75,8|0,0:0|0:0,0:0:0:0:
58,358,18733,2,0,B|54:322|54:322|64:284,1,75,8|0,0:0|0:0,0:0:0:0:
244,295,19008,5,10,0:0:0:0:
262,294,19077,1,0,0:0:0:0:
281,294,19146,1,0,0:0:0:0:
142,365,19283,1,8,0:0:0:0:
234,171,19421,1,8,0:0:0:0:
356,347,19559,1,4,0:0:0:0:
402,250,19696,1,0,0:0:0:0:
463,338,19834,101,8,0:0:0:0:
341,162,19971,2,0,B|328:122|328:122|339:57,1,75,0|8,0:0|0:0,0:0:0:0:
478,97,20247,2,0,B|441:107|441:107|372:84|372:84|332:89,1,150,0|8,0:0|0:0,0:0:0:0:
234,171,20660,6,0,B|257:167|257:167|278:172,2,37.5,10|0|0,0:0|0:0|0:0,0:0:0:0:
168,135,20935,1,8,0:0:0:0:
169,210,21072,1,8,0:0:0:0:
233,95,21210,2,0,B|285:66|285:66|340:93,1,112.5,4|0,0:0|0:0,0:0:0:0:
233,95,21485,102,0,B|196:99|196:99|150:87,1,75,8|0,1:2|0:0,0:0:0:0:
121,26,21760,2,0,B|84:22|84:22|38:34,1,75,8|0,0:0|0:0,0:0:0:0:
9,95,22036,1,8,0:0:0:0:
169,297,22311,5,10,0:0:0:0:
301,233,22449,1,8,0:0:0:0:
320,234,22517,1,0,0:0:0:0:
339,236,22586,1,8,0:0:0:0:
444,196,22724,1,8,0:0:0:0:
423,306,22861,1,4,0:0:0:0:
354,90,22999,1,0,0:0:0:0:
146,202,23137,102,0,B|185:205|185:205|219:196,1,75,8|0,1:2|0:0,0:0:0:0:
258,133,23412,2,0,B|297:129|297:129|331:138,1,75,8|0,0:0|1:1,0:0:0:0:
444,196,23687,2,0,B|409:207|409:207|370:202,1,75,4|0,0:0|0:0,0:0:0:0:
194,71,23962,6,0,B|196:40|196:40|193:24,2,37.5,10|0|8,0:0|0:0|0:0,0:0:0:0:
308,49,24237,1,8,0:0:0:0:
356,58,24329,1,8,0:0:0:0:
402,40,24421,1,8,0:0:0:0:
432,2,24513,102,0,B|442:40|442:40|436:99,1,75,8|0,1:2|0:0,0:0:0:0:
377,128,24788,2,0,B|367:166|367:166|373:225,1,75,8|0,0:0|0:0,0:0:0:0:
445,318,25063,2,0,B|449:282|449:282|439:244,1,75,8|0,0:0|0:0,0:0:0:0:
277,165,25338,5,10,0:0:0:0:
258,165,25407,1,0,0:0:0:0:
239,162,25476,1,8,0:0:0:0:
332,308,25613,1,8,0:0:0:0:
300,97,25751,1,8,0:0:0:0:
134,231,25889,1,4,0:0:0:0:
118,125,26026,1,0,0:0:0:0:
35,192,26164,5,0,1:0:0:0:
211,28,26301,1,0,0:0:0:0:
206,46,26370,1,0,0:0:0:0:
203,65,26439,2,0,P|200:116|206:161,1,75,0|0,0:0|1:0,0:0:0:0:
233,270,26714,1,8,0:0:0:0:
300,97,26852,1,8,0:0:0:0:
300,97,27127,5,8,0:0:0:0:
332,308,27265,1,8,0:0:0:0:
410,110,27402,1,8,0:0:0:0:
438,296,27540,1,8,0:0:0:0:
367,9,27678,1,8,0:0:0:0:
343,198,27815,102,0,P|300:207|235:194,1,93.75,4|0,1:2|0:0,0:0:0:0:
41,164,28085,1,0,0:0:0:0:
107,97,28220,1,0,1:0:0:0:
185,267,28355,2,0,P|192:314|187:374,1,93.75
294,113,28625,6,0,P|354:109|412:119,1,93.75
410,118,28828,1,0,0:0:0:0:
433,124,28896,1,2,0:1:0:0:
436,30,29031,1,0,0:0:0:0:
345,212,29166,1,8,0:0:0:0:
294,113,29301,1,0,0:0:0:0:
185,267,29436,102,0,P|228:276|293:263,1,93.75,0|0,1:0|0:0,0:0:0:0:
494,223,29706,1,0,0:0:0:0:
428,156,29841,1,0,1:0:0:0:
410,285,29976,1,0,0:0:0:0:
362,89,30111,1,0,0:0:0:0:
276,269,30246,6,0,P|276:245|272:222,2,46.875,10|0|0,0:1|0:0|0:0,0:0:0:0:
113,164,30517,1,0,1:0:0:0:
85,218,30607,1,0,0:0:0:0:
83,280,30697,1,0,0:0:0:0:
89,342,30787,102,0,P|134:351|180:344,1,93.75,0|0,1:0|0:0,0:0:0:0:
410,285,31057,1,0,0:0:0:0:
344,218,31192,1,0,1:0:0:0:
182,272,31327,1,2,0:1:0:0:
217,105,31462,1,0,0:0:0:0:
267,250,31597,5,8,0:0:0:0:
269,273,31665,1,0,0:0:0:0:
268,296,31732,1,0,0:0:0:0:
200,188,31868,1,0,0:0:0:0:
101,299,32003,1,0,0:0:0:0:
118,215,32138,1,2,1:1:0:0:
169,362,32273,1,0,1:0:0:0:
281,161,32408,101,0,1:0:0:0:
344,218,32543,2,0,P|305:243|259:242,1,93.75
84,244,32814,2,0,B|129:282|188:246|159:246|216:209|259:242,1,187.5,0|0,1:0|0:0,0:0:0:0:
459,288,33219,5,8,0:0:0:0:
442,272,33287,1,0,0:0:0:0:
431,253,33354,2,0,P|419:211|434:158,1,93.75,0|0,0:0|1:0,0:0:0:0:
512,384,33624,1,8,0:0:0:0:
362,306,33759,1,10,0:1:0:0:
504,215,33895,1,8,0:0:0:0:
208,143,34030,102,0,P|251:152|316:139,1,93.75,0|0,1:0|0:0,0:0:0:0:
510,109,34300,1,0,0:0:0:0:
444,42,34435,1,0,1:0:0:0:
366,212,34570,2,0,P|359:259|364:319,1,93.75,2|0,0:1|0:0,0:0:0:0:
202,49,34841,6,0,P|209:96|204:156,1,93.75,8|0,0:0|0:0,0:0:0:0:
200,164,35043,1,0,0:0:0:0:
190,186,35111,1,0,0:0:0:0:
294,149,35246,1,0,0:0:0:0:
312,352,35381,1,10,0:1:0:0:
357,266,35516,1,0,0:0:0:0:
499,344,35651,102,0,P|456:353|391:340,1,93.75,0|0,1:0|0:0,0:0:0:0:
190,300,35921,1,0,0:0:0:0:
256,233,36056,1,0,1:0:0:0:
274,362,36191,1,2,0:1:0:0:
322,166,36326,1,0,0:0:0:0:
497,266,36461,6,0,P|498:239|494:219,2,46.875,8|0|0,0:0|0:0|0:0,0:0:0:0:
441,70,36732,1,0,1:0:0:0:
413,124,36822,1,0,0:0:0:0:
411,186,36912,1,0,0:0:0:0:
423,247,37002,102,0,P|378:256|332:249,1,93.75,0|0,1:0|0:0,0:0:0:0:
106,191,37272,1,0,0:0:0:0:
172,124,37407,1,0,1:0:0:0:
334,178,37542,1,0,0:0:0:0:
299,11,37677,1,0,0:0:0:0:
252,154,37812,5,10,0:1:0:0:
246,176,37880,1,0,0:0:0:0:
247,199,37947,1,0,0:0:0:0:
319,94,38083,1,0,0:0:0:0:
417,204,38218,1,0,1:0:0:0:
398,123,38353,1,0,0:0:0:0:
350,264,38488,1,0,1:0:0:0:
236,68,38623,101,2,1:1:0:0:
173,125,38758,2,0,P|212:150|258:149,1,93.75
433,151,39029,2,0,B|388:189|329:153|358:153|301:116|258:149,1,187.5,0|8,1:0|0:0,0:0:0:0:
161,274,39434,5,2,0:1:0:0:
173,125,39569,1,8,0:0:0:0:
296,210,39704,1,8,0:0:0:0:
236,68,39839,1,8,0:0:0:0:
228,242,39974,1,8,0:0:0:0:
299,11,40110,1,8,0:0:0:0:
354,254,40245,5,6,2:0:0:0:
457,296,40643,1,2,0:0:0:0:
339,144,41041,1,2,0:0:0:0:
236,186,41439,1,2,0:0:0:0:
118,339,41837,5,2,0:0:0:0:
133,228,42236,1,2,0:0:0:0:
148,116,42634,1,2,0:0:0:0:
163,5,43032,1,2,0:0:0:0:
163,5,43430,1,2,0:0:0:0:
3,162,44227,101,2,0:0:0:0:
13,236,44492,1,2,0:0:0:0:
23,310,44758,1,2,0:0:0:0:
35,384,45023,1,2,0:0:0:0:
335,345,46085,5,2,0:0:0:0:
347,271,46351,1,2,0:0:0:0:
353,234,46483,1,0,1:0:0:0:
359,197,46616,70,0,P|352:130|286:77,1,150,6|0,1:2|0:0,0:0:0:0:
121,256,47014,2,0,P|128:323|194:376,1,150,0|0,1:0|0:0,0:0:0:0:
336,346,47413,22,0,P|375:341|417:359,1,75
277,245,47678,1,2,0:0:0:0:
212,282,47811,1,0,0:0:0:0:
60,204,47944,2,0,B|50:167|50:167|61:118,1,75,10|0,0:0|1:0,0:0:0:0:
152,51,48209,86,0,B|152:139|152:139|153:174|185:193,1,150,2|0,1:2|0:0,0:0:0:0:
353,290,48607,2,0,B|353:202|353:202|351:166|320:148,1,150,0|0,1:0|0:0,0:0:0:0:
233,297,49005,22,0,B|196:286|196:286|148:294,1,75,8|0,0:0|0:0,0:0:0:0:
11,307,49270,1,0,1:0:0:0:
28,380,49403,1,0,1:0:0:0:
160,291,49536,86,0,P|186:262|196:195,1,75,6|0,1:2|0:0,0:0:0:0:
177,155,49808,1,0,0:0:0:0:
70,73,49945,2,0,P|82:110|135:152,1,75,2|0,1:2|0:0,0:0:0:0:
177,155,50217,1,0,0:0:0:0:
272,100,50354,21,10,0:0:0:0:
290,234,50490,2,0,P|264:205|254:138,1,75
272,100,50763,1,2,1:2:0:0:
379,18,50899,2,0,P|366:55|313:97,1,75,0|0,0:0|1:0,0:0:0:0:
150,18,51172,86,0,B|190:1|233:17|214:26|260:42|305:21,1,150,2|0,1:2|0:0,0:0:0:0:
457,11,51581,1,2,1:2:0:0:
388,225,51717,1,10,0:0:0:0:
342,81,51854,2,0,L|378:73,1,37.5,10|2,0:0|0:0,0:0:0:0:
342,81,52126,21,10,0:0:0:0:
384,303,52263,1,10,0:0:0:0:
497,109,52399,1,10,0:0:0:0:
288,195,52536,86,0,L|232:184,1,37.5,14|0,1:2|0:0,0:0:0:0:
233,102,52674,2,0,L|269:94,1,37.5,10|0,0:0|0:0,0:0:0:0:
307,295,52813,86,0,L|188:289,1,112.500004291535,6|2,1:2|0:0,0:0:0:0:
128,246,53358,1,2,0:0:0:0:
122,358,53631,2,0,L|128:238,1,112.500004291535,8|2,0:0|0:0,0:0:0:0:
194,289,54176,1,2,0:0:0:0:
58,183,54449,22,0,L|177:177,1,112.500004291535,0|2,0:0|0:0,0:0:0:0:
237,134,54994,1,2,0:0:0:0:
231,21,55267,2,0,L|237:140,1,112.500004291535,8|2,0:0|0:0,0:0:0:0:
170,177,55813,1,2,0:0:0:0:
166,98,55949,1,0,0:0:0:0:
241,212,56085,86,0,P|289:227|365:202,1,112.500004291535,0|2,0:0|0:0,0:0:0:0:
410,164,56631,1,2,0:0:0:0:
408,271,56903,2,0,P|423:223|398:146,1,112.500004291535,8|2,0:0|0:0,0:0:0:0:
348,213,57449,1,2,0:0:0:0:
381,345,57722,22,0,P|333:360|256:335,1,112.500004291535,0|2,0:0|0:0,0:0:0:0:
212,297,58267,1,2,0:0:0:0:
28,283,58540,6,0,B|70:326|133:292|99:291|168:256|213:298,1,196.875007510186,8|0,0:0|0:0,0:0:0:0:
273,346,59085,1,2,0:0:0:0:
289,312,59176,1,0,0:0:0:0:
290,275,59267,1,0,0:0:0:0:
274,241,59358,70,0,L|283:106,1,132.00000402832,0|2,0:0|0:0,0:0:0:0:
293,11,59767,1,0,0:0:0:0:
293,11,59903,2,0,P|343:34|378:27,1,66.0000020141602,2|0,0:0|0:0,0:0:0:0:
394,159,60176,2,0,P|329:153|282:108,1,132.00000402832,8|2,0:0|0:0,0:0:0:0:
202,51,60585,1,0,0:0:0:0:
202,51,60722,2,0,P|152:74|117:67,1,66.0000020141602,2|0,0:0|0:0,0:0:0:0:
44,163,60994,22,0,L|52:294,1,132.00000402832,0|2,0:0|0:0,0:0:0:0:
137,274,61403,1,0,0:0:0:0:
137,274,61540,2,0,P|169:275|199:289,1,66.0000020141602,2|0,0:0|0:0,0:0:0:0:
382,366,61813,2,0,P|411:380|444:381,2,66.0000020141602,8|0|2,0:0|0:0|0:0,0:0:0:0:
369,268,62222,1,0,0:0:0:0:
291,328,62358,1,2,0:0:0:0:
278,230,62494,1,0,0:0:0:0:
356,170,62631,86,0,L|496:159,1,132.00000402832,0|2,0:0|0:0,0:0:0:0:
418,88,63040,1,0,0:0:0:0:
418,88,63176,2,0,P|376:71|340:68,1,66.0000020141602,2|0,0:0|0:0,0:0:0:0:
236,124,63449,2,0,P|182:114|106:158,1,132.00000402832,8|2,0:0|0:0,0:0:0:0:
190,209,63858,1,0,0:0:0:0:
190,209,63994,2,0,P|232:226|268:229,1,66.0000020141602,2|0,0:0|0:0,0:0:0:0:
406,157,64267,21,0,1:0:0:0:
228,0,64403,1,0,0:0:0:0:
233,18,64472,1,0,0:0:0:0:
236,37,64540,2,0,P|239:88|233:133,1,75,0|0,0:0|1:0,0:0:0:0:
190,209,64813,1,8,0:0:0:0:
38,83,64949,1,8,0:0:0:0:
38,83,65222,85,8,0:0:0:0:
119,281,65358,1,12,0:0:0:0:
237,104,65494,1,8,0:0:0:0:
238,291,65631,1,8,0:0:0:0:
146,10,65767,1,8,0:0:0:0:
133,160,65903,6,0,B|181:188|235:171|207:157|270:137|314:170,1,187.5,4|0,1:2|0:0,0:0:0:0:
512,189,66313,1,0,1:0:0:0:
443,252,66449,2,0,P|390:264|333:227,1,93.75
184,96,66722,2,0,B|188:47|188:47|183:1,1,93.75,8|0,0:0|0:0,0:0:0:0:
318,89,66994,1,0,0:0:0:0:
264,238,67131,2,0,P|266:284|264:331,1,93.75
82,359,67403,1,0,1:0:0:0:
82,266,67540,22,0,P|173:279|167:370,1,187.5,0|0,1:0|0:0,0:0:0:0:
39,192,67949,1,0,1:0:0:0:
116,139,68085,2,0,P|164:130|226:154,1,93.75
379,297,68358,2,0,B|375:248|375:248|379:203,1,93.75,8|0,0:0|0:0,0:0:0:0:
364,41,68631,1,0,0:0:0:0:
456,221,68767,1,0,1:0:0:0:
301,186,68903,1,8,0:3:0:0:
453,56,69040,1,4,1:3:0:0:
234,52,69176,86,0,B|256:101|242:152|224:126|202:187|235:244,1,187.5,0|0,1:0|0:0,0:0:0:0:
153,96,69585,1,0,1:0:0:0:
91,166,69722,2,0,P|34:173|-4:162,1,93.75
195,303,69994,2,0,B|244:299|244:299|288:303,1,93.75,8|0,0:0|0:0,0:0:0:0:
174,384,70267,1,0,0:0:0:0:
42,279,70403,1,0,0:0:0:0:
193,168,70540,1,0,0:0:0:0:
109,335,70676,1,0,1:0:0:0:
23,170,70813,22,0,B|-15:131|-17:66|7:31|7:31|27:28|48:33,1,187.5,0|0,1:3|0:0,0:0:0:0:
260,70,71222,1,0,1:0:0:0:
345,30,71358,1,8,0:0:0:0:
345,30,71494,2,0,B|394:20|394:20|467:42,1,93.75,8|0,0:0|0:0,0:0:0:0:
352,221,71767,1,8,0:0:0:0:
352,221,71903,1,8,0:0:0:0:
133,199,72040,1,8,0:0:0:0:
232,320,72176,1,8,1:3:0:0:
254,101,72313,1,4,0:3:0:0:
446,121,72449,86,0,B|459:186|459:186|445:242|445:242|459:333,1,187.5,0|0,1:0|0:0,0:0:0:0:
217,266,72858,1,0,1:0:0:0:
284,202,72994,2,0,P|338:179|384:186,1,93.75
242,358,73267,2,0,B|195:362|195:362|142:348,1,93.75,8|0,0:0|0:0,0:0:0:0:
120,146,73540,1,0,0:0:0:0:
217,266,73676,2,0,P|271:289|317:282,1,93.75
410,166,73949,1,0,1:0:0:0:
366,89,74085,22,0,B|414:60|473:68|514:110|514:110|492:118|476:141,1,187.5,0|0,1:0|0:0,0:0:0:0:
327,202,74494,1,0,1:0:0:0:
286,118,74631,2,0,P|283:60|316:12,1,93.75
381,272,74903,2,0,B|335:283|335:283|290:277,1,93.75,8|0,0:0|0:0,0:0:0:0:
155,107,75176,1,0,0:0:0:0:
178,288,75313,1,0,0:0:0:0:
56,124,75449,1,8,0:3:0:0:
246,92,75585,1,4,1:3:0:0:
395,184,75722,86,0,B|330:197|330:197|274:183|274:183|183:197,1,187.5,0|0,1:0|0:0,0:0:0:0:
487,167,76131,1,0,1:0:0:0:
422,92,76267,2,0,P|375:90|332:108,1,93.75
470,259,76540,2,0,B|486:213|486:213|488:137,1,93.75,8|0,0:0|0:0,0:0:0:0:
364,16,76813,1,0,0:0:0:0:
395,184,76949,1,0,0:0:0:0:
498,17,77085,1,0,0:0:0:0:
333,109,77222,1,0,1:0:0:0:
411,332,77358,21,0,1:0:0:0:
328,289,77494,2,0,B|323:240|323:240|341:174,1,93.75,8|8,0:0|0:0,0:0:0:0:
163,290,77767,1,0,1:0:0:0:
246,247,77903,2,0,B|260:199|260:199|255:131,1,93.75,8|8,0:0|0:0,0:0:0:0:
409,238,78176,1,0,1:0:0:0:
166,197,78449,53,12,0:0:0:0:
104,151,78540,1,8,0:0:0:0:
93,75,78631,1,8,0:0:0:0:
141,17,78722,2,0,P|176:6|204:9,1,46.875,8|0,0:0|0:0,0:0:0:0:
351,83,78858,2,0,P|365:115|367:143,1,46.875,8|0,0:0|0:0,0:0:0:0:
356,295,78994,102,0,P|313:348|149:320,1,225.000008583069,4|0,1:2|0:0,0:0:0:0:
80,378,79403,1,0,0:0:0:0:
78,136,79540,2,0,P|133:142|179:174,1,112.500004291535
245,247,79813,2,0,B|291:197|278:133|261:148|242:91|293:37,1,225.000008583069,8|0,0:0|0:0,0:0:0:0:
356,107,80222,1,0,0:0:0:0:
182,52,80358,2,0,P|131:42|57:61,1,112.500004291535,0|0,1:0|0:0,0:0:0:0:
85,283,80631,54,0,B|120:278|153:257|156:206|156:206|173:251|214:261|245:245,1,225.000008583069,0|0,1:0|0:0,0:0:0:0:
443,194,81040,2,0,P|435:162|440:63,1,112.500004291535,0|0,1:0|0:0,0:0:0:0:
507,325,81312,1,8,0:0:0:0:
506,325,81449,2,0,B|456:350|456:350|402:334,1,112.500004291535,8|0,0:0|0:0,0:0:0:0:
252,168,81721,2,0,P|320:146|388:190,1,112.500004291535,0|0,1:0|0:0,0:0:0:0:
512,89,81994,54,0,P|505:49|359:78,1,225.000008583069,0|0,1:0|0:0,0:0:0:0:
428,129,82403,1,0,0:0:0:0:
207,228,82539,2,0,P|179:184|191:123,1,112.500004291535,0|0,1:0|0:0,0:0:0:0:
250,32,82812,2,0,B|192:67|131:42|149:28|97:0|34:39,1,225.000008583069,8|0,0:0|0:0,0:0:0:0:
59,131,83221,1,0,0:0:0:0:
252,168,83357,2,0,P|302:176|370:154,1,112.500004291535,0|0,1:0|0:0,0:0:0:0:
494,314,83630,54,0,P|417:264|421:355,1,225.000008583069,0|0,1:0|0:0,0:0:0:0:
494,183,84039,1,0,1:0:0:0:
442,18,84175,2,0,P|415:79|446:133,1,112.500004291535,0|8,0:0|0:0,0:0:0:0:
293,243,84448,1,8,0:0:0:0:
246,61,84584,1,8,0:0:0:0:
360,176,84721,1,0,1:0:0:0:
179,128,84857,1,0,0:0:0:0:
336,85,84994,1,8,1:2:0:0:
384,267,85130,1,8,0:0:0:0:
113,194,85266,54,0,P|52:186|-3:207,1,112.500004291535,4|0,1:2|0:0,0:0:0:0:
179,128,85539,1,0,0:0:0:0:
202,219,85675,1,0,0:0:0:0:
393,167,85812,2,0,P|363:217|389:275,1,112.500004291535
435,341,86084,2,0,B|375:381|322:352|339:338|279:314|222:351,2,225.000008583069,8|0|0,0:0|0:0|1:0,0:0:0:0:
490,262,86766,1,0,0:0:0:0:
290,206,86903,54,0,B|253:200|227:159|242:115|242:115|276:8,1,225.000008583069,0|0,1:0|0:0,0:0:0:0:
415,107,87312,2,0,P|373:137|308:133,1,112.500004291535,0|0,1:0|0:0,0:0:0:0:
73,145,87584,1,8,0:0:0:0:
73,145,87721,2,0,B|57:199|57:199|64:254,1,112.500004291535,8|0,0:0|0:0,0:0:0:0:
226,336,87993,1,0,1:0:0:0:
147,173,88130,1,0,0:0:0:0:
9,352,88266,54,0,P|68:370|142:339,1,112.500004291535,0|0,1:0|0:0,0:0:0:0:
241,221,88538,1,0,0:0:0:0:
314,287,88675,1,0,0:0:0:0:
467,183,88811,2,0,P|414:201|359:190,1,112.500004291535,0|0,1:0|0:0,0:0:0:0:
249,123,89084,2,0,B|275:186|241:242|231:221|195:270|225:337,2,225.000008583069,8|0|0,0:0|0:0|1:0,0:0:0:0:
314,287,89766,1,0,0:0:0:0:
225,120,89902,54,0,P|162:112|102:120,1,112.500004291535,0|0,1:0|0:0,0:0:0:0:
4,247,90175,1,0,0:0:0:0:
138,349,90311,2,0,P|201:357|261:349,1,112.500004291535,0|0,1:0|0:0,0:0:0:0:
359,222,90584,1,8,0:0:0:0:
188,240,90720,53,8,0:0:0:0:
328,48,90856,1,8,0:0:0:0:
426,265,90993,1,0,1:0:0:0:
225,120,91129,1,0,0:0:0:0:
415,140,91266,1,8,1:2:0:0:
303,294,91402,1,8,0:0:0:0:
421,47,91538,6,0,P|371:124|244:82,1,225.000008583069,6|0,1:0|0:0,0:0:0:0:
198,22,91947,1,0,0:0:0:0:
43,153,92084,2,0,P|28:213|68:255,1,112.500004291535,2|0,0:0|0:0,0:0:0:0:
209,321,92356,2,0,B|153:283|83:321|125:333|55:365|-1:322,1,225.000008583069,10|2,0:0|0:1,0:0:0:0:
56,249,92766,1,0,0:0:0:0:
266,384,92902,2,0,P|301:343|391:366,1,112.500004291535,2|0,1:2|0:0,0:0:0:0:
494,372,93175,54,0,B|527:331|521:246|479:213|479:213|435:224|400:205,1,225.000008583069,2|0,1:2|0:0,0:0:0:0:
265,148,93584,2,0,P|319:135|373:150,1,112.500004291535,2|0,1:2|0:0,0:0:0:0:
356,339,93856,1,10,0:0:0:0:
356,339,93993,2,0,B|346:283|346:283|352:228,1,112.500004291535,10|0,0:1|0:0,0:0:0:0:
447,27,94265,2,0,P|457:83|451:137,1,112.500004291535,0|0,1:0|0:0,0:0:0:0:
253,245,94538,54,0,P|181:274|197:171,1,225.000008583069,2|0,1:2|0:0,0:0:0:0:
289,162,94947,1,0,0:0:0:0:
233,352,95083,2,0,P|189:357|123:329,1,112.500004291535,2|0,1:1|0:0,0:0:0:0:
29,233,95356,2,0,B|66:177|28:107|16:149|-15:79|27:22,1,225.000008583069,10|2,0:2|0:0,0:0:0:0:
120,0,95765,1,0,0:0:0:0:
295,173,95901,2,0,P|306:222|286:312,1,112.500004291535,2|0,1:1|0:0,0:0:0:0:
362,128,96174,54,0,P|289:92|216:195,1,225.000008583069,2|0,1:2|0:0,0:0:0:0:
206,287,96583,1,0,1:0:0:0:
29,233,96719,2,0,P|82:217|137:228,1,112.500004291535,2|8,0:1|0:0,0:0:0:0:
253,358,96992,1,10,0:2:0:0:
214,190,97128,1,10,0:0:0:0:
87,308,97265,1,0,1:0:0:0:
288,244,97401,1,2,0:0:0:0:
212,58,97538,1,10,1:1:0:0:
206,287,97674,1,10,0:0:0:0:
381,129,97810,54,0,P|482:153|484:258,1,225.000008583069,6|0,1:2|0:0,0:0:0:0:
415,326,98219,1,0,0:0:0:0:
214,190,98356,2,0,P|236:136|207:82,1,112.500004291535,2|0,0:1|0:0,0:0:0:0:
53,30,98628,2,0,B|109:73|180:40|137:29|207:-9|263:28,2,225.000008583069,10|2|2,0:0|0:2|1:1,0:0:0:0:
82,122,99310,1,0,0:0:0:0:
288,128,99447,54,0,B|391:93|391:93|441:78|495:97|506:131,1,225.000008583069,2|0,1:2|0:0,0:0:0:0:
427,269,99856,2,0,P|410:210|436:161,1,112.500004291535,2|2,1:2|0:1,0:0:0:0:
489,344,100128,1,10,0:0:0:0:
489,343,100265,2,0,B|435:359|435:359|379:352,1,112.500004291535,10|0,0:2|0:0,0:0:0:0:
202,266,100537,1,0,1:0:0:0:
351,153,100674,1,0,0:0:0:0:
296,328,100810,54,0,P|292:263|302:212,1,112.500004291535,2|0,1:2|0:0,0:0:0:0:
351,153,101082,1,2,0:0:0:0:
380,228,101219,1,0,0:0:0:0:
163,181,101355,2,0,P|222:147|303:154,1,112.500004291535,2|0,1:2|0:0,0:0:0:0:
441,172,101628,2,0,B|484:228|451:299|440:256|401:326|439:382,1,225.000008583069,10|0,0:1|0:0,0:0:0:0:
510,332,102037,1,8,0:0:0:0:
332,192,102173,2,0,P|384:173|440:171,1,112.500004291535,0|8,1:0|0:0,0:0:0:0:
320,376,102446,54,0,P|258:373|192:344,1,112.500004291535,2|0,1:1|0:0,0:0:0:0:
124,207,102719,1,2,1:2:0:0:
106,375,102855,1,0,0:0:0:0:
219,249,102991,1,10,0:0:0:0:
54,285,103128,1,8,0:0:0:0:
208,146,103264,53,10,0:1:0:0:
347,300,103400,1,10,0:0:0:0:
329,69,103537,1,10,0:0:0:0:
124,207,103673,1,10,0:0:0:0:
395,189,103810,1,10,0:0:0:0:
141,46,103946,1,10,0:0:0:0:
256,338,104082,6,0,P|262:292|261:222,1,112.500004291535,4|2,1:2|0:0,0:0:0:0:
310,164,104491,1,0,0:0:0:0:
261,96,104628,2,0,P|260:57|262:27,1,56.2500021457673,2|0,0:0|0:0,0:0:0:0:
402,235,104900,2,0,P|441:234|471:236,1,56.2500021457673,8|0,0:0|0:0,0:0:0:0:
366,163,105173,2,0,P|327:164|297:162,1,56.2500021457673,2|0,0:0|0:0,0:0:0:0:
261,225,105446,1,2,0:0:0:0:
202,172,105582,1,0,0:0:0:0:
207,60,105719,22,0,P|201:106|202:176,1,112.500004291535,0|2,0:0|0:0,0:0:0:0:
153,233,106128,1,0,0:0:0:0:
202,302,106264,2,0,P|203:341|201:371,1,56.2500021457673,2|0,0:0|0:0,0:0:0:0:
61,163,106537,2,0,P|22:163|-8:161,1,56.2500021457673,8|0,0:0|0:0,0:0:0:0:
97,235,106810,2,0,P|136:234|166:236,1,56.2500021457673,2|0,0:0|0:0,0:0:0:0:
202,173,107082,1,2,0:0:0:0:
260,225,107219,1,0,0:0:0:0:
277,149,107355,86,0,L|394:148,1,112.500004291535,0|2,0:0|0:0,0:0:0:0:
451,99,107764,1,0,0:0:0:0:
378,70,107900,2,0,L|320:70,1,56.2500021457673,2|0,0:0|0:0,0:0:0:0:
392,259,108173,2,0,L|392:316,1,56.2500021457673,8|0,0:0|0:0,0:0:0:0:
462,233,108446,2,0,L|462:176,1,56.2500021457673,2|0,0:0|0:0,0:0:0:0:
389,148,108719,1,2,0:0:0:0:
327,197,108855,1,0,0:0:0:0:
265,246,108991,22,0,L|148:247,1,112.500004291535,0|2,0:0|0:0,0:0:0:0:
91,296,109400,1,0,0:0:0:0:
164,325,109537,2,0,L|222:325,1,56.2500021457673,2|0,0:0|0:0,0:0:0:0:
150,136,109810,2,0,L|150:79,1,56.2500021457673,8|0,0:0|0:0,0:0:0:0:
18,268,110083,1,2,0:0:0:0:
80,218,110219,1,0,0:0:0:0:
153,247,110355,1,2,0:0:0:0:
215,197,110491,1,0,0:0:0:0:
288,225,110628,86,0,P|351:244|417:219,1,132.00000402832,0|2,0:0|0:0,0:0:0:0:
436,88,111037,1,0,0:0:0:0:
436,88,111173,2,0,P|433:141|453:172,1,66.0000020141602,2|0,0:0|0:0,0:0:0:0:
472,276,111446,2,0,P|475:329|455:360,1,66.0000020141602,8|0,0:0|0:0,0:0:0:0:
395,299,111719,1,2,0:0:0:0:
494,202,111855,1,0,0:0:0:0:
361,165,111991,2,0,P|323:160|294:167,1,66.0000020141602,2|0,0:0|0:0,0:0:0:0:
172,202,112264,22,0,P|168:169|171:136,1,66.0000020141602
31,138,112537,2,0,P|61:151|88:170,1,66.0000020141602,2|0,0:0|0:0,0:0:0:0:
156,47,112810,2,0,P|129:66|99:80,1,66.0000020141602,2|0,0:0|0:0,0:0:0:0:
104,264,113082,2,0,P|169:275|234:264,1,132.00000402832,8|2,0:0|0:0,0:0:0:0:
299,378,113491,1,0,0:0:0:0:
299,378,113628,2,0,P|296:325|316:294,1,66.0000020141602,2|0,0:0|0:0,0:0:0:0:
282,199,113900,86,0,P|289:131|268:71,1,132.00000402832,0|2,0:0|0:0,0:0:0:0:
419,89,114310,1,0,0:0:0:0:
419,89,114446,2,0,P|386:88|356:102,1,66.0000020141602,2|0,0:0|0:0,0:0:0:0:
214,145,114719,2,0,P|146:152|86:131,1,132.00000402832,8|2,0:0|0:0,0:0:0:0:
104,282,115128,1,0,0:0:0:0:
104,282,115264,2,0,P|103:249|117:219,1,66.0000020141602,2|0,0:0|0:0,0:0:0:0:
185,67,115537,21,0,1:0:0:0:
299,250,115673,1,0,0:0:0:0:
294,232,115741,1,0,0:0:0:0:
291,213,115810,2,0,P|288:162|294:117,1,75,0|0,0:0|1:0,0:0:0:0:
203,272,116082,1,8,0:0:0:0:
381,186,116219,1,8,0:0:0:0:
381,186,116491,85,8,0:0:0:0:
495,347,116628,1,12,0:0:0:0:
500,154,116764,1,8,0:0:0:0:
360,287,116900,1,8,0:0:0:0:
413,67,117037,1,8,0:0:0:0:
196,132,117173,6,0,B|156:158|98:128|123:127|63:101|17:132,1,187.5,4|0,1:2|0:0,0:0:0:0:
191,276,117582,1,0,1:0:0:0:
277,235,117719,2,0,P|286:171|282:120,1,93.75
162,54,117991,2,0,B|208:66|208:66|254:58,1,93.75,8|0,0:0|0:0,0:0:0:0:
404,7,118264,1,2,0:1:0:0:
468,153,118400,2,0,P|422:141|377:150,1,93.75
236,219,118673,1,0,1:0:0:0:
227,308,118810,22,0,P|305:320|357:203,1,187.5,0|0,1:0|0:0,0:0:0:0:
112,168,119219,1,0,1:0:0:0:
63,248,119355,2,0,P|138:259|171:239,1,93.75
276,137,119628,2,0,B|286:185|286:185|278:258,1,93.75,10|0,0:1|0:0,0:0:0:0:
168,354,119900,1,0,0:0:0:0:
112,168,120037,1,0,0:0:0:0:
72,333,120173,1,8,0:3:0:0:
208,189,120310,1,4,0:3:0:0:
400,329,120446,86,0,B|431:279|417:229|403:252|372:189|421:138,1,187.5,0|0,1:0|0:0,0:0:0:0:
208,189,120855,1,0,1:0:0:0:
242,275,120991,2,0,P|288:284|333:272,1,93.75,2|0,0:1|0:0,0:0:0:0:
102,172,121264,2,0,B|53:163|53:163|1:171,1,93.75,8|0,0:0|0:0,0:0:0:0:
89,69,121537,1,0,0:0:0:0:
208,189,121673,1,0,0:0:0:0:
190,0,121810,1,2,0:1:0:0:
102,172,121946,1,0,1:0:0:0:
295,163,122082,22,0,P|355:178|414:296,1,187.5,0|0,1:0|0:0,0:0:0:0:
212,367,122491,1,0,1:0:0:0:
142,304,122628,1,10,0:1:0:0:
142,304,122764,2,0,B|99:285|99:285|39:284,1,93.75,8|0,0:0|0:0,0:0:0:0:
159,130,123037,1,8,0:0:0:0:
159,130,123173,1,8,0:0:0:0:
388,111,123310,1,8,0:0:0:0:
283,235,123446,1,10,1:1:0:0:
264,6,123582,1,4,0:3:0:0:
72,11,123719,86,0,B|59:68|59:68|72:133|72:133|57:193,1,187.5,0|0,1:0|0:0,0:0:0:0:
283,235,124128,1,0,1:0:0:0:
340,161,124264,2,0,P|280:142|237:155,1,93.75
417,321,124537,2,0,B|465:331|465:331|519:321,1,93.75,8|0,0:0|0:0,0:0:0:0:
509,157,124810,1,2,0:1:0:0:
371,247,124946,2,0,P|325:253|283:235,1,93.75
135,149,125219,1,0,1:0:0:0:
170,70,125355,22,0,B|126:29|47:31|19:68|19:68|41:72|58:98,1,187.5,0|0,1:0|0:0,0:0:0:0:
210,189,125764,1,0,1:0:0:0:
258,110,125900,2,0,P|267:64|255:19,1,93.75
396,90,126173,2,0,B|444:109|444:109|506:109,1,93.75,10|0,0:1|0:0,0:0:0:0:
347,11,126446,1,0,0:0:0:0:
392,199,126582,1,0,0:0:0:0:
438,11,126719,1,8,0:3:0:0:
253,66,126855,1,4,0:3:0:0:
251,266,126991,86,0,B|309:259|309:259|384:288|384:288|457:279,1,187.5,0|0,1:0|0:0,0:0:0:0:
190,180,127400,1,0,1:0:0:0:
279,150,127537,2,0,P|325:146|369:161,1,93.75,2|0,0:1|0:0,0:0:0:0:
164,183,127810,2,0,B|148:139|148:139|157:79,1,93.75,8|0,0:0|0:0,0:0:0:0:
328,7,128082,1,0,0:0:0:0:
369,161,128219,1,0,0:0:0:0:
231,24,128355,1,2,0:1:0:0:
232,219,128491,1,0,1:0:0:0:
114,19,128628,21,0,1:0:0:0:
30,60,128764,2,0,B|19:106|19:106|29:150,1,93.75,8|8,0:0|0:0,0:0:0:0:
194,66,129037,1,0,1:0:0:0:
278,107,129173,2,0,B|284:153|284:153|268:197,1,93.75,10|8,0:1|0:0,0:0:0:0:
113,111,129446,1,0,1:0:0:0:
275,21,129719,53,12,0:0:0:0:
350,15,129810,1,8,0:0:0:0:
415,54,129900,1,8,0:0:0:0:
445,123,129991,2,0,P|429:152|406:182,1,46.875,8|0,0:0|0:0,0:0:0:0:
275,278,130128,2,0,P|241:279|204:274,1,46.875,8|0,0:0|0:0,0:0:0:0:
69,164,130264,102,0,P|91:89|242:54,1,225.000008583069,4|0,1:2|0:0,0:0:0:0:
311,77,130673,1,0,0:0:0:0:
366,239,130810,2,0,P|309:244|260:212,1,112.500004291535
188,162,131082,2,0,B|147:221|179:280|188:255|227:313|176:388,1,225.000008583069,8|0,0:0|0:0,0:0:0:0:
105,320,131491,1,0,0:0:0:0:
279,346,131628,2,0,P|350:346|388:319,1,112.500004291535,0|0,1:0|0:0,0:0:0:0:
448,109,131900,54,0,B|420:120|368:97|353:64|353:64|348:100|308:136|272:129,1,225.000008583069,0|0,1:0|0:0,0:0:0:0:
106,148,132309,2,0,P|127:84|117:28,1,112.500004291535,0|0,1:0|0:0,0:0:0:0:
47,252,132581,1,8,0:0:0:0:
47,252,132718,2,0,B|100:267|100:267|155:254,1,112.500004291535,8|0,0:0|0:0,0:0:0:0:
316,89,132990,2,0,P|262:73|208:87,1,112.500004291535,0|0,1:0|0:0,0:0:0:0:
268,320,133263,54,0,P|332:245|429:311,1,225.000008583069,0|0,1:0|0:0,0:0:0:0:
353,362,133672,1,0,0:0:0:0:
175,283,133808,2,0,P|192:223|164:158,1,112.500004291535,0|0,1:0|0:0,0:0:0:0:
131,87,134081,2,0,B|190:128|249:96|224:87|282:48|357:99,1,225.000008583069,8|0,0:0|0:0,0:0:0:0:
421,149,134490,1,0,0:0:0:0:
286,291,134626,2,0,B|218:293|164:280,1,112.500004291535,0|0,1:0|0:0,0:0:0:0:
343,90,134899,54,0,P|332:9|256:84,1,225.000008583069,0|0,1:0|0:0,0:0:0:0:
284,159,135308,1,0,1:0:0:0:
101,132,135444,2,0,P|99:75|109:20,1,112.500004291535,0|8,0:0|0:0,0:0:0:0:
177,176,135717,1,8,0:0:0:0:
100,305,135853,1,8,0:0:0:0:
25,174,135990,1,0,1:0:0:0:
176,263,136126,1,0,0:0:0:0:
101,132,136263,1,8,1:2:0:0:
24,347,136399,1,8,0:0:0:0:
253,220,136535,54,0,P|319:208|376:229,1,112.500004291535,4|0,1:2|0:0,0:0:0:0:
417,365,136808,1,0,0:0:0:0:
334,377,136944,1,0,0:0:0:0:
175,262,137081,2,0,P|161:207|174:153,1,112.500004291535
230,83,137353,2,0,B|171:42|112:74|137:83|79:122|4:71,2,225.000008583069,8|0|0,0:0|0:0|1:0,0:0:0:0:
259,175,138035,1,0,0:0:0:0:
454,208,138172,54,0,B|479:203|503:170|502:124|502:124|490:4,1,225.000008583069,0|0,1:0|0:0,0:0:0:0:
328,55,138581,2,0,P|358:101|407:129,1,112.500004291535,0|0,1:0|0:0,0:0:0:0:
471,344,138853,1,8,0:0:0:0:
471,344,138990,2,0,B|440:297|440:297|391:269,1,112.500004291535,8|0,0:0|0:0,0:0:0:0:
222,216,139262,1,0,1:0:0:0:
330,361,139399,1,0,0:0:0:0:
438,173,139535,54,0,P|382:163|329:179,1,112.500004291535,0|0,1:0|0:0,0:0:0:0:
224,326,139807,1,0,0:0:0:0:
220,231,139944,1,0,0:0:0:0:
24,299,140080,2,0,P|74:274|129:280,1,112.500004291535,0|0,1:0|0:0,0:0:0:0:
224,326,140353,2,0,B|187:264|223:207|230:233|273:178|227:99,2,225.000008583069,8|0|0,0:0|0:0|1:0,0:0:0:0:
149,161,141035,1,0,0:0:0:0:
308,275,141171,54,0,P|368:277|424:268,1,112.500004291535,0|0,1:0|0:0,0:0:0:0:
512,127,141444,1,0,0:0:0:0:
345,110,141580,2,0,P|285:108|229:117,1,112.500004291535,0|0,1:0|0:0,0:0:0:0:
141,258,141853,1,8,0:0:0:0:
305,318,141989,5,8,0:0:0:0:
209,100,142125,1,8,0:0:0:0:
68,294,142262,1,0,1:0:0:0:
295,193,142398,1,0,0:0:0:0:
105,173,142535,1,8,1:2:0:0:
182,347,142671,1,8,0:0:0:0:
118,83,142807,54,0,P|34:120|55:252,1,225.000008583069,6|0,1:0|0:0,0:0:0:0:
128,278,143216,1,0,0:0:0:0:
338,201,143353,2,0,P|354:160|317:99,1,112.500004291535,2|0,0:0|0:0,0:0:0:0:
169,19,143625,2,0,B|221:60|288:26|257:18|327:-21|384:31,1,225.000008583069,10|2,0:0|0:1,0:0:0:0:
438,105,144035,1,0,0:0:0:0:
246,177,144171,2,0,P|189:178|135:165,1,112.500004291535,2|0,1:2|0:0,0:0:0:0:
8,301,144444,54,0,B|63:345|134:310|152:245|152:245|121:250|102:236,1,225.000008583069,2|0,1:2|0:0,0:0:0:0:
79,75,144853,2,0,P|56:126|60:198,1,112.500004291535,2|0,1:2|0:0,0:0:0:0:
246,177,145125,1,10,0:0:0:0:
246,177,145262,2,0,B|186:164|186:164|135:166,1,112.500004291535,10|0,0:1|0:0,0:0:0:0:
241,323,145534,2,0,P|301:336|352:334,1,112.500004291535,0|0,1:0|0:0,0:0:0:0:
416,116,145807,54,0,P|326:90|347:180,1,225.000008583069,2|0,1:2|0:0,0:0:0:0:
440,205,146216,1,0,0:0:0:0:
412,8,146352,2,0,P|357:-3|304:12,1,112.500004291535,2|0,1:1|0:0,0:0:0:0:
172,119,146625,2,0,B|123:171|163:241|170:210|204:277|163:329,1,225.000008583069,10|2,0:2|0:0,0:0:0:0:
245,380,147034,1,0,0:0:0:0:
411,228,147170,2,0,P|424:174|403:123,1,112.500004291535,2|0,1:1|0:0,0:0:0:0:
501,262,147443,54,0,P|390:324|318:258,1,225.000008583069,2|0,1:2|0:0,0:0:0:0:
339,188,147852,1,0,1:0:0:0:
158,184,147988,2,0,P|203:218|286:197,1,112.500004291535,2|8,0:1|0:0,0:0:0:0:
403,123,148261,1,10,0:2:0:0:
233,129,148397,1,10,0:0:0:0:
324,273,148534,1,0,1:0:0:0:
158,184,148670,1,2,0:0:0:0:
318,84,148807,1,10,1:1:0:0:
148,9,148943,1,10,0:0:0:0:
82,224,149079,54,0,P|106:298|232:257,1,225.000008583069,6|0,1:2|0:0,0:0:0:0:
188,184,149488,1,0,0:0:0:0:
359,197,149625,2,0,P|330:243|344:296,1,112.500004291535,2|0,0:1|0:0,0:0:0:0:
502,370,149897,2,0,B|449:321|379:361|410:368|343:402|291:361,2,225.000008583069,10|2|2,0:0|0:2|1:1,0:0:0:0:
344,296,150579,1,0,0:0:0:0:
191,380,150716,54,0,B|149:367|125:326|132:283|132:283|147:182,1,225.000008583069,2|0,1:2|0:0,0:0:0:0:
284,68,151125,2,0,P|288:125|276:189,1,112.500004291535,2|2,1:2|0:1,0:0:0:0:
103,116,151397,1,10,0:0:0:0:
103,115,151534,2,0,B|158:108|158:108|214:112,1,112.500004291535,10|0,0:2|0:0,0:0:0:0:
376,192,151806,1,0,1:0:0:0:
226,291,151943,1,0,0:0:0:0:
387,372,152079,54,0,P|406:320|402:263,1,112.500004291535,2|0,1:2|0:0,0:0:0:0:
277,194,152351,1,2,0:0:0:0:
319,281,152488,1,0,0:0:0:0:
487,194,152624,2,0,P|453:130|407:114,1,112.500004291535,2|0,1:2|0:0,0:0:0:0:
254,36,152897,2,0,B|205:88|245:158|252:127|286:194|245:246,1,225.000008583069,10|0,0:1|0:0,0:0:0:0:
337,218,153306,1,8,0:0:0:0:
153,274,153442,2,0,P|97:278|42:265,1,112.500004291535,0|8,1:0|0:0,0:0:0:0:
36,89,153715,54,0,P|99:76|174:89,1,112.500004291535,2|0,1:1|0:0,0:0:0:0:
330,114,153988,1,2,1:2:0:0:
172,192,154124,1,0,0:0:0:0:
254,36,154260,1,10,0:0:0:0:
279,212,154397,1,8,0:0:0:0:
438,146,154533,53,10,0:1:0:0:
438,151,154601,1,0,0:0:0:0:
438,157,154669,2,0,L|437:213,1,56.2500021457673,10|0,0:0|0:0,0:0:0:0:
290,303,154806,53,10,0:0:0:0:
289,297,154874,1,0,0:0:0:0:
289,290,154942,2,0,L|284:227,1,56.2500021457673,10|0,0:0|0:0,0:0:0:0:
77,136,155079,53,10,0:0:0:0:
74,142,155147,1,0,0:0:0:0:
72,147,155215,1,10,0:0:0:0:
70,152,155283,1,0,0:0:0:0:
69,158,155351,6,0,P|62:194|61:232,1,75,6|0,1:2|0:0,0:0:0:0:
78,257,155623,2,0,P|84:286|85:316,1,60
70,340,155896,2,0,P|71:362|74:384,1,44.999998626709
201,328,156169,1,0,0:0:0:0:
141,208,156305,1,0,0:0:0:0:
225,103,156441,1,2,0:0:0:0:
225,103,156714,6,0,P|231:139|232:177,1,75,2|0,0:0|0:0,0:0:0:0:
216,202,156987,2,0,P|209:231|208:261,1,60
225,285,157260,2,0,P|223:307|220:329,1,44.999998626709
93,273,157532,1,0,0:0:0:0:
153,153,157669,1,0,0:0:0:0:
69,48,157805,1,2,0:0:0:0:
69,48,158078,22,0,P|62:84|61:122,1,75,6|0,1:2|0:0,0:0:0:0:
78,147,158350,2,0,P|84:176|85:206,1,60
72,273,158623,2,0,P|68:250|67:228,1,44.999998626709
182,102,158896,22,0,P|188:146|214:174,1,60,6|0,1:2|0:0,0:0:0:0:
224,172,159168,2,0,P|223:201|209:228,1,44.999998626709
194,265,159441,2,0,P|195:243|204:223,1,30
330,125,159714,22,0,P|321:142|331:166,1,44.999998626709,6|0,1:2|0:0,0:0:0:0:
348,188,159987,2,0,P|357:205|350:222,1,30
338,253,160259,2,0,P|335:245|338:238,1,15,2|0,0:0|1:0,0:0:0:0:
482,211,160532,21,0,1:0:0:0:
509,118,160668,1,8,0:0:0:0:
434,227,160805,1,8,0:0:0:0:
445,66,160941,1,8,0:0:0:0:
386,242,161078,1,8,0:0:0:0:
383,19,161214,1,8,0:0:0:0:
142,69,161350,69,2,1:2:0:0:
210,323,161487,1,2,0:0:0:0:
142,69,161759,5,2,0:0:0:0:
210,323,161896,1,2,0:0:0:0:
142,69,162168,102,0,P|153:92|155:114,3,44.999998626709,2|0|0|0,0:0|0:0|0:0|0:0,0:0:0:0:
107,271,162441,2,0,P|130:241|169:224,3,60,2|0|0|0,0:0|0:0|0:0|0:0,0:0:0:0:
299,197,162714,6,0,P|275:188|255:175,5,50,2|0|0|0|0|0,0:0|0:0|0:0|0:0|0:0|0:0,0:0:0:0:
330,186,162991,38,0,P|401:139|470:146,1,150,4|8,0:2|0:0,0:0:0:0:
472,191,163354,1,8,0:0:0:0:
462,239,163445,1,8,0:0:0:0:
432,280,163536,2,0,P|435:319|456:364,1,75,8|0,0:0|0:0,0:0:0:0:
348,355,163809,2,0,P|310:349|277:333,1,75,8|8,0:0|0:0,0:0:0:0:
264,235,164081,2,0,P|301:229|335:214,1,75,8|0,0:0|0:0,0:0:0:0:
195,305,164354,22,0,P|124:352|55:345,1,150,8|8,0:0|0:0,0:0:0:0:
52,299,164718,1,8,0:0:0:0:
62,251,164809,1,8,0:0:0:0:
93,211,164900,2,0,P|90:172|69:127,1,75,8|8,0:0|0:0,0:0:0:0:
227,152,165172,1,8,0:0:0:0:
227,152,165309,1,8,0:0:0:0:
163,14,165445,1,8,0:0:0:0:
163,14,165581,1,8,0:0:0:0:
338,115,165718,86,0,P|359:183|323:261,1,150,8|8,0:0|0:0,0:0:0:0:
286,236,166081,1,8,0:0:0:0:
237,224,166172,1,8,0:0:0:0:
189,236,166263,2,0,P|157:271|149:311,1,75,8|8,0:0|0:0,0:0:0:0:
237,384,166536,22,0,P|199:384|167:367,2,75,0|8|8,0:0|0:0|0:0,0:0:0:0:
14,348,166945,2,0,P|51:348|83:331,2,75,8|8|8,0:0|0:0|0:0,0:0:0:0:
220,294,167354,86,0,P|198:282|185:261,3,50,8|8|8|8,0:0|0:0|0:0|0:0,0:0:0:0:
29,258,167763,2,0,P|61:240|80:208,2,75,8|8|8,0:0|0:0|0:0,0:0:0:0:
165,136,168172,22,0,P|145:104|144:67,1,75,8|8,0:0|0:0,0:0:0:0:
274,137,168444,2,0,P|272:174|253:205,1,75,8|8,0:0|0:0,0:0:0:0:
279,67,168717,86,0,P|228:40|136:77,1,150,8|8,0:0|0:0,0:0:0:0:
102,92,169081,1,8,0:0:0:0:
53,92,169172,1,8,0:0:0:0:
10,67,169263,2,0,P|0:110|6:151,1,75,8|0,0:0|0:0,0:0:0:0:
37,238,169535,2,0,P|85:242|134:223,1,75,8|8,0:0|0:0,0:0:0:0:
243,133,169808,2,0,P|195:137|146:118,1,75,8|0,0:0|0:0,0:0:0:0:
185,240,170081,22,0,P|236:267|328:230,1,150,8|8,0:0|0:0,0:0:0:0:
362,215,170444,1,8,0:0:0:0:
411,215,170535,1,8,0:0:0:0:
454,240,170626,2,0,P|464:196|457:155,1,75,8|8,0:0|0:0,0:0:0:0:
313,141,170899,1,8,0:0:0:0:
313,141,171035,1,8,0:0:0:0:
409,26,171172,1,8,0:0:0:0:
409,26,171308,1,8,0:0:0:0:
214,119,171444,86,0,P|179:173|189:269,1,150,8|8,0:0|0:0,0:0:0:0:
210,298,171807,1,8,0:0:0:0:
256,315,171898,1,8,0:0:0:0:
306,315,171989,2,0,P|334:315|403:336,1,75,8|8,0:0|0:0,0:0:0:0:
494,301,172262,22,0,P|464:278|427:274,2,75,0|8|8,0:0|0:0|0:0,0:0:0:0:
304,244,172671,2,0,P|335:223|372:221,2,75,8|8|8,0:0|0:0|0:0,0:0:0:0:
487,223,173080,86,0,P|478:199|458:185,3,50,8|8|8|8,0:0|0:0|0:0|0:0,0:0:0:0:
315,165,173489,2,0,P|331:131|362:111,2,75,8|8|8,0:0|0:0|0:0,0:0:0:0:
452,70,173898,22,0,P|456:33|441:0,1,75,8|8,0:0|0:0,0:0:0:0:
308,28,174170,2,0,P|291:61|293:98,1,75,8|8,0:0|0:0,0:0:0:0:
369,281,174443,102,0,B|333:308|286:286|308:282|254:259|208:293,1,150,4|8,0:2|0:0,0:0:0:0:
176,285,174807,1,8,0:0:0:0:
147,247,174898,1,8,0:0:0:0:
160,201,174989,2,0,P|172:163|155:115,1,75,8|0,0:0|0:0,0:0:0:0:
21,86,175261,2,0,P|56:76|105:77,1,75,8|8,0:0|0:0,0:0:0:0:
250,53,175534,2,0,P|212:52|176:42,1,75,8|0,0:0|0:0,0:0:0:0:
16,198,175807,22,0,B|52:225|99:203|77:199|131:176|177:210,1,150,8|8,0:0|0:0,0:0:0:0:
202,222,176170,1,8,0:0:0:0:
245,199,176261,1,8,0:0:0:0:
250,151,176352,2,0,P|270:120|318:110,1,75,8|8,0:0|0:0,0:0:0:0:
497,244,176625,1,8,0:0:0:0:
426,262,176761,1,8,0:0:0:0:
356,237,176898,1,8,0:0:0:0:
313,177,177034,1,8,0:0:0:0:
349,41,177170,86,0,P|417:11|494:28,1,150,8|8,0:0|0:0,0:0:0:0:
512,69,177533,1,8,0:0:0:0:
510,119,177624,1,8,0:0:0:0:
484,161,177715,2,0,P|438:176|403:168,1,75,8|8,0:0|0:0,0:0:0:0:
266,48,177988,22,0,P|254:87|253:138,2,75,0|8|8,0:0|0:0|0:0,0:0:0:0:
208,277,178397,2,0,P|220:238|221:187,2,75,8|8|8,0:0|0:0|0:0,0:0:0:0:
188,59,178806,85,8,0:0:0:0:
168,135,178942,1,0,0:0:0:0:
112,79,179078,1,8,0:0:0:0:
248,135,179215,2,0,P|285:138|323:131,2,75,8|8|8,0:0|0:0|0:0,0:0:0:0:
222,204,179624,21,8,0:0:0:0:
160,242,179760,1,8,0:0:0:0:
85,234,179896,2,0,P|84:189|88:151,1,75,8|8,0:0|0:0,0:0:0:0:
112,79,180169,85,8,0:0:0:0:
18,254,180306,1,0,0:0:0:0:
14,139,180442,1,8,0:0:0:0:
120,308,180578,1,0,0:0:0:0:
292,208,180715,2,0,P|332:200|377:206,2,75,8|0|8,0:0|0:0|0:0,0:0:0:0:
213,132,181124,1,8,0:0:0:0:
213,132,181192,1,0,0:0:0:0:
213,132,181260,2,0,P|222:181|216:224,1,75,8|0,0:0|0:0,0:0:0:0:
255,296,181533,22,0,P|246:345|252:388,1,75,8|0,0:0|0:0,0:0:0:0:
351,336,181806,1,8,0:0:0:0:
397,319,181896,1,8,0:0:0:0:
447,324,181987,1,8,0:0:0:0:
490,349,182078,2,0,P|485:310|501:258,1,75,8|8,0:0|0:0,0:0:0:0:
433,141,182351,2,0,P|441:178|436:214,1,75,8|8,0:0|0:0,0:0:0:0:
490,80,182624,2,0,P|484:40|500:-11,1,75,8|8,0:0|0:0,0:0:0:0:
346,131,182896,6,0,B|314:151|254:133|279:130|237:106|194:128,1,150,8|8,0:0|0:0,0:0:0:0:
165,157,183259,1,8,0:0:0:0:
160,207,183350,1,8,0:0:0:0:
179,254,183441,2,0,P|182:292|173:351,1,75,8|8,0:0|0:0,0:0:0:0:
97,384,183714,2,0,P|94:346|103:287,1,75,0|8,0:0|0:0,0:0:0:0:
256,351,183986,5,8,0:0:0:0:
232,198,184123,1,8,0:0:0:0:
178,328,184259,1,8,0:0:0:0:
310,224,184396,1,8,0:0:0:0:
192,92,184532,54,0,P|152:95|93:81,1,75,8|0,0:0|0:0,0:0:0:0:
0,0,184805,1,8,0:0:0:0:
29,40,184896,1,8,0:0:0:0:
38,88,184986,1,8,0:0:0:0:
24,136,185077,2,0,P|22:169|26:230,1,75,8|8,0:0|0:0,0:0:0:0:
162,160,185350,22,0,P|199:157|236:159,1,75,8|8,0:0|0:0,0:0:0:0:
350,219,185623,2,0,P|316:225|283:236,1,68.9999976837159,8|0,0:0|0:0,0:0:0:0:
170,266,185896,2,0,P|203:282|235:303,1,62.9999980773926,8|0,0:0|0:0,0:0:0:0:
328,350,186173,102,0,P|361:371|434:365,1,112.500004291535,4|0,0:2|0:0,0:0:0:0:
500,315,186718,1,0,0:0:0:0:
371,131,186991,1,0,0:0:0:0:
265,167,187263,1,0,0:0:0:0:
243,277,187536,1,0,0:0:0:0:
328,350,187809,54,0,P|295:371|222:365,1,112.500004291535,2|0,0:0|0:0,0:0:0:0:
208,332,188173,1,0,0:0:0:0:
176,313,188263,1,0,0:0:0:0:
139,314,188354,1,0,0:0:0:0:
159,283,188445,1,0,0:0:0:0:
161,246,188536,1,0,0:0:0:0:
141,215,188627,1,0,0:0:0:0:
286,128,188900,53,0,0:0:0:0:
266,159,188991,1,0,0:0:0:0:
264,196,189082,1,0,0:0:0:0:
284,227,189173,1,0,0:0:0:0:
166,107,189445,54,0,P|114:132|53:124,1,112.500004291535,2|0,0:0|0:0,0:0:0:0:
2,67,189991,1,0,0:0:0:0:
223,22,190263,1,0,0:0:0:0:
265,124,190536,1,0,0:0:0:0:
196,214,190809,1,2,0:0:0:0:
181,248,190900,1,2,0:0:0:0:
182,285,190991,1,2,0:0:0:0:
197,319,191082,54,0,P|249:344|310:336,1,112.500004291535,2|0,0:0|0:0,0:0:0:0:
426,297,191491,2,0,P|376:321|320:317,1,112.500004291535,2|0,0:0|0:0,0:0:0:0:
265,124,191900,2,0,L|271:184,1,56.2500021457673,2|0,0:0|0:0,0:0:0:0:
363,166,192173,2,0,L|357:221,1,56.2500021457673
453,155,192445,1,0,0:0:0:0:
458,118,192536,1,0,0:0:0:0:
455,80,192627,1,0,0:0:0:0:
442,45,192718,70,0,P|386:33|328:30,1,112.500004291535,2|8,0:0|0:0,0:0:0:0:
255,67,193127,1,8,0:0:0:0:
180,29,193263,1,8,0:0:0:0:
26,98,193536,1,8,0:0:0:0:
163,197,193809,1,8,0:0:0:0:
100,141,193945,1,8,0:0:0:0:
27,184,194082,1,8,0:0:0:0:
46,267,194218,1,8,0:0:0:0:
130,274,194354,54,0,P|184:285|241:289,1,112.500004291535,2|8,0:0|0:0,0:0:0:0:
264,260,194718,1,0,0:0:0:0:
299,247,194809,1,0,0:0:0:0:
336,252,194900,1,8,0:0:0:0:
322,216,194991,1,0,0:0:0:0:
329,179,195082,1,0,0:0:0:0:
352,150,195173,2,0,P|358:111|353:78,1,56.2500021457673,8|8,0:0|0:0,0:0:0:0:
188,109,195445,53,8,0:0:0:0:
202,145,195536,1,0,0:0:0:0:
195,182,195627,1,0,0:0:0:0:
172,211,195718,2,0,P|166:250|171:283,1,56.2500021457673,8|8,0:0|0:0,0:0:0:0:
20,348,195991,54,0,P|76:336|134:333,1,112.500004291535,2|8,0:0|0:0,0:0:0:0:
207,370,196400,1,8,0:0:0:0:
282,332,196536,1,8,0:0:0:0:
436,263,196809,1,8,0:0:0:0:
299,163,197082,1,8,0:0:0:0:
331,84,197218,1,8,0:0:0:0:
417,91,197354,1,2,0:0:0:0:
433,143,197445,1,2,0:0:0:0:
411,194,197536,1,2,0:0:0:0:
363,218,197627,54,0,P|362:287|387:371,1,150,0|0,1:0|0:0,0:0:0:0:
436,263,198036,1,0,1:0:0:0:
300,325,198173,1,8,0:0:0:0:
236,188,198309,1,8,0:0:0:0:
236,188,198582,53,8,0:0:0:0:
95,241,198718,1,8,0:0:0:0:
142,60,198854,1,8,0:0:0:0:
226,268,198991,1,12,0:0:0:0:
365,92,199127,1,8,0:0:0:0:
457,255,199263,102,0,P|413:304|329:287,1,140.625,4|0,1:2|0:0,0:0:0:0:
315,276,199536,2,0,P|270:261|224:268,1,93.75
31,379,199809,2,0,P|64:333|68:278,1,93.75
56,201,200082,2,0,B|113:196|153:232|129:235|172:270|224:266,2,187.5,8|0|0,0:0|0:0|1:0,0:0:0:0:
200,80,200763,1,0,0:0:0:0:
372,129,200900,6,0,P|426:126|473:16,1,187.5,0|0,1:0|0:0,0:0:0:0:
510,172,201309,1,0,1:0:0:0:
401,289,201445,2,0,P|388:335|399:385,1,93.75,0|8,0:0|0:0,0:0:0:0:
452,225,201718,2,0,B|407:209|407:209|356:217,1,93.75,8|0,0:0|0:0,0:0:0:0:
142,249,201991,1,0,1:0:0:0:
181,224,202082,1,0,0:0:0:0:
227,218,202173,1,0,0:0:0:0:
272,231,202263,2,0,P|285:277|274:327,1,93.75,0|8,0:0|0:0,0:0:0:0:
127,367,202536,102,0,P|158:326|261:317,1,140.625,0|0,1:0|0:0,0:0:0:0:
276,320,202809,2,0,P|315:334|377:311,1,93.75
320,82,203082,2,0,P|327:123|378:165,1,93.75,0|0,1:0|0:0,0:0:0:0:
458,166,203354,2,0,B|453:218|410:254|411:230|369:263|364:320,2,187.5,8|0|0,0:0|0:0|1:0,0:0:0:0:
462,329,204036,1,0,0:0:0:0:
271,169,204173,6,0,B|238:136|183:146|183:146|133:177|88:144,1,187.5,0|0,1:0|0:0,0:0:0:0:
105,375,204582,2,0,P|152:343|167:304,1,93.75
9,129,204854,1,8,0:0:0:0:
9,129,204991,2,0,B|11:177|11:177|39:218,1,93.75,8|0,0:0|0:0,0:0:0:0:
210,233,205263,1,0,0:0:0:0:
72,62,205400,1,0,0:0:0:0:
80,291,205536,1,8,0:0:0:0:
80,291,205673,1,8,0:0:0:0:
120,173,205809,102,0,P|168:136|260:163,1,140.625,0|0,1:0|0:0,0:0:0:0:
271,169,206082,2,0,P|318:177|366:148,1,93.75
476,80,206354,2,0,P|460:134|475:187,1,93.75
512,255,206627,2,0,B|466:266|466:266|410:252,1,93.75,8|0,0:0|0:0,0:0:0:0:
322,211,206900,1,0,0:0:0:0:
377,339,207036,1,0,0:0:0:0:
243,327,207173,2,0,P|231:282|237:236,1,93.75,0|0,1:0|0:0,0:0:0:0:
253,58,207445,6,0,P|264:102|258:148,1,93.75,0|0,1:0|0:0,0:0:0:0:
122,231,207718,1,0,0:0:0:0:
177,103,207854,1,0,1:0:0:0:
38,119,207991,2,0,P|30:74|43:15,1,93.75,0|8,0:0|0:0,0:0:0:0:
190,188,208263,102,0,B|237:193|237:193|286:184,1,93.75,8|0,0:0|0:0,0:0:0:0:
418,106,208536,2,0,P|372:110|323:101,1,93.75,0|8,1:0|0:0,0:0:0:0:
238,265,208809,1,0,1:0:0:0:
140,109,208945,1,8,0:0:0:0:
233,106,209082,1,0,1:0:0:0:
147,270,209218,1,0,0:0:0:0:
331,262,209354,6,0,P|338:308|329:353,1,93.75
282,184,209627,2,0,P|327:175|374:182,1,93.75,0|0,1:0|0:0,0:0:0:0:
469,177,209900,2,0,B|477:229|446:274|440:251|408:294|418:350,2,187.5,8|0|0,0:0|0:0|1:0,0:0:0:0:
374,182,210582,1,0,0:0:0:0:
262,109,210718,102,0,P|216:100|169:107,1,93.75,0|0,1:0|0:0,0:0:0:0:
83,142,210991,1,0,0:0:0:0:
96,51,211127,1,0,1:0:0:0:
156,198,211263,2,0,P|163:249|148:305,1,93.75,0|8,0:0|0:0,0:0:0:0:
0,259,211536,2,0,B|43:242|43:242|90:242,1,93.75,8|0,0:0|0:0,0:0:0:0:
270,298,211809,5,0,1:0:0:0:
262,343,211900,1,0,0:0:0:0:
226,371,211991,1,0,0:0:0:0:
181,370,212082,2,0,P|132:353|74:357,1,93.75,8|8,0:0|0:0,0:0:0:0:
19,378,212354,101,6,1:2:0:0:
35,305,212763,5,2,0:0:0:0:
204,302,213172,69,2,0:0:0:0:
188,229,213581,5,2,0:0:0:0:
74,105,213990,21,2,0:0:0:0:
58,178,214399,101,2,0:0:0:0:
187,69,214808,37,2,0:0:0:0:
203,142,215217,101,2,0:0:0:0:
112,0,215626,21,2,0:0:0:0:
400,384,217263,5,0,1:0:0:0:
376,313,217399,2,0,B|369:275|369:275|375:223,1,75,8|8,0:0|0:0,0:0:0:0:
452,326,217672,69,0,1:0:0:0:
476,255,217808,2,0,B|483:217|483:217|477:165,1,75,8|8,0:0|0:0,0:0:0:0:
325,369,218081,5,2,1:2:0:0:
289,253,218217,1,10,0:0:0:0:
193,295,218353,1,2,1:2:0:0:
383,207,218490,1,2,0:0:0:0:
476,255,218626,1,10,1:2:0:0:
212,87,218763,1,10,0:0:0:0:
89,299,218899,38,0,P|157:239|248:248,1,187.5,6|0,1:2|0:0,0:0:0:0:
330,294,219308,1,0,0:0:0:0:
512,168,219444,2,0,P|466:172|421:162,1,93.75
254,151,219717,2,0,B|310:151|348:100|329:107|359:63|434:66,1,187.5,8|2,0:0|0:1,0:0:0:0:
430,262,220126,1,0,0:0:0:0:
254,151,220263,2,0,P|209:138|164:147,1,93.75,0|0,1:0|0:0,0:0:0:0:
160,342,220535,54,0,P|247:331|259:245,1,187.5,0|0,1:0|0:0,0:0:0:0:
59,109,220944,2,0,P|70:154|91:196,1,93.75,0|0,1:0|0:0,0:0:0:0:
258,244,221216,1,8,0:0:0:0:
258,244,221353,2,0,B|213:233|213:233|164:229,1,93.75,10|0,0:1|0:0,0:0:0:0:
45,354,221625,2,0,P|76:319|103:280,1,93.75,0|0,1:0|0:0,0:0:0:0:
340,213,221898,54,0,P|283:163|188:199,1,187.5,0|0,1:0|0:0,0:0:0:0:
160,342,222307,1,0,0:0:0:0:
1,178,222443,2,0,P|21:135|63:106,1,93.75,2|0,1:1|0:0,0:0:0:0:
135,26,222716,2,0,B|175:63|164:126|156:108|146:160|187:198,1,187.5,8|0,0:0|0:0,0:0:0:0:
265,267,223125,1,0,0:0:0:0:
400,47,223261,2,0,P|356:31|310:30,1,93.75,2|0,1:1|0:0,0:0:0:0:
416,157,223534,54,0,P|335:114|244:127,1,187.5,0|0,1:0|0:0,0:0:0:0:
164,233,223943,1,0,1:0:0:0:
301,360,224080,2,0,P|352:354|399:313,1,93.75,2|8,0:1|0:0,0:0:0:0:
512,188,224352,1,8,0:0:0:0:
412,169,224489,1,8,0:0:0:0:
309,152,224625,1,0,1:0:0:0:
482,87,224761,1,0,0:0:0:0:
305,162,224898,1,10,1:1:0:0:
459,278,225034,1,8,0:0:0:0:
444,31,225171,54,0,P|396:4|345:4,1,93.75,4|0,1:2|0:0,0:0:0:0:
209,9,225443,1,0,0:0:0:0:
145,152,225580,1,0,0:0:0:0:
317,233,225716,2,0,P|319:186|312:139,1,93.75,2|0,0:1|0:0,0:0:0:0:
294,334,225989,2,0,B|347:349|387:314|367:317|415:276|468:291,2,187.5,8|0|2,0:0|0:0|1:1,0:0:0:0:
453,384,226671,1,0,0:0:0:0:
218,261,226807,54,0,P|152:227|34:262,1,187.5,0|0,1:0|0:0,0:0:0:0:
196,26,227216,2,0,P|272:13|325:36,1,93.75,0|2,0:0|0:1,0:0:0:0:
263,193,227489,1,8,0:0:0:0:
263,193,227625,2,0,B|245:147|245:147|254:87,1,93.75,8|0,0:0|0:0,0:0:0:0:
483,72,227898,2,0,P|499:117|482:188,1,93.75,2|0,1:1|0:0,0:0:0:0:
405,264,228170,54,0,B|374:233|372:179|372:179|386:131|367:76,1,187.5,0|0,1:0|0:0,0:0:0:0:
493,247,228579,1,0,0:0:0:0:
312,289,228715,2,0,P|275:258|260:214,1,93.75,0|0,1:0|0:0,0:0:0:0:
269,121,228988,2,0,B|213:110|178:149|198:144|153:190|99:180,1,187.5,10|0,0:1|0:0,0:0:0:0:
117,77,229397,1,0,0:0:0:0:
223,273,229533,2,0,P|249:311|253:358,1,93.75,0|0,1:0|0:0,0:0:0:0:
99,180,229806,54,0,P|85:123|97:73,1,93.75,2|0,1:1|0:0,0:0:0:0:
296,313,230079,1,0,0:0:0:0:
348,235,230215,2,0,P|362:178|350:128,1,93.75,0|0,1:0|0:0,0:0:0:0:
140,285,230488,1,8,0:0:0:0:
351,263,230624,5,10,0:1:0:0:
235,226,230761,1,8,0:0:0:0:
127,189,230897,1,0,1:0:0:0:
246,329,231033,1,0,0:0:0:0:
320,157,231170,1,8,1:2:0:0:
439,312,231306,1,8,0:0:0:0:
477,149,231443,54,0,P|450:87|310:84,1,225.000008583069,4|0,1:2|0:0,0:0:0:0:
238,333,231852,1,0,0:0:0:0:
106,142,231988,2,0,P|99:83|121:16,1,112.500004291535
262,229,232260,2,0,B|205:193|149:211|168:233|98:259|49:220,1,225.000008583069,8|2,0:0|0:1,0:0:0:0:
147,335,232670,1,0,0:0:0:0:
240,118,232806,2,0,P|261:57|256:3,1,112.500004291535,0|0,1:0|0:0,0:0:0:0:
59,71,233079,54,0,P|136:146|239:118,1,225.000008583069,0|0,1:0|0:0,0:0:0:0:
351,53,233488,1,0,1:0:0:0:
420,230,233624,2,0,P|430:284|414:337,1,112.500004291535,0|8,0:0|0:0,0:0:0:0:
311,172,233897,1,10,0:1:0:0:
417,218,234033,1,0,0:0:0:0:
330,278,234170,2,0,P|278:286|213:283,1,112.500004291535,0|0,1:0|0:0,0:0:0:0:
54,310,234442,54,0,P|126:234|218:284,1,225.000008583069,0|0,1:0|0:0,0:0:0:0:
376,346,234851,1,0,0:0:0:0:
431,186,234987,2,0,P|376:180|323:197,1,112.500004291535,2|0,1:1|0:0,0:0:0:0:
499,245,235260,2,0,B|535:188|518:133|496:151|471:80|511:32,1,225.000008583069,8|0,0:0|0:0,0:0:0:0:
356,11,235669,1,0,0:0:0:0:
322,197,235805,2,0,P|377:203|430:185,1,112.500004291535,2|0,1:1|0:0,0:0:0:0:
223,90,236078,54,0,B|179:70|106:73|84:122|84:122|106:153|98:189,1,225.000008583069,0|0,1:0|0:0,0:0:0:0:
13,168,236487,1,0,1:0:0:0:
168,7,236624,2,0,P|223:-2|277:13,1,112.500004291535,2|8,0:1|0:0,0:0:0:0:
450,90,236896,53,8,0:0:0:0:
355,128,237033,1,8,0:0:0:0:
250,168,237169,1,0,1:0:0:0:
469,207,237305,1,0,0:0:0:0:
254,186,237442,1,10,1:1:0:0:
375,19,237578,1,8,0:0:0:0:
285,296,237715,54,0,P|230:311|176:301,1,112.500004291535,4|0,1:2|0:0,0:0:0:0:
0,183,237987,1,0,0:0:0:0:
79,17,238124,1,0,0:0:0:0:
174,190,238260,2,0,P|181:246|177:302,1,112.500004291535,2|0,0:1|0:0,0:0:0:0:
6,326,238533,2,0,B|65:304|123:352|98:367|145:401|210:385,2,225.000008583069,8|0|2,0:0|0:0|1:1,0:0:0:0:
0,183,239215,1,0,0:0:0:0:
178,302,239351,54,0,P|285:321|368:251,1,225.000008583069,0|0,1:0|0:0,0:0:0:0:
190,25,239760,2,0,P|83:6|0:77,1,225.000008583069,0|8,1:0|0:0,0:0:0:0:
289,147,240169,2,0,B|300:91|300:91|282:39,1,112.500004291535,10|0,0:1|0:0,0:0:0:0:
82,183,240442,2,0,P|73:238|89:292,1,112.500004291535,0|0,1:0|0:0,0:0:0:0:
368,251,240714,54,0,B|356:197|380:161|380:161|356:124|356:124|395:88|390:47,1,225.000008583069,0|0,1:0|0:0,0:0:0:0:
470,211,241123,1,0,0:0:0:0:
282,39,241259,2,0,P|221:28|154:55,1,112.500004291535,0|0,1:0|0:0,0:0:0:0:
94,99,241532,2,0,B|129:150|204:144|192:117|250:116|295:167,1,225.000008583069,10|0,0:1|1:0,0:0:0:0:
191,356,241941,1,8,0:0:0:0:
277,175,242077,2,0,P|224:148|170:155,1,112.500004291535,0|8,1:0|0:0,0:0:0:0:
0,308,242350,54,0,P|53:325|108:317,1,112.500004291535,2|0,1:1|0:0,0:0:0:0:
295,283,242627,1,0,1:0:0:0:
97,212,242766,1,0,1:0:0:0:
226,352,242905,1,8,0:0:0:0:
185,147,243044,1,8,0:0:0:0:
125,318,243183,53,10,0:1:0:0:
277,175,243320,1,8,0:0:0:0:
428,241,243458,1,8,0:0:0:0:
185,147,243595,1,8,0:0:0:0:
201,246,243733,1,8,0:0:0:0:
449,116,243871,1,8,0:0:0:0:
504,320,244008,102,0,P|459:361|306:318,1,225.000008583069,4|0,1:2|0:0,0:0:0:0:
345,101,244402,1,0,0:0:0:0:
506,210,244534,2,0,P|516:268|499:327,1,112.500004291535
312,327,244797,2,0,B|268:289|210:310|210:310|150:320|105:267,2,225.000008583069,8|2|0,0:0|0:1|1:0,0:0:0:0:
218,145,245455,1,0,0:0:0:0:
54,156,245586,6,0,P|55:71|168:2,1,225.000008583069,0|0,1:0|0:0,0:0:0:0:
393,118,245981,1,0,0:0:0:0:
280,115,246113,2,0,L|165:111,1,112.500004291535,0|0,1:0|0:0,0:0:0:0:
292,295,246376,2,0,B|346:314|346:314|396:292,1,112.500004291535,10|0,0:1|0:0,0:0:0:0:
512,120,246639,1,0,0:0:0:0:
499,312,246771,1,0,0:0:0:0:
338,219,246902,2,0,P|329:150|346:94,1,112.500004291535,0|0,1:0|0:0,0:0:0:0:
206,358,247165,6,0,P|223:291|218:130,1,225.000008583069,0|0,1:0|0:0,0:0:0:0:
135,281,247560,1,0,0:0:0:0:
178,72,247692,1,2,1:1:0:0:
338,219,247823,1,0,0:0:0:0:
146,138,247955,2,0,B|91:125|91:125|35:130,1,112.500004291535,8|0,0:0|0:0,0:0:0:0:
95,350,248218,2,0,P|161:363|213:355,1,112.500004291535
338,219,248481,6,0,P|338:150|349:85,1,112.500004291535,0|0,1:1|0:0,0:0:0:0:
493,248,248744,2,0,P|494:304|487:360,1,112.500004291535,0|0,1:0|0:0,0:0:0:0:
419,228,249007,1,0,0:0:0:0:
285,277,249139,1,0,1:0:0:0:
219,136,249271,2,0,P|213:66|229:16,1,112.500004291535,2|8,0:1|0:0,0:0:0:0:
387,126,249534,37,8,0:0:0:0:
311,269,249665,1,8,0:0:0:0:
241,140,249797,1,0,1:0:0:0:
431,258,249929,5,0,0:0:0:0:
361,136,250060,1,10,1:1:0:0:
296,262,250192,1,8,0:0:0:0:
491,153,250323,6,0,P|435:124|364:134,1,112.500004291535,4|0,1:2|0:0,0:0:0:0:
302,211,250586,1,0,0:0:0:0:
408,204,250718,1,0,0:0:0:0:
199,98,250850,2,0,P|198:154|205:209,1,112.500004291535
225,10,251113,2,0,B|181:-1|127:35|127:35|110:35|143:33|70:77|13:39,2,225.000008583069,8|2|0,0:0|0:1|1:0,0:0:0:0:
285,223,251771,1,0,0:0:0:0:
105,266,251902,6,0,B|73:188|123:120|173:103|173:103|197:130,1,225.000008583069,0|0,1:0|0:0,0:0:0:0:
285,223,252297,1,0,0:0:0:0:
402,148,252429,2,0,P|411:78|403:17,1,112.500004291535,0|0,1:0|0:0,0:0:0:0:
205,209,252692,2,0,B|216:249|214:282|191:309|191:309|210:320|210:320|241:353|303:328,1,225.000008583069,10|0,0:1|0:0,0:0:0:0:
438,282,253086,1,0,0:0:0:0:
323,171,253218,1,0,1:0:0:0:
378,339,253350,1,0,0:0:0:0:
478,199,253481,102,0,P|497:82|435:-1,1,225.000008583069,0|0,1:0|0:0,0:0:0:0:
346,271,253876,1,0,0:0:0:0:
226,174,254007,2,0,P|158:155|104:164,1,112.500004291535,2|0,1:1|0:0,0:0:0:0:
68,349,254271,2,0,B|125:322|199:366|157:372|225:402|299:375,2,225.000008583069,8|0|2,0:0|0:0|1:1,0:0:0:0:
20,216,254929,1,0,0:0:0:0:
156,255,255060,6,0,P|215:204|225:130,1,112.500004291535,0|0,1:0|0:0,0:0:0:0:
87,50,255323,2,0,P|101:126|160:172,1,112.500004291535,0|0,0:0|1:0,0:0:0:0:
299,92,255586,2,0,P|225:66|156:94,1,112.500004291535,2|8,0:1|0:0,0:0:0:0:
331,195,255850,2,0,L|454:188,1,112.500004291535,8|8,0:0|0:0,0:0:0:0:
512,130,256113,1,0,1:0:0:0:
387,95,256244,1,0,0:0:0:0:
407,300,256376,1,10,1:1:0:0:
512,247,256507,1,8,0:0:0:0:
331,195,256639,102,0,B|287:174|242:191|242:191|226:187|226:187|144:188|75:242,1,262.500002503395,6|0,1:2|0:0,0:0:0:0:
285,290,257034,1,0,0:0:0:0:
445,156,257165,2,0,P|460:90|421:31,1,131.250001251698,2|0,0:0|0:0,0:0:0:0:
210,0,257429,2,0,B|181:60|222:123|222:123|244:203|194:245,2,262.500002503395,10|2|2,0:0|0:1|1:2,0:0:0:0:
117,165,258086,1,0,0:0:0:0:
16,261,258218,6,0,P|8:316|35:384,1,131.250001251698,2|0,1:2|0:0,0:0:0:0:
208,171,258481,1,2,0:0:0:0:
315,292,258613,1,0,0:0:0:0:
117,309,258744,2,0,P|177:291|248:310,1,131.250001251698,2|0,1:2|0:0,0:0:0:0:
415,359,259007,2,0,B|353:380|353:380|289:362,1,131.250001251698,10|0,0:1|0:0,0:0:0:0:
81,186,259271,1,2,0:0:0:0:
219,374,259402,1,0,0:0:0:0:
227,185,259534,1,2,1:2:0:0:
73,375,259665,1,0,0:0:0:0:
15,235,259797,6,0,B|63:184|60:109|60:109|62:109|62:109|60:109|60:109|54:42|4:0,1,262.500002503395,2|0,1:2|0:0,0:0:0:0:
39,307,260192,1,0,0:0:0:0:
160,114,260323,2,0,P|232:100|287:115,1,131.250001251698,2|0,1:1|0:0,0:0:0:0:
366,196,260586,2,0,B|298:251|216:241|260:218|170:227|124:277,2,262.500002503395,10|0|2,0:0|0:0|1:1,0:0:0:0:
222,341,261244,1,0,0:0:0:0:
144,168,261376,6,0,P|122:113|132:40,1,131.250001251698,2|0,1:2|0:0,0:0:0:0:
341,227,261639,1,2,0:0:0:0:
220,270,261771,1,0,0:0:0:0:
219,78,261902,1,2,0:1:0:0:
329,107,262034,1,8,0:0:0:0:
285,346,262165,6,0,B|223:367|223:367|163:341,1,131.250001251698,10|10,0:0|0:0,0:0:0:0:
32,143,262429,1,2,1:2:0:0:
56,366,262560,5,2,0:0:0:0:
145,168,262692,1,10,1:1:0:0:
164,342,262823,1,10,0:0:0:0:
341,227,262955,38,0,P|406:211|468:224,1,131.250001251698,6|0,1:2|0:0,0:0:0:0:
508,315,263218,1,2,0:0:0:0:
352,381,263350,1,0,0:0:0:0:
227,246,263481,2,0,P|162:230|98:245,1,131.250001251698,2|0,0:0|0:0,0:0:0:0:
51,133,263744,2,0,B|72:122|99:116|99:116|142:114|193:124|159:135|215:144|258:135|258:135|288:125|306:113,2,262.500002503395,10|2|2,0:0|0:1|1:2,0:0:0:0:
164,342,264402,1,0,0:0:0:0:
346,243,264534,6,0,B|393:217|411:126|365:55|365:55|352:80|321:106,1,262.500002503395,2|0,1:2|0:0,0:0:0:0:
246,279,264929,2,0,P|355:335|444:251,1,262.500002503395,2|0,0:0|0:0,0:0:0:0:
271,4,265323,2,0,B|231:53|231:53|228:119,1,131.250001251698,10|0,0:1|0:0,0:0:0:0:
246,279,265586,2,0,P|226:227|163:186,1,131.250001251698,2|0,0:0|0:0,0:0:0:0:
19,118,265850,2,0,P|73:126|141:90,1,131.250001251698,2|0,1:2|0:0,0:0:0:0:
201,52,266113,102,0,B|226:146|209:267|209:267|202:295|192:314,1,262.500002503395,2|0,1:2|0:0,0:0:0:0:
70,365,266507,1,0,0:0:0:0:
8,243,266639,2,0,P|66:228|140:246,1,131.250001251698,2|0,1:1|0:0,0:0:0:0:
285,370,266902,2,0,B|322:327|314:277|314:277|306:208|306:208|304:155|342:119,1,262.500002503395,10|0,0:0|0:0,0:0:0:0:
193,310,267297,1,0,0:0:0:0:
28,157,267429,2,0,P|22:83|37:27,1,131.250001251698,2|0,1:1|0:0,0:0:0:0:
430,85,267692,6,0,P|424:191|339:126,1,262.500002503395,2|2,1:2|0:0,0:0:0:0:
350,27,268086,1,0,1:0:0:0:
459,261,268218,2,0,P|468:317|424:386,1,131.250001251698,2|8,0:1|0:0,0:0:0:0:
166,113,268481,101,10,0:0:0:0:
359,162,268613,1,10,0:0:0:0:
298,351,268744,1,2,0:0:0:0:
152,66,268876,5,2,1:2:0:0:
399,137,269007,1,10,1:1:0:0:
328,384,269139,1,10,0:0:0:0:
81,313,269271,38,0,P|72:276|94:166,1,150,6|0,1:2|0:0,0:0:0:0:
152,66,269669,1,0,0:0:0:0:
152,66,269801,2,0,P|191:60|236:70,1,75
292,225,270067,2,0,P|201:225|160:189,1,150,2|2,0:0|0:1,0:0:0:0:
386,91,270467,1,0,0:0:0:0:
386,91,270600,2,0,P|388:119|381:178,1,75
386,270,270867,6,0,P|435:262|514:323,1,150,2|0,0:0|0:0,0:0:0:0:
294,300,271268,1,0,0:0:0:0:
294,300,271402,2,0,P|291:272|293:225,1,75
246,146,271670,2,0,P|247:108|245:71,1,75,2|0,0:1|0:0,0:0:0:0:
31,182,271938,2,0,P|70:199|108:197,1,75
138,56,272206,2,0,P|103:81|86:115,1,75
156,273,272474,102,0,P|193:210|171:141,1,150,2|0,0:0|0:0,0:0:0:0:
75,283,272875,1,0,0:0:0:0:
75,283,273009,2,0,P|73:311|80:370,1,75
254,330,273277,2,0,P|267:293|258:250,1,75,2|0,0:0|0:0,0:0:0:0:
335,240,273545,2,0,P|318:204|281:180,1,75
328,119,273813,2,0,P|291:106|248:115,1,75,2|0,0:1|0:0,0:0:0:0:
174,112,274081,6,0,L|177:201,1,75,2|0,0:0|0:0,0:0:0:0:
183,263,274351,1,0,0:0:0:0:
115,230,274486,1,0,0:0:0:0:
121,306,274621,2,0,L|124:395,1,75,2|0,0:1|0:0,0:0:0:0:
265,335,274891,101,2,0:0:0:0:
265,335,275026,1,0,0:0:0:0:
333,302,275162,1,0,0:0:0:0:
333,302,275297,1,0,0:0:0:0:
395,344,275432,2,0,P|443:355|475:350,1,75,2|0,0:1|0:0,0:0:0:0:
500,244,275702,6,0,P|511:175|481:91,1,150,2|0,0:0|0:0,0:0:0:0:
342,226,276111,1,0,0:0:0:0:
342,226,276247,2,0,P|393:219|435:226,1,75
386,119,276520,2,0,P|381:76|385:35,1,75,2|0,0:0|0:0,0:0:0:0:
303,97,276792,2,0,P|308:54|304:13,1,75,2|0,0:1|0:0,0:0:0:0:
217,88,277065,2,0,P|212:45|216:4,1,75
258,165,277338,102,0,P|268:240|248:313,1,150,2|0,0:0|0:0,0:0:0:0:
342,226,277747,1,0,0:0:0:0:
342,226,277883,2,0,P|393:219|435:226,1,75
305,362,278156,22,0,B|251:411|181:369|228:369|155:322|95:360,1,225.000008583069,2|0,0:1|0:0,0:0:0:0:
14,235,278974,102,0,P|54:245|132:179,1,150,2|0,0:0|0:0,0:0:0:0:
53,88,279386,1,0,0:0:0:0:
53,88,279524,2,0,P|49:136|57:167,1,75,2|0,0:1|0:0,0:0:0:0:
154,72,279799,2,0,P|205:64|234:66,1,75,2|0,0:0|0:0,0:0:0:0:
388,113,280074,2,0,P|337:105|308:107,1,75
166,160,280350,2,0,P|217:152|246:154,1,75,2|0,0:1|0:0,0:0:0:0:
323,193,280625,102,0,P|339:233|335:281,1,75,2|0,0:0|0:0,0:0:0:0:
487,236,280900,2,0,P|444:229|404:202,1,75
367,356,281175,2,0,P|393:322|437:301,1,75,2|0,0:1|0:0,0:0:0:0:
291,336,281451,5,2,0:0:0:0:
291,336,281588,1,0,0:0:0:0:
223,303,281726,1,0,0:0:0:0:
223,303,281863,1,0,0:0:0:0:
161,345,282001,2,0,P|113:356|81:351,1,75,2|0,0:1|0:0,0:0:0:0:
45,178,282276,6,0,P|76:167|160:186,1,112.500004291535,2|0,0:0|0:0,0:0:0:0:
281,216,282692,1,0,0:0:0:0:
281,216,282831,2,0,P|238:225|204:214,1,56.2500021457673
233,138,283109,2,0,P|219:76|234:22,1,112.500004291535,2|0,0:0|0:0,0:0:0:0:
318,138,283526,1,0,0:0:0:0:
318,138,283664,2,0,P|361:147|395:136,1,56.2500021457673
480,276,283942,6,0,P|488:322|454:380,1,112.500004291535,2|0,0:0|0:0,0:0:0:0:
382,350,284360,1,0,0:0:0:0:
382,350,284500,2,0,P|356:341|318:342,1,56.2500021457673
253,360,284779,2,0,P|224:359|198:350,1,56.2500021457673,2|0,0:0|0:0,0:0:0:0:
115,344,285058,2,0,P|91:372|58:387,1,56.2500021457673
110,259,285337,2,0,P|146:265|175:286,1,56.2500021457673
39,305,285616,102,0,B|21:273|27:247|27:247|42:215|35:193,1,112.500004291535,2|0,0:0|0:0,0:0:0:0:
35,119,286036,2,0,P|33:79|28:60,2,56.2500021457673
102,156,286457,2,0,P|132:158|169:142,1,56.2500021457673,2|0,0:0|0:0,0:0:0:0:
207,30,286738,2,0,P|189:54|183:94,1,56.2500021457673
262,183,287020,2,0,P|247:155|216:130,1,56.2500021457673
173,226,287302,6,0,L|176:291,1,56.2500021457673,2|0,0:0|0:0,0:0:0:0:
250,348,287585,2,0,L|252:291,1,56.2500021457673
328,237,287868,2,0,L|331:302,1,56.2500021457673
398,344,288151,101,2,0:0:0:0:
398,344,288292,1,0,0:0:0:0:
445,282,288434,1,0,0:0:0:0:
445,282,288575,1,0,0:0:0:0:
405,214,288717,2,0,L|407:157,1,56.2500021457673
478,69,289000,6,0,P|436:85|365:62,1,112.500004291535,2|0,0:0|0:0,0:0:0:0:
297,30,289424,1,0,0:0:0:0:
297,30,289566,2,0,P|303:84|303:106,1,56.2500021457673
257,196,289849,2,0,P|243:169|247:142,1,56.2500021457673,2|0,0:0|0:0,0:0:0:0:
177,123,290132,2,0,P|186:94|208:78,1,56.2500021457673
172,15,290415,2,0,P|198:1|225:5,1,56.2500021457673
87,71,290698,102,0,P|50:82|-1:38,1,112.500004291535,2|0,0:0|0:0,0:0:0:0:
105,144,291126,1,0,0:0:0:0:
105,144,291269,2,0,L|105:203,1,56.2500021457673
99,275,291555,70,0,B|78:271|59:293|75:333|117:331|139:302|158:280|220:298,1,187.5,2|0,0:0|0:0,0:0:0:0:
307,258,292412,102,0,P|334:251|394:256,1,75,2|0,0:0|0:0,0:0:0:0:
415,185,292844,1,0,0:0:0:0:
415,185,292988,2,0,P|377:180|363:181,1,37.5
282,166,293277,2,0,P|273:135|284:92,2,75,2|0|0,0:0|0:0|0:0,0:0:0:0:
219,229,294142,6,0,P|206:262|217:314,1,75,2|0,0:0|0:0,0:0:0:0:
278,368,294578,1,0,0:0:0:0:
278,368,294724,2,0,L|277:324,1,37.5
307,258,295015,54,0,P|339:249|394:258,1,75,2|2,0:0|0:0,0:0:0:0:
493,179,295884,86,0,P|461:170|406:179,1,75,2|2,0:0|0:0,0:0:0:0:
284,111,296766,54,0,P|316:102|371:111,1,75,2|2,0:0|0:0,0:0:0:0:
453,69,297966,21,2,0:0:0:0:
384,15,299466,102,0,L|386:31,2,9.375,2|2|2,0:0|0:0|0:0,0:0:0:0:
349,325,301194,5,0,0:0:0:0:
256,192,301392,12,0,306326,0:0:0:0:
