osu file format v14

[General]
AudioFilename: audio.mp3
AudioLeadIn: 0
PreviewTime: 76800
Countdown: 1
SampleSet: Normal
StackLeniency: 0.7
Mode: 0
LetterboxInBreaks: 0
WidescreenStoryboard: 0

[Editor]
Bookmarks: 9675,19200,28875,38475,48075,57675,67275,72075,76875,86550,96075,105675,115275,124875,134475,144075,153675,163275,172875,182475,192075,201675,211275,220875,230475,240075,244875,249675,259275,268875,278475,288075,297675,307275,316875
DistanceSpacing: 1.3
BeatDivisor: 6
GridSize: 4
TimelineZoom: 1.9

[Metadata]
Title:Space Battle
TitleUnicode:Space Battle
Artist:F777
ArtistUnicode:F777
Creator:XteamcrafterX
Version:Intergalactic Fight
Source:
Tags:F777 Electronic jesse valentine instrumental ludicrous speed
BeatmapID:1553229
BeatmapSetID:735890

[Difficulty]
HPDrainRate:7
CircleSize:4
OverallDifficulty:8.7
ApproachRate:9.5
SliderMultiplier:2.2
SliderTickRate:1

[Events]
//Background and Video events
0,0,"4107088-nebula-wallpaper.jpg",0,0
//Break Periods
//Storyboard Layer 0 (Background)
//Storyboard Layer 1 (Fail)
//Storyboard Layer 2 (Pass)
//Storyboard Layer 3 (Foreground)
//Storyboard Sound Samples

[TimingPoints]
75,300,4,2,0,100,1,0
9675,-76.9230769230769,4,2,0,100,0,0
18075,-200,4,2,0,100,0,0
19200,-153.846153846153,4,2,0,60,0,0
28800,-133.333333333333,4,2,0,100,0,0
38400,-97.0873786407767,4,2,0,100,0,0
45675,-133.333333333333,4,2,0,100,0,0
46875,-97.0873786407767,4,2,0,100,0,0
48075,-97.0873786407767,4,1,0,100,0,0
49275,-133.333333333333,4,1,0,100,0,0
50475,-97.0873786407767,4,1,0,100,0,0
51675,-133.333333333333,4,1,0,100,0,0
52875,-97.0873786407767,4,1,0,100,0,0
55275,-133.333333333333,4,1,0,100,0,0
57675,-81.3008130081301,4,2,0,100,0,0
72075,-111.111111111111,4,2,0,100,0,0
76875,-66.6666666666667,4,1,0,100,0,1
78075,-200,4,1,0,100,0,1
79275,-66.6666666666667,4,1,0,100,0,1
80475,-200,4,1,0,100,0,1
81675,-83.3333333333333,4,1,0,100,0,1
85275,-200,4,1,0,100,0,1
86475,-83.3333333333333,4,1,0,100,0,1
87675,-200,4,1,0,100,0,1
88875,-83.3333333333333,4,1,0,100,0,1
90075,-133.333333333333,4,1,0,100,0,1
91275,-83.3333333333333,4,1,0,100,0,1
94875,-200,4,1,0,100,0,1
95475,-66.6666666666667,4,1,0,100,0,1
96075,-66.6666666666667,4,1,0,100,0,0
97275,-100,4,1,0,100,0,0
105675,-90.9090909090909,4,1,0,100,0,0
115275,-76.9230769230769,4,1,0,100,0,1
124875,-111.111111111111,4,2,0,100,0,0
134475,-105.263157894737,4,1,0,100,0,0
144075,-86.9565217391304,4,1,0,100,0,0
162075,-133.333333333333,4,1,0,100,0,0
163275,-100,4,1,0,100,0,0
172875,-86.9565217391304,4,1,0,100,0,0
182625,-111.111111111111,4,2,0,10,0,0
192075,-133.333333333333,4,2,0,50,0,0
211275,-100,4,1,0,80,0,0
212475,-133.333333333333,4,1,0,80,0,0
213675,-100,4,1,0,80,0,0
214875,-133.333333333333,4,1,0,80,0,0
216075,-100,4,1,0,80,0,0
220875,-83.3333333333333,4,1,0,80,0,0
222075,-133.333333333333,4,1,0,80,0,0
225675,-83.3333333333333,4,1,0,80,0,0
228075,-133.333333333333,4,1,0,80,0,0
230475,-100,4,1,0,80,0,0
249675,-62.5,4,1,0,80,0,1
250875,-133.333333333333,4,1,0,80,0,1
252075,-62.5,4,1,0,100,0,1
253275,-133.333333333333,4,1,0,100,0,1
254475,-62.5,4,1,0,100,0,1
258075,-133.333333333333,4,1,0,100,0,1
259275,-57.1428571428571,4,1,0,100,0,1
260475,-133.333333333333,4,1,0,100,0,1
261675,-57.1428571428571,4,1,0,100,0,1
262875,-133.333333333333,4,1,0,100,0,1
264075,-57.1428571428571,4,1,0,100,0,1
267675,-133.333333333333,4,1,0,100,0,1
268275,-66.6666666666667,4,1,0,100,0,1
268875,-76.9230769230769,4,1,0,100,0,0
277275,-66.6666666666667,4,1,0,100,0,0
278475,-100,4,1,0,100,0,0
286875,-83.3333333333333,4,1,0,100,0,0
288075,-83.3333333333333,4,1,0,100,0,1
290475,-76.9230769230769,4,1,0,100,0,1
297675,-117.647058823529,4,2,0,100,0,0
307275,-90.9090909090909,4,1,0,100,0,0
314475,-133.333333333333,4,1,0,100,0,0

[HitObjects]
128,104,75,5,6,0:0:0:0:
136,192,375,6,0,L|248:152,1,110,8|0,0:0|0:0,0:0:0:0:
336,216,675,2,0,L|216:264,1,110,0|2,0:0|0:0,0:0:0:0:
88,176,975,5,8,0:0:0:0:
208,64,1125,1,2,0:0:0:0:
304,240,1275,1,0,0:0:0:0:
160,136,1575,5,8,0:0:0:0:
184,280,1725,1,0,0:0:0:0:
288,224,1875,1,0,0:0:0:0:
328,128,2025,6,0,P|280:72|216:64,1,110,2|8,0:0|0:0,0:0:0:0:
288,248,2325,1,0,0:0:0:0:
144,136,2475,1,2,0:0:0:0:
272,176,2775,6,0,P|352:176|360:128,1,110,8|0,0:0|0:0,0:0:0:0:
240,80,3075,5,0,0:0:0:0:
136,176,3225,2,0,P|168:240|216:272,1,110,2|8,0:0|0:0,0:0:0:0:
144,168,3675,5,2,0:0:0:0:
216,312,3975,6,0,L|360:256,1,110,8|0,0:0|0:0,0:0:0:0:
336,144,4275,2,0,L|216:88,1,110,0|2,0:0|0:0,0:0:0:0:
108,60,4575,1,8,0:0:0:0:
124,288,4875,1,2,0:0:0:0:
256,56,5175,5,8,0:0:0:0:
336,288,5325,1,0,0:0:0:0:
144,160,5475,1,0,0:0:0:0:
360,160,5625,1,2,0:0:0:0:
160,296,5775,1,8,0:0:0:0:
72,176,6075,6,0,P|120:96|184:80,1,110,2|0,0:0|0:0,0:0:0:0:
264,48,6375,1,8,0:0:0:0:
360,136,6525,6,0,P|352:232|320:256,1,110
248,296,6825,1,2,0:0:0:0:
128,200,6975,1,8,0:0:0:0:
320,104,7275,5,2,0:0:0:0:
416,176,7425,1,0,0:0:0:0:
344,252,7575,1,8,0:0:0:0:
280,176,7725,1,0,0:0:0:0:
200,248,7875,1,0,0:0:0:0:
116,192,8025,6,0,P|80:120|104:88,1,110,2|8,0:0|0:0,0:0:0:0:
300,60,8475,5,2,0:0:0:0:
408,156,8625,1,8,0:0:0:0:
208,312,8775,2,0,L|128:232,1,110,2|8,0:0|0:0,0:0:0:0:
396,236,9075,1,2,0:0:0:0:
300,312,9225,1,8,0:0:0:0:
108,136,9375,2,0,L|200:56,1,110,2|8,0:0|0:0,0:0:0:0:
360,80,9675,5,2,0:0:0:0:
360,80,9750,1,0,0:0:0:0:
360,80,9825,1,0,0:0:0:0:
408,152,9975,6,0,L|248:160,1,142.99999345398,8|0,0:0|0:0,0:0:0:0:
112,140,10275,2,0,P|76:160|84:256,1,142.99999345398,0|2,0:0|0:0,0:0:0:0:
176,320,10575,5,8,0:0:0:0:
176,320,10650,1,0,0:0:0:0:
176,320,10725,1,0,0:0:0:0:
272,272,10875,5,2,0:0:0:0:
272,272,10950,1,0,0:0:0:0:
272,272,11025,1,0,0:0:0:0:
376,208,11175,6,0,L|264:84,1,142.99999345398,8|0,0:0|0:0,0:0:0:0:
184,72,11475,1,0,0:0:0:0:
280,232,11625,1,2,0:0:0:0:
160,184,11775,5,8,0:0:0:0:
160,184,11850,1,0,0:0:0:0:
160,184,11925,1,0,0:0:0:0:
240,112,12075,5,2,0:0:0:0:
240,112,12150,1,0,0:0:0:0:
240,112,12225,1,0,0:0:0:0:
136,208,12375,5,8,0:0:0:0:
344,240,12525,1,0,0:0:0:0:
264,136,12675,2,0,P|304:92|404:112,1,142.99999345398,0|2,0:0|0:0,0:0:0:0:
344,264,12975,5,8,0:0:0:0:
344,264,13050,1,0,0:0:0:0:
344,264,13125,1,0,0:0:0:0:
200,280,13275,5,2,0:0:0:0:
184,256,13350,1,0,0:0:0:0:
176,228,13425,1,0,0:0:0:0:
384,176,13575,5,8,0:0:0:0:
328,300,13725,2,0,P|276:328|208:312,1,71.4999967269899
212,328,13875,1,0,0:0:0:0:
136,200,14025,1,2,0:0:0:0:
168,100,14175,5,8,0:0:0:0:
224,56,14250,1,0,0:0:0:0:
280,104,14325,1,0,0:0:0:0:
160,144,14475,6,0,L|232:160,2,71.4999967269899,2|0|0,0:0|0:0|0:0,0:0:0:0:
104,264,14775,1,8,0:0:0:0:
324,188,14925,2,0,L|328:276,2,71.4999967269899
280,88,15225,1,2,0:0:0:0:
172,96,15375,5,8,0:0:0:0:
172,96,15450,1,0,0:0:0:0:
172,96,15525,1,0,0:0:0:0:
280,224,15675,1,2,0:0:0:0:
280,224,15750,1,0,0:0:0:0:
280,224,15825,1,0,0:0:0:0:
124,292,15975,5,8,0:0:0:0:
208,128,16125,1,0,0:0:0:0:
208,128,16200,1,0,0:0:0:0:
208,128,16275,1,0,0:0:0:0:
328,216,16425,1,2,0:0:0:0:
164,220,16575,5,8,0:0:0:0:
164,220,16650,1,0,0:0:0:0:
164,220,16725,1,0,0:0:0:0:
328,64,16875,1,2,0:0:0:0:
328,64,16950,1,0,0:0:0:0:
328,64,17025,1,0,0:0:0:0:
327,164,17175,2,0,P|311:228|247:264,1,142.99999345398
204,276,17400,5,0,0:0:0:0:
160,272,17475,1,2,0:0:0:0:
68,276,17625,1,0,0:0:0:0:
92,192,17775,1,8,0:0:0:0:
92,192,17850,1,0,0:0:0:0:
92,192,17925,1,0,0:0:0:0:
128,96,18075,6,0,B|160:128|160:128|184:112|184:112|200:136|200:136|224:112|224:112|248:152|248:152|304:112|304:112|336:144|336:144|376:128,1,330
96,104,19275,6,0,P|104:192|144:232,1,142.99999345398
224,192,19875,2,0,P|336:168|360:192,1,142.99999345398
436,312,20475,2,0,P|376:360|312:348,1,142.99999345398
184,160,21075,5,0,0:0:0:0:
336,104,21375,1,0,0:0:0:0:
352,200,21600,6,0,L|348:240,1,35.749998363495
312,320,21975,2,0,P|252:312|180:252,1,142.99999345398
176,96,22575,1,0,0:0:0:0:
128,192,22800,6,0,L|168:232,1,35.749998363495
200,288,23175,2,0,P|304:264|312:216,1,142.99999345398
184,176,23775,1,0,0:0:0:0:
304,184,24000,5,0,0:0:0:0:
312,184,24075,2,0,P|368:152|384:80,1,142.99999345398
128,176,24675,2,0,L|272:240,1,142.99999345398
312,144,25200,5,0,0:0:0:0:
312,144,25275,1,0,0:0:0:0:
152,160,25575,1,0,0:0:0:0:
160,296,25875,2,0,L|328:272,1,142.99999345398
320,176,26400,6,0,L|360:120,1,35.749998363495
224,88,26775,2,0,P|168:136|176:216,1,142.99999345398
264,288,27375,1,0,0:0:0:0:
104,176,27600,5,0,0:0:0:0:
104,176,27675,1,0,0:0:0:0:
152,232,27975,1,0,0:0:0:0:
256,72,28275,1,0,0:0:0:0:
368,216,28575,1,0,0:0:0:0:
192,88,28875,5,4,0:1:0:0:
232,168,29325,1,0,0:0:0:0:
288,168,29625,1,0,0:0:0:0:
296,224,29775,2,0,P|264:264|200:288,1,82.5000031471254
104,128,31275,5,0,0:0:0:0:
216,144,31725,1,0,0:0:0:0:
140,176,32025,1,0,0:0:0:0:
128,248,32175,2,0,L|224:248,1,82.5000031471254
136,128,33675,5,0,0:0:0:0:
224,136,34125,1,0,0:0:0:0:
160,176,34425,2,0,L|264:216,1,82.5000031471254
320,184,34725,1,0,0:0:0:0:
288,72,35100,1,0,0:0:0:0:
152,96,35625,5,0,0:0:0:0:
200,128,35775,1,0,0:0:0:0:
248,152,35925,1,0,0:0:0:0:
288,168,36075,1,0,0:0:0:0:
296,256,36525,5,0,0:0:0:0:
192,248,36825,1,0,0:0:0:0:
88,240,36975,2,0,L|80:128,1,82.5000031471254
296,260,38025,5,0,0:0:0:0:
261,160,38175,1,0,0:0:0:0:
204,252,38325,1,0,0:0:0:0:
152,144,38475,6,0,P|240:88|264:92,1,113.299999049149,4|0,0:0|0:0,0:0:0:0:
344,96,38775,1,0,0:0:0:0:
256,176,38925,1,0,0:0:0:0:
140,116,39075,6,0,P|140:176|176:228,1,113.299999049149
244,296,39375,1,0,0:0:0:0:
400,256,39525,5,0,0:0:0:0:
400,256,39600,1,0,0:0:0:0:
400,256,39675,1,0,0:0:0:0:
128,124,40875,5,0,0:0:0:0:
152,276,41025,1,0,0:0:0:0:
208,144,41175,1,0,0:0:0:0:
240,276,41325,6,0,P|328:304|368:296,2,113.299999049149
176,208,41775,1,0,0:0:0:0:
152,120,41925,5,0,0:0:0:0:
152,120,42000,1,0,0:0:0:0:
152,120,42075,1,0,0:0:0:0:
248,96,43275,6,0,L|340:168,1,113.299999049149
324,284,43575,1,0,0:0:0:0:
172,288,43725,6,0,L|92:208,1,113.299999049149
92,124,44025,1,0,0:0:0:0:
248,64,44175,1,0,0:0:0:0:
140,76,44325,5,0,0:0:0:0:
140,76,44400,1,0,0:0:0:0:
144,80,44475,2,0,P|108:140|140:184,1,113.299999049149
240,208,44775,6,0,P|320:160|320:136,1,113.299999049149
316,76,45075,5,0,0:0:0:0:
396,188,45225,1,0,0:0:0:0:
240,232,45375,1,0,0:0:0:0:
144,52,45525,5,0,0:0:0:0:
124,72,45600,1,0,0:0:0:0:
120,108,45675,2,0,B|148:240|148:240|176:116|176:116|208:228|208:228|228:128|228:128|256:232,1,577.500022029878
336,272,46875,6,0,L|456:316,2,113.299999049149
208,232,47325,2,0,L|88:280,2,113.299999049149
136,156,47775,6,0,L|212:148,2,56.6499995245743
156,72,48075,5,6,0:1:0:0:
160,76,48225,1,0,0:0:0:0:
204,164,48375,1,0,0:0:0:0:
80,152,48525,6,0,B|104:232|104:232|156:264,1,113.299999049149,0|8,0:0|0:0,0:0:0:0:
280,316,48825,2,0,P|372:320|388:268,1,113.299999049149
236,104,49125,5,0,0:0:0:0:
236,104,49200,1,0,0:0:0:0:
236,104,49275,2,0,B|200:232|200:232|136:164|136:164|100:268,2,330.000012588501,2|8|2,0:0|0:0|0:0,0:0:0:0:
168,32,50625,5,0,0:0:0:0:
72,100,50775,1,0,0:0:0:0:
104,200,50925,1,0,0:0:0:0:
328,276,51075,5,8,0:0:0:0:
104,200,51225,2,0,P|72:120|104:72,1,110
276,56,51525,5,0,0:0:0:0:
316,36,51600,1,0,0:0:0:0:
348,32,51675,2,0,B|424:64|448:196|272:284,2,330.000012588501,2|8|2,0:0|0:0|0:0,0:0:0:0:
160,56,53025,5,0,0:0:0:0:
72,212,53175,1,0,0:0:0:0:
156,244,53325,5,0,0:0:0:0:
208,264,53400,1,0,0:0:0:0:
264,248,53475,1,8,0:0:0:0:
464,176,53625,5,0,0:0:0:0:
112,36,53775,1,0,0:0:0:0:
140,136,53925,5,0,0:0:0:0:
176,116,54000,1,0,0:0:0:0:
208,112,54075,2,0,P|280:200|168:240,1,226.599998098297,2|0,0:0|0:0,0:0:0:0:
352,148,54525,5,0,0:0:0:0:
312,116,54600,1,0,0:0:0:0:
264,132,54675,1,8,0:0:0:0:
132,188,54825,5,0,0:0:0:0:
264,296,54975,1,0,0:0:0:0:
412,168,55125,1,0,0:0:0:0:
140,168,55275,6,0,B|144:248|208:312|264:232|264:232|304:180|388:272,2,330.000012588501,2|8|8,0:0|0:0|0:0,0:0:0:0:
104,84,56625,5,8,0:0:0:0:
180,216,56925,1,8,0:0:0:0:
292,236,57225,1,2,0:0:0:0:
164,276,57375,1,8,0:0:0:0:
80,128,57675,6,0,P|56:208|80:256,1,135.300002064514
160,304,57975,1,0,0:0:0:0:
316,312,58125,1,0,0:0:0:0:
416,200,58275,1,0,0:0:0:0:
376,72,58425,6,0,P|280:80|260:124,1,135.300002064514
168,256,58725,1,0,0:0:0:0:
136,292,58800,1,0,0:0:0:0:
88,296,58875,2,0,P|20:244|32:192,1,135.300002064514
64,80,59175,1,0,0:0:0:0:
200,60,59325,6,0,P|264:104|256:172,1,135.300002064514
228,300,59625,1,0,0:0:0:0:
408,300,59775,1,0,0:0:0:0:
228,32,59925,1,0,0:0:0:0:
180,28,60000,1,0,0:0:0:0:
132,40,60075,6,0,P|80:88|84:156,1,135.300002064514
220,164,60375,1,0,0:0:0:0:
120,312,60525,2,0,P|140:244|112:176,1,135.300002064514
168,40,60825,6,0,P|228:32|304:68,1,135.300002064514
384,144,61125,1,0,0:0:0:0:
412,180,61200,1,0,0:0:0:0:
432,224,61275,2,0,P|412:316|360:328,1,135.300002064514
276,160,61575,1,0,0:0:0:0:
280,344,61725,1,0,0:0:0:0:
100,264,61875,1,0,0:0:0:0:
72,160,62025,6,0,P|88:96|164:80,1,135.300002064514
320,100,62325,1,0,0:0:0:0:
360,124,62400,1,0,0:0:0:0:
396,156,62475,2,0,L|484:268,2,135.300002064514
236,72,62925,1,0,0:0:0:0:
96,296,63075,1,0,0:0:0:0:
100,88,63225,6,0,P|180:56|260:96,1,135.300002064514
120,192,63525,1,0,0:0:0:0:
96,152,63600,1,0,0:0:0:0:
112,108,63675,1,0,0:0:0:0:
256,56,63825,1,0,0:0:0:0:
324,112,63975,2,0,B|408:136|408:136|432:192,1,135.300002064514
304,304,64275,2,0,B|232:292|232:292|196:232,1,135.300002064514
176,60,64575,1,0,0:0:0:0:
404,140,64725,5,0,0:0:0:0:
420,184,64800,1,0,0:0:0:0:
408,232,64875,1,0,0:0:0:0:
252,320,65025,2,0,B|180:296|180:296|144:240,1,135.300002064514
112,68,65325,1,0,0:0:0:0:
348,140,65475,1,0,0:0:0:0:
156,232,65625,2,0,P|140:264|216:312,1,135.300002064514
352,196,65925,5,0,0:0:0:0:
352,196,66000,1,0,0:0:0:0:
352,196,66075,2,0,P|352:96|328:80,1,135.300002064514
244,196,66375,1,0,0:0:0:0:
172,340,66525,1,0,0:0:0:0:
60,244,66675,2,0,P|48:168|72:112,2,135.300002064514
176,184,67125,1,0,0:0:0:0:
36,48,67275,5,4,0:1:0:0:
71,59,67350,1,0,0:0:0:0:
103,78,67425,1,0,0:0:0:0:
122,109,67500,1,0,0:0:0:0:
121,145,67575,1,0,0:0:0:0:
107,180,67650,1,0,0:0:0:0:
87,211,67725,1,0,0:0:0:0:
66,242,67800,1,0,0:0:0:0:
63,278,67875,1,0,0:0:0:0:
88,305,67950,1,0,0:0:0:0:
121,321,68025,1,0,0:0:0:0:
157,331,68100,1,0,0:0:0:0:
193,338,68175,1,0,0:0:0:0:
230,343,68250,1,0,0:0:0:0:
267,346,68325,1,0,0:0:0:0:
304,349,68400,1,0,0:0:0:0:
348,336,68475,5,0,0:0:0:0:
384,308,68550,1,0,0:0:0:0:
388,264,68625,1,0,0:0:0:0:
392,232,68700,1,0,0:0:0:0:
384,200,68775,1,0,0:0:0:0:
372,168,68850,1,0,0:0:0:0:
356,140,68925,1,0,0:0:0:0:
332,116,69000,1,0,0:0:0:0:
304,100,69075,1,0,0:0:0:0:
264,92,69150,1,0,0:0:0:0:
228,112,69225,1,0,0:0:0:0:
204,144,69300,1,0,0:0:0:0:
180,176,69375,1,0,0:0:0:0:
168,216,69450,1,0,0:0:0:0:
148,252,69525,1,0,0:0:0:0:
120,280,69600,1,0,0:0:0:0:
72,296,69675,5,0,0:0:0:0:
36,276,69750,1,0,0:0:0:0:
24,228,69825,1,0,0:0:0:0:
48,188,69900,1,0,0:0:0:0:
80,156,69975,1,0,0:0:0:0:
124,136,70050,1,0,0:0:0:0:
168,116,70125,1,0,0:0:0:0:
216,104,70200,1,0,0:0:0:0:
264,104,70275,1,0,0:0:0:0:
312,108,70350,1,0,0:0:0:0:
352,132,70425,1,0,0:0:0:0:
384,168,70500,1,0,0:0:0:0:
380,216,70575,1,0,0:0:0:0:
344,248,70650,1,0,0:0:0:0:
300,264,70725,1,0,0:0:0:0:
256,248,70800,1,0,0:0:0:0:
212,220,70875,5,0,0:0:0:0:
186,177,70950,1,0,0:0:0:0:
180,129,71025,1,0,0:0:0:0:
203,86,71100,1,0,0:0:0:0:
243,57,71175,1,0,0:0:0:0:
289,43,71250,1,0,0:0:0:0:
344,48,71325,1,0,0:0:0:0:
379,82,71400,1,0,0:0:0:0:
404,124,71475,1,0,0:0:0:0:
412,176,71550,1,0,0:0:0:0:
408,220,71625,1,0,0:0:0:0:
376,260,71700,5,0,0:0:0:0:
328,280,71775,1,0,0:0:0:0:
276,288,71850,1,0,0:0:0:0:
228,272,71925,1,0,0:0:0:0:
184,244,72000,1,0,0:0:0:0:
148,212,72075,6,0,P|128:192|120:176,5,32.99999899292
59,134,72375,2,0,P|47:102|51:86,5,32.99999899292
185,133,72675,2,0,P|203:115|205:89,5,49.4999984893799
129,53,72975,2,0,P|157:33|169:33,5,32.99999899292
270,38,73275,2,0,P|294:38|318:50,5,32.99999899292
203,98,73575,6,0,P|223:114|239:130,5,32.99999899292
329,133,73875,2,0,P|341:157|337:189,5,32.99999899292
268,187,74175,2,0,P|248:207|228:215,5,32.99999899292
171,112,74475,2,0,L|127:120,5,32.99999899292
158,206,74775,2,0,P|138:214|118:238,5,32.99999899292
202,269,75075,2,0,P|190:281|186:313,5,32.99999899292
278,257,75375,2,0,P|282:281|302:297,5,32.99999899292
96,56,76875,5,6,0:0:0:0:
256,192,77025,1,0,0:0:0:0:
376,48,77175,1,8,0:0:0:0:
256,192,77325,1,0,0:0:0:0:
264,264,77475,6,0,P|160:280|72:208,1,165.000006294251,0|2,0:0|0:0,0:0:0:0:
168,96,77775,1,8,0:0:0:0:
368,176,77925,1,0,0:0:0:0:
128,176,78075,6,0,B|144:160|144:160|152:192|152:192|176:152|176:152|184:184|184:184|200:152|200:152|216:184|216:184|232:152|232:152|248:184|248:184|264:152|264:152|280:176|280:176|288:152|288:152|304:176,1,385
112,296,79275,5,2,0:0:0:0:
200,48,79425,1,0,0:0:0:0:
360,192,79575,1,8,0:0:0:0:
208,184,79725,6,0,P|104:144|112:88,1,165.000006294251
304,44,80025,1,2,0:0:0:0:
112,292,80175,1,8,0:0:0:0:
384,192,80325,1,0,0:0:0:0:
128,80,80475,6,0,P|80:144|200:88,1,385
360,96,81675,5,2,0:0:0:0:
240,328,81825,1,0,0:0:0:0:
128,72,81975,2,0,P|60:176|92:216,1,131.99999597168,8|0,0:0|0:0,0:0:0:0:
180,336,82275,1,0,0:0:0:0:
448,264,82425,5,2,0:0:0:0:
124,184,82575,1,8,0:0:0:0:
348,128,82725,2,0,B|356:200|356:200|332:280,1,131.99999597168,0|2,0:0|0:0,0:0:0:0:
156,244,83025,2,0,P|112:152|140:112,1,131.99999597168,0|8,0:0|0:0,0:0:0:0:
156,36,83325,5,0,0:0:0:0:
408,128,83475,1,0,0:0:0:0:
264,304,83625,1,2,0:0:0:0:
248,52,83775,1,8,0:0:0:0:
216,208,83925,1,0,0:0:0:0:
48,304,84075,1,2,0:0:0:0:
28,192,84225,6,0,P|76:132|160:172,1,131.99999597168,0|8,0:0|0:0,0:0:0:0:
244,280,84525,1,0,0:0:0:0:
324,120,84675,2,0,P|352:88|440:68,2,131.99999597168,0|2|8,0:0|0:0|0:0,0:0:0:0:
96,160,85275,6,0,P|124:96|176:88,1,110,2|8,0:0|0:0,0:0:0:0:
336,168,85875,2,0,B|344:160|320:192|320:192|360:224|360:224|320:240|320:240|368:256|368:256|328:288,1,220,2|6,0:0|0:0,0:0:0:0:
136,112,86625,5,0,0:0:0:0:
320,272,86775,1,8,0:0:0:0:
304,48,86925,5,0,0:0:0:0:
320,272,87075,1,0,0:0:0:0:
448,72,87225,5,2,0:0:0:0:
320,272,87375,2,0,P|224:280|168:264,1,131.99999597168,8|0,0:0|0:0,0:0:0:0:
136,160,87675,6,0,B|176:96|176:96|192:168|192:168|232:104|232:104|248:152|248:152|280:104|280:104|304:152,1,385
112,256,88875,5,2,0:0:0:0:
448,296,89025,1,0,0:0:0:0:
284,172,89175,6,0,P|244:124|208:60,2,131.99999597168,8|0|0,0:0|0:0|0:0,0:0:0:0:
432,268,89625,5,2,0:0:0:0:
336,40,89775,1,8,0:0:0:0:
200,216,89925,1,0,0:0:0:0:
96,208,90075,6,0,P|288:240|96:200,1,577.500022029878
68,48,91275,5,2,0:0:0:0:
336,112,91425,1,0,0:0:0:0:
144,208,91575,1,8,0:0:0:0:
472,196,91725,1,0,0:0:0:0:
240,232,91875,6,0,P|288:216|320:144,2,131.99999597168,0|2|8,0:0|0:0|0:0,0:0:0:0:
32,304,92325,1,0,0:0:0:0:
176,64,92475,6,0,P|336:80|400:184,1,263.99999194336,2|8,0:0|0:0,0:0:0:0:
120,288,92925,5,0,0:0:0:0:
336,48,93075,1,0,0:0:0:0:
344,304,93225,1,2,0:0:0:0:
300,184,93375,2,0,B|212:220|212:220|160:184,1,131.99999597168,8|0,0:0|0:0,0:0:0:0:
144,120,93675,6,0,L|272:72,2,131.99999597168,2|0|8,0:0|0:0|0:0,0:0:0:0:
336,52,94125,1,0,0:0:0:0:
296,240,94275,2,0,P|368:128|360:96,3,131.99999597168,0|2|8|0,0:0|0:0|0:0|0:0,0:0:0:0:
128,168,94875,6,0,L|248:72,1,137.5
244,120,95475,2,0,B|320:128|320:128|256:140|256:140|308:140|308:140|252:156|252:156|312:144|312:144|256:160|256:160|312:152|312:152|260:172|260:172|292:172|292:172|252:180|252:180|268:184,1,495.000018882752
108,84,96075,5,6,0:0:0:0:
228,264,96225,1,0,0:0:0:0:
344,52,96375,1,8,0:0:0:0:
148,104,96525,6,0,B|68:168|116:248,1,165.000006294251
320,296,96825,1,2,0:0:0:0:
112,176,96975,1,8,0:0:0:0:
376,104,97125,5,0,0:0:0:0:
376,104,97200,1,0,0:0:0:0:
376,104,97275,1,2,0:0:0:0:
216,192,97575,1,8,0:0:0:0:
128,168,98025,2,0,P|192:96|232:96,1,110,2|8,0:0|0:0,0:0:0:0:
100,88,98475,5,2,0:0:0:0:
368,284,98625,1,0,0:0:0:0:
360,76,98775,1,8,0:0:0:0:
140,288,98925,5,0,0:0:0:0:
256,48,99075,1,0,0:0:0:0:
356,280,99225,2,0,P|292:296|248:260,1,110,2|8,0:0|0:0,0:0:0:0:
256,120,99525,5,0,0:0:0:0:
256,120,99600,1,0,0:0:0:0:
256,120,99675,2,0,P|328:148|320:280,1,220,2|8,0:0|0:0,0:0:0:0:
184,276,100425,2,0,P|108:276|84:216,1,110,2|8,0:0|0:0,0:0:0:0:
120,72,100875,5,2,0:0:0:0:
352,96,101025,1,0,0:0:0:0:
136,264,101175,1,8,0:0:0:0:
344,276,101325,1,0,0:0:0:0:
248,48,101475,5,0,0:0:0:0:
128,144,101625,1,2,0:0:0:0:
272,152,101775,1,8,0:0:0:0:
136,116,101925,5,0,0:0:0:0:
184,100,102000,1,0,0:0:0:0:
228,128,102075,1,2,0:0:0:0:
268,232,102225,1,0,0:0:0:0:
60,72,102375,1,8,0:0:0:0:
136,256,102525,5,0,0:0:0:0:
136,256,102600,1,0,0:0:0:0:
140,260,102675,1,0,0:0:0:0:
200,96,102825,2,0,L|316:120,1,110,2|8,0:0|0:0,0:0:0:0:
352,224,103125,1,0,0:0:0:0:
168,196,103275,1,2,0:0:0:0:
256,192,103425,12,0,104325,0:0:0:0:
296,68,104475,6,0,L|392:164,1,110,2|8,0:0|0:0,0:0:0:0:
216,316,104775,6,0,L|120:220,1,110,2|8,0:0|0:0,0:0:0:0:
380,232,105075,6,0,L|284:328,1,110,2|8,0:0|0:0,0:0:0:0:
132,152,105375,6,0,L|228:56,1,110,2|8,0:0|0:0,0:0:0:0:
352,64,105675,5,6,0:0:0:0:
360,120,105750,1,0,0:0:0:0:
343,164,105825,1,0,0:0:0:0:
300,175,105900,1,0,0:0:0:0:
255,157,105975,5,8,0:0:0:0:
212,134,106050,1,0,0:0:0:0:
168,118,106125,1,0,0:0:0:0:
120,123,106200,1,0,0:0:0:0:
76,143,106275,1,0,0:0:0:0:
45,180,106350,1,0,0:0:0:0:
32,224,106425,5,2,0:0:0:0:
56,267,106500,1,0,0:0:0:0:
104,284,106575,5,8,0:0:0:0:
149,281,106650,1,0,0:0:0:0:
196,269,106725,1,0,0:0:0:0:
243,259,106800,1,0,0:0:0:0:
291,261,106875,5,2,0:0:0:0:
337,275,106950,1,0,0:0:0:0:
378,301,107025,1,0,0:0:0:0:
413,328,107100,1,0,0:0:0:0:
451,298,107175,5,8,0:0:0:0:
470,254,107250,1,0,0:0:0:0:
473,206,107325,1,0,0:0:0:0:
467,158,107400,1,0,0:0:0:0:
455,111,107475,1,0,0:0:0:0:
200,284,107625,5,2,0:0:0:0:
192,88,107775,1,8,0:0:0:0:
372,224,107925,1,0,0:0:0:0:
80,32,108075,5,2,0:0:0:0:
57,72,108150,1,0,0:0:0:0:
71,118,108225,1,0,0:0:0:0:
94,158,108300,1,0,0:0:0:0:
75,203,108375,5,8,0:0:0:0:
47,242,108450,1,0,0:0:0:0:
41,288,108525,1,0,0:0:0:0:
64,330,108600,1,0,0:0:0:0:
106,348,108675,1,0,0:0:0:0:
154,353,108750,1,0,0:0:0:0:
203,352,108825,5,2,0:0:0:0:
250,345,108900,1,0,0:0:0:0:
296,328,108975,5,8,0:0:0:0:
338,304,109050,1,0,0:0:0:0:
373,272,109125,1,0,0:0:0:0:
392,228,109200,1,0,0:0:0:0:
390,180,109275,5,2,0:0:0:0:
389,131,109350,1,0,0:0:0:0:
395,83,109425,1,0,0:0:0:0:
375,50,109500,1,0,0:0:0:0:
326,53,109575,5,8,0:0:0:0:
280,66,109650,1,0,0:0:0:0:
235,85,109725,1,0,0:0:0:0:
197,114,109800,1,0,0:0:0:0:
171,155,109875,1,0,0:0:0:0:
170,202,109950,1,0,0:0:0:0:
197,241,110025,5,2,0:0:0:0:
240,264,110100,1,0,0:0:0:0:
276,293,110175,5,8,0:0:0:0:
257,334,110250,1,0,0:0:0:0:
211,348,110325,1,0,0:0:0:0:
160,328,110400,1,0,0:0:0:0:
116,292,110475,5,2,0:0:0:0:
304,136,110625,5,0,0:0:0:0:
88,72,110775,2,0,P|64:128|88:192,1,121.000003692627,8|0,0:0|0:0,0:0:0:0:
296,232,111075,5,0,0:0:0:0:
360,72,111225,1,2,0:0:0:0:
192,264,111375,2,0,P|256:312|304:304,1,121.000003692627,8|0,0:0|0:0,0:0:0:0:
256,120,111675,5,2,0:0:0:0:
280,160,111750,1,0,0:0:0:0:
264,208,111825,1,0,0:0:0:0:
152,48,111975,5,8,0:0:0:0:
112,192,112125,1,0,0:0:0:0:
176,280,112275,1,0,0:0:0:0:
272,240,112425,6,0,P|296:144|272:120,1,121.000003692627,2|8,0:0|0:0,0:0:0:0:
104,240,112725,2,0,P|104:144|136:120,1,121.000003692627,0|2,0:0|0:0,0:0:0:0:
256,144,113025,5,0,0:0:0:0:
192,288,113175,2,0,P|272:288|304:256,1,121.000003692627,8|0,0:0|0:0,0:0:0:0:
320,112,113475,5,0,0:0:0:0:
112,108,113625,1,2,0:0:0:0:
296,272,113775,1,8,0:0:0:0:
48,244,113925,1,0,0:0:0:0:
104,128,114075,6,0,L|200:32,1,121.000003692627,2|8,0:0|0:0,0:0:0:0:
399,256,114375,6,0,L|312:352,1,121.000003692627,2|8,0:0|0:0,0:0:0:0:
320,48,114675,6,0,L|424:144,1,121.000003692627,2|8,0:0|0:0,0:0:0:0:
192,336,114975,6,0,L|96:248,1,121.000003692627,2|8,0:0|0:0,0:0:0:0:
344,324,115275,5,6,0:0:0:0:
399,291,115350,1,0,0:0:0:0:
444,246,115425,1,0,0:0:0:0:
446,183,115500,1,0,0:0:0:0:
390,163,115575,5,8,0:0:0:0:
329,185,115650,1,0,0:0:0:0:
269,209,115725,1,0,0:0:0:0:
208,228,115800,1,0,0:0:0:0:
145,239,115875,1,0,0:0:0:0:
82,230,115950,1,0,0:0:0:0:
48,178,116025,5,2,0:0:0:0:
63,117,116100,1,0,0:0:0:0:
111,76,116175,5,8,0:0:0:0:
169,47,116250,1,0,0:0:0:0:
230,28,116325,1,0,0:0:0:0:
289,45,116400,1,0,0:0:0:0:
300,103,116475,5,2,0:0:0:0:
251,144,116550,1,0,0:0:0:0:
202,184,116625,1,0,0:0:0:0:
196,247,116700,1,0,0:0:0:0:
219,307,116775,5,8,0:0:0:0:
208,72,116925,5,0,0:0:0:0:
120,272,117075,1,0,0:0:0:0:
352,56,117225,1,2,0:0:0:0:
352,240,117375,1,8,0:0:0:0:
136,112,117525,1,0,0:0:0:0:
384,308,117675,5,2,0:0:0:0:
329,273,117750,1,0,0:0:0:0:
284,229,117825,1,0,0:0:0:0:
292,167,117900,1,0,0:0:0:0:
282,112,117975,5,8,0:0:0:0:
239,65,118050,1,0,0:0:0:0:
181,38,118125,1,0,0:0:0:0:
119,48,118200,1,0,0:0:0:0:
81,98,118275,1,0,0:0:0:0:
85,161,118350,1,0,0:0:0:0:
124,213,118425,5,2,0:0:0:0:
175,251,118500,1,0,0:0:0:0:
237,263,118575,5,8,0:0:0:0:
292,228,118650,1,0,0:0:0:0:
312,168,118725,1,0,0:0:0:0:
348,116,118800,1,0,0:0:0:0:
408,100,118875,5,2,0:0:0:0:
456,144,118950,1,0,0:0:0:0:
464,208,119025,1,0,0:0:0:0:
444,268,119100,1,0,0:0:0:0:
380,304,119175,5,8,0:0:0:0:
316,308,119250,1,0,0:0:0:0:
256,284,119325,1,0,0:0:0:0:
212,236,119400,1,0,0:0:0:0:
164,192,119475,1,0,0:0:0:0:
120,144,119550,1,0,0:0:0:0:
56,152,119625,5,2,0:0:0:0:
28,208,119700,1,0,0:0:0:0:
60,264,119775,5,8,0:0:0:0:
120,288,119850,1,0,0:0:0:0:
180,264,119925,1,0,0:0:0:0:
196,72,120075,6,0,L|340:136,1,142.99999345398,2|0,0:0|0:0,0:0:0:0:
408,256,120375,5,8,0:0:0:0:
128,240,120525,1,0,0:0:0:0:
136,104,120675,1,0,0:0:0:0:
272,84,120825,1,2,0:0:0:0:
308,184,120975,1,8,0:0:0:0:
160,156,121125,6,0,P|120:148|88:156,2,71.4999967269899,0|0|2,0:0|0:0|0:0,0:0:0:0:
232,244,121425,5,0,0:0:0:0:
388,212,121575,6,0,P|356:108|272:88,1,142.99999345398,8|0,0:0|0:0,0:0:0:0:
112,72,121875,5,0,0:0:0:0:
256,276,122025,1,2,0:0:0:0:
380,72,122175,1,8,0:0:0:0:
140,200,122325,1,0,0:0:0:0:
384,176,122475,6,0,P|344:272|172:236,1,285.99998690796,2|8,0:0|0:0,0:0:0:0:
88,176,122925,1,0,0:0:0:0:
224,76,123075,1,0,0:0:0:0:
324,172,123225,2,0,B|372:236|372:236|332:308,2,142.99999345398,2|8|0,0:0|0:0|0:0,0:0:0:0:
328,36,123675,5,2,0:0:0:0:
328,36,123825,1,8,0:0:0:0:
268,280,123975,5,2,0:0:0:0:
268,280,124125,1,8,0:0:0:0:
152,132,124275,5,2,0:0:0:0:
152,132,124425,1,8,0:0:0:0:
348,124,124575,6,0,P|368:208|304:264,1,142.99999345398,2|8,0:0|0:0,0:0:0:0:
104,76,124875,5,4,0:1:0:0:
84,116,124950,1,0,0:0:0:0:
74,159,125025,1,0,0:0:0:0:
79,203,125100,1,0,0:0:0:0:
101,241,125175,1,0,0:0:0:0:
134,271,125250,1,0,0:0:0:0:
173,293,125325,1,0,0:0:0:0:
214,310,125400,1,0,0:0:0:0:
258,315,125475,1,0,0:0:0:0:
301,305,125550,1,0,0:0:0:0:
333,275,125625,1,0,0:0:0:0:
345,233,125700,1,0,0:0:0:0:
344,188,125775,1,0,0:0:0:0:
337,144,125850,1,0,0:0:0:0:
326,101,125925,1,0,0:0:0:0:
216,48,126075,6,0,L|324:80,2,98.9999969787599
120,88,126525,1,0,0:0:0:0:
104,188,126675,2,0,P|152:248|196:256,1,98.9999969787599
332,188,126975,2,0,P|296:140|228:124,1,98.9999969787599
64,208,127275,5,0,0:0:0:0:
77,250,127350,1,0,0:0:0:0:
99,289,127425,1,0,0:0:0:0:
135,314,127500,1,0,0:0:0:0:
174,300,127575,1,0,0:0:0:0:
214,281,127650,1,0,0:0:0:0:
257,274,127725,1,0,0:0:0:0:
302,278,127800,1,0,0:0:0:0:
345,289,127875,1,0,0:0:0:0:
386,307,127950,1,0,0:0:0:0:
422,300,128025,1,0,0:0:0:0:
441,260,128100,1,0,0:0:0:0:
435,217,128175,1,0,0:0:0:0:
418,176,128250,1,0,0:0:0:0:
404,133,128325,1,0,0:0:0:0:
408,90,128400,1,0,0:0:0:0:
377,59,128475,5,0,0:0:0:0:
335,47,128550,1,0,0:0:0:0:
291,51,128625,1,0,0:0:0:0:
250,67,128700,1,0,0:0:0:0:
210,87,128775,1,0,0:0:0:0:
167,96,128850,1,0,0:0:0:0:
122,95,128925,1,0,0:0:0:0:
84,108,129000,1,0,0:0:0:0:
56,148,129075,1,0,0:0:0:0:
44,192,129150,1,0,0:0:0:0:
52,232,129225,1,0,0:0:0:0:
64,268,129300,1,0,0:0:0:0:
96,300,129375,1,0,0:0:0:0:
132,320,129450,1,0,0:0:0:0:
172,328,129525,1,0,0:0:0:0:
256,224,129675,6,0,P|320:208|332:196,2,49.4999984893799
256,56,129975,1,0,0:0:0:0:
100,88,130125,1,0,0:0:0:0:
104,184,130275,2,0,P|152:244|180:244,1,98.9999969787599
320,232,130575,1,0,0:0:0:0:
256,72,130725,5,0,0:0:0:0:
256,72,130800,1,0,0:0:0:0:
256,72,130875,2,0,B|288:152|256:208,1,98.9999969787599
136,256,131175,5,0,0:0:0:0:
336,128,131325,5,0,0:0:0:0:
336,128,131400,1,0,0:0:0:0:
336,128,131475,1,0,0:0:0:0:
296,252,131625,6,0,P|220:272|188:252,1,98.9999969787599
88,168,131925,1,0,0:0:0:0:
236,48,132075,1,0,0:0:0:0:
256,160,132225,1,0,0:0:0:0:
140,320,132375,6,0,P|216:340|252:324,1,98.9999969787599
352,192,132675,1,0,0:0:0:0:
172,84,132825,1,0,0:0:0:0:
204,248,132975,1,0,0:0:0:0:
324,220,133125,1,0,0:0:0:0:
64,96,133275,1,0,0:0:0:0:
56,220,133425,6,0,P|104:308|132:304,1,98.9999969787599
264,288,133725,5,0,0:0:0:0:
252,243,133800,1,0,0:0:0:0:
231,216,133875,1,0,0:0:0:0:
200,200,133950,1,0,0:0:0:0:
164,200,134025,1,0,0:0:0:0:
128,196,134100,1,0,0:0:0:0:
96,180,134175,1,0,0:0:0:0:
72,156,134250,1,0,0:0:0:0:
60,124,134325,1,0,0:0:0:0:
52,88,134400,1,0,0:0:0:0:
72,40,134475,5,6,0:0:0:0:
120,64,134550,1,0,0:0:0:0:
140,116,134625,1,0,0:0:0:0:
140,168,134700,1,0,0:0:0:0:
136,220,134775,1,0,0:0:0:0:
152,272,134850,1,0,0:0:0:0:
172,312,134925,1,0,0:0:0:0:
184,364,135000,1,0,0:0:0:0:
232,344,135075,5,8,0:0:0:0:
272,308,135150,1,0,0:0:0:0:
316,280,135225,1,0,0:0:0:0:
348,236,135300,1,0,0:0:0:0:
384,200,135375,1,0,0:0:0:0:
432,176,135450,1,0,0:0:0:0:
452,128,135525,1,0,0:0:0:0:
456,76,135600,1,0,0:0:0:0:
404,76,135675,5,2,0:0:0:0:
352,88,135750,1,0,0:0:0:0:
300,104,135825,1,0,0:0:0:0:
256,124,135900,1,0,0:0:0:0:
212,148,135975,1,0,0:0:0:0:
164,144,136050,1,0,0:0:0:0:
124,116,136125,1,0,0:0:0:0:
68,192,136275,5,8,0:0:0:0:
68,340,136425,1,0,0:0:0:0:
200,216,136575,1,0,0:0:0:0:
260,348,136725,1,0,0:0:0:0:
416,348,136875,5,2,0:0:0:0:
404,304,136950,1,0,0:0:0:0:
388,260,137025,1,0,0:0:0:0:
372,216,137100,1,0,0:0:0:0:
344,180,137175,1,0,0:0:0:0:
336,132,137250,1,0,0:0:0:0:
312,92,137325,1,0,0:0:0:0:
276,60,137400,1,0,0:0:0:0:
272,108,137475,5,8,0:0:0:0:
264,156,137550,1,0,0:0:0:0:
244,200,137625,1,0,0:0:0:0:
224,244,137700,1,0,0:0:0:0:
204,288,137775,1,0,0:0:0:0:
176,324,137850,1,0,0:0:0:0:
132,344,137925,1,0,0:0:0:0:
84,344,138000,1,0,0:0:0:0:
104,304,138075,5,2,0:0:0:0:
116,260,138150,1,0,0:0:0:0:
124,212,138225,1,0,0:0:0:0:
128,164,138300,1,0,0:0:0:0:
132,116,138375,1,0,0:0:0:0:
156,76,138450,1,0,0:0:0:0:
184,40,138525,1,0,0:0:0:0:
228,20,138600,1,0,0:0:0:0:
216,64,138675,5,8,0:0:0:0:
204,108,138750,1,0,0:0:0:0:
188,152,138825,1,0,0:0:0:0:
200,196,138900,1,0,0:0:0:0:
228,232,138975,1,0,0:0:0:0:
264,264,139050,1,0,0:0:0:0:
304,288,139125,1,0,0:0:0:0:
352,288,139200,1,0,0:0:0:0:
396,276,139275,5,2,0:0:0:0:
140,80,139425,5,0,0:0:0:0:
100,284,139575,1,0,0:0:0:0:
288,100,139725,1,0,0:0:0:0:
244,308,139875,1,8,0:0:0:0:
396,92,140025,6,0,L|348:200,1,104.499997209549
236,180,140325,5,0,0:0:0:0:
180,152,140400,1,0,0:0:0:0:
124,176,140475,1,2,0:0:0:0:
240,300,140625,5,0,0:0:0:0:
368,276,140775,2,0,P|388:216|368:152,1,104.499997209549
92,52,141075,2,0,P|68:112|92:152,1,104.499997209549,8|0,0:0|0:0,0:0:0:0:
256,184,141375,5,0,0:0:0:0:
240,80,141525,1,0,0:0:0:0:
136,64,141675,6,0,P|60:216|256:296,1,417.999988838196,2|8,0:0|0:0,0:0:0:0:
272,188,142575,1,0,0:0:0:0:
308,80,142875,6,0,P|400:204|212:356,1,417.999988838196,2|8,0:0|0:0,0:0:0:0:
136,228,143775,1,0,0:0:0:0:
76,76,144075,5,6,0:0:0:0:
188,64,144375,5,8,0:0:0:0:
288,128,144525,2,0,L|220:248,1,126.500002412796
360,288,144825,5,2,0:0:0:0:
288,48,144975,1,8,0:0:0:0:
80,168,145125,1,0,0:0:0:0:
200,320,145275,5,2,0:0:0:0:
144,236,145575,5,8,0:0:0:0:
272,56,145725,2,0,P|360:132|356:168,1,126.500002412796
256,260,146025,6,0,P|176:276|144:244,1,126.500002412796,2|8,0:0|0:0,0:0:0:0:
200,144,146325,1,0,0:0:0:0:
392,272,146475,5,2,0:0:0:0:
104,72,146775,5,8,0:0:0:0:
156,304,146925,1,0,0:0:0:0:
352,192,147075,1,0,0:0:0:0:
112,68,147225,2,0,L|240:116,1,126.500002412796,2|8,0:0|0:0,0:0:0:0:
232,280,147525,1,0,0:0:0:0:
120,128,147675,1,2,0:0:0:0:
320,232,147975,2,0,P|340:168|300:108,1,126.500002412796,8|0,0:0|0:0,0:0:0:0:
40,116,148275,2,0,P|24:188|72:248,1,126.500002412796,0|2,0:0|0:0,0:0:0:0:
180,288,148575,1,8,0:0:0:0:
304,312,148875,6,0,P|364:284|392:104,1,253.000004825592,2|8,0:0|0:0,0:0:0:0:
88,80,149325,5,0,0:0:0:0:
232,284,149475,1,0,0:0:0:0:
68,232,149625,1,2,0:0:0:0:
228,120,149775,1,8,0:0:0:0:
360,184,149925,6,0,P|332:292|300:292,1,126.500002412796,0|2,0:0|0:0,0:0:0:0:
60,132,150375,5,8,0:0:0:0:
208,288,150525,1,0,0:0:0:0:
32,208,150675,2,0,P|24:272|96:344,1,126.500002412796,0|2,0:0|0:0,0:0:0:0:
348,320,150975,2,0,P|384:224|376:180,1,126.500002412796,8|0,0:0|0:0,0:0:0:0:
232,60,151275,5,2,0:0:0:0:
308,64,151575,5,8,0:0:0:0:
96,100,151725,2,0,B|96:152|96:152|128:164|128:164|128:212,1,126.500002412796
220,312,152025,5,2,0:0:0:0:
336,296,152175,2,0,P|384:240|376:168,1,126.500002412796,8|0,0:0|0:0,0:0:0:0:
304,88,152475,5,2,0:0:0:0:
144,112,152775,5,8,0:0:0:0:
296,136,152925,2,0,L|176:212,2,126.500002412796,0|0|2,0:0|0:0|0:0,0:0:0:0:
416,172,153375,2,0,P|452:224|376:288,1,126.500002412796,8|0,0:0|0:0,0:0:0:0:
312,320,153675,5,6,0:0:0:0:
299,318,153750,1,0,0:0:0:0:
279,313,153825,1,0,0:0:0:0:
152,256,153975,5,8,0:0:0:0:
76,152,154125,1,0,0:0:0:0:
52,120,154200,1,0,0:0:0:0:
60,80,154275,1,0,0:0:0:0:
208,45,154425,1,2,0:0:0:0:
224,240,154575,5,8,0:0:0:0:
240,264,154650,1,0,0:0:0:0:
268,280,154725,1,0,0:0:0:0:
312,124,154875,5,2,0:0:0:0:
272,120,154950,1,0,0:0:0:0:
232,132,155025,1,0,0:0:0:0:
76,220,155175,6,0,P|156:264|200:268,1,126.500002412796,8|0,0:0|0:0,0:0:0:0:
232,272,155400,1,0,0:0:0:0:
276,264,155475,1,0,0:0:0:0:
352,40,155625,1,2,0:0:0:0:
272,160,155775,5,8,0:0:0:0:
272,160,155850,1,0,0:0:0:0:
272,160,155925,1,0,0:0:0:0:
112,160,156075,6,0,L|40:184,2,63.250001206398,2|0|0,0:0|0:0|0:0,0:0:0:0:
356,300,156375,6,0,L|219:284,1,126.500002412796,8|0,0:0|0:0,0:0:0:0:
188,276,156600,1,0,0:0:0:0:
144,264,156675,1,2,0:0:0:0:
32,132,156825,1,0,0:0:0:0:
252,96,156975,6,0,L|300:48,2,63.250001206398,8|0|0,0:0|0:0|0:0,0:0:0:0:
92,184,157275,5,2,0:0:0:0:
84,212,157350,1,0,0:0:0:0:
76,240,157425,1,0,0:0:0:0:
360,268,157575,1,8,0:0:0:0:
220,304,157725,2,0,P|192:340|164:352,2,63.250001206398,0|0|2,0:0|0:0|0:0,0:0:0:0:
288,244,158025,1,0,0:0:0:0:
200,128,158175,5,8,0:0:0:0:
244,80,158250,1,0,0:0:0:0:
288,128,158325,1,0,0:0:0:0:
136,272,158475,6,0,L|100:216,2,63.250001206398,2|0|0,0:0|0:0|0:0,0:0:0:0:
240,276,158775,1,8,0:0:0:0:
344,276,158925,1,0,0:0:0:0:
344,276,159000,1,0,0:0:0:0:
344,276,159075,1,0,0:0:0:0:
424,112,159225,5,2,0:0:0:0:
244,56,159375,1,8,0:0:0:0:
244,56,159450,1,0,0:0:0:0:
244,56,159525,1,0,0:0:0:0:
332,72,159675,1,2,0:0:0:0:
316,112,159750,1,0,0:0:0:0:
292,152,159825,6,0,P|244:200|176:196,1,126.500002412796,0|8,0:0|0:0,0:0:0:0:
64,208,160125,2,0,L|32:268,2,63.250001206398
168,252,160425,2,0,P|236:280|312:264,1,126.500002412796,2|8,0:0|0:0,0:0:0:0:
332,248,160650,1,0,0:0:0:0:
352,218,160725,1,0,0:0:0:0:
264,112,160875,5,2,0:0:0:0:
232,80,160950,1,0,0:0:0:0:
188,76,161025,1,0,0:0:0:0:
64,168,161175,1,8,0:0:0:0:
168,288,161325,2,0,L|228:320,2,63.250001206398
304,216,161625,1,2,0:0:0:0:
304,116,161775,2,0,L|212:64,2,63.250001206398,8|0|0,0:0|0:0|0:0,0:0:0:0:
80,128,162075,6,0,B|120:176|120:176|160:80|160:80|204:188|204:188|248:116|248:116|312:172|312:172|348:128|348:128|404:168|404:168|440:160,1,577.500022029878,2|0,0:0|0:0,0:0:0:0:
32,252,163275,5,6,0:0:0:0:
56,280,163350,1,0,0:0:0:0:
92,288,163425,1,0,0:0:0:0:
280,276,163575,1,8,0:0:0:0:
352,208,163725,2,0,L|392:168,2,55
308,52,164025,2,0,P|252:36|196:60,1,110,2|8,0:0|0:0,0:0:0:0:
180,76,164250,5,0,0:0:0:0:
148,112,164325,1,0,0:0:0:0:
144,240,164475,5,2,0:0:0:0:
192,264,164550,1,0,0:0:0:0:
240,272,164625,1,0,0:0:0:0:
364,272,164775,1,8,0:0:0:0:
360,192,164925,2,0,L|384:132,2,55
88,188,165225,5,2,0:0:0:0:
68,276,165375,1,8,0:0:0:0:
120,296,165450,1,0,0:0:0:0:
172,280,165525,1,0,0:0:0:0:
176,192,165675,1,2,0:0:0:0:
160,136,165750,1,0,0:0:0:0:
148,88,165825,5,0,0:0:0:0:
360,176,165975,1,8,0:0:0:0:
304,92,166125,2,0,L|376:120,2,55
108,128,166425,1,2,0:0:0:0:
248,124,166575,1,8,0:0:0:0:
264,132,166650,1,0,0:0:0:0:
288,132,166725,1,0,0:0:0:0:
392,184,166875,5,2,0:0:0:0:
396,224,166950,1,0,0:0:0:0:
376,252,167025,1,0,0:0:0:0:
216,288,167175,1,8,0:0:0:0:
104,180,167325,2,0,L|76:132,2,55
300,212,167625,1,2,0:0:0:0:
208,140,167775,5,8,0:0:0:0:
248,96,167850,1,0,0:0:0:0:
284,140,167925,1,0,0:0:0:0:
208,216,168075,1,2,0:0:0:0:
224,244,168150,1,0,0:0:0:0:
244,260,168225,2,0,P|264:280|348:272,1,110,0|8,0:0|0:0,0:0:0:0:
308,168,168525,5,0,0:0:0:0:
276,140,168600,1,0,0:0:0:0:
236,136,168675,1,0,0:0:0:0:
364,80,168825,1,2,0:0:0:0:
204,44,168975,2,0,P|144:56|112:96,1,110,8|0,0:0|0:0,0:0:0:0:
100,216,169275,5,2,0:0:0:0:
128,248,169350,1,0,0:0:0:0:
168,264,169425,1,0,0:0:0:0:
308,256,169575,2,0,P|368:240|392:200,1,110,8|0,0:0|0:0,0:0:0:0:
400,164,169800,1,0,0:0:0:0:
392,124,169875,1,0,0:0:0:0:
276,64,170025,1,2,0:0:0:0:
140,88,170175,6,0,L|72:108,2,55,8|0|0,0:0|0:0|0:0,0:0:0:0:
84,212,170475,1,2,0:0:0:0:
104,236,170550,1,0,0:0:0:0:
132,252,170625,1,0,0:0:0:0:
232,292,170775,2,0,P|284:288|344:264,1,110,8|0,0:0|0:0,0:0:0:0:
376,240,171000,1,0,0:0:0:0:
412,200,171075,1,0,0:0:0:0:
268,156,171225,5,2,0:0:0:0:
336,80,171375,1,8,0:0:0:0:
296,64,171450,1,0,0:0:0:0:
252,56,171525,1,0,0:0:0:0:
88,52,171675,6,0,P|72:148|136:264,1,220,2|2,0:0|0:0,0:0:0:0:
304,260,172275,2,0,P|384:212|424:80,1,220,8|8,0:0|0:0,0:0:0:0:
208,328,172875,5,6,0:0:0:0:
156,324,172950,1,0,0:0:0:0:
112,300,173025,1,0,0:0:0:0:
144,140,173175,1,8,0:0:0:0:
260,220,173325,5,0,0:0:0:0:
304,180,173400,1,0,0:0:0:0:
292,124,173475,1,0,0:0:0:0:
224,36,173625,1,2,0:0:0:0:
188,28,173700,1,0,0:0:0:0:
156,48,173775,1,8,0:0:0:0:
80,100,173925,6,0,P|60:132|92:216,1,126.500002412796,0|2,0:0|0:0,0:0:0:0:
112,232,174150,5,0,0:0:0:0:
140,244,174225,1,0,0:0:0:0:
312,292,174375,1,8,0:0:0:0:
360,192,174525,2,0,L|384:132,2,63.250001206398
172,280,174825,1,2,0:0:0:0:
212,56,174975,5,8,0:0:0:0:
188,96,175050,1,0,0:0:0:0:
192,144,175125,1,0,0:0:0:0:
396,304,175275,1,2,0:0:0:0:
380,248,175350,1,0,0:0:0:0:
368,200,175425,1,0,0:0:0:0:
204,248,175575,1,8,0:0:0:0:
200,80,175725,6,0,P|208:56|260:60,2,63.250001206398
292,276,176025,1,2,0:0:0:0:
308,155,176175,1,8,0:0:0:0:
298,140,176250,1,0,0:0:0:0:
277,129,176325,1,0,0:0:0:0:
392,184,176475,5,2,0:0:0:0:
396,224,176550,1,0,0:0:0:0:
376,252,176625,1,0,0:0:0:0:
216,288,176775,1,8,0:0:0:0:
336,152,176925,2,0,L|372:96,2,63.250001206398
164,236,177225,1,2,0:0:0:0:
208,140,177375,1,8,0:0:0:0:
248,96,177450,1,0,0:0:0:0:
284,140,177525,1,0,0:0:0:0:
372,232,177675,5,2,0:0:0:0:
360,260,177750,1,0,0:0:0:0:
344,284,177825,1,0,0:0:0:0:
120,220,177975,2,0,P|176:248|244:228,1,126.500002412796,8|0,0:0|0:0,0:0:0:0:
264,216,178200,1,0,0:0:0:0:
290,185,178275,1,0,0:0:0:0:
128,272,178425,1,2,0:0:0:0:
168,68,178575,2,0,P|108:80|76:132,1,126.500002412796,8|0,0:0|0:0,0:0:0:0:
204,228,178875,5,2,0:0:0:0:
232,240,178950,1,0,0:0:0:0:
208,256,179025,1,0,0:0:0:0:
336,152,179175,1,8,0:0:0:0:
416,208,179325,2,0,L|380:272,2,63.250001206398
276,64,179625,1,2,0:0:0:0:
140,88,179775,2,0,L|72:108,2,63.250001206398,8|0|0,0:0|0:0|0:0,0:0:0:0:
84,212,180075,5,2,0:0:0:0:
104,236,180150,1,0,0:0:0:0:
132,252,180225,1,0,0:0:0:0:
232,292,180375,2,0,P|248:240|352:260,1,126.500002412796,8|0,0:0|0:0,0:0:0:0:
344,240,180600,1,0,0:0:0:0:
372,264,180675,1,0,0:0:0:0:
172,192,180825,1,2,0:0:0:0:
140,136,180975,1,8,0:0:0:0:
132,120,181050,1,0,0:0:0:0:
152,124,181125,1,0,0:0:0:0:
135,47,181275,6,0,P|211:155|99:155,1,253.000004825592,2|2,0:0|0:0,0:0:0:0:
173,311,181875,2,0,P|81:215|149:183,1,253.000004825592,8|8,0:0|0:0,0:0:0:0:
128,112,182475,5,4,0:0:0:0:
396,112,182925,5,0,0:0:0:0:
328,276,183225,5,0,0:0:0:0:
244,248,183375,1,0,0:0:0:0:
208,168,183525,1,0,0:0:0:0:
80,260,184875,5,0,0:0:0:0:
348,268,185325,5,0,0:0:0:0:
348,152,185625,5,0,0:0:0:0:
308,72,185775,1,0,0:0:0:0:
260,148,185925,1,0,0:0:0:0:
104,88,187275,5,0,0:0:0:0:
372,72,187725,5,0,0:0:0:0:
284,228,188025,5,0,0:0:0:0:
200,252,188175,1,0,0:0:0:0:
116,224,188325,1,0,0:0:0:0:
64,280,188775,5,0,0:0:0:0:
328,240,189225,5,0,0:0:0:0:
344,152,189375,1,0,0:0:0:0:
256,144,189525,1,0,0:0:0:0:
276,56,189675,1,0,0:0:0:0:
124,196,190125,5,0,0:0:0:0:
284,272,190425,5,0,0:0:0:0:
372,248,190575,1,0,0:0:0:0:
352,160,190725,1,0,0:0:0:0:
392,100,191625,5,0,0:0:0:0:
336,268,191775,1,0,0:0:0:0:
168,240,191925,1,0,0:0:0:0:
136,96,192075,6,0,L|224:132,1,82.5000031471254,6|0,0:1|0:0,0:0:0:0:
316,260,192375,2,0,L|224:224,1,82.5000031471254,0|2,0:0|0:0,0:0:0:0:
116,300,192675,2,0,L|152:216,1,82.5000031471254,0|2,0:0|0:0,0:0:0:0:
308,80,192975,1,2,0:0:0:0:
216,188,193125,5,2,0:0:0:0:
216,188,193200,1,0,0:0:0:0:
216,188,193275,1,0,0:0:0:0:
256,192,193350,12,0,194325,0:0:0:0:
108,84,194475,5,2,0:0:0:0:
192,176,194625,1,0,0:0:0:0:
288,68,194775,1,0,0:0:0:0:
340,156,194925,1,2,0:0:0:0:
416,104,195075,6,0,L|416:192,2,82.5000031471254,0|2|2,0:0|0:0|0:0,0:0:0:0:
256,192,195525,5,2,0:0:0:0:
256,192,195600,1,0,0:0:0:0:
256,192,195675,1,2,0:0:0:0:
256,192,195750,12,0,196725,0:0:0:0:
100,84,196875,6,0,L|128:172,1,82.5000031471254,2|0,0:0|0:0,0:0:0:0:
276,88,197175,1,0,0:0:0:0:
332,248,197325,1,2,0:0:0:0:
120,288,197475,6,0,L|152:208,1,82.5000031471254,0|2,0:0|0:0,0:0:0:0:
256,128,197775,1,2,0:0:0:0:
344,184,197925,5,0,0:0:0:0:
344,184,198000,1,0,0:0:0:0:
344,184,198075,1,0,0:0:0:0:
256,296,198225,2,0,L|208:224,1,82.5000031471254,2|2,0:0|0:0,0:0:0:0:
220,76,198525,5,0,0:0:0:0:
248,68,198600,1,0,0:0:0:0:
280,72,198675,1,0,0:0:0:0:
344,100,198825,6,0,L|396:176,1,82.5000031471254,0|2,0:0|0:0,0:0:0:0:
332,292,199125,5,2,0:0:0:0:
300,296,199200,1,0,0:0:0:0:
280,280,199275,1,2,0:0:0:0:
140,244,199725,1,2,0:0:0:0:
216,176,200025,1,2,0:0:0:0:
304,204,200175,2,0,P|280:276|260:276,1,82.5000031471254,2|2,0:0|0:0,0:0:0:0:
96,108,200475,5,0,0:0:0:0:
200,104,200625,2,0,L|296:100,1,82.5000031471254
332,264,200925,5,0,0:0:0:0:
200,280,201075,2,0,P|144:264|128:236,1,82.5000031471254,0|2,0:0|0:0,0:0:0:0:
116,128,201375,5,2,0:0:0:0:
232,156,201525,1,2,0:0:0:0:
352,116,201675,1,6,1:1:0:0:
332,204,201825,2,0,P|312:292|304:296,1,82.5000031471254
132,284,202125,5,2,0:0:0:0:
104,136,202275,1,0,0:0:0:0:
192,48,202425,1,2,0:0:0:0:
280,144,202575,1,2,0:0:0:0:
312,236,202725,6,0,L|252:256,2,41.2500015735627,2|0|0,0:0|0:0|0:0,0:0:0:0:
256,192,202950,12,0,203925,0:0:0:0:
124,108,204075,5,2,0:0:0:0:
264,244,204225,2,0,P|244:280|196:288,1,82.5000031471254
240,128,204525,1,2,0:0:0:0:
200,332,204675,5,0,0:0:0:0:
176,236,204825,1,2,0:0:0:0:
296,244,204975,1,2,0:0:0:0:
388,188,205125,5,2,0:0:0:0:
392,164,205200,1,0,0:0:0:0:
392,140,205275,1,2,0:0:0:0:
256,192,205350,12,0,206325,0:0:0:0:
84,116,206475,6,0,L|96:208,1,82.5000031471254,2|0,0:0|0:0,0:0:0:0:
252,284,206775,1,0,0:0:0:0:
364,160,206925,6,0,L|288:84,1,82.5000031471254,2|0,0:0|0:0,0:0:0:0:
136,104,207225,1,2,0:0:0:0:
160,272,207375,1,2,0:0:0:0:
324,240,207525,5,2,0:0:0:0:
324,240,207600,1,0,0:0:0:0:
324,240,207675,1,0,0:0:0:0:
392,188,207825,6,0,P|392:140|336:100,1,82.5000031471254
208,72,208125,5,0,0:0:0:0:
208,72,208200,1,0,0:0:0:0:
208,72,208275,1,0,0:0:0:0:
168,152,208425,5,2,0:0:0:0:
260,224,208575,1,2,0:0:0:0:
320,152,208725,5,2,0:0:0:0:
320,152,208800,1,0,0:0:0:0:
320,152,208875,1,2,0:0:0:0:
144,152,209325,1,2,0:0:0:0:
220,256,209625,2,0,P|268:276|312:264,2,82.5000031471254,2|2|2,0:0|0:0|0:0,0:0:0:0:
276,48,210075,6,0,P|252:104|256:128,1,82.5000031471254
404,200,210375,2,0,P|348:176|324:180,1,82.5000031471254
224,328,210675,2,0,P|248:272|244:248,1,82.5000031471254
96,172,210975,2,0,P|152:196|176:192,1,82.5000031471254
252,189,211275,5,6,0:0:0:0:
196,96,211425,2,0,P|136:80|100:112,1,110
68,248,211725,1,0,0:0:0:0:
240,292,211875,1,8,0:0:0:0:
376,272,212025,6,0,P|416:232|424:176,1,110
320,68,212325,1,0,0:0:0:0:
272,56,212400,1,0,0:0:0:0:
224,56,212475,2,0,P|108:104|152:292,2,330.000012588501,2|8|2,0:0|0:0|0:0,0:0:0:0:
328,88,213825,5,0,0:0:0:0:
208,176,213975,1,0,0:0:0:0:
344,280,214125,1,0,0:0:0:0:
172,328,214275,2,0,P|128:304|100:232,1,110,8|0,0:0|0:0,0:0:0:0:
120,80,214575,1,0,0:0:0:0:
308,72,214725,5,0,0:0:0:0:
308,104,214800,1,0,0:0:0:0:
308,136,214875,2,0,B|316:232|192:244|192:244|116:248|104:348,2,330.000012588501,2|8|2,0:0|0:0|0:0,0:0:0:0:
220,52,216225,5,0,0:0:0:0:
80,72,216375,2,0,P|52:132|64:176,1,110
104,256,216675,5,8,0:0:0:0:
248,276,216825,1,0,0:0:0:0:
368,276,216975,2,0,P|412:224|408:164,1,110
408,136,217200,1,0,0:0:0:0:
376,104,217275,1,2,0:0:0:0:
244,48,217425,6,0,P|176:36|116:56,1,110
104,128,217725,5,0,0:0:0:0:
96,160,217800,1,0,0:0:0:0:
104,192,217875,1,8,0:0:0:0:
168,268,218025,1,0,0:0:0:0:
296,280,218175,1,0,0:0:0:0:
372,200,218325,5,0,0:0:0:0:
368,160,218400,1,0,0:0:0:0:
348,128,218475,1,2,0:0:0:0:
256,192,218550,12,0,219525,0:0:0:0:
104,92,219675,5,8,0:0:0:0:
84,148,219825,1,8,0:0:0:0:
92,248,220125,2,0,P|160:296|292:268,1,220,8|8,0:0|0:0,0:0:0:0:
376,192,220575,1,8,0:0:0:0:
108,88,220875,5,6,0:0:0:0:
328,172,221025,1,0,0:0:0:0:
116,272,221175,2,0,P|184:304|260:296,1,131.99999597168
416,132,221475,5,8,0:0:0:0:
240,56,221625,1,0,0:0:0:0:
60,112,221775,6,0,P|44:188|76:224,1,131.99999597168
120,248,222000,1,0,0:0:0:0:
160,272,222075,6,0,P|300:240|204:136,2,330.000012588501,2|8|2,0:0|0:0|0:0,0:0:0:0:
120,52,223425,5,0,0:0:0:0:
376,160,223575,1,0,0:0:0:0:
156,292,223725,1,0,0:0:0:0:
280,64,223875,5,8,0:0:0:0:
320,272,224025,1,0,0:0:0:0:
128,152,224175,1,0,0:0:0:0:
244,272,224325,5,0,0:0:0:0:
244,272,224400,1,0,0:0:0:0:
244,272,224475,2,0,B|344:180|248:148|248:148|140:108|204:24,2,330.000012588501,2|8|2,0:0|0:0|0:0,0:0:0:0:
116,300,225825,5,0,0:0:0:0:
60,208,225975,2,0,P|60:128|136:64,1,131.99999597168
352,72,226275,2,0,P|400:120|408:200,1,131.99999597168,8|0,0:0|0:0,0:0:0:0:
300,308,226575,5,0,0:0:0:0:
192,184,226725,2,0,L|136:112,2,65.9999979858399,0|0|2,0:0|0:0|0:0,0:0:0:0:
360,216,227025,5,0,0:0:0:0:
192,80,227175,1,0,0:0:0:0:
148,224,227325,2,0,L|84:272,2,65.9999979858399,0|0|8,0:0|0:0|0:0,0:0:0:0:
284,140,227625,1,0,0:0:0:0:
320,284,227775,1,0,0:0:0:0:
212,216,227925,5,0,0:0:0:0:
176,200,228000,1,0,0:0:0:0:
144,176,228075,2,0,P|112:96|288:68,2,330.000012588501,2|8|8,0:0|0:0|0:0,0:0:0:0:
388,196,229425,5,8,0:0:0:0:
232,240,229725,1,8,0:0:0:0:
60,260,230025,2,8,L|72:168,1,82.5000031471254
64,96,230475,6,0,P|40:172|88:220,1,110
236,280,230775,1,0,0:0:0:0:
312,96,230925,2,0,P|256:68|184:104,1,110
92,144,231225,1,0,0:0:0:0:
188,264,231375,2,0,P|253:298|292:291,1,110
432,216,231675,5,0,0:0:0:0:
280,64,231825,1,0,0:0:0:0:
228,252,231975,1,0,0:0:0:0:
87,233,232125,2,0,P|52:188|88:108,1,110
184,40,232425,1,0,0:0:0:0:
368,56,232575,2,0,P|412:92|392:160,1,110
320,212,232875,5,0,0:0:0:0:
232,92,233025,1,0,0:0:0:0:
144,208,233175,1,0,0:0:0:0:
228,312,233325,2,0,P|276:336|360:328,1,110
464,248,233625,1,0,0:0:0:0:
436,128,233775,1,0,0:0:0:0:
336,72,233925,2,0,P|270:51|200:81,1,110
112,120,234225,6,0,P|64:168|72:216,1,110
204,328,234525,2,0,P|260:356|320:344,1,110
412,216,234825,1,0,0:0:0:0:
376,56,234975,1,0,0:0:0:0:
264,152,235125,1,0,0:0:0:0:
100,88,235275,6,0,P|68:120|84:188,1,110
160,272,235575,2,0,P|204:320|264:336,1,110
408,344,235875,1,0,0:0:0:0:
388,216,236025,2,0,P|404:164|364:108,1,110
288,44,236325,1,0,0:0:0:0:
180,76,236475,6,0,L|88:140,1,110
60,256,236775,1,0,0:0:0:0:
252,296,236925,1,0,0:0:0:0:
388,280,237075,2,0,P|404:200|384:160,1,110
264,60,237375,2,0,P|176:52|140:76,1,110
64,176,237675,6,0,P|48:240|96:276,1,110
216,292,237975,1,0,0:0:0:0:
328,200,238125,1,0,0:0:0:0:
276,88,238275,2,0,P|188:64|168:92,1,110
96,180,238575,1,0,0:0:0:0:
180,108,238725,1,0,0:0:0:0:
216,272,238875,5,0,0:0:0:0:
304,144,239025,1,0,0:0:0:0:
196,176,239175,2,0,P|136:204|108:168,1,110
96,80,239475,2,0,P|136:48|220:64,1,110
412,116,239775,2,0,P|424:148|392:216,1,110
284,248,240075,5,4,0:0:0:0:
240,228,240150,1,0,0:0:0:0:
208,192,240225,1,0,0:0:0:0:
192,144,240300,1,0,0:0:0:0:
200,96,240375,1,0,0:0:0:0:
228,56,240450,1,0,0:0:0:0:
276,40,240525,1,0,0:0:0:0:
320,60,240600,1,0,0:0:0:0:
332,108,240675,1,0,0:0:0:0:
312,152,240750,1,0,0:0:0:0:
284,196,240825,1,0,0:0:0:0:
272,244,240900,1,0,0:0:0:0:
296,288,240975,1,0,0:0:0:0:
340,308,241050,1,0,0:0:0:0:
388,300,241125,1,0,0:0:0:0:
424,268,241200,1,0,0:0:0:0:
452,228,241275,5,0,0:0:0:0:
448,180,241350,1,0,0:0:0:0:
428,136,241425,1,0,0:0:0:0:
388,104,241500,1,0,0:0:0:0:
340,104,241575,1,0,0:0:0:0:
300,132,241650,1,0,0:0:0:0:
280,176,241725,1,0,0:0:0:0:
252,216,241800,1,0,0:0:0:0:
228,260,241875,1,0,0:0:0:0:
196,296,241950,1,0,0:0:0:0:
156,324,242025,1,0,0:0:0:0:
108,320,242100,1,0,0:0:0:0:
68,292,242175,1,0,0:0:0:0:
44,248,242250,1,0,0:0:0:0:
32,200,242325,1,0,0:0:0:0:
32,152,242400,1,0,0:0:0:0:
44,104,242475,5,0,0:0:0:0:
80,68,242550,1,0,0:0:0:0:
124,48,242625,1,0,0:0:0:0:
172,32,242700,1,0,0:0:0:0:
220,24,242775,1,0,0:0:0:0:
268,24,242850,1,0,0:0:0:0:
316,36,242925,1,0,0:0:0:0:
348,72,243000,1,0,0:0:0:0:
372,116,243075,1,0,0:0:0:0:
376,164,243150,1,0,0:0:0:0:
356,208,243225,1,0,0:0:0:0:
328,248,243300,1,0,0:0:0:0:
288,276,243375,1,0,0:0:0:0:
240,292,243450,1,0,0:0:0:0:
192,296,243525,1,0,0:0:0:0:
144,280,243600,1,0,0:0:0:0:
100,256,243675,5,0,0:0:0:0:
68,220,243750,1,0,0:0:0:0:
52,172,243825,1,0,0:0:0:0:
44,124,243900,1,0,0:0:0:0:
40,76,243975,1,0,0:0:0:0:
68,36,244050,1,0,0:0:0:0:
116,28,244125,1,0,0:0:0:0:
164,44,244200,1,0,0:0:0:0:
208,68,244275,1,0,0:0:0:0:
236,108,244350,1,0,0:0:0:0:
268,148,244425,1,0,0:0:0:0:
316,164,244500,1,0,0:0:0:0:
372,152,244575,1,0,0:0:0:0:
412,124,244650,1,0,0:0:0:0:
424,76,244725,1,0,0:0:0:0:
392,40,244800,1,0,0:0:0:0:
352,36,244875,6,0,P|300:24|292:24,5,36.6666666666667
288,80,245175,2,0,L|244:84,5,36.6666666666667
220,32,245475,2,0,L|176:44,5,36.6666666666667
168,108,245775,2,0,L|120:136,5,36.6666666666667
76,84,246075,2,0,L|48:120,5,36.6666666666667
88,184,246375,2,0,L|88:244,5,36.6666666666667
172,200,246675,2,0,L|208:252,5,36.6666666666667
140,296,246975,2,0,L|196:336,5,36.6666666666667
240,256,247275,2,0,L|296:268,5,36.6666666666667
308,344,247575,2,0,L|364:328,5,36.6666666666667
352,256,247875,2,0,L|412:232,5,36.6666666666667
328,184,248175,2,0,L|368:136,5,36.6666666666667
68,120,249675,6,4,P|72:216|160:272,1,176,6|0,0:0|0:0,0:0:0:0:
356,272,249975,1,8,0:0:0:0:
220,64,250125,1,0,0:0:0:0:
432,84,250275,2,0,P|448:232|396:280,1,176,0|2,0:0|0:0,0:0:0:0:
104,320,250575,1,8,0:0:0:0:
308,40,250725,1,0,0:0:0:0:
116,128,250875,6,2,B|292:196|292:196|88:216|88:216|244:252|244:252|292:264,1,577.500022029878,2|0,0:0|0:0,0:0:0:0:
196,40,252075,5,2,0:0:0:0:
104,192,252225,2,0,P|92:240|240:312,1,176,0|8,0:0|0:0,0:0:0:0:
352,256,252525,1,0,0:0:0:0:
352,60,252675,1,0,0:0:0:0:
176,116,252825,1,2,0:0:0:0:
96,200,252975,2,0,P|112:288|200:288,1,176,8|0,0:0|0:0,0:0:0:0:
116,116,253275,6,2,B|200:136|200:136|132:176|132:176|220:188|220:188|152:228|152:228|252:244|252:244|196:276|196:276|276:288,1,577.500022029878,2|0,0:0|0:0,0:0:0:0:
408,180,254475,5,2,0:0:0:0:
104,48,254625,1,0,0:0:0:0:
68,168,254775,2,0,P|56:260|168:340,1,176,8|0,0:0|0:0,0:0:0:0:
264,308,255075,2,0,P|380:304|448:232,2,176,0|2|8,0:0|0:0|0:0,0:0:0:0:
68,176,255525,1,0,0:0:0:0:
192,48,255675,5,2,0:0:0:0:
132,252,255825,1,0,0:0:0:0:
320,100,255975,6,0,P|364:184|328:248,1,176,8|0,0:0|0:0,0:0:0:0:
104,312,256275,1,0,0:0:0:0:
248,208,256425,1,2,0:0:0:0:
64,92,256575,1,8,0:0:0:0:
256,28,256725,1,0,0:0:0:0:
368,104,256875,6,0,P|380:220|324:264,1,176,2|0,0:0|0:0,0:0:0:0:
60,80,257175,1,8,0:0:0:0:
136,296,257325,1,0,0:0:0:0:
312,124,257475,1,0,0:0:0:0:
336,232,257625,2,0,P|319:336|251:347,1,176,2|8,0:0|0:0,0:0:0:0:
52,248,257925,1,0,0:0:0:0:
92,60,258075,6,2,B|80:112|80:112|132:88|132:88|116:152,1,165.000006294251
288,72,258675,2,2,P|332:60|332:196,1,247.500009441376,2|0,0:0|0:0,0:0:0:0:
120,76,259275,5,6,0:0:0:0:
132,292,259425,1,0,0:0:0:0:
328,260,259575,2,0,P|384:172|348:72,1,192.500001835823,8|0,0:0|0:0,0:0:0:0:
196,84,259875,1,0,0:0:0:0:
104,228,260025,2,0,P|224:292|288:276,1,192.500001835823,2|8,0:0|0:0,0:0:0:0:
392,160,260325,1,0,0:0:0:0:
40,56,260475,2,0,B|32:188|119:242|119:242|164:272|176:132|176:132|352:216|320:316,1,577.500022029878
60,80,261675,5,2,0:0:0:0:
368,172,261825,1,0,0:0:0:0:
92,244,261975,1,8,0:0:0:0:
240,64,262125,2,0,P|328:144|348:216,1,192.500001835823
244,308,262425,1,2,0:0:0:0:
80,132,262575,6,0,P|176:68|264:72,1,192.500001835823,8|0,0:0|0:0,0:0:0:0:
344,56,262875,2,0,B|392:220|340:172|340:172|208:72|252:280|252:280|268:360|408:252,1,577.500022029878
424,96,264075,6,0,P|448:236|424:288,1,192.500001835823,2|0,0:0|0:0,0:0:0:0:
376,324,264375,1,8,0:0:0:0:
92,308,264525,1,0,0:0:0:0:
244,216,264675,1,0,0:0:0:0:
124,88,264825,2,0,P|240:88|308:136,2,192.500001835823,2|8|0,0:0|0:0|0:0,0:0:0:0:
144,248,265275,6,0,P|196:304|340:296,1,192.500001835823,2|0,0:0|0:0,0:0:0:0:
172,164,265575,1,8,0:0:0:0:
400,188,265725,1,0,0:0:0:0:
300,72,265875,1,0,0:0:0:0:
216,228,266025,1,2,0:0:0:0:
16,172,266175,2,0,P|60:76|164:60,1,192.500001835823,8|0,0:0|0:0,0:0:0:0:
304,76,266475,5,2,0:0:0:0:
384,188,266625,2,0,P|332:272|228:280,1,192.500001835823,0|8,0:0|0:0,0:0:0:0:
32,88,266925,1,0,0:0:0:0:
44,296,267075,1,0,0:0:0:0:
164,144,267225,2,0,L|348:32,2,192.500001835823,2|8|0,0:0|0:0|0:0,0:0:0:0:
88,80,267675,2,0,B|32:264|200:284,1,247.500009441376
280,96,268275,2,0,B|360:120|360:120|288:128|288:128|360:144|360:144|292:160|292:160|360:168|360:168|288:184|288:184|348:192,1,495.000018882752
64,152,268875,5,2,0:0:0:0:
92,268,269025,2,0,P|200:304|268:296,1,142.99999345398,0|8,0:0|0:0,0:0:0:0:
392,216,269325,1,0,0:0:0:0:
308,48,269475,1,0,0:0:0:0:
216,104,269625,2,0,P|204:216|272:272,1,142.99999345398,2|8,0:0|0:0,0:0:0:0:
336,304,269925,5,0,0:0:0:0:
336,304,270000,1,0,0:0:0:0:
336,304,270075,2,0,P|224:336|96:204,1,285.99998690796,2|8,0:0|0:0,0:0:0:0:
128,92,270825,2,0,P|200:88|264:128,1,142.99999345398,2|8,0:0|0:0,0:0:0:0:
320,56,271275,5,2,0:0:0:0:
80,296,271425,1,0,0:0:0:0:
177,56,271575,2,0,L|325:56,1,142.99999345398,8|0,0:0|0:0,0:0:0:0:
222,299,271875,2,0,L|50:295,1,142.99999345398,0|2,0:0|0:0,0:0:0:0:
112,148,272175,1,8,0:0:0:0:
260,184,272325,5,0,0:0:0:0:
308,196,272400,1,0,0:0:0:0:
348,228,272475,2,0,B|400:300|324:348|324:348|256:372|176:332,1,285.99998690796,2|8,0:0|0:0,0:0:0:0:
44,108,273225,1,2,0:0:0:0:
196,64,273375,1,8,0:0:0:0:
364,124,273675,6,0,P|392:224|344:260,1,142.99999345398,2|0,0:0|0:0,0:0:0:0:
224,292,273975,1,8,0:0:0:0:
96,240,274125,1,0,0:0:0:0:
156,88,274275,2,0,P|224:40|292:44,2,142.99999345398,0|2|8,0:0|0:0|0:0,0:0:0:0:
200,252,274725,2,0,L|252:300,2,71.4999967269899,0|0|2,0:0|0:0|0:0,0:0:0:0:
44,108,275025,5,0,0:0:0:0:
88,288,275175,1,8,0:0:0:0:
156,116,275325,1,0,0:0:0:0:
200,100,275400,1,0,0:0:0:0:
240,120,275475,1,0,0:0:0:0:
360,172,275625,2,0,P|392:236|344:308,1,142.99999345398,2|8,0:0|0:0,0:0:0:0:
208,324,275925,5,0,0:0:0:0:
188,312,276000,1,0,0:0:0:0:
164,296,276075,2,0,P|112:244|200:68,1,285.99998690796,2|8,0:0|0:0,0:0:0:0:
288,164,276825,1,2,0:0:0:0:
252,248,276975,1,8,0:0:0:0:
164,68,277275,6,0,L|324:132,1,165.000006294251,2|8,0:0|0:0,0:0:0:0:
412,176,277575,1,2,0:0:0:0:
336,320,277725,1,8,0:0:0:0:
128,308,277875,2,0,L|32:160,1,165.000006294251,2|8,0:0|0:0,0:0:0:0:
80,68,278175,1,2,0:0:0:0:
224,60,278325,1,8,0:0:0:0:
92,152,278475,5,6,0:0:0:0:
106,204,278550,1,0,0:0:0:0:
127,255,278625,1,0,0:0:0:0:
161,298,278700,1,0,0:0:0:0:
214,302,278775,5,8,0:0:0:0:
261,274,278850,1,0,0:0:0:0:
315,268,278925,1,0,0:0:0:0:
368,283,279000,1,0,0:0:0:0:
416,309,279075,1,0,0:0:0:0:
459,306,279150,1,0,0:0:0:0:
467,252,279225,5,2,0:0:0:0:
463,197,279300,1,0,0:0:0:0:
449,144,279375,5,8,0:0:0:0:
424,95,279450,1,0,0:0:0:0:
381,63,279525,1,0,0:0:0:0:
328,70,279600,1,0,0:0:0:0:
278,92,279675,5,2,0:0:0:0:
225,107,279750,1,0,0:0:0:0:
171,106,279825,1,0,0:0:0:0:
122,80,279900,1,0,0:0:0:0:
74,93,279975,1,8,0:0:0:0:
55,144,280050,1,0,0:0:0:0:
53,199,280125,1,0,0:0:0:0:
336,264,280275,1,0,0:0:0:0:
152,88,280425,1,2,0:0:0:0:
148,196,280575,2,0,P|168:265|248:286,1,110,8|0,0:0|0:0,0:0:0:0:
348,328,280875,5,2,0:0:0:0:
378,282,280950,1,0,0:0:0:0:
403,233,281025,1,0,0:0:0:0:
423,182,281100,1,0,0:0:0:0:
437,129,281175,5,8,0:0:0:0:
417,86,281250,1,0,0:0:0:0:
364,84,281325,1,0,0:0:0:0:
312,96,281400,1,0,0:0:0:0:
260,116,281475,1,0,0:0:0:0:
220,156,281550,1,0,0:0:0:0:
168,176,281625,5,2,0:0:0:0:
116,192,281700,1,0,0:0:0:0:
64,180,281775,5,8,0:0:0:0:
32,136,281850,1,0,0:0:0:0:
40,80,281925,1,0,0:0:0:0:
88,52,282000,1,0,0:0:0:0:
144,56,282075,5,2,0:0:0:0:
160,108,282150,1,0,0:0:0:0:
148,160,282225,1,0,0:0:0:0:
128,212,282300,1,0,0:0:0:0:
120,268,282375,5,8,0:0:0:0:
156,308,282450,1,0,0:0:0:0:
212,316,282525,1,0,0:0:0:0:
268,308,282600,1,0,0:0:0:0:
308,272,282675,1,0,0:0:0:0:
328,220,282750,1,0,0:0:0:0:
316,168,282825,5,2,0:0:0:0:
264,148,282900,1,0,0:0:0:0:
240,100,282975,5,8,0:0:0:0:
264,44,283050,1,0,0:0:0:0:
316,36,283125,1,0,0:0:0:0:
368,56,283200,1,0,0:0:0:0:
408,92,283275,1,2,0:0:0:0:
432,140,283425,5,0,0:0:0:0:
452,232,283575,2,0,L|360:292,1,110,8|0,0:0|0:0,0:0:0:0:
232,304,283875,1,0,0:0:0:0:
100,184,284025,1,2,0:0:0:0:
144,72,284175,1,8,0:0:0:0:
276,60,284325,1,0,0:0:0:0:
276,60,284400,1,0,0:0:0:0:
280,64,284475,1,2,0:0:0:0:
384,116,284625,6,0,P|340:192|312:196,1,110,0|8,0:0|0:0,0:0:0:0:
100,184,284925,1,0,0:0:0:0:
100,184,285000,1,0,0:0:0:0:
100,184,285075,1,0,0:0:0:0:
136,288,285225,2,0,P|200:308|240:296,1,110,2|8,0:0|0:0,0:0:0:0:
364,212,285525,1,0,0:0:0:0:
392,80,285675,5,2,0:0:0:0:
260,44,285825,2,0,P|176:52|124:96,1,110,0|8,0:0|0:0,0:0:0:0:
64,184,286125,1,0,0:0:0:0:
56,288,286275,2,0,P|128:332|160:328,1,110,0|2,0:0|0:0,0:0:0:0:
312,288,286575,1,8,0:0:0:0:
184,160,286725,1,0,0:0:0:0:
304,40,286875,6,0,L|400:132,1,131.99999597168,2|8,0:0|0:0,0:0:0:0:
184,320,287175,2,0,L|56:220,1,131.99999597168,2|8,0:0|0:0,0:0:0:0:
404,228,287475,2,0,L|300:328,1,131.99999597168,2|8,0:0|0:0,0:0:0:0:
96,120,287775,2,0,L|236:24,1,131.99999597168,2|8,0:0|0:0,0:0:0:0:
400,32,288075,5,6,0:0:0:0:
440,84,288150,1,0,0:0:0:0:
460,148,288225,1,0,0:0:0:0:
452,212,288300,1,0,0:0:0:0:
436,276,288375,5,8,0:0:0:0:
392,328,288450,1,0,0:0:0:0:
328,340,288525,1,0,0:0:0:0:
276,300,288600,1,0,0:0:0:0:
212,284,288675,1,0,0:0:0:0:
148,304,288750,1,0,0:0:0:0:
84,312,288825,5,2,0:0:0:0:
24,284,288900,1,0,0:0:0:0:
48,220,288975,5,8,0:0:0:0:
76,160,289050,1,0,0:0:0:0:
28,116,289125,1,0,0:0:0:0:
32,52,289200,1,0,0:0:0:0:
96,32,289275,5,2,0:0:0:0:
160,44,289350,1,0,0:0:0:0:
188,104,289425,1,0,0:0:0:0:
220,160,289500,1,0,0:0:0:0:
284,176,289575,5,8,0:0:0:0:
348,160,289650,1,0,0:0:0:0:
400,116,289725,1,0,0:0:0:0:
380,52,289800,1,0,0:0:0:0:
316,36,289875,1,0,0:0:0:0:
152,48,290025,5,2,0:0:0:0:
120,264,290175,1,8,0:0:0:0:
372,188,290325,1,0,0:0:0:0:
240,148,290475,5,2,0:0:0:0:
188,98,290550,1,0,0:0:0:0:
120,83,290625,1,0,0:0:0:0:
68,128,290700,1,0,0:0:0:0:
57,198,290775,5,8,0:0:0:0:
75,267,290850,1,0,0:0:0:0:
115,325,290925,1,0,0:0:0:0:
180,347,291000,1,0,0:0:0:0:
252,344,291075,1,0,0:0:0:0:
320,324,291150,1,0,0:0:0:0:
376,280,291225,5,2,0:0:0:0:
408,216,291300,1,0,0:0:0:0:
428,148,291375,5,8,0:0:0:0:
384,92,291450,1,0,0:0:0:0:
316,72,291525,1,0,0:0:0:0:
248,100,291600,1,0,0:0:0:0:
228,168,291675,5,2,0:0:0:0:
196,232,291750,1,0,0:0:0:0:
132,264,291825,1,0,0:0:0:0:
72,228,291900,1,0,0:0:0:0:
28,172,291975,5,8,0:0:0:0:
48,104,292050,1,0,0:0:0:0:
88,44,292125,1,0,0:0:0:0:
160,28,292200,1,0,0:0:0:0:
232,16,292275,1,0,0:0:0:0:
300,32,292350,1,0,0:0:0:0:
364,68,292425,5,2,0:0:0:0:
412,124,292500,1,0,0:0:0:0:
428,192,292575,5,8,0:0:0:0:
416,264,292650,1,0,0:0:0:0:
360,308,292725,1,0,0:0:0:0:
292,324,292800,1,0,0:0:0:0:
220,312,292875,1,2,0:0:0:0:
80,280,293025,5,0,0:0:0:0:
56,152,293175,1,8,0:0:0:0:
148,60,293325,2,0,P|200:32|284:44,1,142.99999345398
412,140,293625,1,2,0:0:0:0:
192,164,293775,1,8,0:0:0:0:
308,288,293925,6,0,L|388:308,2,71.4999967269899,0|0|2,0:0|0:0|0:0,0:0:0:0:
208,292,294225,1,0,0:0:0:0:
136,256,294375,1,8,0:0:0:0:
76,188,294525,2,0,L|48:108,2,71.4999967269899
144,320,294825,2,0,P|248:332|312:300,1,142.99999345398,2|8,0:0|0:0,0:0:0:0:
344,216,295125,1,0,0:0:0:0:
344,216,295200,1,0,0:0:0:0:
344,216,295275,2,0,B|326:263|312:296|252:312|252:312|176:328|84:276,1,285.99998690796,2|8,0:0|0:0,0:0:0:0:
48,192,295725,5,0,0:0:0:0:
80,80,295875,2,0,P|168:44|228:64,1,142.99999345398,0|2,0:0|0:0,0:0:0:0:
320,104,296175,1,8,0:0:0:0:
192,192,296325,1,0,0:0:0:0:
144,296,296475,2,0,P|224:332|308:300,1,142.99999345398,2|8,0:0|0:0,0:0:0:0:
384,240,296775,2,0,P|412:156|384:80,1,142.99999345398,2|8,0:0|0:0,0:0:0:0:
304,48,297075,2,0,P|240:24|148:60,1,142.99999345398,2|8,0:0|0:0,0:0:0:0:
76,112,297375,2,0,P|44:192|76:264,1,142.99999345398,2|8,0:0|0:0,0:0:0:0:
204,324,297675,5,4,0:0:0:0:
230,304,297750,1,0,0:0:0:0:
260,290,297825,1,0,0:0:0:0:
291,282,297900,1,0,0:0:0:0:
324,279,297975,1,0,0:0:0:0:
356,277,298050,1,0,0:0:0:0:
388,270,298125,1,0,0:0:0:0:
414,250,298200,1,0,0:0:0:0:
428,221,298275,1,0,0:0:0:0:
433,189,298350,1,0,0:0:0:0:
426,157,298425,1,0,0:0:0:0:
399,141,298500,1,0,0:0:0:0:
367,142,298575,1,0,0:0:0:0:
335,151,298650,1,0,0:0:0:0:
305,163,298725,1,0,0:0:0:0:
273,169,298800,1,0,0:0:0:0:
248,180,298875,1,0,0:0:0:0:
156,240,299025,5,0,0:0:0:0:
144,52,299175,1,0,0:0:0:0:
64,120,299325,1,0,0:0:0:0:
43,144,299400,1,0,0:0:0:0:
31,175,299475,1,0,0:0:0:0:
100,300,299625,2,0,P|144:336|204:344,1,93.500001783371
300,328,299925,1,0,0:0:0:0:
404,280,300075,5,0,0:0:0:0:
375,243,300150,1,0,0:0:0:0:
376,198,300225,1,0,0:0:0:0:
406,162,300300,1,0,0:0:0:0:
425,120,300375,1,0,0:0:0:0:
409,78,300450,1,0,0:0:0:0:
369,56,300525,1,0,0:0:0:0:
325,71,300600,1,0,0:0:0:0:
292,103,300675,1,0,0:0:0:0:
249,109,300750,1,0,0:0:0:0:
216,77,300825,1,0,0:0:0:0:
184,44,300900,1,0,0:0:0:0:
139,42,300975,1,0,0:0:0:0:
102,69,301050,1,0,0:0:0:0:
74,107,301125,1,0,0:0:0:0:
70,152,301200,1,0,0:0:0:0:
103,183,301275,5,0,0:0:0:0:
143,207,301350,1,0,0:0:0:0:
152,251,301425,1,0,0:0:0:0:
134,294,301500,1,0,0:0:0:0:
141,337,301575,1,0,0:0:0:0:
184,351,301650,1,0,0:0:0:0:
231,352,301725,1,0,0:0:0:0:
277,343,301800,1,0,0:0:0:0:
317,319,301875,1,0,0:0:0:0:
362,312,301950,1,0,0:0:0:0:
405,330,302025,1,0,0:0:0:0:
441,310,302100,1,0,0:0:0:0:
443,264,302175,1,0,0:0:0:0:
420,224,302250,1,0,0:0:0:0:
383,197,302325,1,0,0:0:0:0:
338,183,302400,1,0,0:0:0:0:
293,171,302475,1,0,0:0:0:0:
184,152,302625,5,0,0:0:0:0:
64,136,302775,2,0,P|40:88|100:64,1,93.500001783371
204,44,303075,2,0,P|260:36|296:60,1,93.500001783371
384,132,303375,1,0,0:0:0:0:
320,224,303525,6,0,L|240:224,2,46.7500008916855
372,308,303825,1,0,0:0:0:0:
220,316,303975,1,0,0:0:0:0:
168,224,304125,2,0,L|136:180,2,46.7500008916855
280,168,304425,5,0,0:0:0:0:
328,64,304575,1,0,0:0:0:0:
236,52,304725,1,0,0:0:0:0:
140,64,304875,2,0,P|60:88|32:192,1,187.000003566742
48,280,305325,5,0,0:0:0:0:
160,312,305475,2,0,P|240:312|256:300,1,93.500001783371
344,192,305775,1,0,0:0:0:0:
332,96,305925,2,0,P|292:60|244:52,1,93.500001783371
224,196,306225,1,0,0:0:0:0:
120,148,306375,1,0,0:0:0:0:
112,36,306525,5,0,0:0:0:0:
156,28,306600,1,0,0:0:0:0:
196,32,306675,1,0,0:0:0:0:
230,63,306750,1,0,0:0:0:0:
253,103,306825,1,0,0:0:0:0:
243,147,306900,1,0,0:0:0:0:
214,183,306975,1,0,0:0:0:0:
219,228,307050,1,0,0:0:0:0:
246,266,307125,1,0,0:0:0:0:
280,298,307200,1,0,0:0:0:0:
340,308,307275,5,6,0:0:0:0:
379,262,307350,1,0,0:0:0:0:
410,210,307425,1,0,0:0:0:0:
408,151,307500,1,0,0:0:0:0:
372,104,307575,1,0,0:0:0:0:
319,74,307650,1,0,0:0:0:0:
261,56,307725,1,0,0:0:0:0:
204,38,307800,1,0,0:0:0:0:
161,32,307875,5,8,0:0:0:0:
174,90,307950,1,0,0:0:0:0:
140,138,308025,1,0,0:0:0:0:
92,175,308100,1,0,0:0:0:0:
59,225,308175,1,0,0:0:0:0:
71,280,308250,1,0,0:0:0:0:
119,316,308325,1,0,0:0:0:0:
177,335,308400,1,0,0:0:0:0:
223,332,308475,5,2,0:0:0:0:
194,278,308550,1,0,0:0:0:0:
173,222,308625,1,0,0:0:0:0:
168,162,308700,1,0,0:0:0:0:
197,111,308775,1,0,0:0:0:0:
254,95,308850,1,0,0:0:0:0:
309,119,308925,1,0,0:0:0:0:
350,164,309000,1,0,0:0:0:0:
362,221,309075,1,8,0:0:0:0:
120,176,309225,5,0,0:0:0:0:
300,256,309375,1,0,0:0:0:0:
244,80,309525,1,0,0:0:0:0:
162,325,309675,5,2,0:0:0:0:
103,322,309750,1,0,0:0:0:0:
69,273,309825,1,0,0:0:0:0:
54,214,309900,1,0,0:0:0:0:
61,155,309975,1,0,0:0:0:0:
91,103,310050,1,0,0:0:0:0:
137,65,310125,1,0,0:0:0:0:
193,42,310200,1,0,0:0:0:0:
252,29,310275,5,8,0:0:0:0:
232,88,310350,1,0,0:0:0:0:
192,132,310425,1,0,0:0:0:0:
172,188,310500,1,0,0:0:0:0:
180,248,310575,1,0,0:0:0:0:
208,300,310650,1,0,0:0:0:0:
260,328,310725,1,0,0:0:0:0:
320,340,310800,1,0,0:0:0:0:
374,333,310875,5,2,0:0:0:0:
344,280,310950,1,0,0:0:0:0:
320,236,311025,1,0,0:0:0:0:
292,184,311100,1,0,0:0:0:0:
288,124,311175,1,0,0:0:0:0:
260,68,311250,1,0,0:0:0:0:
204,44,311325,1,0,0:0:0:0:
144,48,311400,1,0,0:0:0:0:
152,108,311475,5,8,0:0:0:0:
176,164,311550,1,0,0:0:0:0:
216,212,311625,1,0,0:0:0:0:
272,236,311700,1,0,0:0:0:0:
332,248,311775,1,0,0:0:0:0:
392,240,311850,1,0,0:0:0:0:
440,204,311925,1,0,0:0:0:0:
452,144,312000,1,0,0:0:0:0:
440,84,312075,1,2,0:0:0:0:
224,68,312225,5,0,0:0:0:0:
164,216,312375,1,0,0:0:0:0:
364,212,312525,2,0,P|308:300|260:312,1,121.000003692627,0|8,0:0|0:0,0:0:0:0:
104,324,312825,1,0,0:0:0:0:
60,200,312975,1,0,0:0:0:0:
108,96,313125,2,0,L|144:40,2,60.5000018463135,0|0|2,0:0|0:0|0:0,0:0:0:0:
192,132,313425,6,0,P|268:128|300:92,1,121.000003692627
408,48,313725,2,0,P|440:128|408:176,1,121.000003692627,0|8,0:0|0:0,0:0:0:0:
296,212,314025,1,0,0:0:0:0:
196,204,314175,1,0,0:0:0:0:
140,80,314325,5,0,0:0:0:0:
140,80,314400,1,0,0:0:0:0:
140,80,314475,2,0,P|236:88|248:292,1,330.000012588501,2|8,0:0|0:0,0:0:0:0:
152,208,315375,1,0,0:0:0:0:
228,76,315675,6,0,P|148:168|280:296,1,330.000012588501,2|8,0:0|0:0,0:0:0:0:
256,192,316575,1,0,0:0:0:0:
256,192,316875,5,4,0:0:0:0:
256,192,317025,12,0,318675,0:0:0:0:
