osu file format v14

[General]
AudioFilename: audio.mp3
AudioLeadIn: 0
PreviewTime: 67483
Countdown: 0
SampleSet: Normal
StackLeniency: 0.7
Mode: 3
LetterboxInBreaks: 0
SpecialStyle: 0
WidescreenStoryboard: 0

[Editor]
DistanceSpacing: 1.4
BeatDivisor: 4
GridSize: 8
TimelineZoom: 1.9

[Metadata]
Title:Liu Xing Yu
TitleUnicode:流星雨
Artist:F4
ArtistUnicode:F4
Creator:Rivals_7
Version:Normal
Source:流星雨
Tags:chinese pop meteor garden rain taiwanese JVKV mandapop mandarin vaness wu ken chu vic chou jerry yan Boys Over Flowers 花より男子 Hana Yori Dango tv drama
BeatmapID:1756893
BeatmapSetID:839245

[Difficulty]
HPDrainRate:7.5
CircleSize:4
OverallDifficulty:7.5
ApproachRate:5
SliderMultiplier:1.4
SliderTickRate:1

[Events]
//Background and Video events
0,0,"dba2e8dc0ff118f25d6698ff16ec1e88.jpg",0,0
//Break Periods
//Storyboard Layer 0 (Background)
//Storyboard Layer 1 (Fail)
//Storyboard Layer 2 (Pass)
//Storyboard Layer 3 (Foreground)
//Storyboard Sound Samples

[TimingPoints]
25186,441.176470588235,4,1,1,30,1,0
62217,441.176470588235,4,1,1,30,1,0
67511,-100,4,1,1,30,0,1
81187,-100,4,1,1,30,0,0
81628,-100,4,1,1,30,0,1
95746,-100,4,1,1,30,0,0
123981,-100,4,1,1,30,0,1
137658,-100,4,1,1,30,0,0
138099,-100,4,1,1,30,0,1
148687,-100,4,1,1,30,0,0

[HitObjects]
448,192,25186,5,2,0:0:0:0:
64,192,25627,1,0,0:0:0:0:
192,192,25847,1,0,0:0:0:0:
320,192,26068,1,8,0:0:0:0:
448,192,26068,1,0,0:0:0:0:
64,192,26509,1,0,0:0:0:0:
320,192,26730,1,2,0:0:0:0:
64,192,26950,1,2,0:0:0:0:
320,192,27391,1,0,0:0:0:0:
64,192,27833,1,8,0:0:0:0:
320,192,27833,1,0,0:0:0:0:
192,192,28274,128,0,28715:0:0:0:0:
448,192,28715,1,2,0:0:0:0:
64,192,29156,1,0,0:0:0:0:
448,192,29377,1,0,0:0:0:0:
64,192,29597,1,8,0:0:0:0:
192,192,29597,1,0,0:0:0:0:
320,192,30038,1,0,0:0:0:0:
64,192,30259,1,2,0:0:0:0:
320,192,30480,1,2,0:0:0:0:
192,192,30921,1,0,0:0:0:0:
192,192,31362,1,8,0:0:0:0:
448,192,31362,1,0,0:0:0:0:
64,192,31583,1,0,0:0:0:0:
320,192,31803,128,0,32244:0:0:0:0:
192,192,32244,1,2,0:0:0:0:
448,192,32686,1,0,0:0:0:0:
64,192,32906,1,0,0:0:0:0:
192,192,33127,1,8,0:0:0:0:
320,192,33127,1,0,0:0:0:0:
448,192,33568,1,0,0:0:0:0:
64,192,33788,1,2,0:0:0:0:
448,192,34009,1,2,0:0:0:0:
192,192,34450,1,0,0:0:0:0:
192,192,34891,1,8,0:0:0:0:
320,192,34891,1,0,0:0:0:0:
64,192,35333,128,0,35774:0:0:0:0:
448,192,35774,1,2,0:0:0:0:
192,192,36215,1,0,0:0:0:0:
320,192,36436,1,0,0:0:0:0:
64,192,36656,1,8,0:0:0:0:
192,192,36656,1,0,0:0:0:0:
448,192,37097,1,0,0:0:0:0:
320,192,37318,1,0,0:0:0:0:
192,192,37538,1,2,0:0:0:0:
448,192,37759,1,0,0:0:0:0:
64,192,37980,1,0,0:0:0:0:
320,192,38421,1,8,0:0:0:0:
448,192,38421,1,0,0:0:0:0:
192,192,38641,1,0,0:0:0:0:
64,192,38862,1,0,0:0:0:0:
320,192,39303,1,2,0:0:0:0:
448,192,39303,128,0,41068:0:0:0:0:
64,192,39744,1,0,0:0:0:0:
320,192,39965,1,0,0:0:0:0:
64,192,40186,1,8,0:0:0:0:
192,192,40627,1,0,0:0:0:0:
320,192,40847,1,2,0:0:0:0:
64,192,41068,128,2,41950:0:0:0:0:
448,192,41509,1,0,0:0:0:0:
320,192,41950,128,8,42833:0:0:0:0:
448,192,41950,1,0,0:0:0:0:
64,192,42391,1,0,0:0:0:0:
448,192,42833,128,2,45480:0:0:0:0:
192,192,43274,1,0,0:0:0:0:
64,192,43494,1,0,0:0:0:0:
320,192,43715,1,8,0:0:0:0:
192,192,44156,1,0,0:0:0:0:
320,192,44377,1,2,0:0:0:0:
192,192,44597,1,2,0:0:0:0:
64,192,44818,1,0,0:0:0:0:
320,192,45038,1,0,0:0:0:0:
320,192,45259,1,0,0:0:0:0:
64,192,45480,128,8,46362:0:0:0:0:
192,192,45480,1,0,0:0:0:0:
448,192,45700,1,0,0:0:0:0:
192,192,45921,1,0,0:0:0:0:
320,192,46362,128,2,48127:0:0:0:0:
64,192,46803,1,0,0:0:0:0:
192,192,47024,1,0,0:0:0:0:
64,192,47244,1,8,0:0:0:0:
448,192,47244,1,0,0:0:0:0:
192,192,47686,1,0,0:0:0:0:
64,192,47906,1,2,0:0:0:0:
192,192,48127,128,2,49009:0:0:0:0:
448,192,48568,1,0,0:0:0:0:
320,192,48788,1,0,0:0:0:0:
64,192,49009,128,8,49891:0:0:0:0:
448,192,49009,1,0,0:0:0:0:
192,192,49450,1,0,0:0:0:0:
320,192,49671,1,0,0:0:0:0:
448,192,49891,128,2,51656:0:0:0:0:
192,192,50333,1,0,0:0:0:0:
64,192,50553,1,0,0:0:0:0:
192,192,50774,1,8,0:0:0:0:
320,192,50774,1,0,0:0:0:0:
64,192,51215,1,0,0:0:0:0:
192,192,51656,128,2,52538:0:0:0:0:
448,192,51877,1,0,0:0:0:0:
64,192,52097,1,0,0:0:0:0:
64,192,52538,1,8,0:0:0:0:
320,192,52538,128,0,52980:0:0:0:0:
64,192,52980,128,2,53421:0:0:0:0:
448,192,53421,128,2,56068:0:0:0:0:
192,192,53862,1,0,0:0:0:0:
64,192,54083,1,0,0:0:0:0:
192,192,54303,1,8,0:0:0:0:
320,192,54303,1,0,0:0:0:0:
64,192,54744,1,0,0:0:0:0:
192,192,54965,1,0,0:0:0:0:
320,192,55186,1,2,0:0:0:0:
64,192,55406,1,0,0:0:0:0:
64,192,55627,1,0,0:0:0:0:
320,192,55847,1,0,0:0:0:0:
192,192,56068,128,8,56950:0:0:0:0:
320,192,56068,1,0,0:0:0:0:
64,192,56509,1,2,0:0:0:0:
320,192,56950,128,2,58715:0:0:0:0:
64,192,57391,1,0,0:0:0:0:
448,192,57612,1,0,0:0:0:0:
64,192,57833,1,8,0:0:0:0:
192,192,57833,1,0,0:0:0:0:
448,192,58274,1,2,0:0:0:0:
192,192,58715,1,0,0:0:0:0:
320,192,58936,1,0,0:0:0:0:
64,192,59156,1,0,0:0:0:0:
448,192,59377,1,0,0:0:0:0:
64,192,59597,1,8,0:0:0:0:
192,192,59597,1,0,0:0:0:0:
320,192,60038,1,2,0:0:0:0:
320,192,60480,1,2,0:0:0:0:
64,192,60921,1,0,0:0:0:0:
192,192,61141,1,0,0:0:0:0:
320,192,61362,1,8,0:0:0:0:
448,192,61362,1,0,0:0:0:0:
192,192,61803,1,0,0:0:0:0:
320,192,62024,1,2,0:0:0:0:
64,192,62217,1,2,0:0:0:0:
448,192,62217,1,4,0:0:0:0:
192,192,62658,1,4,0:0:0:0:
320,192,62658,1,0,0:0:0:0:
192,192,63099,1,4,0:0:0:0:
448,192,63099,1,8,0:0:0:0:
320,192,63540,1,0,0:0:0:0:
192,192,63761,1,0,0:0:0:0:
64,192,63981,1,4,0:0:0:0:
448,192,63981,1,2,0:0:0:0:
320,192,64422,1,8,0:0:0:0:
320,192,64864,1,8,0:0:0:0:
320,192,65084,1,8,0:0:0:0:
64,192,65305,1,0,0:0:0:0:
192,192,65525,1,0,0:0:0:0:
320,192,65746,1,4,0:0:0:0:
448,192,65746,128,2,66628:0:0:0:0:
64,192,66628,1,8,0:0:0:0:
192,192,66628,1,4,0:0:0:0:
320,192,66849,128,8,67290:0:0:0:0:
448,192,66849,128,0,67290:0:0:0:0:
64,192,67511,1,2,0:0:0:0:
448,192,67511,128,4,69275:0:0:0:0:
320,192,67952,1,0,0:0:0:0:
192,192,68172,1,0,0:0:0:0:
64,192,68393,1,8,0:0:0:0:
320,192,68393,1,0,0:0:0:0:
192,192,68834,1,2,0:0:0:0:
192,192,69275,128,2,71040:0:0:0:0:
320,192,69717,1,0,0:0:0:0:
448,192,69937,1,0,0:0:0:0:
64,192,70158,1,8,0:0:0:0:
320,192,70158,1,0,0:0:0:0:
448,192,70599,1,0,0:0:0:0:
64,192,70819,1,0,0:0:0:0:
320,192,71040,128,2,71922:0:0:0:0:
192,192,71481,1,0,0:0:0:0:
448,192,71702,1,0,0:0:0:0:
64,192,71922,128,8,72805:0:0:0:0:
192,192,71922,1,0,0:0:0:0:
448,192,72364,1,2,0:0:0:0:
448,192,72805,128,2,74569:0:0:0:0:
64,192,73025,1,0,0:0:0:0:
320,192,73246,1,0,0:0:0:0:
192,192,73467,1,0,0:0:0:0:
64,192,73687,1,8,0:0:0:0:
320,192,73687,1,0,0:0:0:0:
192,192,73908,1,0,0:0:0:0:
64,192,74128,1,0,0:0:0:0:
320,192,74349,1,2,0:0:0:0:
64,192,74569,1,2,0:0:0:0:
192,192,75011,1,0,0:0:0:0:
320,192,75231,1,0,0:0:0:0:
64,192,75452,1,8,0:0:0:0:
448,192,75452,1,0,0:0:0:0:
320,192,75893,1,0,0:0:0:0:
192,192,76114,1,2,0:0:0:0:
192,192,76334,1,2,0:0:0:0:
448,192,76555,1,0,0:0:0:0:
320,192,76775,1,0,0:0:0:0:
64,192,77216,1,8,0:0:0:0:
192,192,77216,1,0,0:0:0:0:
448,192,77437,1,0,0:0:0:0:
192,192,77658,1,0,0:0:0:0:
320,192,77878,1,2,0:0:0:0:
64,192,78099,1,2,0:0:0:0:
448,192,78099,1,4,0:0:0:0:
192,192,78319,1,0,0:0:0:0:
320,192,78540,1,0,0:0:0:0:
448,192,78761,1,0,0:0:0:0:
64,192,78981,1,8,0:0:0:0:
192,192,78981,1,0,0:0:0:0:
192,192,79202,1,2,0:0:0:0:
448,192,79422,1,0,0:0:0:0:
192,192,79643,1,2,0:0:0:0:
64,192,79864,1,2,0:0:0:0:
320,192,79864,1,4,0:0:0:0:
320,192,80084,1,2,0:0:0:0:
64,192,80305,1,2,0:0:0:0:
192,192,80525,1,0,0:0:0:0:
64,192,80746,1,8,0:0:0:0:
448,192,80746,1,0,0:0:0:0:
448,192,80966,1,2,0:0:0:0:
320,192,81187,1,2,0:0:0:0:
64,192,81628,1,2,0:0:0:0:
192,192,81628,1,4,0:0:0:0:
448,192,82069,1,0,0:0:0:0:
64,192,82290,1,0,0:0:0:0:
192,192,82511,1,8,0:0:0:0:
320,192,82511,1,0,0:0:0:0:
448,192,82952,1,2,0:0:0:0:
448,192,83393,1,2,0:0:0:0:
192,192,83834,1,0,0:0:0:0:
64,192,84275,1,8,0:0:0:0:
320,192,84275,1,0,0:0:0:0:
192,192,84716,1,0,0:0:0:0:
448,192,84937,1,0,0:0:0:0:
64,192,85158,1,2,0:0:0:0:
320,192,85378,1,0,0:0:0:0:
320,192,85599,1,0,0:0:0:0:
192,192,85819,1,0,0:0:0:0:
64,192,86040,1,8,0:0:0:0:
448,192,86040,1,0,0:0:0:0:
320,192,86481,1,2,0:0:0:0:
192,192,86702,1,0,0:0:0:0:
320,192,86922,1,2,0:0:0:0:
64,192,87143,1,0,0:0:0:0:
64,192,87364,1,0,0:0:0:0:
448,192,87584,1,0,0:0:0:0:
64,192,87805,1,8,0:0:0:0:
192,192,87805,1,0,0:0:0:0:
320,192,88246,1,4,0:0:0:0:
448,192,88246,1,2,0:0:0:0:
192,192,88466,1,0,0:0:0:0:
64,192,88687,128,2,89128:0:0:0:0:
448,192,88687,1,4,0:0:0:0:
320,192,89128,1,0,0:0:0:0:
192,192,89349,1,0,0:0:0:0:
64,192,89569,1,8,0:0:0:0:
448,192,89569,1,0,0:0:0:0:
320,192,90011,1,0,0:0:0:0:
64,192,90231,1,2,0:0:0:0:
192,192,90452,1,4,0:0:0:0:
448,192,90452,1,2,0:0:0:0:
320,192,90672,1,0,0:0:0:0:
320,192,90893,1,0,0:0:0:0:
192,192,91114,1,0,0:0:0:0:
64,192,91334,1,8,0:0:0:0:
448,192,91334,1,0,0:0:0:0:
320,192,91775,1,0,0:0:0:0:
192,192,91996,1,2,0:0:0:0:
64,192,92216,1,2,0:0:0:0:
448,192,92216,1,4,0:0:0:0:
192,192,92437,1,8,0:0:0:0:
320,192,92437,1,0,0:0:0:0:
64,192,93099,1,8,0:0:0:0:
448,192,93099,1,0,0:0:0:0:
64,192,93319,1,8,0:0:0:0:
448,192,93319,1,0,0:0:0:0:
192,192,93540,1,2,0:0:0:0:
320,192,93761,128,2,94202:0:0:0:0:
448,192,93761,1,0,0:0:0:0:
192,192,94202,1,8,0:0:0:0:
64,192,94202,1,2,0:0:0:0:
448,192,94422,1,0,0:0:0:0:
64,192,94643,128,2,95084:0:0:0:0:
192,192,94643,1,0,0:0:0:0:
448,192,95084,1,0,0:0:0:0:
64,192,95305,1,8,0:0:0:0:
192,192,95305,1,0,0:0:0:0:
320,192,95525,1,0,0:0:0:0:
64,192,95746,1,4,0:0:0:0:
448,192,95746,1,2,0:0:0:0:
192,192,96187,1,0,0:0:0:0:
320,192,96408,1,0,0:0:0:0:
64,192,96628,1,8,0:0:0:0:
448,192,96628,1,0,0:0:0:0:
320,192,97069,1,0,0:0:0:0:
192,192,97290,1,0,0:0:0:0:
320,192,97511,1,2,0:0:0:0:
320,192,97952,1,0,0:0:0:0:
64,192,98172,128,0,98393:0:0:0:0:
448,192,98393,1,8,0:0:0:0:
192,192,98393,1,0,0:0:0:0:
64,192,98834,1,2,0:0:0:0:
192,192,99055,1,0,0:0:0:0:
320,192,99275,1,2,0:0:0:0:
448,192,99716,1,0,0:0:0:0:
448,192,99937,1,0,0:0:0:0:
64,192,100158,1,8,0:0:0:0:
192,192,100158,1,0,0:0:0:0:
320,192,100599,1,4,0:0:0:0:
448,192,100599,1,2,0:0:0:0:
64,192,101040,1,0,0:0:0:0:
320,192,101261,1,0,0:0:0:0:
64,192,101481,1,0,0:0:0:0:
448,192,101702,128,0,101922:0:0:0:0:
192,192,101922,1,8,0:0:0:0:
320,192,102069,1,0,0:0:0:0:
64,192,102216,1,0,0:0:0:0:
448,192,102364,1,2,0:0:0:0:
320,192,102511,1,0,0:0:0:0:
192,192,102658,1,0,0:0:0:0:
64,192,102805,1,2,0:0:0:0:
448,192,102805,1,4,0:0:0:0:
320,192,103246,1,0,0:0:0:0:
192,192,103466,1,0,0:0:0:0:
320,192,103687,1,8,0:0:0:0:
448,192,103687,1,0,0:0:0:0:
64,192,103908,1,0,0:0:0:0:
320,192,104349,1,2,0:0:0:0:
192,192,104569,1,2,0:0:0:0:
448,192,104790,1,0,0:0:0:0:
64,192,105011,1,0,0:0:0:0:
320,192,105231,1,8,0:0:0:0:
448,192,105231,1,0,0:0:0:0:
64,192,105452,1,8,0:0:0:0:
192,192,105452,1,0,0:0:0:0:
320,192,105672,1,0,0:0:0:0:
448,192,105893,1,0,0:0:0:0:
64,192,106334,1,4,0:0:0:0:
192,192,106334,1,2,0:0:0:0:
192,192,106775,1,8,0:0:0:0:
320,192,106775,1,0,0:0:0:0:
320,192,107216,1,8,0:0:0:0:
448,192,107216,1,0,0:0:0:0:
64,192,107437,1,0,0:0:0:0:
192,192,107658,1,8,0:0:0:0:
320,192,107658,1,0,0:0:0:0:
448,192,107878,1,0,0:0:0:0:
64,192,108099,1,4,0:0:0:0:
192,192,108099,1,2,0:0:0:0:
320,192,108319,128,0,108761:0:0:0:0:
64,192,108761,128,0,109864:0:0:0:0:
320,192,108981,1,4,0:0:0:0:
448,192,108981,1,8,0:0:0:0:
448,192,109202,1,12,0:0:0:0:
320,192,109864,1,4,0:0:0:0:
448,192,109864,1,2,0:0:0:0:
192,192,110305,1,0,0:0:0:0:
320,192,110525,1,0,0:0:0:0:
64,192,110746,1,8,0:0:0:0:
448,192,110746,1,0,0:0:0:0:
320,192,111187,1,2,0:0:0:0:
320,192,111628,1,2,0:0:0:0:
64,192,112069,1,0,0:0:0:0:
192,192,112290,1,0,0:0:0:0:
320,192,112511,1,8,0:0:0:0:
448,192,112511,1,0,0:0:0:0:
64,192,112952,128,0,113393:0:0:0:0:
448,192,113393,128,2,113834:0:0:0:0:
192,192,113834,128,0,114275:0:0:0:0:
320,192,114275,128,8,114716:0:0:0:0:
448,192,114275,1,0,0:0:0:0:
64,192,114716,128,2,114937:0:0:0:0:
448,192,114937,128,0,115599:0:0:0:0:
192,192,115158,1,2,0:0:0:0:
320,192,115378,1,0,0:0:0:0:
64,192,115599,1,0,0:0:0:0:
192,192,115819,1,0,0:0:0:0:
320,192,116040,1,8,0:0:0:0:
448,192,116040,1,0,0:0:0:0:
192,192,116481,1,0,0:0:0:0:
64,192,116702,1,2,0:0:0:0:
448,192,116922,1,2,0:0:0:0:
320,192,117143,1,0,0:0:0:0:
320,192,117364,1,0,0:0:0:0:
64,192,117805,1,8,0:0:0:0:
448,192,117805,1,0,0:0:0:0:
320,192,118246,1,0,0:0:0:0:
64,192,118466,1,0,0:0:0:0:
320,192,118687,1,2,0:0:0:0:
192,192,118908,1,0,0:0:0:0:
192,192,119128,1,0,0:0:0:0:
320,192,119569,1,8,0:0:0:0:
448,192,119569,1,0,0:0:0:0:
64,192,119790,1,0,0:0:0:0:
192,192,120011,1,0,0:0:0:0:
320,192,120231,1,2,0:0:0:0:
64,192,120452,128,2,120893:0:0:0:0:
448,192,120452,1,4,0:0:0:0:
320,192,120893,128,0,121334:0:0:0:0:
64,192,121334,1,8,0:0:0:0:
192,192,121334,128,4,121775:0:0:0:0:
320,192,121775,1,4,0:0:0:0:
448,192,121775,128,2,122216:0:0:0:0:
64,192,122216,1,0,0:0:0:0:
320,192,122437,1,0,0:0:0:0:
320,192,122658,1,0,0:0:0:0:
192,192,122878,128,0,123099:0:0:0:0:
64,192,123099,1,8,0:0:0:0:
448,192,123099,1,0,0:0:0:0:
192,192,123319,1,2,0:0:0:0:
320,192,123540,128,2,123981:0:0:0:0:
448,192,123540,128,0,123981:0:0:0:0:
64,192,123981,128,4,124422:0:0:0:0:
192,192,123981,1,2,0:0:0:0:
320,192,124422,128,0,124643:0:0:0:0:
192,192,124643,128,0,125305:0:0:0:0:
448,192,124864,1,8,0:0:0:0:
320,192,125305,128,2,125746:0:0:0:0:
448,192,125525,1,0,0:0:0:0:
64,192,125746,128,2,126187:0:0:0:0:
448,192,126187,128,0,126408:0:0:0:0:
192,192,126408,128,0,127069:0:0:0:0:
448,192,126628,1,8,0:0:0:0:
320,192,127069,128,0,127511:0:0:0:0:
64,192,127290,1,2,0:0:0:0:
448,192,127511,128,2,127952:0:0:0:0:
192,192,127952,128,0,128172:0:0:0:0:
64,192,128172,128,0,128614:0:0:0:0:
448,192,128393,1,8,0:0:0:0:
320,192,128614,128,0,129275:0:0:0:0:
192,192,128834,1,2,0:0:0:0:
448,192,129275,128,2,130158:0:0:0:0:
64,192,129496,1,0,0:0:0:0:
64,192,129716,1,0,0:0:0:0:
320,192,129937,1,0,0:0:0:0:
64,192,130158,1,8,0:0:0:0:
192,192,130158,1,0,0:0:0:0:
320,192,130378,1,0,0:0:0:0:
448,192,130599,1,0,0:0:0:0:
192,192,130819,1,2,0:0:0:0:
320,192,131040,128,2,131481:0:0:0:0:
64,192,131481,128,0,131702:0:0:0:0:
448,192,131702,128,0,132364:0:0:0:0:
64,192,131922,1,8,0:0:0:0:
192,192,132364,128,0,132805:0:0:0:0:
448,192,132584,1,2,0:0:0:0:
320,192,132805,128,2,133246:0:0:0:0:
192,192,133025,1,0,0:0:0:0:
64,192,133246,128,0,133687:0:0:0:0:
320,192,133687,1,8,0:0:0:0:
448,192,133687,128,0,133908:0:0:0:0:
192,192,133908,128,0,134569:0:0:0:0:
320,192,134128,1,0,0:0:0:0:
64,192,134349,1,2,0:0:0:0:
320,192,134569,1,4,0:0:0:0:
448,192,134569,128,2,136334:0:0:0:0:
64,192,135011,1,0,0:0:0:0:
192,192,135231,1,0,0:0:0:0:
64,192,135452,1,8,0:0:0:0:
320,192,135452,1,0,0:0:0:0:
192,192,135672,1,0,0:0:0:0:
320,192,135893,1,0,0:0:0:0:
64,192,136114,1,2,0:0:0:0:
192,192,136334,1,4,0:0:0:0:
320,192,136334,1,2,0:0:0:0:
64,192,136775,1,0,0:0:0:0:
192,192,136996,1,0,0:0:0:0:
320,192,137216,1,8,0:0:0:0:
448,192,137216,128,0,137658:0:0:0:0:
192,192,137437,1,2,0:0:0:0:
64,192,137658,128,0,138099:0:0:0:0:
320,192,138099,1,4,0:0:0:0:
448,192,138099,128,2,138540:0:0:0:0:
64,192,138540,128,0,138761:0:0:0:0:
320,192,138761,128,0,139422:0:0:0:0:
64,192,138981,1,8,0:0:0:0:
192,192,139422,128,2,139864:0:0:0:0:
448,192,139643,1,0,0:0:0:0:
320,192,139864,128,2,140305:0:0:0:0:
64,192,140305,128,0,140525:0:0:0:0:
448,192,140525,128,0,141187:0:0:0:0:
64,192,140746,1,8,0:0:0:0:
64,192,141187,128,0,141628:0:0:0:0:
448,192,141408,1,0,0:0:0:0:
320,192,141628,128,2,142069:0:0:0:0:
64,192,141849,1,0,0:0:0:0:
192,192,142069,128,0,142290:0:0:0:0:
320,192,142290,1,0,0:0:0:0:
448,192,142511,128,8,142731:0:0:0:0:
192,192,142511,1,0,0:0:0:0:
64,192,142731,128,0,143393:0:0:0:0:
320,192,142952,1,2,0:0:0:0:
192,192,143172,1,0,0:0:0:0:
320,192,143393,128,2,143834:0:0:0:0:
64,192,143614,1,0,0:0:0:0:
448,192,143834,1,0,0:0:0:0:
64,192,144275,128,8,144716:0:0:0:0:
192,192,144275,1,0,0:0:0:0:
320,192,144716,1,2,0:0:0:0:
448,192,144716,128,4,145158:0:0:0:0:
64,192,145158,128,2,145599:0:0:0:0:
192,192,145158,1,4,0:0:0:0:
320,192,145599,1,0,0:0:0:0:
448,192,145819,128,0,146481:0:0:0:0:
64,192,146040,1,8,0:0:0:0:
320,192,146481,1,0,0:0:0:0:
192,192,146702,1,2,0:0:0:0:
64,192,146922,1,4,0:0:0:0:
448,192,146922,1,2,0:0:0:0:
320,192,147143,1,0,0:0:0:0:
320,192,147364,1,0,0:0:0:0:
192,192,147584,1,0,0:0:0:0:
64,192,147805,1,8,0:0:0:0:
448,192,147805,1,0,0:0:0:0:
320,192,148025,1,0,0:0:0:0:
192,192,148246,1,0,0:0:0:0:
448,192,148466,1,2,0:0:0:0:
64,192,148687,128,4,151334:0:0:0:0:
448,192,148687,1,2,0:0:0:0:
