osu file format v14

[General]
AudioFilename: audio.mp3
AudioLeadIn: 0
PreviewTime: 53122
Countdown: 0
SampleSet: Soft
StackLeniency: 0.7
Mode: 0
LetterboxInBreaks: 0
WidescreenStoryboard: 0

[Editor]
Bookmarks: 13398,26639,39881,53122,66363,79605,92846,106088,119329,132570,145812,159053,172294,185536,198777,212019,225260
DistanceSpacing: 1
BeatDivisor: 4
GridSize: 32
TimelineZoom: 1.3

[Metadata]
Title:Waking Up
TitleUnicode:Waking Up
Artist:F.O.O.L & Laura Brehm
ArtistUnicode:F.O.O.L & Laura Brehm
Creator:Hinsvar
Version:Insane
Source:
Tags:FOOL Fuck Our Ordinary Lives Rasmus Hermansen English Electronic Tasty Highway EP EDM electronic dance music melodic synthwave Featured Artist FA Mappers' Guild MG MPG
BeatmapID:4392539
BeatmapSetID:2094934

[Difficulty]
HPDrainRate:5
CircleSize:5
OverallDifficulty:7
ApproachRate:8
SliderMultiplier:1.6
SliderTickRate:1

[Events]
//Background and Video events
0,0,"BG.jpg",0,0
//Break Periods
2,40708,52372
2,146639,158303
//Storyboard Layer 0 (Background)
//Storyboard Layer 1 (Fail)
//Storyboard Layer 2 (Pass)
//Storyboard Layer 3 (Foreground)
//Storyboard Layer 4 (Overlay)
//Storyboard Sound Samples

[TimingPoints]
157,413.793103448276,4,2,1,60,1,0
13398,-125,4,2,1,60,0,0
59743,-100,4,2,1,70,0,0
65536,-100,4,2,2,75,0,0
66363,-83.3333333333333,4,2,2,80,0,1
78777,-62.5,4,2,2,80,0,1
79191,-50,4,2,2,80,0,1
79605,-83.3333333333333,4,2,2,80,0,1
92019,-125,4,2,2,80,0,0
92432,-250,4,2,1,75,0,0
92846,-100,4,2,1,70,0,0
106088,-100,4,2,1,65,0,0
119329,-125,4,2,1,60,0,0
165674,-100,4,2,1,70,0,0
171467,-100,4,2,2,75,0,0
172294,-83.3333333333333,4,2,2,80,0,1
184708,-125,4,2,2,80,0,0
185536,-83.3333333333333,4,2,2,80,0,1
197950,-250,4,2,2,80,0,0
198777,-100,4,2,1,70,0,0
212019,-100,4,2,1,65,0,0
225260,-100,4,2,1,50,0,0

[Colours]
Combo1 : 156,165,237
Combo2 : 200,146,214
Combo3 : 137,236,241
Combo4 : 242,117,192

[HitObjects]
40,75,13191,5,8,0:0:0:0:
31,198,13398,2,0,B|34:157|70:152|69:154|111:147|112:110,1,128,0|0,3:0|0:0,0:0:0:0:
113,30,14019,1,2,0:0:0:0:
241,15,14225,2,0,B|272:33|257:73|256:71|242:106|276:129,1,128,8|0,0:0|0:0,0:0:0:0:
197,209,14846,1,2,0:0:0:0:
356,208,15053,5,0,3:0:0:0:
356,208,15157,1,0,3:0:0:0:
356,208,15260,1,0,3:0:0:0:
276,287,15467,1,2,0:0:0:0:
205,363,15674,1,0,3:0:0:0:
205,363,15777,1,0,3:0:0:0:
205,363,15881,2,0,P|272:363|354:383,1,128,8|0,0:0|0:0,0:0:0:0:
441,355,16501,1,2,0:0:0:0:
366,249,16708,6,0,L|353:176,1,64,0|0,3:0|0:0,0:0:0:0:
459,230,17122,2,0,L|446:157,1,64,2|0,0:0|0:0,0:0:0:0:
434,23,17536,2,0,B|395:20|383:53|384:55|368:89|321:85,1,128,8|0,0:0|0:0,0:0:0:0:
256,172,18157,1,2,0:0:0:0:
162,74,18363,5,0,3:0:0:0:
162,74,18467,1,0,3:0:0:0:
162,74,18570,2,0,P|158:38|147:10,1,64,0|0,3:0|0:0,0:0:0:0:
11,38,18984,1,0,3:0:0:0:
21,144,19191,2,0,P|69:175|136:137,1,128,10|0,0:0|0:0,0:0:0:0:
241,194,19812,2,0,L|276:188,1,32,2|0,0:0|0:0,0:0:0:0:
357,143,20019,6,0,P|341:206|333:276,1,128,0|0,3:0|0:0,0:0:0:0:
256,350,20639,1,2,0:0:0:0:
406,375,20846,2,0,P|421:311|430:242,1,128,8|0,0:0|0:0,0:0:0:0:
333,268,21467,1,2,0:0:0:0:
453,163,21674,5,0,3:0:0:0:
453,163,21777,1,0,3:0:0:0:
453,163,21881,1,0,3:0:0:0:
443,36,22088,1,2,0:0:0:0:
316,46,22294,1,0,3:0:0:0:
316,46,22398,1,0,3:0:0:0:
316,46,22501,2,0,B|271:61|254:37|256:34|234:8|189:22,1,128,8|0,0:0|0:0,0:0:0:0:
326,173,23122,1,2,0:0:0:0:
218,197,23329,6,0,P|228:166|229:131,1,64,0|0,3:0|0:0,0:0:0:0:
108,30,23743,2,0,P|98:61|97:96,1,64,2|0,0:0|0:0,0:0:0:0:
17,214,24157,2,0,P|71:223|127:176,1,128,8|0,0:0|0:0,0:0:0:0:
222,287,24777,1,0,3:0:0:0:
111,365,24984,6,0,L|94:295,1,64,2|0,3:2|0:0,0:0:0:0:
30,349,25398,1,2,0:0:0:0:
156,255,25605,1,0,3:0:0:0:
62,152,25812,2,0,B|46:109|46:109|67:61,1,96,8|0,0:0|0:0,0:0:0:0:
66,63,26225,2,0,L|99:58,1,32,8|0,0:0|0:0,0:0:0:0:
213,95,26432,2,0,L|179:99,1,32,8|0,0:0|0:0,0:0:0:0:
140,173,26639,6,0,P|203:178|270:213,1,128,0|0,3:0|0:0,0:0:0:0:
313,267,27260,1,2,0:0:0:0:
195,375,27467,1,8,0:0:0:0:
144,294,27674,2,0,P|175:280|215:282,2,64,2|0|0,0:0|0:0|0:0,0:0:0:0:
11,339,28294,5,0,3:0:0:0:
11,339,28398,1,0,3:0:0:0:
11,339,28501,1,0,3:0:0:0:
49,234,28708,1,2,0:0:0:0:
38,154,28915,1,0,3:0:0:0:
38,154,29019,1,0,3:0:0:0:
38,154,29122,2,0,B|54:122|27:91|24:95|-2:68|27:21,1,128,8|0,0:0|0:0,0:0:0:0:
134,96,29743,1,2,0:0:0:0:
261,13,29950,6,0,P|233:23|212:62,1,64,0|0,3:0|0:0,0:0:0:0:
222,201,30363,2,0,P|227:171|204:134,1,64,2|0,0:0|0:0,0:0:0:0:
22,51,30777,2,0,P|71:91|134:96,1,128,8|0,0:0|0:0,0:0:0:0:
108,11,31398,1,2,0:0:0:0:
2,152,31605,5,0,3:0:0:0:
2,152,31708,1,0,3:0:0:0:
2,152,31812,1,0,3:0:0:0:
140,232,32019,1,2,0:0:0:0:
239,179,32225,2,0,B|253:216|234:242|229:240|205:265|222:317,1,128,0|0,3:0|0:0,0:0:0:0:
90,370,32846,1,2,0:0:0:0:
23,326,33053,2,0,P|18:311|18:285,1,32,2|0,0:0|0:0,0:0:0:0:
12,199,33260,6,0,P|59:233|133:235,1,128,0|0,3:0|0:0,0:0:0:0:
168,149,33881,1,2,0:0:0:0:
326,99,34088,2,0,P|279:65|205:63,1,128,8|0,0:0|0:0,0:0:0:0:
257,190,34708,1,2,0:0:0:0:
414,228,34915,5,0,3:0:0:0:
414,228,35019,1,0,3:0:0:0:
414,228,35122,1,0,3:0:0:0:
320,243,35329,1,2,0:0:0:0:
469,375,35536,1,0,3:0:0:0:
469,375,35639,1,0,3:0:0:0:
469,375,35743,2,0,P|506:330|489:266,1,128,8|0,0:0|0:0,0:0:0:0:
328,314,36363,6,0,L|336:377,1,64,2|0,0:0|3:0,0:0:0:0:
421,291,36777,2,0,L|413:227,1,64,2|0,0:0|0:0,0:0:0:0:
242,219,37191,2,0,L|115:270,1,128,2|0,0:0|0:0,0:0:0:0:
48,295,37812,1,2,0:0:0:0:
176,363,38019,1,2,0:0:0:0:
164,173,38225,5,0,3:0:0:0:
164,173,38329,1,0,3:0:0:0:
164,173,38432,2,0,P|164:138|159:109,1,64,0|0,3:0|0:0,0:0:0:0:
7,99,38846,2,0,P|48:97|89:21,1,128,2|0,3:2|0:0,0:0:0:0:
225,6,39467,2,0,P|245:7|266:45,1,64,2|0,0:0|0:0,0:0:0:0:
200,231,39881,5,0,3:0:0:0:
404,368,53122,5,0,3:0:0:0:
404,368,53536,1,0,3:0:0:0:
404,368,53950,2,0,B|426:327|398:302|394:303|368:278|395:238,1,128,2|0,3:2|3:0,0:0:0:0:
468,37,54777,2,0,P|458:67|430:82,1,64,2|0,3:2|0:0,0:0:0:0:
357,112,55191,2,0,P|315:64|317:1,2,128,2|0|0,3:2|3:0|3:0,0:0:0:0:
113,192,56432,5,0,3:0:0:0:
113,192,56846,1,0,3:0:0:0:
113,192,57260,2,0,P|51:187|17:250,1,128,2|0,3:2|3:0,0:0:0:0:
257,368,58088,2,0,P|257:339|250:304,1,64,2|0,3:2|0:0,0:0:0:0:
182,262,58501,2,0,B|185:297|159:316|155:316|131:330|128:379,2,128,2|0|0,3:2|3:0|3:0,0:0:0:0:
253,224,59536,1,2,0:0:0:0:
241,101,59743,6,0,L|232:18,1,80,0|0,3:0|3:0,0:0:0:0:
152,30,60157,2,0,L|69:39,1,80,0|0,3:0|3:0,0:0:0:0:
81,119,60570,2,0,L|90:202,1,80,2|0,3:2|3:0,0:0:0:0:
170,190,60984,2,0,L|253:181,1,80,2|0,3:2|3:0,0:0:0:0:
400,243,61398,5,2,3:2:0:0:
400,243,61605,1,0,3:0:0:0:
400,243,61812,1,2,3:2:0:0:
400,243,62019,1,0,3:0:0:0:
352,308,62226,1,2,3:2:0:0:
401,371,62433,1,0,3:0:0:0:
477,344,62640,1,2,3:2:0:0:
474,263,62846,1,0,3:0:0:0:
456,184,63053,5,2,3:2:0:0:
465,165,63156,1,0,3:0:0:0:
476,148,63259,1,0,3:0:0:0:
485,130,63363,1,0,3:0:0:0:
495,114,63467,2,0,L|459:93,3,40,0|0|0|0,3:0|3:0|3:0|3:0,0:0:0:0:
404,61,63881,1,2,3:2:0:0:
395,80,63984,1,0,3:0:0:0:
383,97,64087,1,0,3:0:0:0:
374,114,64191,1,0,3:0:0:0:
364,131,64295,2,0,L|398:150,3,40,0|0|0|0,3:0|3:0|3:0|3:0,0:0:0:0:
397,214,64708,5,2,3:2:0:0:
357,210,64811,1,0,3:0:0:0:
319,223,64914,1,0,3:0:0:0:
290,250,65018,1,0,3:0:0:0:
269,284,65121,1,0,3:0:0:0:
249,318,65225,1,0,3:0:0:0:
221,347,65328,1,0,3:0:0:0:
184,361,65432,1,0,3:0:0:0:
144,358,65535,1,8,0:0:0:0:
144,358,66363,5,0,3:0:0:0:
35,237,66570,1,2,0:0:0:0:
35,237,66777,2,0,P|35:192|29:138,1,95.9999970703126,2|0,0:0|0:0,0:0:0:0:
233,145,67191,1,8,0:0:0:0:
205,263,67398,2,0,P|155:222|130:99,1,191.999994140625,2|0,0:0|0:0,0:0:0:0:
311,32,68019,5,0,3:0:0:0:
388,87,68225,2,0,L|487:74,2,95.9999970703126,2|0|0,0:0|0:0|0:0,0:0:0:0:
201,32,68846,1,8,0:0:0:0:
124,87,69052,2,0,L|25:74,2,95.9999970703126,2|0|0,0:0|0:0|0:0,0:0:0:0:
311,160,69674,5,0,3:0:0:0:
336,281,69881,1,2,0:0:0:0:
336,281,70088,2,0,B|334:312|315:324|312:322|295:331|294:364,1,95.9999970703126,2|0,0:0|0:0,0:0:0:0:
410,335,70501,1,8,0:0:0:0:
250,260,70708,2,0,B|249:226|232:217|229:219|210:207|208:176,2,95.9999970703126,2|0|0,0:0|0:0|0:0,0:0:0:0:
441,252,71329,6,0,P|369:132|459:25,1,287.999991210938,2|0,3:2|0:0,0:0:0:0:
256,12,72157,2,0,P|279:51|250:87,1,95.9999970703126,8|0,0:0|0:0,0:0:0:0:
39,111,72570,2,0,P|15:71|44:35,1,95.9999970703126,2|0,0:0|0:0,0:0:0:0:
187,49,72984,5,0,3:0:0:0:
283,192,73191,1,2,0:0:0:0:
283,192,73398,2,0,P|236:196|188:206,1,95.9999970703126,2|0,0:0|0:0,0:0:0:0:
0,246,73812,1,8,0:0:0:0:
41,150,74019,2,0,B|91:167|93:225|91:228|93:283|150:303,1,191.999994140625,2|0,0:0|0:0,0:0:0:0:
299,322,74639,5,0,3:0:0:0:
383,276,74846,2,0,P|380:228|383:181,2,95.9999970703126,2|0|0,0:0|0:0|0:0,0:0:0:0:
213,62,75467,1,8,0:0:0:0:
129,108,75674,2,0,P|131:155|129:203,2,95.9999970703126,2|0|0,0:0|0:0|0:0,0:0:0:0:
333,104,76294,5,0,3:0:0:0:
474,142,76501,1,2,0:0:0:0:
474,142,76708,2,0,P|439:104|446:55,1,95.9999970703126,2|0,0:0|0:0,0:0:0:0:
243,186,77122,2,0,P|220:95|268:15,1,191.999994140625,8|0,0:0|0:3,0:3:0:0:
347,70,77743,1,2,0:0:0:0:
373,224,77950,6,0,P|386:290|388:372,1,143.999995605469,0|0,3:0|0:0,0:0:0:0:
388,366,78363,2,0,P|366:370|338:370,1,47.9999985351563,0|0,3:0|0:0,0:0:0:0:
185,304,78570,2,0,P|206:299|234:299,1,47.9999985351563,0|0,3:0|0:0,0:0:0:0:
232,298,78777,6,0,P|156:310|166:220,1,192,8|0,0:0|0:0,0:0:0:0:
224,90,79191,6,0,P|281:176|183:211,1,240,2|0,3:2|0:0,0:0:0:0:
162,200,79605,5,0,3:0:0:0:
45,123,79812,1,2,0:0:0:0:
45,123,80019,2,0,P|93:124|146:112,1,95.9999970703126,2|0,0:0|0:0,0:0:0:0:
335,21,80432,1,8,0:0:0:0:
177,21,80639,2,0,B|234:24|253:73|255:76|271:113|340:109,1,191.999994140625,2|0,0:0|0:0,0:0:0:0:
510,27,81260,5,0,3:0:0:0:
437,90,81467,2,0,P|448:132|484:174,2,95.9999970703126,2|0|0,0:2|0:0|0:0,0:0:0:0:
223,192,82088,1,8,0:0:0:0:
150,129,82295,2,0,P|161:87|197:45,1,95.9999970703126,2|0,0:0|0:0,0:0:0:0:
319,175,82708,2,0,L|322:223,1,47.9999985351563,0|0,3:0|0:0,0:0:0:0:
332,343,82915,6,0,L|349:54,1,287.999991210938,2|0,3:2|0:0,0:0:0:0:
86,178,83743,2,0,L|246:283,1,191.999994140625,10|0,0:0|0:0,0:0:0:0:
244,163,84363,1,2,0:0:0:0:
463,30,84570,6,0,B|423:-12|378:25|384:40|326:82|291:36,1,191.999994140625,0|0,3:0|0:0,0:0:0:0:
200,65,85191,1,2,0:0:0:0:
40,177,85398,2,0,B|80:134|125:172|119:187|177:229|212:183,1,191.999994140625,8|0,0:0|0:0,0:0:0:0:
304,210,86019,1,2,0:0:0:0:
463,352,86225,5,0,3:0:0:0:
315,299,86432,1,2,0:0:0:0:
315,299,86639,2,0,P|265:316|213:308,1,95.9999970703126,2|0,0:0|0:0,0:0:0:0:
153,97,87053,1,8,0:0:0:0:
163,253,87260,2,0,B|149:204|201:170|204:175|252:137|237:86,1,191.999994140625,2|0,0:0|0:0,0:0:0:0:
6,16,87881,5,0,3:0:0:0:
39,106,88088,2,0,P|85:97|142:98,2,95.9999970703126,2|0|0,0:0|0:0|0:0,0:0:0:0:
258,208,88708,1,8,0:0:0:0:
196,281,88915,2,0,P|226:316|254:366,2,95.9999970703126,2|0|0,0:0|0:0|0:0,0:0:0:0:
15,380,89536,6,0,P|75:302|102:113,1,287.999991210938,2|0,3:2|0:0,0:0:0:0:
273,15,90363,2,0,P|253:40|244:103,1,95.9999970703126,10|0,0:0|0:0,0:0:0:0:
176,248,90777,2,0,P|201:267|264:276,1,95.9999970703126,0|0,3:0|0:0,0:0:0:0:
409,345,91191,6,0,P|418:332|423:300,1,47.9999985351563,2|0,3:2|0:0,0:0:0:0:
505,248,91398,2,0,P|503:232|484:206,1,47.9999985351563,0|0,3:0|0:0,0:0:0:0:
506,112,91605,2,0,P|493:102|461:97,1,47.9999985351563,0|0,3:0|0:0,0:0:0:0:
409,15,91812,2,0,P|393:17|367:36,1,47.9999985351563,0|0,3:0|0:0,0:0:0:0:
277,19,92019,6,0,P|257:44|248:107,1,95.9999970703126,10|0,0:0|0:0,0:0:0:0:
247,105,92432,6,0,P|240:89|215:70,1,48,8|0,0:0|0:0,0:0:0:0:
198,9,92846,5,0,3:0:0:0:
90,65,93053,2,0,P|50:74|7:75,2,80,2|0|0,0:0|0:0|0:0,0:0:0:0:
67,168,93674,1,8,0:0:0:0:
67,168,93777,1,0,3:0:0:0:
67,168,93881,1,0,3:0:0:0:
215,176,94088,2,0,P|207:214|224:251,1,80,2|0,0:0|0:0,0:0:0:0:
32,329,94501,5,0,3:0:0:0:
32,329,94605,1,0,3:0:0:0:
32,329,94708,2,0,P|40:291|23:254,1,80,2|0,3:2|0:0,0:0:0:0:
154,349,95122,1,2,3:2:0:0:
358,377,95329,1,8,0:0:0:0:
298,307,95536,1,0,3:0:0:0:
298,307,95639,1,0,3:0:0:0:
298,307,95743,2,0,L|381:284,1,80,2|0,3:2|0:0,0:0:0:0:
503,319,96157,5,0,3:0:0:0:
395,202,96363,2,0,P|380:171|393:123,2,80,2|0|0,0:0|0:0|0:0,0:0:0:0:
269,29,96984,1,8,0:0:0:0:
269,29,97088,1,0,3:0:0:0:
269,29,97191,1,0,3:0:0:0:
273,182,97398,2,0,P|288:151|275:103,1,80,2|0,0:0|0:0,0:0:0:0:
31,47,97812,5,0,3:0:0:0:
31,47,97915,1,0,3:0:0:0:
31,47,98019,1,0,3:0:0:0:
44,203,98225,1,2,0:0:0:0:
200,190,98432,1,0,3:0:0:0:
187,34,98639,1,8,0:0:0:0:
187,34,98743,1,0,3:0:0:0:
187,34,98846,2,0,L|169:112,2,80,2|2|0,3:2|0:0|0:0,0:0:0:0:
230,268,99467,5,0,3:0:0:0:
133,337,99674,2,0,P|92:336|53:321,2,80,2|0|0,0:0|0:0|0:0,0:0:0:0:
112,266,100294,1,8,0:0:0:0:
112,266,100398,1,0,3:0:0:0:
112,266,100501,1,0,3:0:0:0:
286,211,100708,2,0,P|248:197|209:197,1,80,2|0,0:0|0:0,0:0:0:0:
362,369,101122,5,0,3:0:0:0:
362,369,101225,1,0,3:0:0:0:
362,369,101329,2,0,P|365:327|371:284,1,80,2|0,3:2|0:0,0:0:0:0:
385,129,101743,1,0,3:0:0:0:
287,320,101950,1,8,0:0:0:0:
199,175,102157,1,0,3:0:0:0:
199,175,102260,1,0,3:0:0:0:
199,175,102364,2,0,P|202:217|208:260,1,80,2|0,3:2|0:0,0:0:0:0:
277,212,102777,5,0,3:0:0:0:
220,42,102984,2,0,P|190:18|143:13,2,80,2|0|0,0:0|0:0|0:0,0:0:0:0:
161,159,103605,1,8,0:0:0:0:
161,159,103708,1,0,3:0:0:0:
161,159,103812,2,0,P|146:122|115:97,1,80,2|0,3:2|0:0,0:0:0:0:
45,171,104225,1,0,3:0:0:0:
19,356,104432,5,0,3:0:0:0:
112,225,104639,1,2,0:0:0:0:
178,371,104846,1,2,0:0:0:0:
109,300,105053,2,0,P|187:292|258:240,1,160,0|0,3:0|0:0,0:0:0:0:
228,85,105674,2,0,L|221:35,1,40,8|0,0:0|0:0,0:0:0:0:
341,29,105881,2,0,L|346:68,1,40,8|0,0:0|0:0,0:0:0:0:
335,133,106088,6,0,L|255:143,1,80,0|0,3:0|0:0,0:0:0:0:
346,220,106501,2,0,L|266:230,1,80,2|0,0:0|0:0,0:0:0:0:
169,115,106915,1,8,0:0:0:0:
169,115,107019,1,0,3:0:0:0:
169,115,107122,2,0,B|125:114|102:69|106:67|83:24|41:25,1,160
11,151,107743,5,0,3:0:0:0:
11,151,107846,1,0,3:0:0:0:
11,151,107950,2,0,P|10:190|18:241,1,80,0|0,3:0|0:0,0:0:0:0:
23,312,108363,1,0,3:0:0:0:
143,274,108570,1,8,0:0:0:0:
143,274,108673,1,0,3:0:0:0:
143,274,108777,2,0,P|137:234|138:194,2,80,0|0|0,3:0|0:0|0:0,0:0:0:0:
386,270,109398,6,0,P|374:231|324:208,1,80,0|0,3:0|0:0,0:0:0:0:
248,132,109812,2,0,P|220:161|225:216,1,80,2|0,0:0|0:0,0:0:0:0:
198,321,110225,1,8,0:0:0:0:
198,321,110329,1,0,3:0:0:0:
198,321,110432,2,0,P|237:330|282:298,2,80,0|0|0,3:0|0:0|0:0,0:0:0:0:
93,161,111053,5,2,3:2:0:0:
93,161,111157,1,0,3:0:0:0:
93,161,111260,1,0,3:0:0:0:
99,237,111467,2,0,P|105:277|106:316,1,80,2|0,0:0|3:0,0:0:0:0:
23,128,111881,1,8,0:0:0:0:
23,128,111984,1,0,3:0:0:0:
23,128,112088,1,0,3:0:0:0:
159,120,112294,2,0,B|200:122|213:91|211:89|219:59|257:64,1,120,2|0,0:0|0:0,0:0:0:0:
256,63,112708,6,0,P|224:43|202:5,1,80,0|0,3:0|0:0,0:0:0:0:
283,146,113122,2,0,P|281:183|259:221,1,80,2|0,0:0|0:0,0:0:0:0:
342,82,113536,1,8,0:0:0:0:
342,82,113639,1,0,3:0:0:0:
342,82,113743,2,0,P|408:46|496:46,1,160,0|0,3:0|0:0,0:0:0:0:
477,191,114363,5,0,3:0:0:0:
477,191,114467,1,0,3:0:0:0:
477,191,114570,2,0,L|398:175,1,80,0|0,3:0|0:0,0:0:0:0:
293,234,114984,1,0,3:0:0:0:
369,283,115191,1,8,0:0:0:0:
369,283,115295,1,0,3:0:0:0:
369,283,115398,2,0,L|385:362,2,80,0|0|0,3:0|0:0|0:0,0:0:0:0:
412,138,116019,6,0,P|413:97|398:51,1,80,0|0,3:0|0:0,0:0:0:0:
207,17,116432,2,0,P|206:58|221:104,1,80,2|0,0:0|0:0,0:0:0:0:
319,192,116846,1,8,0:0:0:0:
319,192,116950,1,0,3:0:0:0:
319,192,117054,2,0,P|320:151|305:105,2,80,0|0|0,3:0|0:0|0:0,0:0:0:0:
148,274,117674,5,2,3:2:0:0:
148,274,117777,1,0,3:0:0:0:
148,274,117881,2,0,P|137:235|138:195,1,80,0|0,3:0|0:0,0:0:0:0:
62,167,118294,1,0,3:0:0:0:
60,328,118501,2,0,P|136:349|216:347,1,160,8|0,0:0|0:0,0:0:0:0:
295,331,119122,1,2,0:0:0:0:
470,350,119329,6,0,B|433:337|427:307|429:304|423:270|380:254,1,128,0|0,3:0|0:0,0:0:0:0:
312,231,119950,1,2,0:0:0:0:
335,35,120157,2,0,B|342:73|319:93|315:93|289:115|296:160,1,128,8|0,0:0|0:0,0:0:0:0:
312,231,120778,1,2,0:0:0:0:
250,283,120984,5,0,3:0:0:0:
250,283,121088,1,0,3:0:0:0:
250,283,121191,1,0,3:0:0:0:
338,375,121398,1,2,0:0:0:0:
164,348,121605,1,0,3:0:0:0:
164,348,121708,1,0,3:0:0:0:
164,348,121812,2,0,P|162:289|148:219,1,128,8|0,0:0|0:0,0:0:0:0:
9,303,122432,1,2,0:0:0:0:
28,185,122639,6,0,P|60:182|94:161,1,64,0|0,3:0|0:0,0:0:0:0:
183,79,123053,2,0,P|196:49|195:9,1,64,2|0,0:0|0:0,0:0:0:0:
240,156,123467,2,0,P|241:219|268:277,1,128,8|0,0:0|0:0,0:0:0:0:
322,199,124088,1,2,0:0:0:0:
424,97,124294,5,0,3:0:0:0:
424,97,124398,1,0,3:0:0:0:
424,97,124501,2,0,L|495:104,1,64,0|0,3:0|0:0,0:0:0:0:
456,177,124915,1,0,3:0:0:0:
281,87,125122,2,0,P|300:41|384:41,1,128,10|0,0:0|0:0,0:0:0:0:
353,209,125743,2,0,L|338:176,1,32,2|0,0:0|0:0,0:0:0:0:
393,279,125950,6,0,P|331:243|273:225,1,128,0|0,3:0|0:0,0:0:0:0:
307,319,126570,1,2,0:0:0:0:
114,312,126777,2,0,P|176:348|234:366,1,128,8|0,0:0|0:0,0:0:0:0:
200,272,127397,1,2,0:0:0:0:
312,112,127605,5,0,3:0:0:0:
312,112,127708,1,0,3:0:0:0:
312,112,127812,1,0,3:0:0:0:
195,197,128019,1,2,0:0:0:0:
64,139,128225,1,0,3:0:0:0:
64,139,128329,1,0,3:0:0:0:
64,139,128432,2,0,B|37:99|61:75|60:78|85:48|61:18,1,128,8|0,0:0|0:0,0:0:0:0:
181,54,129053,1,2,0:0:0:0:
112,215,129260,6,0,P|82:221|48:232,1,64,0|0,3:0|0:0,0:0:0:0:
238,274,129674,2,0,P|232:244|221:210,1,64,2|0,0:0|0:0,0:0:0:0:
298,151,130088,2,0,P|310:91|332:23,1,128,8|0,0:0|0:0,0:0:0:0:
494,35,130708,1,0,3:0:0:0:
499,130,130915,6,0,P|498:156|473:195,1,64,2|0,3:2|0:0,0:0:0:0:
295,146,131329,1,2,0:0:0:0:
406,84,131536,1,0,3:0:0:0:
469,288,131743,2,0,P|430:286|371:249,1,96,8|0,0:0|0:0,0:0:0:0:
380,259,132157,2,0,L|375:298,1,32,8|0,0:0|0:0,0:0:0:0:
440,181,132363,2,0,L|444:219,1,32,8|0,0:0|0:0,0:0:0:0:
297,339,132570,6,0,P|278:265|216:168,1,192,0|0,3:0|0:0,0:0:0:0:
177,256,133398,2,0,P|183:280|203:312,1,64,8|0,0:0|0:0,0:0:0:0:
53,371,133812,2,0,P|71:344|79:314,1,64,2|0,0:0|0:0,0:0:0:0:
21,216,134225,5,0,3:0:0:0:
21,216,134329,1,0,3:0:0:0:
21,216,134432,1,0,3:0:0:0:
146,113,134639,1,2,0:0:0:0:
60,55,134846,1,0,3:0:0:0:
60,55,134950,1,0,3:0:0:0:
60,55,135053,1,8,0:0:0:0:
204,27,135260,2,0,P|229:44|265:52,1,64,2|0,0:0|0:0,0:0:0:0:
191,206,135674,6,0,P|163:219|138:246,1,64,2|0,0:0|3:0,0:0:0:0:
295,333,136088,2,0,P|301:242|268:137,1,192,2|8,0:0|0:0,0:0:0:0:
233,19,136915,1,2,0:0:0:0:
327,40,137122,2,0,P|357:42|392:31,1,64,2|0,0:0|0:0,0:0:0:0:
179,125,137536,5,0,3:0:0:0:
179,125,137639,1,0,3:0:0:0:
179,125,137743,2,0,P|148:122|113:133,1,64,2|0,3:2|0:0,0:0:0:0:
34,279,138157,1,0,3:0:0:0:
161,254,138363,1,8,0:0:0:0:
46,110,138570,2,0,P|43:140|54:175,1,64,2|0,0:0|0:0,0:0:0:0:
95,330,138984,2,0,P|110:331|127:325,1,32,2|0,0:0|0:0,0:0:0:0:
252,301,139191,6,0,B|274:271|257:238|255:240|238:207|263:172,1,128,0|0,3:0|0:0,0:0:0:0:
362,227,139812,1,2,0:0:0:0:
467,107,140019,2,0,B|498:150|473:199|470:196|444:246|477:291,1,192,8|0,0:0|0:0,0:0:0:0:
355,375,140846,5,0,3:0:0:0:
355,375,140950,1,0,3:0:0:0:
355,375,141053,2,0,P|375:352|374:309,1,64,2|0,3:2|0:0,0:0:0:0:
256,192,141467,1,0,3:0:0:0:
256,192,141570,1,0,3:0:0:0:
256,192,141674,1,8,0:0:0:0:
186,128,141881,2,0,P|166:151|167:194,1,64,2|0,0:0|0:0,0:0:0:0:
45,231,142294,6,0,L|113:247,1,64,2|0,0:0|3:0,0:0:0:0:
218,326,142708,2,0,L|268:373,1,64,2|0,0:0|0:0,0:0:0:0:
316,243,143122,2,0,L|356:376,1,128,2|0,0:0|0:0,0:0:0:0:
483,285,143743,1,2,0:0:0:0:
403,154,143950,1,2,0:0:0:0:
427,239,144157,5,0,3:0:0:0:
427,239,144260,1,0,3:0:0:0:
427,239,144363,2,0,P|450:216|467:186,1,64,0|0,3:0|0:0,0:0:0:0:
399,3,144777,2,0,P|352:47|318:108,1,128,2|0,3:2|0:0,0:0:0:0:
191,102,145398,2,0,P|175:74|151:52,1,64,2|0,0:0|0:0,0:0:0:0:
256,192,145812,5,0,3:0:0:0:
43,244,159053,5,0,3:0:0:0:
43,244,159467,1,0,3:0:0:0:
43,244,159881,2,0,P|89:278|96:349,1,128,2|0,3:2|3:0,0:0:0:0:
321,365,160708,2,0,P|351:351|385:346,1,64,2|0,3:2|0:0,0:0:0:0:
404,269,161122,2,0,B|365:281|343:251|344:251|324:223|281:228,2,128,2|0|0,3:2|3:0|3:0,0:0:0:0:
358,19,162363,5,0,3:0:0:0:
358,19,162777,1,0,3:0:0:0:
358,19,163191,2,0,P|354:71|363:153,1,128,2|0,3:2|3:0,0:0:0:0:
115,224,164019,2,0,P|118:192|116:160,1,64,2|0,3:2|0:0,0:0:0:0:
109,80,164432,2,0,B|69:71|56:45|60:44|46:17|6:9,2,128,2|0|0,3:2|3:0|3:0,0:0:0:0:
181,114,165467,1,2,0:0:0:0:
316,26,165674,6,0,L|400:30,1,80,0|0,3:0|3:0,0:0:0:0:
472,55,166088,2,0,L|468:139,1,80,0|0,3:0|3:0,0:0:0:0:
443,211,166501,2,0,L|359:207,1,80,2|0,3:2|3:0,0:0:0:0:
287,182,166915,2,0,L|291:98,1,80,2|0,3:2|3:0,0:0:0:0:
135,23,167329,5,2,3:2:0:0:
135,23,167536,1,0,3:0:0:0:
135,23,167743,1,2,3:2:0:0:
135,23,167950,1,0,3:0:0:0:
60,42,168157,1,2,3:2:0:0:
40,117,168364,1,0,3:0:0:0:
95,171,168571,1,2,3:2:0:0:
169,151,168778,1,0,3:0:0:0:
189,77,168984,5,2,3:2:0:0:
208,78,169087,1,0,3:0:0:0:
228,79,169190,1,0,3:0:0:0:
248,81,169294,1,0,3:0:0:0:
268,82,169398,2,0,L|265:122,3,40,0|0|0|0,3:0|3:0|3:0|3:0,0:0:0:0:
298,177,169812,1,2,3:2:0:0:
318,175,169915,1,0,3:0:0:0:
338,174,170018,1,0,3:0:0:0:
358,172,170122,1,0,3:0:0:0:
377,172,170226,2,0,L|374:132,3,40,0|0|0|0,3:0|3:0|3:0|3:0,0:0:0:0:
400,74,170639,5,2,3:2:0:0:
438,82,170742,1,0,3:0:0:0:
472,103,170845,1,0,3:0:0:0:
497,134,170949,1,0,3:0:0:0:
510,172,171052,1,0,3:0:0:0:
510,212,171156,1,0,3:0:0:0:
497,249,171259,1,0,3:0:0:0:
473,280,171363,1,0,3:0:0:0:
439,302,171466,1,8,0:0:0:0:
439,303,172294,5,4,3:2:0:0:
357,250,172501,2,0,P|335:252|307:243,1,47.9999985351563,2|0,0:0|0:0,0:0:0:0:
155,377,172708,2,0,P|177:375|205:384,1,47.9999985351563,2|0,0:0|0:0,0:0:0:0:
191,291,172915,2,0,P|153:239|146:157,1,143.999995605469,2|0,0:0|0:0,0:0:0:0:
206,140,173329,1,2,0:0:0:0:
314,12,173536,2,0,P|339:46|344:101,1,95.9999970703126,2|0,0:0|0:0,0:0:0:0:
145,59,173950,5,0,3:0:0:0:
59,100,174157,2,0,L|49:50,1,47.9999985351563,2|0,0:0|0:0,0:0:0:0:
137,153,174363,2,0,L|98:186,1,47.9999985351563,2|0,0:0|0:0,0:0:0:0:
227,236,174570,2,0,B|191:221|158:255|160:257|129:288|91:268,1,143.999995605469,2|0,0:0|0:0,0:0:0:0:
32,254,174984,1,2,0:0:0:0:
195,345,175191,2,0,B|219:335|240:358|239:359|260:380|285:366,1,95.9999970703126,2|0,0:0|0:0,0:0:0:0:
491,300,175605,5,0,3:0:0:0:
382,284,175812,2,0,L|388:342,1,47.9999985351563,2|0,0:0|0:0,0:0:0:0:
506,192,176019,2,0,L|448:198,1,47.9999985351563,2|0,0:0|0:0,0:0:0:0:
286,289,176225,2,0,L|271:145,1,143.999995605469,2|0,0:0|0:0,0:0:0:0:
265,82,176639,1,2,0:0:0:0:
398,0,176846,2,0,L|388:95,1,95.9999970703126,2|0,0:0|0:0,0:0:0:0:
176,23,177260,5,0,3:0:0:0:
63,206,177467,2,0,P|40:203|21:177,1,47.9999985351563,2|0,0:0|0:0,0:0:0:0:
55,37,177674,2,0,P|78:40|97:66,1,47.9999985351563,2|0,0:0|0:0,0:0:0:0:
195,216,177881,2,0,P|161:199|173:104,1,143.999995605469,2|0,0:0|0:0,0:0:0:0:
233,86,178294,1,2,0:0:0:0:
362,184,178501,2,0,P|363:208|304:233,1,95.9999970703126,2|0,0:0|0:0,0:0:0:0:
93,332,178915,5,0,3:0:0:0:
259,303,179122,2,0,L|318:323,1,47.9999985351563,2|0,0:0|0:0,0:0:0:0:
438,320,179329,2,0,L|479:366,1,47.9999985351563,2|0,0:0|0:0,0:0:0:0:
367,250,179536,2,0,L|339:108,1,143.999995605469,2|0,0:0|0:0,0:0:0:0:
328,45,179950,1,2,0:0:0:0:
119,102,180157,2,0,L|149:11,1,95.9999970703126,2|0,0:0|0:0,0:0:0:0:
221,228,180570,5,0,3:0:0:0:
254,137,180777,2,0,P|234:148|206:145,1,47.9999985351563,2|0,0:0|0:0,0:0:0:0:
68,212,180984,2,0,P|87:223|98:249,1,47.9999985351563,2|0,0:0|0:0,0:0:0:0:
240,312,181191,2,0,P|275:283|369:291,1,143.999995605469,2|0,0:0|0:0,0:0:0:0:
381,354,181605,1,2,0:0:0:0:
494,174,181812,2,0,P|470:193|407:188,1,95.9999970703126,2|0,0:0|0:0,0:0:0:0:
256,20,182225,5,0,3:0:0:0:
128,80,182432,2,0,L|187:94,1,47.9999985351563,2|0,0:0|0:0,0:0:0:0:
337,91,182639,2,0,L|384:80,1,47.9999985351563,2|0,0:0|0:0,0:0:0:0:
255,161,182846,2,0,B|277:202|258:231|255:231|234:266|254:300,1,143.999995605469,2|0,0:0|0:0,0:0:0:0:
256,364,183260,1,2,0:0:0:0:
64,305,183467,2,0,B|76:282|62:259|60:259|48:239|62:212,1,95.9999970703126,2|0,0:0|0:0,0:0:0:0:
158,263,183881,5,0,3:0:0:0:
38,88,184088,2,0,P|46:110|68:120,1,47.9999985351563,2|0,0:0|0:0,0:0:0:0:
189,5,184294,2,0,P|166:1|148:16,1,47.9999985351563,2|0,0:0|0:0,0:0:0:0:
184,178,184501,2,0,P|200:160|198:137,1,47.9999985351563,0|0,3:0|0:0,0:0:0:0:
55,295,184708,6,2,P|165:294|219:359,1,192,8|0,0:0|0:0,0:0:0:0:
215,350,185432,1,0,3:0:0:0:
215,350,185536,1,0,3:0:0:0:
394,371,185743,6,0,L|389:312,1,47.9999985351563,2|0,0:0|0:0,0:0:0:0:
503,364,185950,2,0,L|498:305,1,47.9999985351563,2|0,0:0|0:0,0:0:0:0:
324,269,186157,2,0,P|279:262|265:173,1,143.999995605469,2|0,0:0|0:0,0:0:0:0:
288,119,186570,1,2,0:0:0:0:
458,152,186777,2,0,P|468:179|422:217,1,95.9999970703126,2|0,0:0|0:0,0:0:0:0:
346,15,187191,5,0,3:0:0:0:
356,135,187398,2,0,P|359:110|366:82,1,47.9999985351563,2|0,0:0|0:0,0:0:0:0:
259,28,187605,2,0,P|256:52|249:81,1,47.9999985351563,2|0,0:0|0:0,0:0:0:0:
176,172,187812,2,0,B|163:123|136:117|133:119|103:111|86:58,1,143.999995605469,2|0,0:0|0:0,0:0:0:0:
67,4,188225,1,2,0:0:0:0:
165,7,188432,1,2,0:0:0:0:
79,196,188639,2,0,B|73:212|63:214|63:214|54:215|49:232,1,47.9999985351563,0|0,3:0|0:0,0:0:0:0:
38,294,188846,5,0,3:0:0:0:
176,376,189053,2,0,P|171:351|176:327,1,47.9999985351563,2|0,0:0|0:0,0:0:0:0:
306,354,189260,2,0,P|281:359|257:354,1,47.9999985351563,2|0,0:0|0:0,0:0:0:0:
281,82,189467,2,0,P|296:158|281:230,1,143.999995605469,2|0,0:0|0:0,0:0:0:0:
268,286,189881,1,2,0:0:0:0:
85,207,190088,2,0,P|135:197|183:207,1,95.9999970703126,2|0,0:0|0:0,0:0:0:0:
377,288,190501,5,0,3:0:0:0:
493,375,190708,2,0,L|490:324,1,47.9999985351563,2|0,0:0|0:0,0:0:0:0:
384,168,190915,2,0,L|381:215,1,47.9999985351563,2|0,0:0|0:0,0:0:0:0:
425,46,191122,2,0,P|365:31|305:81,1,143.999995605469,2|0,0:0|0:0,0:0:0:0:
287,142,191536,1,2,0:0:0:0:
203,366,191743,1,2,0:0:0:0:
236,331,191846,1,2,0:0:0:0:
250,286,191949,1,2,0:0:0:0:
243,239,192053,1,2,0:0:0:0:
215,201,192156,5,0,3:0:0:0:
174,107,192363,2,0,L|171:51,1,47.9999985351563,2|0,0:0|0:0,0:0:0:0:
5,26,192570,2,0,L|8:82,1,47.9999985351563,2|0,0:0|0:0,0:0:0:0:
82,184,192777,2,0,B|112:226|80:253|79:252|42:283|69:326,1,143.999995605469,2|0,0:0|0:0,0:0:0:0:
81,378,193191,1,2,0:0:0:0:
266,313,193398,2,0,B|280:291|255:270|255:271|233:252|254:224,1,95.9999970703126,2|0,0:0|0:0,0:0:0:0:
170,41,193812,5,0,3:0:0:0:
222,148,194019,2,0,P|249:152|276:142,1,47.9999985351563,2|0,0:0|0:0,0:0:0:0:
412,20,194225,2,0,P|385:16|358:26,1,47.9999985351563,2|0,0:0|0:0,0:0:0:0:
395,101,194432,2,0,P|398:147|481:182,1,143.999995605469,2|0,0:0|0:0,0:0:0:0:
511,127,194846,1,2,0:0:0:0:
316,259,195053,2,0,P|340:241|333:182,1,95.9999970703126,2|0,0:0|0:0,0:0:0:0:
164,80,195467,5,0,3:0:0:0:
94,146,195674,2,0,L|41:157,1,47.9999985351563,2|0,0:0|0:0,0:0:0:0:
234,14,195881,2,0,L|287:3,1,47.9999985351563,2|0,0:0|0:0,0:0:0:0:
380,136,196088,2,0,P|361:101|270:114,1,143.999995605469,2|0,0:0|0:0,0:0:0:0:
247,172,196501,1,2,0:0:0:0:
148,336,196708,2,0,P|159:358|220:350,1,95.9999970703126,2|0,3:2|0:0,0:0:0:0:
324,217,197122,6,0,L|321:168,1,47.9999985351563,0|0,3:0|0:0,0:0:0:0:
473,236,197329,2,0,L|470:187,1,47.9999985351563,0|0,3:0|0:0,0:0:0:0:
309,346,197536,2,0,L|306:297,1,47.9999985351563,0|0,3:0|0:0,0:0:0:0:
458,365,197743,2,0,L|455:316,1,47.9999985351563,0|0,3:0|0:0,0:0:0:0:
400,120,197950,6,0,L|393:5,1,112,8|0,0:0|0:0,0:0:0:0:
458,15,198777,5,0,3:0:0:0:
304,58,198984,2,0,P|272:29|233:20,2,80,2|0|0,0:0|0:0|0:0,0:0:0:0:
240,108,199605,1,8,0:0:0:0:
240,108,199708,1,0,3:0:0:0:
240,108,199812,1,0,3:0:0:0:
79,100,200019,2,0,P|69:62|79:24,1,80,2|0,0:0|0:0,0:0:0:0:
196,185,200432,5,0,3:0:0:0:
196,185,200536,1,0,3:0:0:0:
196,185,200639,2,0,L|115:202,1,80,2|0,3:2|0:0,0:0:0:0:
51,243,201053,1,0,3:0:0:0:
249,264,201260,1,8,0:0:0:0:
147,296,201467,1,0,3:0:0:0:
147,296,201570,1,0,3:0:0:0:
147,296,201674,2,0,P|138:330|134:384,1,80,2|0,3:2|0:0,0:0:0:0:
346,323,202088,5,0,3:0:0:0:
433,372,202294,2,0,P|469:360|491:321,2,80,2|0|0,0:0|0:0|0:0,0:0:0:0:
430,218,202915,1,8,0:0:0:0:
430,218,203019,1,0,3:0:0:0:
430,218,203122,1,0,3:0:0:0:
493,139,203329,2,0,P|464:113|419:114,1,80,2|0,0:0|0:0,0:0:0:0:
213,66,203743,5,0,3:0:0:0:
213,66,203846,1,0,3:0:0:0:
213,66,203950,1,0,3:0:0:0:
101,151,204157,1,2,0:0:0:0:
150,289,204363,1,0,3:0:0:0:
262,204,204570,2,0,L|221:194,2,40,8|0|2,0:0|3:0|3:2,0:0:0:0:
428,145,204984,2,0,L|401:174,1,40,0|0,3:0|0:0,0:0:0:0:
369,348,205191,2,0,L|357:309,1,40,0|0,3:0|0:0,0:0:0:0:
340,229,205398,5,0,3:0:0:0:
190,318,205605,2,0,L|109:328,2,80,2|0|0,0:0|0:0|0:0,0:0:0:0:
295,343,206225,1,8,0:0:0:0:
295,343,206329,1,0,3:0:0:0:
295,343,206432,1,0,3:0:0:0:
145,254,206639,2,0,L|64:244,1,80,2|0,0:0|0:0,0:0:0:0:
18,77,207053,5,0,3:0:0:0:
18,77,207157,1,0,3:0:0:0:
18,77,207260,2,0,P|51:61|65:17,1,80,2|0,3:2|0:0,0:0:0:0:
225,9,207674,1,0,3:0:0:0:
170,200,207881,1,8,0:0:0:0:
150,48,208088,1,0,3:0:0:0:
150,48,208191,1,0,3:0:0:0:
150,48,208294,2,0,L|160:129,1,80,2|0,3:2|0:0,0:0:0:0:
337,160,208708,5,0,3:0:0:0:
422,109,208915,2,0,P|406:76|362:62,2,80,2|0|0,0:0|0:0|0:0,0:0:0:0:
323,258,209536,1,8,0:0:0:0:
323,258,209639,1,0,3:0:0:0:
323,258,209743,2,0,P|359:260|393:229,1,80,2|0,3:2|0:0,0:0:0:0:
243,97,210157,1,0,3:0:0:0:
52,137,210363,5,0,3:0:0:0:
207,164,210570,1,2,0:0:0:0:
180,319,210777,1,2,0:0:0:0:
25,291,210984,2,0,P|99:264|121:189,1,160,0|0,3:0|0:0,0:0:0:0:
64,63,211605,2,0,L|24:67,1,40,8|0,0:0|0:0,0:0:0:0:
219,90,211812,2,0,L|179:94,1,40,8|0,0:0|0:0,0:0:0:0:
303,8,212019,6,0,P|284:43|297:91,2,80,2|0|0,0:0|0:0|0:0,0:0:0:0:
496,82,212639,2,0,P|514:46|501:-1,1,80,0|0,3:0|0:0,0:0:0:0:
507,8,212950,1,0,3:0:0:0:
507,8,213053,2,0,L|348:56,1,160,0|0,3:0|0:0,0:0:0:0:
262,196,213674,5,0,3:0:0:0:
262,196,213777,1,0,3:0:0:0:
262,196,213881,2,0,P|301:202|321:243,1,80,0|0,3:0|0:0,0:0:0:0:
271,297,214294,1,0,3:0:0:0:
146,218,214501,1,8,0:0:0:0:
146,218,214604,1,0,3:0:0:0:
146,218,214708,2,0,P|152:179|193:159,2,80,0|0|0,3:0|0:0|0:0,0:0:0:0:
206,372,215329,6,0,L|215:293,1,80,0|0,3:0|0:0,0:0:0:0:
297,382,215743,2,0,L|306:303,1,80,2|0,0:0|0:0,0:0:0:0:
383,212,216157,1,8,0:0:0:0:
383,212,216260,1,0,3:0:0:0:
383,212,216363,2,0,L|462:221,2,80,0|0|0,3:0|0:0|0:0,0:0:0:0:
294,297,216984,5,0,3:2:0:0:
294,297,217088,1,0,3:0:0:0:
294,297,217191,2,0,B|302:272|289:256|287:259|272:240|280:213,1,80,0|0,3:0|0:0,0:0:0:0:
289,141,217605,1,0,3:0:0:0:
340,6,217812,1,8,0:0:0:0:
340,6,217915,1,0,3:0:0:0:
340,6,218019,1,0,3:0:0:0:
215,16,218225,2,0,P|174:57|110:47,1,120,2|0,0:0|0:0,0:0:0:0:
116,51,218639,6,0,L|105:101,1,40,0|0,3:0|0:0,0:0:0:0:
190,124,218846,2,0,L|201:173,1,40,0|0,3:0|0:0,0:0:0:0:
92,166,219053,2,0,P|64:189|17:197,1,80,0|0,3:0|0:0,0:0:0:0:
221,246,219467,1,8,0:0:0:0:
221,246,219571,1,0,3:0:0:0:
221,246,219674,2,0,P|277:292|371:308,1,160,0|0,3:0|0:0,0:0:0:0:
498,365,220294,5,0,3:0:0:0:
498,365,220398,1,0,3:0:0:0:
498,365,220501,2,0,P|495:325|504:280,1,80,0|0,3:0|0:0,0:0:0:0:
447,229,220915,1,0,3:0:0:0:
366,157,221122,1,8,0:0:0:0:
366,157,221225,1,0,3:0:0:0:
366,157,221329,2,0,P|368:196|360:242,2,80,0|0|0,3:0|0:0|0:0,0:0:0:0:
247,22,221950,6,0,P|217:47|173:51,1,80,0|0,3:0|0:0,0:0:0:0:
19,32,222363,2,0,P|55:45|81:81,1,80,2|0,0:0|0:0,0:0:0:0:
142,225,222777,1,8,0:0:0:0:
142,225,222881,1,0,3:0:0:0:
142,225,222984,2,0,P|135:186|153:146,2,80,0|0|0,3:0|0:0|0:0,0:0:0:0:
299,291,223605,5,2,3:2:0:0:
299,291,223708,1,0,3:0:0:0:
299,291,223812,2,0,P|311:327|317:372,1,80,0|0,3:0|0:0,0:0:0:0:
197,347,224225,1,0,3:0:0:0:
106,380,224432,2,0,P|118:301|141:225,1,160,8|0,0:0|0:0,0:0:0:0:
256,192,225053,1,2,0:0:0:0:
256,192,225260,1,2,0:0:0:0:
