osu file format v14

[General]
AudioFilename: audio.mp3
AudioLeadIn: 0
PreviewTime: 28966
Countdown: 0
SampleSet: Normal
StackLeniency: 0.7
Mode: 1
LetterboxInBreaks: 0
WidescreenStoryboard: 0

[Editor]
Bookmarks: 31358,50558,88958,100958,120158,139358
DistanceSpacing: 0.8
BeatDivisor: 4
GridSize: 32
TimelineZoom: 1.9

[Metadata]
Title:Vortex
TitleUnicode:Vortex
Artist:F-777
ArtistUnicode:F-777
Creator:Faputa
Version:Oni
Source:osu!
Tags:Nardoxyribonucleic Electronic Instrumental Ludicrous Speed 6 six Featured Artist FA Mappers' Guild MG F777 Jesse Valentine
BeatmapID:2275497
BeatmapSetID:1087608

[Difficulty]
HPDrainRate:5.5
CircleSize:2
OverallDifficulty:5.5
ApproachRate:10
SliderMultiplier:1.4
SliderTickRate:1

[Events]
//Background and Video events
0,0,"lights.jpg",0,0
//Break Periods
2,69816,78916
//Storyboard Layer 0 (Background)
//Storyboard Layer 1 (Fail)
//Storyboard Layer 2 (Pass)
//Storyboard Layer 3 (Foreground)
//Storyboard Layer 4 (Overlay)
//Storyboard Sound Samples

[TimingPoints]
166,300,4,1,0,95,1,0
166,-117.647058823529,4,1,0,95,0,0
2566,-116.279069767442,4,1,0,95,0,0
3766,-114.942528735632,4,1,0,95,0,0
7366,-113.636363636364,4,1,0,95,0,0
8566,-112.359550561798,4,1,0,95,0,0
12166,-111.111111111111,4,1,0,95,0,0
13366,-109.89010989011,4,1,0,95,0,0
16966,-108.695652173913,4,1,0,95,0,0
18166,-107.52688172043,4,1,0,95,0,0
28966,-105.263157894737,4,1,0,95,0,0
30166,-103.092783505155,4,1,0,95,0,0
31366,-100,4,1,0,100,0,1
49366,-100,4,1,0,95,0,0
78766,-117.647058823529,4,1,0,85,0,0
87916,-117.647058823529,4,1,0,45,0,0
88891,-111.111111111111,4,1,0,95,0,0
98116,-108.695652173913,4,1,0,95,0,0
98266,-107.52688172043,4,1,0,95,0,0
98416,-106.382978723404,4,1,0,95,0,0
98566,-105.263157894737,4,1,0,95,0,0
99766,-103.092783505155,4,1,0,95,0,0
100966,-100,4,1,0,100,0,1
118966,-100,4,1,0,95,0,0
139516,-105.263157894737,4,1,0,90,0,0
149191,-111.111111111111,4,1,0,85,0,0
154816,-111.111111111111,4,1,0,80,0,0
157216,-109.89010989011,4,1,0,75,0,0
157516,-108.695652173913,4,1,0,75,0,0
157591,-107.52688172043,4,1,0,80,0,0
157816,-106.382978723404,4,1,0,80,0,0
157891,-104.166666666667,4,1,0,85,0,0
158116,-102.040816326531,4,1,0,85,0,0
158191,-100,4,1,0,90,0,0
158416,-98.0392156862745,4,1,0,90,0,0
158491,-96.1538461538461,4,1,0,95,0,0

[HitObjects]
256,192,166,5,8,0:0:0:0:
256,192,1366,1,8,0:0:0:0:
256,192,2566,1,8,0:0:0:0:
256,192,3766,1,8,0:0:0:0:
256,192,4216,1,8,0:0:0:0:
256,192,4666,1,8,0:0:0:0:
256,192,4966,1,8,0:0:0:0:
256,192,6166,1,8,0:0:0:0:
256,192,7366,1,8,0:0:0:0:
256,192,8566,1,8,0:0:0:0:
256,192,9016,1,8,0:0:0:0:
256,192,9466,1,8,0:0:0:0:
256,192,9766,1,0,0:0:0:0:
256,192,10966,1,0,0:0:0:0:
256,192,12166,1,0,0:0:0:0:
256,192,13366,1,0,0:0:0:0:
256,192,13816,1,0,0:0:0:0:
256,192,14266,1,0,0:0:0:0:
256,192,14566,1,0,0:0:0:0:
256,192,15766,1,0,0:0:0:0:
256,192,16966,1,0,0:0:0:0:
256,192,18166,1,0,0:0:0:0:
256,192,18616,1,0,0:0:0:0:
256,192,19066,1,0,0:0:0:0:
256,192,19366,1,0,0:0:0:0:
256,192,19666,1,8,0:0:0:0:
256,192,20266,1,8,0:0:0:0:
256,192,20566,1,0,0:0:0:0:
256,192,20866,1,8,0:0:0:0:
256,192,21466,1,8,0:0:0:0:
256,192,21766,1,0,0:0:0:0:
256,192,22066,1,8,0:0:0:0:
256,192,22666,1,8,0:0:0:0:
256,192,22966,1,0,0:0:0:0:
256,192,23266,1,8,0:0:0:0:
256,192,23416,1,0,0:0:0:0:
256,192,23716,1,0,0:0:0:0:
256,192,23866,1,8,0:0:0:0:
256,192,24166,1,0,0:0:0:0:
256,192,24466,1,8,0:0:0:0:
256,192,24916,1,0,0:0:0:0:
256,192,25066,1,8,0:0:0:0:
256,192,25366,1,0,0:0:0:0:
256,192,25666,1,8,0:0:0:0:
256,192,26116,1,0,0:0:0:0:
256,192,26266,1,8,0:0:0:0:
256,192,26566,1,0,0:0:0:0:
256,192,26866,1,8,0:0:0:0:
256,192,27316,1,0,0:0:0:0:
256,192,27466,1,8,0:0:0:0:
256,192,27766,1,0,0:0:0:0:
256,192,28066,1,8,0:0:0:0:
256,192,28216,1,0,0:0:0:0:
256,192,28516,1,0,0:0:0:0:
256,192,28666,1,8,0:0:0:0:
256,192,28966,1,0,0:0:0:0:
256,192,29266,1,8,0:0:0:0:
256,192,29416,1,0,0:0:0:0:
256,192,29716,1,8,0:0:0:0:
256,192,29866,1,0,0:0:0:0:
256,192,30166,1,0,0:0:0:0:
256,192,30466,1,8,0:0:0:0:
256,192,30616,1,0,0:0:0:0:
256,192,30916,1,8,0:0:0:0:
256,192,31066,1,8,0:0:0:0:
256,192,31141,1,8,0:0:0:0:
256,192,31216,1,8,0:0:0:0:
256,192,31366,1,4,0:0:0:0:
256,192,31666,1,8,0:0:0:0:
256,192,31816,1,0,0:0:0:0:
256,192,31966,1,8,0:0:0:0:
256,192,32116,1,0,0:0:0:0:
256,192,32191,1,0,0:0:0:0:
256,192,32266,1,8,0:0:0:0:
256,192,32416,1,8,0:0:0:0:
256,192,32566,1,0,0:0:0:0:
256,192,32716,1,0,0:0:0:0:
256,192,32866,1,8,0:0:0:0:
256,192,33016,1,0,0:0:0:0:
256,192,33091,1,0,0:0:0:0:
256,192,33166,1,8,0:0:0:0:
256,192,33316,1,0,0:0:0:0:
256,192,33466,1,8,0:0:0:0:
256,192,33616,1,8,0:0:0:0:
256,192,33766,1,0,0:0:0:0:
256,192,34066,1,8,0:0:0:0:
256,192,34216,1,0,0:0:0:0:
256,192,34366,1,8,0:0:0:0:
256,192,34516,1,8,0:0:0:0:
256,192,34591,1,8,0:0:0:0:
256,192,34666,1,0,0:0:0:0:
256,192,34816,1,0,0:0:0:0:
256,192,34966,1,8,0:0:0:0:
256,192,35116,1,0,0:0:0:0:
256,192,35266,1,8,0:0:0:0:
256,192,35416,1,8,0:0:0:0:
256,192,35491,1,0,0:0:0:0:
256,192,35566,1,8,0:0:0:0:
256,192,35716,1,8,0:0:0:0:
256,192,35866,1,0,0:0:0:0:
256,192,36016,1,8,0:0:0:0:
256,192,36166,1,0,0:0:0:0:
256,192,36466,1,8,0:0:0:0:
256,192,36616,1,8,0:0:0:0:
256,192,36766,1,0,0:0:0:0:
256,192,36916,1,0,0:0:0:0:
256,192,36991,1,0,0:0:0:0:
256,192,37066,1,8,0:0:0:0:
256,192,37216,1,8,0:0:0:0:
256,192,37366,1,0,0:0:0:0:
256,192,37516,1,0,0:0:0:0:
256,192,37666,1,8,0:0:0:0:
256,192,37816,1,0,0:0:0:0:
256,192,37891,1,0,0:0:0:0:
256,192,37966,1,8,0:0:0:0:
256,192,38116,1,0,0:0:0:0:
256,192,38266,1,8,0:0:0:0:
256,192,38416,1,8,0:0:0:0:
256,192,38566,1,0,0:0:0:0:
256,192,38866,1,8,0:0:0:0:
256,192,39016,1,8,0:0:0:0:
256,192,39091,1,8,0:0:0:0:
256,192,39166,1,0,0:0:0:0:
256,192,39316,1,8,0:0:0:0:
256,192,39466,1,8,0:0:0:0:
256,192,39616,1,0,0:0:0:0:
256,192,39691,1,0,0:0:0:0:
256,192,39766,1,8,0:0:0:0:
256,192,40066,1,8,0:0:0:0:
256,192,40216,1,0,0:0:0:0:
256,192,40366,1,8,0:0:0:0:
256,192,40516,1,0,0:0:0:0:
256,192,40666,1,8,0:0:0:0:
256,192,40741,1,8,0:0:0:0:
256,192,40816,1,8,0:0:0:0:
256,192,40966,1,4,0:0:0:0:
256,192,41266,1,8,0:0:0:0:
256,192,41416,1,0,0:0:0:0:
256,192,41566,1,8,0:0:0:0:
256,192,41716,1,0,0:0:0:0:
256,192,41791,1,8,0:0:0:0:
256,192,41866,1,8,0:0:0:0:
256,192,42016,1,0,0:0:0:0:
256,192,42166,1,8,0:0:0:0:
256,192,42316,1,0,0:0:0:0:
256,192,42391,1,0,0:0:0:0:
256,192,42466,1,8,0:0:0:0:
256,192,42616,1,0,0:0:0:0:
256,192,42766,1,8,0:0:0:0:
256,192,42916,1,0,0:0:0:0:
256,192,42991,1,0,0:0:0:0:
256,192,43066,1,8,0:0:0:0:
256,192,43216,1,0,0:0:0:0:
256,192,43366,1,8,0:0:0:0:
256,192,43666,1,8,0:0:0:0:
256,192,43816,1,8,0:0:0:0:
256,192,43966,1,0,0:0:0:0:
256,192,44116,1,8,0:0:0:0:
256,192,44191,1,0,0:0:0:0:
256,192,44266,1,8,0:0:0:0:
256,192,44416,1,0,0:0:0:0:
256,192,44566,1,8,0:0:0:0:
256,192,44716,1,0,0:0:0:0:
256,192,44791,1,8,0:0:0:0:
256,192,44866,1,8,0:0:0:0:
256,192,45016,1,0,0:0:0:0:
256,192,45166,1,8,0:0:0:0:
256,192,45316,1,0,0:0:0:0:
256,192,45391,1,8,0:0:0:0:
256,192,45466,1,8,0:0:0:0:
256,192,45616,1,8,0:0:0:0:
256,192,45766,1,0,0:0:0:0:
256,192,46066,1,0,0:0:0:0:
256,192,46216,1,8,0:0:0:0:
256,192,46366,1,8,0:0:0:0:
256,192,46516,1,0,0:0:0:0:
256,192,46591,1,8,0:0:0:0:
256,192,46666,1,8,0:0:0:0:
256,192,46816,1,0,0:0:0:0:
256,192,46966,1,8,0:0:0:0:
256,192,47116,1,0,0:0:0:0:
256,192,47191,1,0,0:0:0:0:
256,192,47266,1,8,0:0:0:0:
256,192,47416,1,0,0:0:0:0:
256,192,47566,1,8,0:0:0:0:
256,192,47716,1,0,0:0:0:0:
256,192,47791,1,0,0:0:0:0:
256,192,47866,1,8,0:0:0:0:
256,192,48016,1,0,0:0:0:0:
256,192,48166,1,8,0:0:0:0:
256,192,48316,1,0,0:0:0:0:
256,192,48466,1,8,0:0:0:0:
256,192,48616,1,8,0:0:0:0:
256,192,48766,1,0,0:0:0:0:
256,192,48841,1,0,0:0:0:0:
256,192,48916,1,8,0:0:0:0:
256,192,48991,1,8,0:0:0:0:
256,192,49066,1,0,0:0:0:0:
256,192,49216,1,0,0:0:0:0:
256,192,49366,1,12,0:0:0:0:
256,192,49516,8,0,50416,0:0:0:0:
256,192,50566,5,4,0:0:0:0:
256,192,50866,1,8,0:0:0:0:
256,192,51016,1,8,0:0:0:0:
256,192,51166,1,0,0:0:0:0:
256,192,51316,1,8,0:0:0:0:
256,192,51616,1,8,0:0:0:0:
256,192,51766,1,0,0:0:0:0:
256,192,51916,1,0,0:0:0:0:
256,192,52066,1,8,0:0:0:0:
256,192,52216,1,0,0:0:0:0:
256,192,52366,1,8,0:0:0:0:
256,192,52516,1,8,0:0:0:0:
256,192,52816,1,8,0:0:0:0:
256,192,52966,1,0,0:0:0:0:
256,192,53266,1,8,0:0:0:0:
256,192,53416,1,8,0:0:0:0:
256,192,53566,1,0,0:0:0:0:
256,192,53716,1,8,0:0:0:0:
256,192,53866,1,8,0:0:0:0:
256,192,54016,1,0,0:0:0:0:
256,192,54166,1,8,0:0:0:0:
256,192,54316,1,8,0:0:0:0:
256,192,54466,1,8,0:0:0:0:
256,192,54616,1,0,0:0:0:0:
256,192,54766,1,8,0:0:0:0:
256,192,54916,1,0,0:0:0:0:
256,192,55066,1,8,0:0:0:0:
256,192,55216,1,8,0:0:0:0:
256,192,55366,1,0,0:0:0:0:
256,192,55666,1,0,0:0:0:0:
256,192,55816,1,0,0:0:0:0:
256,192,55966,1,8,0:0:0:0:
256,192,56116,1,8,0:0:0:0:
256,192,56416,1,8,0:0:0:0:
256,192,56566,1,0,0:0:0:0:
256,192,56716,1,0,0:0:0:0:
256,192,56866,1,8,0:0:0:0:
256,192,57016,1,8,0:0:0:0:
256,192,57166,1,0,0:0:0:0:
256,192,57241,1,0,0:0:0:0:
256,192,57316,1,8,0:0:0:0:
256,192,57616,1,8,0:0:0:0:
256,192,57766,1,0,0:0:0:0:
256,192,58066,1,8,0:0:0:0:
256,192,58216,1,8,0:0:0:0:
256,192,58366,1,0,0:0:0:0:
256,192,58516,1,0,0:0:0:0:
256,192,58666,1,8,0:0:0:0:
256,192,58816,1,0,0:0:0:0:
256,192,58966,1,8,0:0:0:0:
256,192,59116,1,0,0:0:0:0:
256,192,59266,1,8,0:0:0:0:
256,192,59416,1,0,0:0:0:0:
256,192,59566,1,8,0:0:0:0:
256,192,59716,1,8,0:0:0:0:
256,192,59866,1,0,0:0:0:0:
256,192,59941,1,0,0:0:0:0:
256,192,60016,1,8,0:0:0:0:
256,192,60166,1,4,0:0:0:0:
256,192,60466,1,8,0:0:0:0:
256,192,60616,1,8,0:0:0:0:
256,192,60766,1,8,0:0:0:0:
256,192,61066,1,8,0:0:0:0:
256,192,61216,1,8,0:0:0:0:
256,192,61366,1,0,0:0:0:0:
256,192,61666,1,8,0:0:0:0:
256,192,61816,1,8,0:0:0:0:
256,192,61966,1,8,0:0:0:0:
256,192,62266,1,8,0:0:0:0:
256,192,62416,1,8,0:0:0:0:
256,192,62566,1,0,0:0:0:0:
256,192,62866,1,8,0:0:0:0:
256,192,63016,1,0,0:0:0:0:
256,192,63166,1,8,0:0:0:0:
256,192,63466,1,8,0:0:0:0:
256,192,63616,1,8,0:0:0:0:
256,192,63766,1,8,0:0:0:0:
256,192,64066,1,8,0:0:0:0:
256,192,64216,1,8,0:0:0:0:
256,192,64366,1,0,0:0:0:0:
256,192,64516,1,8,0:0:0:0:
256,192,64666,1,8,0:0:0:0:
256,192,64816,1,8,0:0:0:0:
256,192,64966,1,0,0:0:0:0:
256,192,65266,1,8,0:0:0:0:
256,192,65416,1,8,0:0:0:0:
256,192,65566,1,8,0:0:0:0:
256,192,65866,1,8,0:0:0:0:
256,192,66016,1,8,0:0:0:0:
256,192,66166,1,0,0:0:0:0:
256,192,66466,1,8,0:0:0:0:
256,192,66616,1,8,0:0:0:0:
256,192,66766,1,8,0:0:0:0:
256,192,67066,1,8,0:0:0:0:
256,192,67216,1,8,0:0:0:0:
256,192,67366,1,0,0:0:0:0:
256,192,67666,1,8,0:0:0:0:
256,192,67816,1,0,0:0:0:0:
256,192,67966,1,8,0:0:0:0:
256,192,68266,1,8,0:0:0:0:
256,192,68416,1,8,0:0:0:0:
256,192,68566,1,8,0:0:0:0:
256,192,68716,1,0,0:0:0:0:
256,192,68866,1,8,0:0:0:0:
256,192,69016,1,0,0:0:0:0:
256,192,69166,1,8,0:0:0:0:
256,192,69316,1,0,0:0:0:0:
256,192,69466,1,8,0:0:0:0:
256,192,69541,1,8,0:0:0:0:
256,192,69616,1,0,0:0:0:0:
256,192,79366,5,8,0:0:0:0:
256,192,79966,1,0,0:0:0:0:
256,192,80266,1,0,0:0:0:0:
256,192,80566,1,8,0:0:0:0:
256,192,80866,1,8,0:0:0:0:
256,192,81166,1,0,0:0:0:0:
256,192,81466,1,8,0:0:0:0:
256,192,81766,1,8,0:0:0:0:
256,192,82066,1,0,0:0:0:0:
256,192,82366,1,8,0:0:0:0:
256,192,82666,1,8,0:0:0:0:
256,192,82966,1,8,0:0:0:0:
256,192,83266,1,0,0:0:0:0:
256,192,83566,1,8,0:0:0:0:
256,192,83866,1,8,0:0:0:0:
256,192,84166,1,8,0:0:0:0:
256,192,84466,1,0,0:0:0:0:
256,192,84766,1,0,0:0:0:0:
256,192,85066,1,8,0:0:0:0:
256,192,85366,1,8,0:0:0:0:
256,192,85666,1,0,0:0:0:0:
256,192,85966,1,8,0:0:0:0:
256,192,86266,1,0,0:0:0:0:
256,192,86566,1,8,0:0:0:0:
256,192,86866,1,0,0:0:0:0:
256,192,87166,1,8,0:0:0:0:
256,192,87466,1,8,0:0:0:0:
256,192,87766,1,8,0:0:0:0:
256,192,88066,8,0,88816,0:0:0:0:
256,192,88966,5,4,0:0:0:0:
256,192,89266,1,8,0:0:0:0:
256,192,89416,1,0,0:0:0:0:
256,192,89566,1,8,0:0:0:0:
256,192,89716,1,8,0:0:0:0:
256,192,90016,1,8,0:0:0:0:
256,192,90166,1,0,0:0:0:0:
256,192,90466,1,8,0:0:0:0:
256,192,90616,1,0,0:0:0:0:
256,192,90766,1,8,0:0:0:0:
256,192,90841,1,8,0:0:0:0:
256,192,90916,1,8,0:0:0:0:
256,192,91216,1,8,0:0:0:0:
256,192,91366,1,0,0:0:0:0:
256,192,91666,1,8,0:0:0:0:
256,192,91816,1,0,0:0:0:0:
256,192,91966,1,8,0:0:0:0:
256,192,92116,1,8,0:0:0:0:
256,192,92266,1,8,0:0:0:0:
256,192,92416,1,0,0:0:0:0:
256,192,92566,1,8,0:0:0:0:
256,192,92866,1,0,0:0:0:0:
256,192,93016,1,8,0:0:0:0:
256,192,93316,1,0,0:0:0:0:
256,192,93466,1,8,0:0:0:0:
256,192,93766,1,0,0:0:0:0:
256,192,94066,1,8,0:0:0:0:
256,192,94216,1,0,0:0:0:0:
256,192,94366,1,8,0:0:0:0:
256,192,94516,1,8,0:0:0:0:
256,192,94816,1,8,0:0:0:0:
256,192,94966,1,0,0:0:0:0:
256,192,95266,1,8,0:0:0:0:
256,192,95416,1,0,0:0:0:0:
256,192,95566,1,8,0:0:0:0:
256,192,95641,1,8,0:0:0:0:
256,192,95716,1,8,0:0:0:0:
256,192,96016,1,8,0:0:0:0:
256,192,96166,1,0,0:0:0:0:
256,192,96466,1,8,0:0:0:0:
256,192,96616,1,8,0:0:0:0:
256,192,96766,1,0,0:0:0:0:
256,192,96916,1,8,0:0:0:0:
256,192,97066,1,0,0:0:0:0:
256,192,97216,1,0,0:0:0:0:
256,192,97366,1,8,0:0:0:0:
256,192,97666,1,0,0:0:0:0:
256,192,97816,1,8,0:0:0:0:
256,192,98116,1,0,0:0:0:0:
256,192,98266,1,0,0:0:0:0:
256,192,98416,1,8,0:0:0:0:
256,192,98566,1,0,0:0:0:0:
256,192,98866,1,8,0:0:0:0:
256,192,99016,1,0,0:0:0:0:
256,192,99316,1,8,0:0:0:0:
256,192,99466,1,0,0:0:0:0:
256,192,99766,1,0,0:0:0:0:
256,192,100066,1,8,0:0:0:0:
256,192,100216,1,0,0:0:0:0:
256,192,100516,1,8,0:0:0:0:
256,192,100666,1,8,0:0:0:0:
256,192,100741,1,8,0:0:0:0:
256,192,100816,1,8,0:0:0:0:
256,192,100966,1,4,0:0:0:0:
256,192,101266,1,8,0:0:0:0:
256,192,101416,1,0,0:0:0:0:
256,192,101566,1,8,0:0:0:0:
256,192,101716,1,0,0:0:0:0:
256,192,101791,1,0,0:0:0:0:
256,192,101866,1,8,0:0:0:0:
256,192,102016,1,8,0:0:0:0:
256,192,102166,1,0,0:0:0:0:
256,192,102316,1,0,0:0:0:0:
256,192,102466,1,8,0:0:0:0:
256,192,102616,1,0,0:0:0:0:
256,192,102691,1,0,0:0:0:0:
256,192,102766,1,8,0:0:0:0:
256,192,102841,1,8,0:0:0:0:
256,192,102916,1,0,0:0:0:0:
256,192,103066,1,8,0:0:0:0:
256,192,103216,1,8,0:0:0:0:
256,192,103366,1,0,0:0:0:0:
256,192,103666,1,8,0:0:0:0:
256,192,103816,1,0,0:0:0:0:
256,192,103966,1,8,0:0:0:0:
256,192,104116,1,8,0:0:0:0:
256,192,104191,1,8,0:0:0:0:
256,192,104266,1,0,0:0:0:0:
256,192,104416,1,0,0:0:0:0:
256,192,104566,1,8,0:0:0:0:
256,192,104716,1,0,0:0:0:0:
256,192,104866,1,8,0:0:0:0:
256,192,105016,1,8,0:0:0:0:
256,192,105091,1,8,0:0:0:0:
256,192,105166,1,0,0:0:0:0:
256,192,105241,1,0,0:0:0:0:
256,192,105316,1,8,0:0:0:0:
256,192,105466,1,0,0:0:0:0:
256,192,105616,1,8,0:0:0:0:
256,192,105766,1,0,0:0:0:0:
256,192,106066,1,8,0:0:0:0:
256,192,106216,1,8,0:0:0:0:
256,192,106366,1,0,0:0:0:0:
256,192,106516,1,0,0:0:0:0:
256,192,106591,1,0,0:0:0:0:
256,192,106666,1,8,0:0:0:0:
256,192,106816,1,8,0:0:0:0:
256,192,106966,1,0,0:0:0:0:
256,192,107116,1,0,0:0:0:0:
256,192,107266,1,8,0:0:0:0:
256,192,107416,1,0,0:0:0:0:
256,192,107491,1,0,0:0:0:0:
256,192,107566,1,8,0:0:0:0:
256,192,107641,1,8,0:0:0:0:
256,192,107716,1,0,0:0:0:0:
256,192,107866,1,8,0:0:0:0:
256,192,108016,1,8,0:0:0:0:
256,192,108166,1,0,0:0:0:0:
256,192,108466,1,8,0:0:0:0:
256,192,108616,1,8,0:0:0:0:
256,192,108691,1,8,0:0:0:0:
256,192,108766,1,0,0:0:0:0:
256,192,108841,1,0,0:0:0:0:
256,192,108916,1,8,0:0:0:0:
256,192,109066,1,8,0:0:0:0:
256,192,109216,1,0,0:0:0:0:
256,192,109291,1,0,0:0:0:0:
256,192,109366,1,8,0:0:0:0:
256,192,109666,1,8,0:0:0:0:
256,192,109816,1,0,0:0:0:0:
256,192,109966,1,8,0:0:0:0:
256,192,110116,1,0,0:0:0:0:
256,192,110266,1,8,0:0:0:0:
256,192,110341,1,8,0:0:0:0:
256,192,110416,1,8,0:0:0:0:
256,192,110566,1,4,0:0:0:0:
256,192,110866,1,8,0:0:0:0:
256,192,111016,1,0,0:0:0:0:
256,192,111166,1,8,0:0:0:0:
256,192,111316,1,0,0:0:0:0:
256,192,111391,1,8,0:0:0:0:
256,192,111466,1,8,0:0:0:0:
256,192,111616,1,0,0:0:0:0:
256,192,111766,1,8,0:0:0:0:
256,192,111916,1,0,0:0:0:0:
256,192,111991,1,0,0:0:0:0:
256,192,112066,1,8,0:0:0:0:
256,192,112141,1,8,0:0:0:0:
256,192,112216,1,0,0:0:0:0:
256,192,112366,1,8,0:0:0:0:
256,192,112516,1,0,0:0:0:0:
256,192,112591,1,0,0:0:0:0:
256,192,112666,1,8,0:0:0:0:
256,192,112741,1,8,0:0:0:0:
256,192,112816,1,0,0:0:0:0:
256,192,112966,1,8,0:0:0:0:
256,192,113266,1,8,0:0:0:0:
256,192,113416,1,8,0:0:0:0:
256,192,113566,1,0,0:0:0:0:
256,192,113716,1,8,0:0:0:0:
256,192,113791,1,0,0:0:0:0:
256,192,113866,1,8,0:0:0:0:
256,192,114016,1,0,0:0:0:0:
256,192,114166,1,8,0:0:0:0:
256,192,114316,1,0,0:0:0:0:
256,192,114391,1,8,0:0:0:0:
256,192,114466,1,8,0:0:0:0:
256,192,114541,1,8,0:0:0:0:
256,192,114616,1,0,0:0:0:0:
256,192,114766,1,8,0:0:0:0:
256,192,114916,1,0,0:0:0:0:
256,192,114991,1,8,0:0:0:0:
256,192,115066,1,8,0:0:0:0:
256,192,115141,1,8,0:0:0:0:
256,192,115216,1,0,0:0:0:0:
256,192,115366,1,8,0:0:0:0:
256,192,115666,1,0,0:0:0:0:
256,192,115816,1,8,0:0:0:0:
256,192,115966,1,8,0:0:0:0:
256,192,116116,1,0,0:0:0:0:
256,192,116191,1,8,0:0:0:0:
256,192,116266,1,8,0:0:0:0:
256,192,116416,1,0,0:0:0:0:
256,192,116566,1,8,0:0:0:0:
256,192,116716,1,0,0:0:0:0:
256,192,116791,1,0,0:0:0:0:
256,192,116866,1,8,0:0:0:0:
256,192,116941,1,8,0:0:0:0:
256,192,117016,1,0,0:0:0:0:
256,192,117166,1,8,0:0:0:0:
256,192,117316,1,0,0:0:0:0:
256,192,117391,1,0,0:0:0:0:
256,192,117466,1,8,0:0:0:0:
256,192,117541,1,8,0:0:0:0:
256,192,117616,1,0,0:0:0:0:
256,192,117766,1,8,0:0:0:0:
256,192,117916,1,0,0:0:0:0:
256,192,118066,1,8,0:0:0:0:
256,192,118141,1,8,0:0:0:0:
256,192,118216,1,0,0:0:0:0:
256,192,118366,1,0,0:0:0:0:
256,192,118441,1,0,0:0:0:0:
256,192,118516,1,8,0:0:0:0:
256,192,118591,1,8,0:0:0:0:
256,192,118666,1,0,0:0:0:0:
256,192,118816,1,0,0:0:0:0:
256,192,118966,1,12,0:0:0:0:
256,192,119116,8,0,120016,0:0:0:0:
256,192,120166,5,4,0:0:0:0:
256,192,120466,1,8,0:0:0:0:
256,192,120616,1,8,0:0:0:0:
256,192,120766,1,0,0:0:0:0:
256,192,120916,1,8,0:0:0:0:
256,192,121216,1,8,0:0:0:0:
256,192,121366,1,0,0:0:0:0:
256,192,121516,1,0,0:0:0:0:
256,192,121666,1,8,0:0:0:0:
256,192,121816,1,0,0:0:0:0:
256,192,121966,1,8,0:0:0:0:
256,192,122116,1,8,0:0:0:0:
256,192,122416,1,8,0:0:0:0:
256,192,122566,1,0,0:0:0:0:
256,192,122866,1,8,0:0:0:0:
256,192,123016,1,8,0:0:0:0:
256,192,123166,1,0,0:0:0:0:
256,192,123316,1,8,0:0:0:0:
256,192,123466,1,8,0:0:0:0:
256,192,123616,1,0,0:0:0:0:
256,192,123766,1,8,0:0:0:0:
256,192,123916,1,8,0:0:0:0:
256,192,124066,1,8,0:0:0:0:
256,192,124216,1,0,0:0:0:0:
256,192,124366,1,8,0:0:0:0:
256,192,124516,1,0,0:0:0:0:
256,192,124666,1,8,0:0:0:0:
256,192,124816,1,8,0:0:0:0:
256,192,124966,1,0,0:0:0:0:
256,192,125266,1,0,0:0:0:0:
256,192,125416,1,0,0:0:0:0:
256,192,125566,1,8,0:0:0:0:
256,192,125716,1,8,0:0:0:0:
256,192,126016,1,8,0:0:0:0:
256,192,126166,1,0,0:0:0:0:
256,192,126316,1,0,0:0:0:0:
256,192,126466,1,8,0:0:0:0:
256,192,126616,1,8,0:0:0:0:
256,192,126766,1,0,0:0:0:0:
256,192,126841,1,0,0:0:0:0:
256,192,126916,1,8,0:0:0:0:
256,192,127216,1,8,0:0:0:0:
256,192,127366,1,0,0:0:0:0:
256,192,127666,1,8,0:0:0:0:
256,192,127816,1,8,0:0:0:0:
256,192,127966,1,0,0:0:0:0:
256,192,128116,1,0,0:0:0:0:
256,192,128266,1,8,0:0:0:0:
256,192,128416,1,0,0:0:0:0:
256,192,128566,1,8,0:0:0:0:
256,192,128716,1,0,0:0:0:0:
256,192,128866,1,8,0:0:0:0:
256,192,129016,1,0,0:0:0:0:
256,192,129166,1,8,0:0:0:0:
256,192,129316,1,8,0:0:0:0:
256,192,129466,1,0,0:0:0:0:
256,192,129541,1,0,0:0:0:0:
256,192,129616,1,8,0:0:0:0:
256,192,129766,1,4,0:0:0:0:
256,192,130066,1,8,0:0:0:0:
256,192,130216,1,8,0:0:0:0:
256,192,130366,1,8,0:0:0:0:
256,192,130666,1,8,0:0:0:0:
256,192,130816,1,8,0:0:0:0:
256,192,130966,1,0,0:0:0:0:
256,192,131266,1,8,0:0:0:0:
256,192,131416,1,8,0:0:0:0:
256,192,131566,1,8,0:0:0:0:
256,192,131866,1,8,0:0:0:0:
256,192,132016,1,8,0:0:0:0:
256,192,132166,1,0,0:0:0:0:
256,192,132466,1,8,0:0:0:0:
256,192,132616,1,0,0:0:0:0:
256,192,132766,1,8,0:0:0:0:
256,192,133066,1,8,0:0:0:0:
256,192,133216,1,8,0:0:0:0:
256,192,133366,1,8,0:0:0:0:
256,192,133666,1,8,0:0:0:0:
256,192,133816,1,8,0:0:0:0:
256,192,133966,1,0,0:0:0:0:
256,192,134116,1,8,0:0:0:0:
256,192,134266,1,8,0:0:0:0:
256,192,134416,1,8,0:0:0:0:
256,192,134566,1,0,0:0:0:0:
256,192,134866,1,8,0:0:0:0:
256,192,135016,1,8,0:0:0:0:
256,192,135166,1,8,0:0:0:0:
256,192,135466,1,8,0:0:0:0:
256,192,135616,1,8,0:0:0:0:
256,192,135766,1,0,0:0:0:0:
256,192,136066,1,8,0:0:0:0:
256,192,136216,1,8,0:0:0:0:
256,192,136366,1,8,0:0:0:0:
256,192,136666,1,8,0:0:0:0:
256,192,136816,1,8,0:0:0:0:
256,192,136966,1,0,0:0:0:0:
256,192,137266,1,8,0:0:0:0:
256,192,137416,1,0,0:0:0:0:
256,192,137566,1,8,0:0:0:0:
256,192,137866,1,8,0:0:0:0:
256,192,138016,1,8,0:0:0:0:
256,192,138166,1,8,0:0:0:0:
256,192,138316,1,0,0:0:0:0:
256,192,138466,1,8,0:0:0:0:
256,192,138616,1,0,0:0:0:0:
256,192,138766,1,8,0:0:0:0:
256,192,138916,1,0,0:0:0:0:
256,192,139066,1,8,0:0:0:0:
256,192,139141,1,8,0:0:0:0:
256,192,139216,1,0,0:0:0:0:
256,192,139366,1,12,0:0:0:0:
256,192,139666,1,8,0:0:0:0:
256,192,139816,1,0,0:0:0:0:
256,192,140116,1,0,0:0:0:0:
256,192,140266,1,8,0:0:0:0:
256,192,140416,1,0,0:0:0:0:
256,192,140566,1,8,0:0:0:0:
256,192,140866,1,8,0:0:0:0:
256,192,141016,1,0,0:0:0:0:
256,192,141316,1,0,0:0:0:0:
256,192,141466,1,8,0:0:0:0:
256,192,141616,1,8,0:0:0:0:
256,192,141766,1,8,0:0:0:0:
256,192,142066,1,8,0:0:0:0:
256,192,142216,1,0,0:0:0:0:
256,192,142516,1,0,0:0:0:0:
256,192,142666,1,8,0:0:0:0:
256,192,142816,1,0,0:0:0:0:
256,192,142966,1,8,0:0:0:0:
256,192,143266,1,8,0:0:0:0:
256,192,143416,1,0,0:0:0:0:
256,192,143716,1,0,0:0:0:0:
256,192,143866,1,8,0:0:0:0:
256,192,144016,1,8,0:0:0:0:
256,192,144166,1,8,0:0:0:0:
256,192,144466,1,8,0:0:0:0:
256,192,144616,1,0,0:0:0:0:
256,192,144916,1,8,0:0:0:0:
256,192,145066,1,8,0:0:0:0:
256,192,145216,1,0,0:0:0:0:
256,192,145366,1,8,0:0:0:0:
256,192,145666,1,8,0:0:0:0:
256,192,145816,1,0,0:0:0:0:
256,192,146116,1,0,0:0:0:0:
256,192,146266,1,8,0:0:0:0:
256,192,146416,1,0,0:0:0:0:
256,192,146566,1,8,0:0:0:0:
256,192,146866,1,8,0:0:0:0:
256,192,147016,1,0,0:0:0:0:
256,192,147316,1,8,0:0:0:0:
256,192,147466,1,8,0:0:0:0:
256,192,147616,1,0,0:0:0:0:
256,192,147766,1,8,0:0:0:0:
256,192,147916,1,0,0:0:0:0:
256,192,148066,1,8,0:0:0:0:
256,192,148216,1,0,0:0:0:0:
256,192,148366,1,8,0:0:0:0:
256,192,148516,1,0,0:0:0:0:
256,192,148666,1,8,0:0:0:0:
256,192,148816,1,0,0:0:0:0:
256,192,148966,1,12,0:0:0:0:
256,192,149266,1,8,0:0:0:0:
256,192,149416,1,0,0:0:0:0:
256,192,149716,1,0,0:0:0:0:
256,192,149866,1,8,0:0:0:0:
256,192,150166,1,8,0:0:0:0:
256,192,150466,1,8,0:0:0:0:
256,192,150616,1,0,0:0:0:0:
256,192,150916,1,8,0:0:0:0:
256,192,151066,1,8,0:0:0:0:
256,192,151366,1,8,0:0:0:0:
256,192,151666,1,8,0:0:0:0:
256,192,151816,1,0,0:0:0:0:
256,192,152116,1,0,0:0:0:0:
256,192,152266,1,8,0:0:0:0:
256,192,152566,1,8,0:0:0:0:
256,192,152866,1,8,0:0:0:0:
256,192,153016,1,0,0:0:0:0:
256,192,153316,1,8,0:0:0:0:
256,192,153466,1,8,0:0:0:0:
256,192,153766,1,8,0:0:0:0:
256,192,154066,1,8,0:0:0:0:
256,192,154216,1,0,0:0:0:0:
256,192,154516,1,0,0:0:0:0:
256,192,154666,1,8,0:0:0:0:
256,192,154966,1,0,0:0:0:0:
256,192,155266,1,8,0:0:0:0:
256,192,155416,1,0,0:0:0:0:
256,192,155716,1,8,0:0:0:0:
256,192,155866,1,8,0:0:0:0:
256,192,156166,1,0,0:0:0:0:
256,192,156466,1,8,0:0:0:0:
256,192,156616,1,0,0:0:0:0:
256,192,156916,1,0,0:0:0:0:
256,192,157066,1,8,0:0:0:0:
256,192,157366,1,8,0:0:0:0:
256,192,157516,1,0,0:0:0:0:
256,192,157666,1,8,0:0:0:0:
256,192,157816,1,0,0:0:0:0:
256,192,157966,1,8,0:0:0:0:
256,192,158116,1,0,0:0:0:0:
256,192,158266,1,8,0:0:0:0:
256,192,158416,1,0,0:0:0:0:
256,192,158566,1,12,0:0:0:0:
