osu file format v14

[General]
AudioFilename: audio.mp3
AudioLeadIn: 0
PreviewTime: 140604
Countdown: 0
SampleSet: Drum
StackLeniency: 1
Mode: 3
LetterboxInBreaks: 0
SpecialStyle: 0
WidescreenStoryboard: 1

[Editor]
DistanceSpacing: 0.8
BeatDivisor: 4
GridSize: 32
TimelineZoom: 0.8

[Metadata]
Title:Viking Arena
TitleUnicode:Viking Arena
Artist:F-777
ArtistUnicode:F-777
Creator:Feerum
Version:Normal
Source:osu!
Tags:featured artist mappers' guild fa Dance Machine electronic instrumental newgrounds geometry dash meltdown
BeatmapID:2284376
BeatmapSetID:1092856

[Difficulty]
HPDrainRate:7
CircleSize:4
OverallDifficulty:7
ApproachRate:10
SliderMultiplier:1.4
SliderTickRate:1

[Events]
//Background and Video events
0,0,"BG.jpg",0,0
//Break Periods
//Storyboard Layer 0 (Background)
//Storyboard Layer 1 (Fail)
//Storyboard Layer 2 (Pass)
//Storyboard Layer 3 (Foreground)
//Storyboard Layer 4 (Overlay)
//Storyboard Sound Samples

[TimingPoints]
160,444.444444444444,4,3,1,80,1,0
28604,-100,4,3,1,80,0,1
56937,-100,4,3,1,80,0,0
57048,-100,4,3,1,80,0,1
71271,-100,4,3,1,80,0,0
142382,-100,4,3,1,80,0,1
170715,-100,4,3,1,80,0,0
170826,-100,4,3,1,80,0,1
185048,-100,4,3,1,80,0,0

[HitObjects]
448,192,160,5,4,1:0:0:0:
64,192,160,128,0,6382:0:0:0:0:
64,192,7271,1,4,0:0:0:0:
448,192,7271,128,0,13493:0:0:0:0:
320,192,14382,1,0,0:0:0:0:
64,192,14382,1,4,0:0:0:0:
320,192,15271,1,0,0:0:0:0:
320,192,16159,1,0,0:0:0:0:
320,192,17048,1,0,0:0:0:0:
192,192,17937,1,0,0:0:0:0:
448,192,17937,1,4,0:0:0:0:
192,192,18826,1,0,0:0:0:0:
192,192,19715,1,0,0:0:0:0:
192,192,20604,1,0,0:0:0:0:
448,192,21493,1,4,0:0:0:0:
320,192,21715,1,0,0:0:0:0:
192,192,21937,1,0,0:0:0:0:
320,192,22382,1,0,0:0:0:0:
192,192,22604,1,0,0:0:0:0:
64,192,22826,1,0,0:0:0:0:
192,192,23271,1,0,0:0:0:0:
320,192,23493,1,0,0:0:0:0:
448,192,23715,1,0,0:0:0:0:
64,192,24159,1,0,0:0:0:0:
192,192,24382,1,0,0:0:0:0:
320,192,24604,1,0,0:0:0:0:
448,192,25048,128,0,26826:0:0:0:0:
64,192,26826,1,0,0:0:0:0:
320,192,27048,1,0,0:0:0:0:
192,192,27271,1,0,0:0:0:0:
448,192,27493,1,0,0:0:0:0:
64,192,27937,1,0,0:0:0:0:
320,192,28382,1,0,0:0:0:0:
192,192,28604,1,4,0:0:0:0:
64,192,28604,1,4,1:0:0:0:
192,192,29048,1,4,0:0:0:0:
448,192,29271,1,0,0:0:0:0:
64,192,29493,1,4,0:0:0:0:
192,192,29937,1,4,0:0:0:0:
320,192,30159,1,0,0:0:0:0:
448,192,30382,1,4,0:0:0:0:
448,192,30826,1,4,0:0:0:0:
64,192,31048,1,0,0:0:0:0:
192,192,31271,1,4,0:0:0:0:
320,192,31715,1,4,0:0:0:0:
192,192,31937,1,0,0:0:0:0:
64,192,32159,1,4,0:0:0:0:
64,192,32604,1,4,0:0:0:0:
320,192,32826,1,0,0:0:0:0:
192,192,33048,1,4,0:0:0:0:
448,192,33493,1,4,0:0:0:0:
320,192,33715,1,0,0:0:0:0:
192,192,33937,1,4,0:0:0:0:
64,192,34382,1,4,0:0:0:0:
320,192,34604,128,0,35048:0:0:0:0:
192,192,35048,128,0,35715:0:0:0:0:
320,192,35715,1,4,0:0:0:0:
320,192,36159,1,4,0:0:0:0:
192,192,36382,1,0,0:0:0:0:
448,192,36604,1,4,0:0:0:0:
64,192,37048,1,4,0:0:0:0:
192,192,37271,1,0,0:0:0:0:
320,192,37493,1,4,0:0:0:0:
320,192,37937,1,4,0:0:0:0:
192,192,38159,1,0,0:0:0:0:
448,192,38382,1,4,0:0:0:0:
320,192,38826,1,4,0:0:0:0:
192,192,39048,1,0,0:0:0:0:
64,192,39271,1,4,0:0:0:0:
64,192,39715,1,4,0:0:0:0:
320,192,39937,1,0,0:0:0:0:
192,192,40159,1,4,0:0:0:0:
448,192,40604,1,4,0:0:0:0:
320,192,40826,1,0,0:0:0:0:
192,192,41048,1,4,0:0:0:0:
192,192,41493,1,4,0:0:0:0:
448,192,41715,1,0,0:0:0:0:
64,192,41937,128,4,42382:0:0:0:0:
320,192,42382,1,2,0:0:0:0:
192,192,42604,1,4,0:0:0:0:
448,192,42826,1,4,0:0:0:0:
320,192,42826,1,4,1:0:0:0:
320,192,43271,1,2,0:0:0:0:
64,192,43493,1,0,0:0:0:0:
448,192,43715,1,4,0:0:0:0:
64,192,44159,1,2,0:0:0:0:
192,192,44382,1,0,0:0:0:0:
320,192,44604,1,4,0:0:0:0:
320,192,45048,1,2,0:0:0:0:
64,192,45271,1,0,0:0:0:0:
192,192,45493,1,4,0:0:0:0:
448,192,45937,1,2,0:0:0:0:
320,192,46159,1,0,0:0:0:0:
192,192,46382,1,4,0:0:0:0:
192,192,46826,1,2,0:0:0:0:
64,192,47048,1,0,0:0:0:0:
448,192,47271,1,4,0:0:0:0:
192,192,47715,1,2,0:0:0:0:
320,192,47937,1,0,0:0:0:0:
448,192,48159,1,4,0:0:0:0:
448,192,48604,1,2,0:0:0:0:
192,192,48826,128,0,49271:0:0:0:0:
320,192,49271,128,0,49937:0:0:0:0:
192,192,49937,1,4,0:0:0:0:
192,192,50382,1,2,0:0:0:0:
448,192,50604,1,0,0:0:0:0:
64,192,50826,1,4,0:0:0:0:
320,192,51271,1,2,0:0:0:0:
192,192,51493,1,0,0:0:0:0:
64,192,51715,1,4,0:0:0:0:
64,192,52159,1,2,0:0:0:0:
448,192,52382,1,0,0:0:0:0:
320,192,52604,1,4,0:0:0:0:
192,192,53048,1,2,0:0:0:0:
320,192,53271,1,0,0:0:0:0:
448,192,53493,1,4,0:0:0:0:
448,192,53937,1,2,0:0:0:0:
320,192,54159,1,0,0:0:0:0:
64,192,54382,1,4,0:0:0:0:
320,192,54826,1,2,0:0:0:0:
192,192,55048,1,0,0:0:0:0:
64,192,55271,1,4,0:0:0:0:
192,192,55715,1,2,0:0:0:0:
320,192,55937,128,4,56382:0:0:0:0:
64,192,56382,128,0,56826:0:0:0:0:
448,192,56826,1,2,0:0:0:0:
320,192,57048,1,4,0:0:0:0:
192,192,57048,1,4,1:0:0:0:
64,192,57271,1,0,0:0:0:0:
64,192,57493,1,2,0:0:0:0:
448,192,57715,1,0,0:0:0:0:
448,192,57937,1,4,0:0:0:0:
320,192,58382,1,2,0:0:0:0:
64,192,58826,1,4,0:0:0:0:
320,192,59048,1,0,0:0:0:0:
320,192,59271,1,2,0:0:0:0:
192,192,59493,1,0,0:0:0:0:
192,192,59715,1,4,0:0:0:0:
448,192,60159,1,2,0:0:0:0:
320,192,60604,1,4,0:0:0:0:
192,192,60826,1,0,0:0:0:0:
192,192,61048,1,2,0:0:0:0:
448,192,61271,1,0,0:0:0:0:
448,192,61493,1,4,0:0:0:0:
192,192,61937,1,2,0:0:0:0:
64,192,62382,1,4,0:0:0:0:
320,192,62604,1,0,0:0:0:0:
320,192,62826,1,2,0:0:0:0:
64,192,63048,1,0,0:0:0:0:
192,192,63271,128,4,63937:0:0:0:0:
448,192,63937,1,0,0:0:0:0:
320,192,64159,1,4,0:0:0:0:
192,192,64382,1,0,0:0:0:0:
192,192,64604,1,2,0:0:0:0:
320,192,64826,1,0,0:0:0:0:
320,192,65048,1,4,0:0:0:0:
192,192,65493,1,2,0:0:0:0:
64,192,65937,1,4,0:0:0:0:
448,192,66159,1,0,0:0:0:0:
448,192,66382,1,2,0:0:0:0:
192,192,66604,1,0,0:0:0:0:
192,192,66826,1,4,0:0:0:0:
320,192,67271,1,2,0:0:0:0:
64,192,67715,1,4,0:0:0:0:
320,192,67937,1,0,0:0:0:0:
320,192,68159,1,2,0:0:0:0:
192,192,68382,1,0,0:0:0:0:
192,192,68604,1,4,0:0:0:0:
320,192,69048,1,2,0:0:0:0:
64,192,69493,1,4,0:0:0:0:
192,192,69937,1,2,0:0:0:0:
320,192,70159,128,4,70604:0:0:0:0:
64,192,70604,128,0,71048:0:0:0:0:
448,192,71048,1,2,0:0:0:0:
192,192,71271,1,4,1:0:0:0:
320,192,71271,128,4,77493:0:0:0:0:
448,192,78382,1,4,0:0:0:0:
192,192,78382,128,0,84604:0:0:0:0:
64,192,85493,1,4,0:0:0:0:
448,192,85493,128,0,91715:0:0:0:0:
448,192,92604,1,4,0:0:0:0:
192,192,92604,1,0,0:0:0:0:
320,192,93048,1,0,0:0:0:0:
64,192,93382,1,0,0:0:0:0:
448,192,93604,1,0,0:0:0:0:
192,192,93937,1,0,0:0:0:0:
320,192,94382,1,0,0:0:0:0:
64,192,94826,1,0,0:0:0:0:
448,192,95159,1,0,0:0:0:0:
192,192,95382,1,0,0:0:0:0:
320,192,95715,1,0,0:0:0:0:
64,192,95937,1,0,0:0:0:0:
448,192,96159,1,0,0:0:0:0:
192,192,96604,1,0,0:0:0:0:
64,192,96937,1,0,0:0:0:0:
448,192,97159,1,0,0:0:0:0:
320,192,97493,1,0,0:0:0:0:
192,192,97937,1,4,0:0:0:0:
64,192,98382,1,4,0:0:0:0:
448,192,98826,1,2,0:0:0:0:
192,192,99048,1,4,0:0:0:0:
320,192,99271,1,2,0:0:0:0:
64,192,99493,1,4,0:0:0:0:
448,192,99715,1,4,1:0:0:0:
192,192,99715,1,4,0:0:0:0:
192,192,100159,1,4,0:0:0:0:
320,192,100493,1,0,0:0:0:0:
192,192,100715,1,0,0:0:0:0:
192,192,101048,1,4,0:0:0:0:
320,192,101493,1,4,0:0:0:0:
320,192,101937,1,4,0:0:0:0:
192,192,102271,1,0,0:0:0:0:
320,192,102493,1,0,0:0:0:0:
320,192,102826,1,4,0:0:0:0:
64,192,103048,1,0,0:0:0:0:
448,192,103271,1,4,0:0:0:0:
448,192,103715,1,4,0:0:0:0:
64,192,104048,1,0,0:0:0:0:
448,192,104271,1,0,0:0:0:0:
448,192,104604,1,4,0:0:0:0:
64,192,105048,1,4,0:0:0:0:
64,192,105493,1,4,0:0:0:0:
448,192,105826,1,0,0:0:0:0:
64,192,106048,1,0,0:0:0:0:
448,192,106382,1,4,0:0:0:0:
192,192,106604,1,0,0:0:0:0:
320,192,106826,1,4,0:0:0:0:
320,192,107271,1,4,0:0:0:0:
192,192,107604,1,0,0:0:0:0:
320,192,107826,1,0,0:0:0:0:
320,192,108159,1,4,0:0:0:0:
192,192,108604,1,4,0:0:0:0:
192,192,109048,1,4,0:0:0:0:
448,192,109382,1,0,0:0:0:0:
192,192,109604,1,0,0:0:0:0:
192,192,109937,1,4,0:0:0:0:
448,192,110159,1,0,0:0:0:0:
64,192,110382,1,4,0:0:0:0:
64,192,110826,1,4,0:0:0:0:
320,192,111159,1,0,0:0:0:0:
64,192,111382,1,0,0:0:0:0:
64,192,111715,1,4,0:0:0:0:
448,192,112159,1,0,0:0:0:0:
448,192,112604,1,0,0:0:0:0:
192,192,112937,1,0,0:0:0:0:
448,192,113159,1,0,0:0:0:0:
320,192,113493,1,0,0:0:0:0:
64,192,113715,1,0,0:0:0:0:
192,192,113937,1,4,0:0:0:0:
448,192,113937,1,4,1:0:0:0:
64,192,114382,1,2,0:0:0:0:
192,192,114382,1,0,0:0:0:0:
320,192,114826,1,4,0:0:0:0:
64,192,115271,1,2,0:0:0:0:
192,192,115271,1,0,0:0:0:0:
320,192,115715,1,4,0:0:0:0:
64,192,116159,1,2,0:0:0:0:
192,192,116159,1,0,0:0:0:0:
320,192,116604,1,4,0:0:0:0:
64,192,117048,1,2,0:0:0:0:
192,192,117048,1,0,0:0:0:0:
448,192,117271,1,0,0:0:0:0:
192,192,117493,1,4,0:0:0:0:
320,192,117937,1,0,0:0:0:0:
448,192,117937,1,2,0:0:0:0:
192,192,118382,1,4,0:0:0:0:
320,192,118826,1,0,0:0:0:0:
448,192,118826,1,2,0:0:0:0:
192,192,119271,1,4,0:0:0:0:
448,192,119715,1,2,0:0:0:0:
320,192,119715,1,0,0:0:0:0:
192,192,120159,1,4,0:0:0:0:
448,192,120604,1,2,0:0:0:0:
320,192,120604,1,0,0:0:0:0:
64,192,120826,1,0,0:0:0:0:
448,192,121048,1,4,0:0:0:0:
192,192,121493,1,2,0:0:0:0:
64,192,121493,1,0,0:0:0:0:
448,192,121937,1,4,0:0:0:0:
192,192,122382,1,2,0:0:0:0:
64,192,122382,1,0,0:0:0:0:
448,192,122826,1,4,0:0:0:0:
192,192,123271,1,2,0:0:0:0:
64,192,123271,1,0,0:0:0:0:
448,192,123715,1,4,0:0:0:0:
192,192,124159,1,2,0:0:0:0:
64,192,124159,1,0,0:0:0:0:
320,192,124382,1,0,0:0:0:0:
64,192,124604,1,4,0:0:0:0:
448,192,125048,1,0,0:0:0:0:
320,192,125048,1,2,0:0:0:0:
64,192,125493,1,4,0:0:0:0:
448,192,125937,1,0,0:0:0:0:
320,192,125937,1,2,0:0:0:0:
64,192,126382,1,4,0:0:0:0:
448,192,126826,1,0,0:0:0:0:
320,192,126826,1,2,0:0:0:0:
64,192,127271,1,0,0:0:0:0:
320,192,127715,1,2,0:0:0:0:
192,192,127937,1,0,0:0:0:0:
448,192,128159,1,4,0:0:0:0:
64,192,128159,1,0,0:0:0:0:
448,192,129048,1,0,0:0:0:0:
448,192,129937,1,0,0:0:0:0:
448,192,130826,1,0,0:0:0:0:
320,192,131715,1,4,0:0:0:0:
64,192,131715,1,0,0:0:0:0:
64,192,132604,1,0,0:0:0:0:
64,192,133493,1,0,0:0:0:0:
64,192,134382,1,0,0:0:0:0:
64,192,135271,1,4,0:0:0:0:
192,192,135493,1,0,0:0:0:0:
320,192,135715,1,0,0:0:0:0:
192,192,136159,1,0,0:0:0:0:
320,192,136382,1,0,0:0:0:0:
448,192,136604,1,0,0:0:0:0:
320,192,137048,1,0,0:0:0:0:
192,192,137271,1,0,0:0:0:0:
64,192,137493,1,0,0:0:0:0:
448,192,137937,1,0,0:0:0:0:
320,192,138159,1,0,0:0:0:0:
192,192,138382,1,0,0:0:0:0:
64,192,138826,128,0,140604:0:0:0:0:
448,192,140604,1,0,0:0:0:0:
192,192,140826,1,0,0:0:0:0:
320,192,141048,1,0,0:0:0:0:
64,192,141271,1,0,0:0:0:0:
192,192,141715,1,0,0:0:0:0:
448,192,142159,1,0,0:0:0:0:
64,192,142382,1,4,1:0:0:0:
192,192,142382,1,4,0:0:0:0:
192,192,142826,1,4,0:0:0:0:
448,192,143048,1,0,0:0:0:0:
320,192,143271,1,4,0:0:0:0:
192,192,143715,1,4,0:0:0:0:
320,192,143937,1,0,0:0:0:0:
448,192,144159,1,4,0:0:0:0:
448,192,144604,1,4,0:0:0:0:
64,192,144826,1,0,0:0:0:0:
192,192,145048,1,4,0:0:0:0:
448,192,145493,1,4,0:0:0:0:
320,192,145715,1,0,0:0:0:0:
192,192,145937,1,4,0:0:0:0:
192,192,146382,1,4,0:0:0:0:
320,192,146604,1,0,0:0:0:0:
64,192,146826,1,4,0:0:0:0:
448,192,147271,1,4,0:0:0:0:
320,192,147493,1,0,0:0:0:0:
192,192,147715,1,4,0:0:0:0:
64,192,148159,1,4,0:0:0:0:
320,192,148382,128,0,148826:0:0:0:0:
192,192,148826,128,0,149493:0:0:0:0:
320,192,149493,1,4,0:0:0:0:
320,192,149937,1,4,0:0:0:0:
64,192,150159,1,0,0:0:0:0:
448,192,150382,1,4,0:0:0:0:
192,192,150826,1,4,0:0:0:0:
320,192,151048,1,0,0:0:0:0:
448,192,151271,1,4,0:0:0:0:
448,192,151715,1,4,0:0:0:0:
64,192,151937,1,0,0:0:0:0:
320,192,152159,1,4,0:0:0:0:
448,192,152604,1,4,0:0:0:0:
320,192,152826,1,0,0:0:0:0:
192,192,153048,1,4,0:0:0:0:
192,192,153493,1,4,0:0:0:0:
448,192,153715,1,0,0:0:0:0:
64,192,153937,1,4,0:0:0:0:
448,192,154382,1,4,0:0:0:0:
320,192,154604,1,0,0:0:0:0:
192,192,154826,1,4,0:0:0:0:
192,192,155271,1,4,0:0:0:0:
320,192,155493,1,0,0:0:0:0:
64,192,155715,128,4,156159:0:0:0:0:
448,192,156159,1,2,0:0:0:0:
192,192,156382,1,0,0:0:0:0:
448,192,156604,1,4,1:0:0:0:
320,192,156604,1,4,0:0:0:0:
320,192,157048,1,2,0:0:0:0:
64,192,157271,1,0,0:0:0:0:
448,192,157493,1,4,0:0:0:0:
64,192,157937,1,2,0:0:0:0:
192,192,158159,1,0,0:0:0:0:
320,192,158382,1,4,0:0:0:0:
320,192,158826,1,2,0:0:0:0:
64,192,159048,1,0,0:0:0:0:
448,192,159271,1,4,0:0:0:0:
320,192,159715,1,2,0:0:0:0:
192,192,159937,1,0,0:0:0:0:
64,192,160159,1,4,0:0:0:0:
64,192,160604,1,2,0:0:0:0:
448,192,160826,1,0,0:0:0:0:
192,192,161048,1,4,0:0:0:0:
64,192,161493,1,2,0:0:0:0:
192,192,161715,1,0,0:0:0:0:
320,192,161937,1,4,0:0:0:0:
320,192,162382,1,2,0:0:0:0:
192,192,162604,128,0,163048:0:0:0:0:
320,192,163048,128,0,163715:0:0:0:0:
192,192,163715,1,4,0:0:0:0:
192,192,164159,1,2,0:0:0:0:
448,192,164382,1,0,0:0:0:0:
64,192,164604,1,4,0:0:0:0:
320,192,165048,1,2,0:0:0:0:
192,192,165271,1,0,0:0:0:0:
64,192,165493,1,4,0:0:0:0:
64,192,165937,1,2,0:0:0:0:
448,192,166159,1,0,0:0:0:0:
320,192,166382,1,4,0:0:0:0:
192,192,166826,1,2,0:0:0:0:
320,192,167048,1,0,0:0:0:0:
448,192,167271,1,4,0:0:0:0:
448,192,167715,1,2,0:0:0:0:
320,192,167937,1,0,0:0:0:0:
64,192,168159,1,4,0:0:0:0:
320,192,168604,1,2,0:0:0:0:
192,192,168826,1,0,0:0:0:0:
64,192,169048,1,4,0:0:0:0:
448,192,169493,1,2,0:0:0:0:
320,192,169715,128,4,170159:0:0:0:0:
64,192,170159,128,0,170604:0:0:0:0:
320,192,170604,1,2,0:0:0:0:
448,192,170826,1,4,1:0:0:0:
192,192,170826,1,4,0:0:0:0:
64,192,171048,1,0,0:0:0:0:
64,192,171271,1,2,0:0:0:0:
448,192,171493,1,0,0:0:0:0:
448,192,171715,1,4,0:0:0:0:
320,192,172159,1,2,0:0:0:0:
64,192,172604,1,4,0:0:0:0:
448,192,172826,1,0,0:0:0:0:
448,192,173048,1,2,0:0:0:0:
192,192,173271,1,0,0:0:0:0:
192,192,173493,1,4,0:0:0:0:
448,192,173937,1,2,0:0:0:0:
320,192,174382,1,4,0:0:0:0:
64,192,174604,1,0,0:0:0:0:
64,192,174826,1,2,0:0:0:0:
320,192,175048,1,0,0:0:0:0:
320,192,175271,1,4,0:0:0:0:
192,192,175715,1,2,0:0:0:0:
64,192,176159,1,4,0:0:0:0:
320,192,176382,1,0,0:0:0:0:
320,192,176604,1,2,0:0:0:0:
64,192,176826,1,0,0:0:0:0:
192,192,177048,128,4,177715:0:0:0:0:
320,192,177715,1,0,0:0:0:0:
448,192,177937,1,4,0:0:0:0:
64,192,178159,1,0,0:0:0:0:
64,192,178382,1,2,0:0:0:0:
448,192,178604,1,0,0:0:0:0:
448,192,178826,1,4,0:0:0:0:
192,192,179271,1,2,0:0:0:0:
64,192,179715,1,4,0:0:0:0:
320,192,179937,1,0,0:0:0:0:
320,192,180159,1,2,0:0:0:0:
64,192,180382,1,0,0:0:0:0:
64,192,180604,1,4,0:0:0:0:
448,192,181048,1,2,0:0:0:0:
64,192,181493,1,4,0:0:0:0:
320,192,181715,1,0,0:0:0:0:
320,192,181937,1,2,0:0:0:0:
192,192,182159,1,0,0:0:0:0:
192,192,182382,1,4,0:0:0:0:
320,192,182826,1,2,0:0:0:0:
64,192,183271,1,4,0:0:0:0:
192,192,183715,1,2,0:0:0:0:
320,192,183937,128,4,184382:0:0:0:0:
64,192,184382,128,0,184826:0:0:0:0:
448,192,184826,1,2,0:0:0:0:
320,192,185048,1,4,1:0:0:0:
192,192,185048,1,4,0:0:0:0:
64,192,185271,1,0,0:0:0:0:
448,192,185493,1,2,0:0:0:0:
320,192,185715,1,0,0:0:0:0:
192,192,185937,1,4,0:0:0:0:
448,192,186382,1,2,0:0:0:0:
192,192,186826,1,4,0:0:0:0:
448,192,187048,1,0,0:0:0:0:
64,192,187271,1,2,0:0:0:0:
192,192,187493,1,0,0:0:0:0:
320,192,187715,1,4,0:0:0:0:
64,192,188159,1,2,0:0:0:0:
448,192,188604,1,4,0:0:0:0:
64,192,188826,1,0,0:0:0:0:
320,192,189048,1,2,0:0:0:0:
192,192,189271,1,0,0:0:0:0:
64,192,189493,1,4,0:0:0:0:
320,192,189937,1,2,0:0:0:0:
448,192,190382,1,4,0:0:0:0:
320,192,190826,1,2,0:0:0:0:
64,192,191048,1,0,0:0:0:0:
448,192,191271,128,4,191937:0:0:0:0:
192,192,191937,1,0,0:0:0:0:
320,192,192159,1,4,0:0:0:0:
192,192,192382,1,0,0:0:0:0:
448,192,192604,1,2,0:0:0:0:
320,192,192826,1,0,0:0:0:0:
192,192,193048,1,4,0:0:0:0:
64,192,193493,1,2,0:0:0:0:
448,192,193937,1,4,0:0:0:0:
320,192,194159,1,0,0:0:0:0:
64,192,194382,1,2,0:0:0:0:
192,192,194604,1,0,0:0:0:0:
320,192,194826,1,4,0:0:0:0:
64,192,195271,1,2,0:0:0:0:
448,192,195715,1,4,0:0:0:0:
64,192,195937,1,0,0:0:0:0:
320,192,196159,1,2,0:0:0:0:
192,192,196382,1,0,0:0:0:0:
64,192,196604,1,4,0:0:0:0:
320,192,197048,1,2,0:0:0:0:
192,192,197493,1,4,0:0:0:0:
64,192,197937,1,2,0:0:0:0:
320,192,198159,128,4,198604:0:0:0:0:
192,192,198604,128,0,199048:0:0:0:0:
448,192,199048,1,2,0:0:0:0:
320,192,199271,1,4,1:0:0:0:
64,192,199271,128,4,201493:0:0:0:0:
