osu file format v14

[General]
AudioFilename: audio.mp3
AudioLeadIn: 0
PreviewTime: 140604
Countdown: 0
SampleSet: Drum
StackLeniency: 1
Mode: 3
LetterboxInBreaks: 0
SpecialStyle: 0
WidescreenStoryboard: 1

[Editor]
DistanceSpacing: 0.8
BeatDivisor: 4
GridSize: 32
TimelineZoom: 0.8

[Metadata]
Title:Viking Arena
TitleUnicode:Viking Arena
Artist:F-777
ArtistUnicode:F-777
Creator:Feerum
Version:Easy
Source:osu!
Tags:featured artist mappers' guild fa Dance Machine electronic instrumental newgrounds geometry dash meltdown
BeatmapID:2293930
BeatmapSetID:1092856

[Difficulty]
HPDrainRate:6.5
CircleSize:4
OverallDifficulty:6.5
ApproachRate:10
SliderMultiplier:1.4
SliderTickRate:1

[Events]
//Background and Video events
0,0,"BG.jpg",0,0
//Break Periods
//Storyboard Layer 0 (Background)
//Storyboard Layer 1 (Fail)
//Storyboard Layer 2 (Pass)
//Storyboard Layer 3 (Foreground)
//Storyboard Layer 4 (Overlay)
//Storyboard Sound Samples

[TimingPoints]
160,444.444444444444,4,3,1,80,1,0
28604,-100,4,3,1,80,0,1
56937,-100,4,3,1,80,0,0
57048,-100,4,3,1,80,0,1
71271,-100,4,3,1,80,0,0
142382,-100,4,3,1,80,0,1
170715,-100,4,3,1,80,0,0
170826,-100,4,3,1,80,0,1
185048,-100,4,3,1,80,0,0

[HitObjects]
64,192,160,128,4,2382:0:0:0:0:
448,192,7271,128,4,9493:0:0:0:0:
320,192,14382,1,4,0:0:0:0:
320,192,15271,1,0,0:0:0:0:
320,192,16159,1,0,0:0:0:0:
320,192,17048,1,0,0:0:0:0:
192,192,17937,1,4,0:0:0:0:
192,192,18826,1,0,0:0:0:0:
192,192,19715,1,0,0:0:0:0:
192,192,20604,1,0,0:0:0:0:
320,192,21493,1,4,0:0:0:0:
320,192,21937,1,0,0:0:0:0:
192,192,22382,1,0,0:0:0:0:
192,192,22826,1,0,0:0:0:0:
448,192,23271,1,0,0:0:0:0:
448,192,23715,1,0,0:0:0:0:
64,192,24159,1,0,0:0:0:0:
64,192,24604,1,0,0:0:0:0:
448,192,25048,128,0,26826:0:0:0:0:
192,192,26826,1,0,0:0:0:0:
320,192,27493,1,0,0:0:0:0:
64,192,27937,1,0,0:0:0:0:
448,192,28604,1,4,1:0:0:0:
192,192,29493,1,4,0:0:0:0:
320,192,29937,1,4,0:0:0:0:
64,192,30382,1,4,0:0:0:0:
320,192,31271,1,4,0:0:0:0:
192,192,31715,1,4,0:0:0:0:
448,192,32159,1,4,0:0:0:0:
192,192,33048,1,4,0:0:0:0:
320,192,33493,1,4,0:0:0:0:
64,192,33937,1,4,0:0:0:0:
448,192,34604,128,0,35715:0:0:0:0:
64,192,35715,1,4,0:0:0:0:
320,192,36604,1,4,0:0:0:0:
64,192,37048,1,4,0:0:0:0:
448,192,37493,1,4,0:0:0:0:
192,192,38382,1,4,0:0:0:0:
448,192,38826,1,4,0:0:0:0:
64,192,39271,1,4,0:0:0:0:
320,192,40159,1,4,0:0:0:0:
64,192,40604,1,4,0:0:0:0:
448,192,41048,1,4,0:0:0:0:
192,192,41937,1,4,0:0:0:0:
320,192,42382,1,2,0:0:0:0:
192,192,42826,1,4,1:0:0:0:
448,192,43715,1,4,0:0:0:0:
64,192,44159,1,2,0:0:0:0:
320,192,44604,1,4,0:0:0:0:
64,192,45493,1,4,0:0:0:0:
448,192,45937,1,2,0:0:0:0:
192,192,46382,1,4,0:0:0:0:
448,192,47271,1,4,0:0:0:0:
64,192,47715,1,2,0:0:0:0:
320,192,48159,1,4,0:0:0:0:
192,192,48826,128,0,49937:0:0:0:0:
448,192,49937,1,4,0:0:0:0:
320,192,50826,1,4,0:0:0:0:
192,192,51271,1,2,0:0:0:0:
64,192,51715,1,4,0:0:0:0:
192,192,52604,1,4,0:0:0:0:
320,192,53048,1,2,0:0:0:0:
448,192,53493,1,4,0:0:0:0:
320,192,54382,1,4,0:0:0:0:
192,192,54826,1,2,0:0:0:0:
64,192,55271,1,4,0:0:0:0:
320,192,55937,128,4,57048:0:0:0:0:
192,192,57048,1,4,1:0:0:0:
192,192,57493,1,2,0:0:0:0:
192,192,57937,1,4,0:0:0:0:
320,192,58826,1,4,0:0:0:0:
320,192,59271,1,2,0:0:0:0:
320,192,59715,1,4,0:0:0:0:
64,192,60604,1,4,0:0:0:0:
64,192,61048,1,2,0:0:0:0:
64,192,61493,1,4,0:0:0:0:
448,192,62382,1,4,0:0:0:0:
448,192,62826,1,2,0:0:0:0:
192,192,63271,128,4,64159:0:0:0:0:
320,192,64159,1,4,0:0:0:0:
320,192,64604,1,2,0:0:0:0:
320,192,65048,1,4,0:0:0:0:
192,192,65937,1,4,0:0:0:0:
192,192,66382,1,2,0:0:0:0:
192,192,66826,1,4,0:0:0:0:
64,192,67715,1,4,0:0:0:0:
64,192,68159,1,2,0:0:0:0:
64,192,68604,1,4,0:0:0:0:
320,192,69493,1,4,0:0:0:0:
192,192,70159,128,4,71271:0:0:0:0:
448,192,71271,128,4,73493:1:0:0:0:
64,192,78382,128,4,80604:0:0:0:0:
448,192,85493,128,4,87715:0:0:0:0:
64,192,92604,128,4,94826:0:0:0:0:
320,192,97937,1,4,0:0:0:0:
192,192,98382,1,4,0:0:0:0:
448,192,98826,1,2,0:0:0:0:
64,192,99271,1,2,0:0:0:0:
320,192,99715,1,4,1:0:0:0:
320,192,100159,1,4,0:0:0:0:
320,192,100604,1,4,0:0:0:0:
320,192,101048,1,4,0:0:0:0:
192,192,101493,1,4,0:0:0:0:
192,192,101937,1,4,0:0:0:0:
192,192,102382,1,4,0:0:0:0:
192,192,102826,1,4,0:0:0:0:
448,192,103271,1,4,0:0:0:0:
448,192,103715,1,4,0:0:0:0:
448,192,104159,1,4,0:0:0:0:
448,192,104604,1,4,0:0:0:0:
64,192,105048,1,4,0:0:0:0:
64,192,105493,1,4,0:0:0:0:
64,192,105937,1,4,0:0:0:0:
64,192,106382,1,4,0:0:0:0:
320,192,106826,1,4,0:0:0:0:
320,192,107271,1,4,0:0:0:0:
320,192,107715,1,4,0:0:0:0:
320,192,108159,1,4,0:0:0:0:
192,192,108604,1,4,0:0:0:0:
192,192,109048,1,4,0:0:0:0:
192,192,109493,1,4,0:0:0:0:
192,192,109937,1,4,0:0:0:0:
448,192,110382,1,4,0:0:0:0:
448,192,110826,1,4,0:0:0:0:
448,192,111271,1,4,0:0:0:0:
448,192,111715,1,4,0:0:0:0:
64,192,112159,1,0,0:0:0:0:
64,192,112604,1,0,0:0:0:0:
192,192,113048,1,0,0:0:0:0:
320,192,113493,1,0,0:0:0:0:
448,192,113937,1,4,1:0:0:0:
192,192,114382,1,0,0:0:0:0:
64,192,114382,1,2,0:0:0:0:
192,192,115271,1,0,0:0:0:0:
64,192,115271,1,2,0:0:0:0:
192,192,116159,1,0,0:0:0:0:
64,192,116159,1,2,0:0:0:0:
192,192,117048,1,0,0:0:0:0:
64,192,117048,1,2,0:0:0:0:
448,192,117937,1,2,0:0:0:0:
320,192,117937,1,0,0:0:0:0:
320,192,118826,1,0,0:0:0:0:
448,192,118826,1,2,0:0:0:0:
448,192,119715,1,2,0:0:0:0:
320,192,119715,1,0,0:0:0:0:
448,192,120604,1,2,0:0:0:0:
320,192,120604,1,0,0:0:0:0:
320,192,121493,1,2,0:0:0:0:
192,192,121493,1,0,0:0:0:0:
320,192,122382,1,0,0:0:0:0:
192,192,122382,1,2,0:0:0:0:
320,192,123271,1,2,0:0:0:0:
192,192,123271,1,0,0:0:0:0:
320,192,124159,1,0,0:0:0:0:
192,192,124159,1,2,0:0:0:0:
448,192,125048,1,2,0:0:0:0:
64,192,125048,1,0,0:0:0:0:
448,192,125937,1,0,0:0:0:0:
64,192,125937,1,2,0:0:0:0:
448,192,126826,1,2,0:0:0:0:
64,192,126826,1,0,0:0:0:0:
448,192,127715,1,0,0:0:0:0:
64,192,127715,1,2,0:0:0:0:
320,192,128159,1,4,0:0:0:0:
320,192,129048,1,0,0:0:0:0:
320,192,129937,1,0,0:0:0:0:
320,192,130826,1,0,0:0:0:0:
192,192,131715,1,4,0:0:0:0:
192,192,132604,1,0,0:0:0:0:
192,192,133493,1,0,0:0:0:0:
192,192,134382,1,0,0:0:0:0:
320,192,135271,1,4,0:0:0:0:
320,192,135715,1,0,0:0:0:0:
192,192,136159,1,0,0:0:0:0:
192,192,136604,1,0,0:0:0:0:
448,192,137048,1,0,0:0:0:0:
448,192,137493,1,0,0:0:0:0:
64,192,137937,1,0,0:0:0:0:
64,192,138382,1,0,0:0:0:0:
320,192,138826,128,0,140604:0:0:0:0:
192,192,140604,1,0,0:0:0:0:
320,192,141271,1,0,0:0:0:0:
64,192,141715,1,0,0:0:0:0:
448,192,142382,1,4,1:0:0:0:
64,192,143271,1,4,0:0:0:0:
192,192,143715,1,4,0:0:0:0:
64,192,144159,1,4,0:0:0:0:
448,192,145048,1,4,0:0:0:0:
320,192,145493,1,4,0:0:0:0:
448,192,145937,1,4,0:0:0:0:
64,192,146826,1,4,0:0:0:0:
192,192,147271,1,4,0:0:0:0:
64,192,147715,1,4,0:0:0:0:
320,192,148382,128,0,149493:0:0:0:0:
192,192,149493,1,4,0:0:0:0:
320,192,150382,1,4,0:0:0:0:
448,192,150826,1,4,0:0:0:0:
320,192,151271,1,4,0:0:0:0:
192,192,152159,1,4,0:0:0:0:
64,192,152604,1,4,0:0:0:0:
192,192,153048,1,4,0:0:0:0:
320,192,153937,1,4,0:0:0:0:
448,192,154382,1,4,0:0:0:0:
320,192,154826,1,4,0:0:0:0:
192,192,155715,1,4,0:0:0:0:
448,192,156159,1,2,0:0:0:0:
64,192,156604,1,4,1:0:0:0:
192,192,157493,1,4,0:0:0:0:
320,192,157937,1,2,0:0:0:0:
448,192,158382,1,4,0:0:0:0:
320,192,159271,1,4,0:0:0:0:
192,192,159715,1,2,0:0:0:0:
64,192,160159,1,4,0:0:0:0:
192,192,161048,1,4,0:0:0:0:
320,192,161493,1,2,0:0:0:0:
448,192,161937,1,4,0:0:0:0:
64,192,162604,128,0,163715:0:0:0:0:
320,192,163715,1,4,0:0:0:0:
192,192,164604,1,4,0:0:0:0:
448,192,165048,1,2,0:0:0:0:
192,192,165493,1,4,0:0:0:0:
320,192,166382,1,4,0:0:0:0:
64,192,166826,1,2,0:0:0:0:
320,192,167271,1,4,0:0:0:0:
192,192,168159,1,4,0:0:0:0:
448,192,168604,1,2,0:0:0:0:
192,192,169048,1,4,0:0:0:0:
64,192,169715,128,4,170826:0:0:0:0:
320,192,170826,1,4,1:0:0:0:
320,192,171271,1,2,0:0:0:0:
320,192,171715,1,4,0:0:0:0:
64,192,172604,1,4,0:0:0:0:
64,192,173048,1,2,0:0:0:0:
64,192,173493,1,4,0:0:0:0:
192,192,174382,1,4,0:0:0:0:
192,192,174826,1,2,0:0:0:0:
192,192,175271,1,4,0:0:0:0:
448,192,176159,1,4,0:0:0:0:
448,192,176604,1,2,0:0:0:0:
320,192,177048,128,4,177937:0:0:0:0:
192,192,177937,1,4,0:0:0:0:
192,192,178382,1,2,0:0:0:0:
192,192,178826,1,4,0:0:0:0:
448,192,179715,1,4,0:0:0:0:
448,192,180159,1,2,0:0:0:0:
448,192,180604,1,4,0:0:0:0:
64,192,181493,1,4,0:0:0:0:
64,192,181937,1,2,0:0:0:0:
64,192,182382,1,4,0:0:0:0:
192,192,183271,1,4,0:0:0:0:
320,192,183937,128,4,185048:0:0:0:0:
64,192,185048,1,4,1:0:0:0:
192,192,185493,1,2,0:0:0:0:
320,192,185937,1,4,0:0:0:0:
448,192,186826,1,4,0:0:0:0:
320,192,187271,1,2,0:0:0:0:
192,192,187715,1,4,0:0:0:0:
64,192,188604,1,4,0:0:0:0:
192,192,189048,1,2,0:0:0:0:
320,192,189493,1,4,0:0:0:0:
448,192,190382,1,4,0:0:0:0:
192,192,190826,1,2,0:0:0:0:
320,192,191271,128,4,192159:0:0:0:0:
64,192,192159,1,4,0:0:0:0:
192,192,192604,1,2,0:0:0:0:
320,192,193048,1,4,0:0:0:0:
448,192,193937,1,4,0:0:0:0:
320,192,194382,1,2,0:0:0:0:
192,192,194826,1,4,0:0:0:0:
64,192,195715,1,4,0:0:0:0:
192,192,196159,1,2,0:0:0:0:
320,192,196604,1,4,0:0:0:0:
448,192,197493,1,4,0:0:0:0:
320,192,198159,128,4,199271:0:0:0:0:
64,192,199271,128,4,201493:1:0:0:0:
