osu file format v14

[General]
AudioFilename: audio.mp3
AudioLeadIn: 0
PreviewTime: 36598
Countdown: 1
SampleSet: Soft
StackLeniency: 0.4
Mode: 0
LetterboxInBreaks: 0
WidescreenStoryboard: 1

[Editor]
DistanceSpacing: 2
BeatDivisor: 4
GridSize: 32
TimelineZoom: 2.5

[Metadata]
Title:Ultimate
TitleUnicode:Ultimate
Artist:F-777
ArtistUnicode:F-777
Creator:ZinedineZidane
Version:ui
Source:
Tags:
BeatmapID:1592273
BeatmapSetID:756740

[Difficulty]
HPDrainRate:6
CircleSize:4
OverallDifficulty:8.8
ApproachRate:9.4
SliderMultiplier:1.4
SliderTickRate:1

[Events]
//Background and Video events
0,0,"crystal_valley_by_idaisan-dbq0rr8.jpg",0,0
//Break Periods
2,18512,22344
//Storyboard Layer 0 (Background)
//Storyboard Layer 1 (Fail)
//Storyboard Layer 2 (Pass)
//Storyboard Layer 3 (Foreground)
//Storyboard Sound Samples

[TimingPoints]
27,285.714285714286,4,2,1,100,1,0
27,-133.333333333333,4,2,1,40,0,0
9169,-133.333333333333,4,2,3,30,0,0
9455,-133.333333333333,4,2,2,30,0,0
13741,-133.333333333333,4,2,3,30,0,0
14027,-133.333333333333,4,2,2,30,0,0
17455,-133.333333333333,4,2,2,20,0,0
17884,-133.333333333333,4,2,2,15,0,0
22884,-133.333333333333,4,2,2,30,0,0
23455,-133.333333333333,4,2,2,35,0,0
24027,-133.333333333333,4,2,2,40,0,0
24598,-133.333333333333,4,2,2,45,0,0
25169,-133.333333333333,4,2,2,50,0,0
25741,-133.333333333333,4,2,2,55,0,0
26312,-133.333333333333,4,2,2,60,0,0
27455,-76.9230769230769,4,2,2,70,0,1
30884,-100,4,2,2,70,0,1
31312,-50,4,2,4,70,0,1
31955,-76.9230769230769,4,2,2,70,0,1
32027,-76.9230769230769,4,2,5,70,0,1
32169,-76.9230769230769,4,2,2,70,0,1
35455,-100,4,2,2,70,0,1
35884,-50,4,2,4,70,0,1
36527,-76.9230769230769,4,2,2,70,0,1
40027,-100,4,2,2,70,0,1
40455,-50,4,2,4,70,0,1
41098,-76.9230769230769,4,2,2,70,0,1
41169,-76.9230769230769,4,2,5,70,0,1
41312,-76.9230769230769,4,2,2,70,0,1
44598,-76.9230769230769,4,2,2,75,0,1
44884,-76.9230769230769,4,2,2,80,0,1
45169,-76.9230769230769,4,2,2,85,0,1
45455,-76.9230769230769,4,2,2,90,0,1
45741,-76.9230769230769,4,2,2,95,0,0
45884,-76.9230769230769,4,2,2,65,0,0
49598,-76.9230769230769,4,2,4,65,0,0
50241,-76.9230769230769,4,2,2,65,0,0
50312,-76.9230769230769,4,2,5,65,0,0
50455,-76.9230769230769,4,2,2,65,0,0
54169,-76.9230769230769,4,2,4,65,0,0
54812,-76.9230769230769,4,2,2,65,0,0
54884,-76.9230769230769,4,2,2,70,0,0
55741,-76.9230769230769,4,2,4,70,0,0
56027,-76.9230769230769,4,2,2,70,0,0
56884,-76.9230769230769,4,2,4,70,0,0
57098,-76.9230769230769,4,2,2,70,0,0
58741,-76.9230769230769,4,2,4,70,0,0
59384,-76.9230769230769,4,2,2,70,0,0
59455,-76.9230769230769,4,2,5,70,0,0
59598,-76.9230769230769,4,2,2,70,0,0
60312,-76.9230769230769,4,2,4,70,0,0
60598,-76.9230769230769,4,2,2,70,0,0
61455,-76.9230769230769,4,2,4,70,0,0
61669,-76.9230769230769,4,2,2,70,0,0
62884,-76.9230769230769,4,2,2,75,0,0
63169,-76.9230769230769,4,2,2,80,0,0
63455,-76.9230769230769,4,2,2,85,0,0
63741,-76.9230769230769,4,2,2,90,0,0
64027,-133.333333333333,4,2,2,50,0,0
72027,-76.9230769230769,4,2,2,60,0,0
72312,-76.9230769230769,4,2,2,70,0,0
72598,-76.9230769230769,4,2,2,80,0,0
72884,-76.9230769230769,4,2,2,90,0,0
73169,-76.9230769230769,4,2,2,70,0,0
77027,-76.9230769230769,4,2,4,70,0,0
77669,-76.9230769230769,4,2,2,70,0,0
77741,-76.9230769230769,4,2,5,70,0,0
77884,-76.9230769230769,4,2,2,70,0,0

[Colours]
Combo1 : 64,0,128
Combo2 : 116,205,248
Combo3 : 11,52,244

[HitObjects]
175,240,27,6,0,P|150:245|125:261,2,52.5000020027161,8|0|0,0:0|0:0|0:0,0:0:0:0:
147,167,455,2,0,P|173:162|199:166,2,52.5000020027161
198,90,884,2,0,P|224:93|248:106,1,52.5000020027161
328,221,1169,6,0,L|334:158,2,52.5000020027161,2|0|0,0:0|0:0|0:0,0:0:0:0:
408,224,1598,2,0,L|408:292,2,52.5000020027161
483,212,2027,2,0,L|477:149,1,52.5000020027161
423,33,2312,6,0,B|447:45|447:45|475:48,2,52.5000020027161,2|0|0,0:0|0:0|0:0,0:0:0:0:
351,84,2741,2,0,B|369:103|369:103|393:115,2,52.5000020027161
321,10,3169,2,0,B|297:21|297:21|279:40,1,52.5000020027161
187,163,3455,6,0,L|181:102,2,52.5000020027161,2|0|0,0:0|0:0|0:0,0:0:0:0:
196,241,3884,1,0,0:0:0:0:
307,215,4027,1,2,0:0:0:0:
300,288,4170,1,0,0:0:0:0:
246,345,4313,1,0,0:0:0:0:
162,350,4456,1,0,0:0:0:0:
94,291,4598,5,8,0:0:0:0:
94,291,4741,2,0,P|75:272|52:259,1,52.5000020027161
158,243,5027,1,0,0:0:0:0:
158,243,5169,2,0,P|176:224|199:211,1,52.5000020027161
99,183,5455,2,0,P|80:164|57:151,1,52.5000020027161
161,65,5741,5,2,0:0:0:0:
161,65,5884,2,0,L|156:121,1,52.5000020027161
238,32,6169,1,0,0:0:0:0:
238,32,6312,2,0,L|242:88,1,52.5000020027161
323,0,6598,2,0,L|318:56,1,52.5000020027161
312,173,6884,5,2,0:0:0:0:
312,173,7027,2,0,B|338:169|338:169|368:154,1,52.5000020027161
394,84,7312,1,0,0:0:0:0:
394,84,7455,2,0,B|416:98|416:98|433:119,1,52.5000020027161
425,202,7741,2,0,B|441:222|441:222|463:236,1,52.5000020027161
467,338,8027,6,0,B|416:333|393:306|393:306|366:277|322:276,1,157.500006008148,2|0,0:0|0:0,0:0:0:0:
239,259,8598,2,0,P|258:333|328:365,1,157.500006008148,2|0,0:0|0:0,0:0:0:0:
336,172,9169,6,0,L|326:276,1,105.000004005432,6|0,0:0|0:0,0:0:0:0:
325,276,9598,1,0,0:0:0:0:
256,187,9741,2,0,L|260:134,1,52.5000020027161,8|0,0:0|0:0,0:0:0:0:
335,35,10027,2,0,L|330:87,1,52.5000020027161
181,126,10312,6,0,P|200:79|247:58,1,105.000004005432,2|0,0:0|0:0,0:0:0:0:
246,58,10741,1,0,0:0:0:0:
146,17,10884,2,0,L|93:12,1,52.5000020027161,8|0,0:0|0:0,0:0:0:0:
16,82,11169,2,0,L|69:87,1,52.5000020027161
185,186,11455,6,0,P|133:178|66:181,1,105.000004005432,2|0,0:0|0:0,0:0:0:0:
80,179,11884,1,0,0:0:0:0:
30,305,12027,2,0,L|26:253,1,52.5000020027161,8|0,0:0|0:0,0:0:0:0:
106,331,12312,2,0,L|99:402,1,52.5000020027161
189,246,12598,6,0,P|240:253|305:283,1,105.000004005432,2|0,0:0|0:0,0:0:0:0:
321,364,13027,1,0,0:0:0:0:
321,364,13098,1,0,0:0:0:0:
321,364,13169,1,8,0:0:0:0:
374,296,13312,1,0,0:0:0:0:
427,357,13455,2,0,P|446:338|453:313,1,52.5000020027161
432,139,13741,6,0,P|414:187|439:243,1,105.000004005432,10|0,0:0|0:0,0:0:0:0:
488,188,14169,1,0,0:0:0:0:
481,75,14312,2,0,L|485:18,1,52.5000020027161,8|0,0:0|0:0,0:0:0:0:
400,74,14598,2,0,L|404:21,1,52.5000020027161
309,177,14884,6,0,L|319:55,1,105.000004005432,2|0,0:0|0:0,0:0:0:0:
326,0,15312,1,0,0:0:0:0:
227,45,15455,2,0,L|232:106,1,52.5000020027161,8|0,0:0|0:0,0:0:0:0:
309,177,15741,2,0,L|313:124,1,52.5000020027161
241,230,16027,6,0,P|283:261|345:257,1,105.000004005432,2|0,0:0|0:0,0:0:0:0:
389,199,16455,1,0,0:0:0:0:
389,323,16598,2,0,P|353:342|329:343,1,52.5000020027161,8|0,0:0|0:0,0:0:0:0:
442,265,16884,2,0,P|478:246|502:245,1,52.5000020027161
446,129,17169,6,0,P|396:105|335:127,1,105.000004005432,2|0,0:0|0:0,0:0:0:0:
278,156,17598,1,0,0:0:0:0:
278,156,17669,1,0,0:0:0:0:
278,156,17741,1,8,0:0:0:0:
277,60,17884,1,8,0:0:0:0:
277,60,17955,1,8,0:0:0:0:
277,60,18027,2,0,L|306:43,4,26.2500010013581,8|2|8|2|2,0:0|0:0|0:0|0:0|0:0,0:0:0:0:
134,264,22884,6,0,L|139:202,1,52.5000020027161,2|0,0:0|0:0,0:0:0:0:
146,131,23169,1,0,0:0:0:0:
148,114,23312,1,0,0:0:0:0:
235,208,23455,2,0,L|230:260,1,52.5000020027161,8|0,0:0|0:0,0:0:0:0:
226,352,23741,1,0,0:0:0:0:
226,352,23884,1,0,0:0:0:0:
310,307,24027,6,0,L|362:311,1,52.5000020027161,2|0,0:0|0:0,0:0:0:0:
441,358,24312,1,0,0:0:0:0:
458,372,24455,1,0,0:0:0:0:
444,266,24598,2,0,P|430:243|404:229,1,52.5000020027161,8|0,0:0|0:0,0:0:0:0:
238,269,24884,2,0,P|252:246|278:232,1,52.5000020027161
394,130,25169,5,2,0:0:0:0:
280,133,25312,1,0,0:0:0:0:
338,193,25455,1,0,0:0:0:0:
334,64,25598,5,0,0:0:0:0:
207,186,25741,1,8,0:0:0:0:
216,80,25884,1,0,0:0:0:0:
273,233,26027,5,0,0:0:0:0:
137,146,26169,1,0,0:0:0:0:
135,297,26312,6,0,P|85:277|54:227,1,105.000004005432
166,153,26741,5,0,0:0:0:0:
156,177,26812,1,0,0:0:0:0:
146,201,26884,1,8,0:0:0:0:
317,85,27027,5,8,0:0:0:0:
302,121,27098,1,8,0:0:0:0:
287,157,27170,1,8,0:0:0:0:
249,251,27312,1,8,0:0:0:0:
219,77,27455,6,0,P|178:61|118:75,1,90.9999958343508,6|0,3:1|0:0,0:0:0:0:
30,183,27741,1,8,0:0:0:0:
166,153,27884,2,0,P|168:205|149:258,1,90.9999958343508,2|0,0:1|0:0,0:0:0:0:
32,287,28169,1,2,0:0:0:0:
199,365,28312,2,0,L|302:355,1,90.9999958343508,10|0,0:1|0:0,0:0:0:0:
473,261,28598,6,0,L|382:269,1,90.9999958343508,2|0,3:1|0:0,0:0:0:0:
232,216,28884,1,8,0:0:0:0:
317,81,29027,2,0,L|308:181,1,90.9999958343508,2|0,3:1|0:0,0:0:0:0:
300,274,29312,1,2,0:0:0:0:
403,96,29455,1,10,0:1:0:0:
229,130,29598,1,2,0:0:0:0:
204,139,29669,1,2,0:0:0:0:
178,147,29741,6,0,L|87:139,1,90.9999958343508,2|0,3:1|0:0,0:0:0:0:
244,18,30027,1,8,0:0:0:0:
71,57,30169,2,0,P|33:73|6:114,1,90.9999958343508,2|0,0:1|0:0,0:0:0:0:
112,222,30455,1,2,0:0:0:0:
158,37,30598,1,10,0:1:0:0:
158,37,30741,1,0,0:0:0:0:
237,207,30884,2,0,P|226:275|181:328,1,140,2|8,3:1|0:0,0:0:0:0:
55,169,31312,5,6,0:0:0:0:
287,131,31455,1,2,0:0:0:0:
130,255,31598,1,6,0:0:0:0:
287,131,31741,5,10,0:0:0:0:
297,322,31884,1,6,0:0:0:0:
318,338,31955,1,2,0:0:0:0:
339,354,32027,22,0,L|346:258,1,90.9999958343508,6|0,3:1|0:0,0:0:0:0:
359,94,32312,1,8,0:0:0:0:
452,192,32455,2,0,P|481:157|493:97,1,90.9999958343508,2|0,0:1|0:0,0:0:0:0:
359,94,32741,1,2,0:0:0:0:
459,283,32884,2,0,L|451:187,1,90.9999958343508,10|0,0:1|0:0,0:0:0:0:
351,3,33169,6,0,L|358:93,1,90.9999958343508,2|0,3:1|0:0,0:0:0:0:
345,263,33455,1,8,0:0:0:0:
232,178,33598,1,2,3:1:0:0:
232,178,33741,1,0,0:0:0:0:
372,174,33884,1,2,0:0:0:0:
182,85,34027,1,10,0:1:0:0:
200,294,34169,1,2,0:0:0:0:
200,294,34241,1,2,0:0:0:0:
199,294,34312,6,0,P|157:275|120:218,1,90.9999958343508,2|0,3:1|0:0,0:0:0:0:
72,57,34598,1,8,0:0:0:0:
14,187,34741,2,0,L|23:292,1,90.9999958343508,2|0,0:1|0:0,0:0:0:0:
77,384,35027,1,2,0:0:0:0:
98,155,35169,2,0,P|144:151|186:170,1,90.9999958343508,10|0,0:1|0:0,0:0:0:0:
303,300,35455,2,0,L|293:152,1,140,2|8,3:1|0:0,0:0:0:0:
409,282,35884,5,6,0:0:0:0:
204,251,36027,1,2,0:0:0:0:
373,187,36169,1,6,0:0:0:0:
203,85,36312,5,10,0:0:0:0:
190,274,36455,1,6,0:0:0:0:
174,296,36527,1,2,0:0:0:0:
158,318,36598,22,0,P|107:322|71:301,1,90.9999958343508,6|0,3:1|0:0,0:0:0:0:
219,171,36884,1,8,0:0:0:0:
83,69,37027,2,0,P|72:114|89:163,1,90.9999958343508,2|0,0:1|0:0,0:0:0:0:
126,247,37312,1,2,0:0:0:0:
219,75,37455,2,0,P|261:82|300:118,1,90.9999958343508,10|0,0:1|0:0,0:0:0:0:
388,271,37741,6,0,L|398:153,1,90.9999958343508,2|0,3:1|0:0,0:0:0:0:
447,5,38027,1,8,0:0:0:0:
488,149,38169,2,0,L|480:239,1,90.9999958343508,2|0,3:1|0:0,0:0:0:0:
484,357,38455,1,2,0:0:0:0:
395,180,38598,1,10,0:1:0:0:
310,295,38741,1,2,0:0:0:0:
310,295,38812,1,2,0:0:0:0:
310,295,38884,6,0,L|219:287,1,90.9999958343508,2|0,3:1|0:0,0:0:0:0:
49,352,39169,1,8,0:0:0:0:
173,196,39312,2,0,P|137:222|118:271,1,90.9999958343508,2|0,0:1|0:0,0:0:0:0:
172,366,39598,1,2,0:0:0:0:
261,201,39741,2,0,P|256:157|225:121,1,90.9999958343508,10|0,0:1|0:0,0:0:0:0:
37,44,40027,2,0,P|98:62|171:23,1,140,2|8,3:1|0:0,0:0:0:0:
339,188,40455,5,6,0:0:0:0:
131,217,40598,1,2,0:0:0:0:
252,109,40741,1,6,0:0:0:0:
269,298,40884,5,10,0:0:0:0:
358,169,41027,1,6,0:0:0:0:
377,150,41098,1,2,0:0:0:0:
396,131,41169,22,0,P|440:127|491:166,1,90.9999958343508,6|0,3:1|0:0,0:0:0:0:
512,315,41455,1,8,0:0:0:0:
422,210,41598,2,0,L|412:315,1,90.9999958343508,2|0,0:1|0:0,0:0:0:0:
350,384,41884,1,2,0:0:0:0:
251,184,42027,2,0,L|261:289,1,90.9999958343508,10|0,0:1|0:0,0:0:0:0:
315,118,42312,6,0,P|277:91|229:94,1,90.9999958343508,2|0,3:1|0:0,0:0:0:0:
75,201,42598,1,8,0:0:0:0:
117,81,42741,1,2,3:1:0:0:
117,81,42884,1,0,0:0:0:0:
169,213,43027,1,2,0:0:0:0:
177,1,43169,1,10,0:1:0:0:
34,103,43312,1,2,0:0:0:0:
34,103,43384,1,2,0:0:0:0:
34,103,43455,6,0,P|36:50|66:10,1,90.9999958343508,2|0,3:1|0:0,0:0:0:0:
170,136,43741,1,8,0:0:0:0:
62,219,43884,2,0,P|71:263|107:301,1,90.9999958343508,2|0,0:1|0:0,0:0:0:0:
211,225,44169,1,2,0:0:0:0:
355,350,44312,2,0,P|314:359|255:324,1,90.9999958343508,10|0,0:1|0:0,0:0:0:0:
235,89,44598,5,8,0:0:0:0:
190,304,44741,1,2,0:0:0:0:
388,188,44884,5,8,0:0:0:0:
213,83,45027,1,2,0:0:0:0:
320,278,45169,5,8,0:0:0:0:
299,46,45312,1,2,0:0:0:0:
140,172,45455,5,8,0:0:0:0:
373,14,45598,2,0,P|381:36|378:62,1,45.4999979171754,2|2,0:0|0:0,0:0:0:0:
491,192,45741,6,0,P|513:152|511:108,1,90.9999958343508,6|0,0:0|0:0,0:0:0:0:
374,65,46027,1,8,0:0:0:0:
338,245,46169,5,0,0:0:0:0:
286,82,46312,1,0,0:0:0:0:
411,207,46455,1,2,0:0:0:0:
233,287,46598,5,8,0:0:0:0:
324,160,46741,1,0,0:0:0:0:
313,331,46884,6,0,P|281:366|230:379,1,90.9999958343508,2|0,0:0|0:0,0:0:0:0:
106,337,47169,1,8,0:0:0:0:
233,287,47312,5,2,0:0:0:0:
129,209,47455,1,0,0:0:0:0:
299,236,47598,1,2,0:0:0:0:
67,264,47741,5,8,0:0:0:0:
217,177,47884,1,2,0:0:0:0:
217,177,47955,1,2,0:0:0:0:
217,177,48027,6,0,P|182:126|140:110,1,90.9999958343508,2|0,0:0|0:0,0:0:0:0:
25,140,48312,1,8,0:0:0:0:
124,30,48455,2,0,P|169:24|211:41,1,90.9999958343508
314,127,48741,1,2,0:0:0:0:
418,0,48884,5,8,0:0:0:0:
444,165,49027,1,0,0:0:0:0:
291,45,49169,6,0,P|252:67|230:115,1,90.9999958343508,2|0,0:0|0:0,0:0:0:0:
327,265,49455,1,8,0:0:0:0:
182,226,49598,1,6,0:0:0:0:
182,226,49669,1,2,0:0:0:0:
182,226,49741,5,2,0:0:0:0:
362,195,49884,1,6,0:0:0:0:
152,144,50027,1,10,0:0:0:0:
236,295,50169,1,6,0:0:0:0:
236,295,50241,1,2,0:0:0:0:
236,295,50312,6,0,P|257:330|305:358,1,90.9999958343508,6|0,0:0|0:0,0:0:0:0:
414,260,50598,1,8,0:0:0:0:
489,384,50741,5,0,0:0:0:0:
496,246,50884,1,0,0:0:0:0:
374,328,51027,1,2,0:0:0:0:
396,141,51169,5,8,0:0:0:0:
496,246,51312,1,0,0:0:0:0:
446,73,51455,6,0,P|401:56|357:66,1,90.9999958343508,2|0,0:0|0:0,0:0:0:0:
237,167,51741,1,8,0:0:0:0:
206,11,51884,5,2,0:0:0:0:
134,111,52027,1,0,0:0:0:0:
276,87,52169,1,2,0:0:0:0:
102,27,52312,5,8,0:0:0:0:
144,202,52455,1,2,0:0:0:0:
161,222,52527,1,2,0:0:0:0:
178,242,52598,6,0,P|210:258|284:248,1,90.9999958343508,2|0,0:0|0:0,0:0:0:0:
334,146,52884,1,8,0:0:0:0:
411,289,53027,2,0,L|420:184,1,90.9999958343508
477,73,53312,1,2,0:0:0:0:
276,87,53455,5,8,0:0:0:0:
409,112,53598,1,0,0:0:0:0:
241,163,53741,6,0,P|207:137|192:85,1,90.9999958343508,2|0,0:0|0:0,0:0:0:0:
316,14,54027,1,8,0:0:0:0:
356,202,54169,5,6,0:0:0:0:
394,28,54312,1,2,0:0:0:0:
436,149,54455,5,6,0:0:0:0:
276,87,54598,1,10,0:0:0:0:
348,218,54741,1,6,0:0:0:0:
340,234,54812,1,2,0:0:0:0:
332,250,54884,6,0,L|241:242,1,90.9999958343508,6|0,0:0|0:0,0:0:0:0:
96,152,55169,1,8,0:0:0:0:
128,333,55312,5,0,0:0:0:0:
180,185,55455,1,0,0:0:0:0:
57,251,55598,1,2,0:0:0:0:
127,69,55741,5,10,0:0:0:0:
170,57,55812,1,2,0:0:0:0:
214,45,55884,1,2,0:0:0:0:
55,11,56027,6,0,P|34:48|37:98,1,90.9999958343508,2|0,0:0|0:0,0:0:0:0:
57,251,56312,1,8,0:0:0:0:
127,69,56455,5,2,0:0:0:0:
246,178,56598,1,0,0:0:0:0:
132,184,56741,1,2,0:0:0:0:
270,101,56884,5,10,0:0:0:0:
315,104,56955,1,2,0:0:0:0:
360,108,57026,1,6,0:0:0:0:
364,112,57098,1,2,0:0:0:0:
368,116,57169,6,0,P|388:158|387:204,1,90.9999958343508,2|0,0:0|0:0,0:0:0:0:
294,343,57455,1,8,0:0:0:0:
246,178,57598,5,0,0:0:0:0:
369,285,57741,1,0,0:0:0:0:
245,268,57884,1,2,0:0:0:0:
459,251,58027,5,8,0:0:0:0:
396,384,58169,1,0,0:0:0:0:
472,231,58312,6,0,P|477:177|463:134,1,90.9999958343508,2|0,0:0|0:0,0:0:0:0:
335,11,58598,1,8,0:0:0:0:
357,154,58741,5,6,0:0:0:0:
357,154,58812,1,2,0:0:0:0:
357,154,58884,1,2,0:0:0:0:
416,60,59027,1,6,0:0:0:0:
277,198,59169,5,10,0:0:0:0:
247,20,59312,1,6,0:0:0:0:
224,35,59384,1,2,0:0:0:0:
200,49,59455,6,0,L|208:150,1,90.9999958343508,6|0,0:0|0:0,0:0:0:0:
246,319,59741,1,8,0:0:0:0:
112,201,59884,5,0,0:0:0:0:
74,347,60027,1,0,0:0:0:0:
172,270,60169,1,2,0:0:0:0:
26,169,60312,5,10,0:0:0:0:
60,139,60383,1,2,0:0:0:0:
95,110,60454,1,2,0:0:0:0:
16,5,60598,6,0,L|116:13,1,90.9999958343508,2|0,0:0|0:0,0:0:0:0:
287,31,60884,1,8,0:0:0:0:
197,162,61027,5,2,0:0:0:0:
277,42,61169,1,0,0:0:0:0:
162,65,61312,1,2,0:0:0:0:
328,137,61455,5,10,0:0:0:0:
316,181,61527,1,2,0:0:0:0:
304,225,61598,1,6,0:0:0:0:
308,229,61669,1,2,0:0:0:0:
312,233,61741,6,0,P|321:276|355:312,1,90.9999958343508,2|0,0:0|0:0,0:0:0:0:
512,384,62027,1,8,0:0:0:0:
351,310,62169,5,0,0:0:0:0:
497,262,62312,1,0,0:0:0:0:
416,369,62455,1,2,0:0:0:0:
509,242,62598,2,0,P|503:189|463:145,1,90.9999958343508,8|0,0:0|0:0,0:0:0:0:
325,27,62884,5,8,0:0:0:0:
394,223,63027,1,2,0:0:0:0:
212,111,63169,5,8,0:0:0:0:
403,74,63312,1,2,0:0:0:0:
180,29,63455,5,8,0:0:0:0:
341,152,63598,1,2,0:0:0:0:
116,181,63741,5,8,0:0:0:0:
285,66,63884,2,0,P|293:35|286:9,1,45.4999979171754,2|2,0:0|0:0,0:0:0:0:
228,197,64027,6,0,P|256:243|319:270,1,105.000004005432,6|0,0:0|0:0,0:0:0:0:
382,228,64455,1,0,0:0:0:0:
376,353,64598,1,8,0:0:0:0:
405,248,64741,1,0,0:0:0:0:
323,287,64884,1,0,0:0:0:0:
428,268,65027,1,0,0:0:0:0:
292,360,65169,6,0,B|256:360|256:360|224:352|224:352|184:352,1,105.000004005432,2|0,0:0|0:0,0:0:0:0:
98,349,65598,1,0,0:0:0:0:
185,269,65741,1,8,0:0:0:0:
94,243,65884,1,0,0:0:0:0:
198,281,66027,1,0,0:0:0:0:
81,231,66169,1,8,0:0:0:0:
68,219,66241,1,8,0:0:0:0:
55,207,66312,6,0,B|58:170|58:170|45:131|66:97,1,105.000004005432,2|0,0:0|0:0,0:0:0:0:
88,30,66741,1,0,0:0:0:0:
131,139,66884,1,8,0:0:0:0:
187,63,67027,1,0,0:0:0:0:
110,29,67169,1,0,0:0:0:0:
209,62,67312,1,0,0:0:0:0:
332,21,67455,6,0,P|340:77|324:124,1,105.000004005432,2|0,0:0|0:0,0:0:0:0:
262,185,67884,1,0,0:0:0:0:
231,61,68027,1,8,0:0:0:0:
179,145,68169,1,0,0:0:0:0:
253,60,68312,1,0,0:0:0:0:
179,158,68455,1,8,0:0:0:0:
179,171,68527,1,8,0:0:0:0:
179,184,68598,6,0,P|193:232|241:266,1,105.000004005432,2|0,0:0|0:0,0:0:0:0:
321,294,69027,1,0,0:0:0:0:
262,185,69169,1,8,0:0:0:0:
353,209,69312,1,0,0:0:0:0:
326,122,69455,1,0,0:0:0:0:
417,146,69598,1,0,0:0:0:0:
290,44,69741,6,0,P|364:41|387:60,1,105.000004005432,2|0,0:0|0:0,0:0:0:0:
417,146,70169,1,0,0:0:0:0:
478,22,70312,1,8,0:0:0:0:
512,111,70455,1,0,0:0:0:0:
485,9,70598,1,0,0:0:0:0:
505,124,70741,1,8,0:0:0:0:
498,137,70812,1,8,0:0:0:0:
491,150,70884,6,0,B|484:195|448:213|448:213|433:246,1,105.000004005432,2|0,0:0|0:0,0:0:0:0:
401,316,71312,1,0,0:0:0:0:
512,271,71455,1,8,0:0:0:0:
427,228,71598,1,0,0:0:0:0:
512,286,71741,1,0,0:0:0:0:
401,331,71884,1,0,0:0:0:0:
335,189,72027,5,8,0:0:0:0:
291,325,72169,1,2,0:0:0:0:
244,166,72312,5,8,0:0:0:0:
293,308,72455,1,2,0:0:0:0:
121,245,72598,5,8,0:0:0:0:
266,151,72741,1,2,0:0:0:0:
55,125,72884,5,8,0:0:0:0:
208,238,73027,2,0,P|225:247|255:246,1,45.4999979171754,2|2,0:0|0:0,0:0:0:0:
246,51,73169,6,0,P|204:68|176:105,1,90.9999958343508,6|0,0:0|0:0,0:0:0:0:
121,245,73455,1,8,0:0:0:0:
266,151,73598,5,0,0:0:0:0:
124,165,73741,1,0,0:0:0:0:
293,134,73884,1,2,0:0:0:0:
121,245,74027,1,8,0:0:0:0:
269,292,74169,1,0,0:0:0:0:
91,329,74312,6,0,P|53:305|35:246,1,90.9999958343508,2|0,0:0|0:0,0:0:0:0:
61,97,74598,1,8,0:0:0:0:
198,195,74741,5,2,0:0:0:0:
47,179,74884,1,0,0:0:0:0:
191,87,75027,1,2,0:0:0:0:
121,245,75169,1,8,0:0:0:0:
120,42,75312,1,2,0:0:0:0:
120,42,75384,1,2,0:0:0:0:
120,42,75455,6,0,P|153:9|200:3,1,90.9999958343508,2|0,0:0|0:0,0:0:0:0:
348,55,75741,1,8,0:0:0:0:
203,176,75884,5,0,0:0:0:0:
337,80,76027,1,0,0:0:0:0:
191,87,76169,1,2,0:0:0:0:
329,217,76312,1,8,0:0:0:0:
262,53,76455,1,0,0:0:0:0:
256,253,76598,6,0,P|299:293|338:298,1,90.9999958343508,2|0,0:0|0:0,0:0:0:0:
493,248,76884,1,8,0:0:0:0:
373,370,77027,5,6,0:0:0:0:
343,198,77169,1,2,0:0:0:0:
438,313,77312,1,6,0:0:0:0:
462,139,77455,1,10,0:0:0:0:
329,217,77598,1,6,0:0:0:0:
315,236,77669,1,2,0:0:0:0:
301,255,77741,6,0,L|209:246,1,90.9999958343508,6|0,0:0|0:0,0:0:0:0:
42,232,78027,1,8,0:0:0:0:
153,348,78169,5,0,0:0:0:0:
61,222,78312,1,0,0:0:0:0:
229,237,78455,1,2,0:0:0:0:
58,137,78598,1,8,0:0:0:0:
76,307,78741,1,0,0:0:0:0:
185,161,78884,6,0,P|227:148|280:167,1,90.9999958343508,2|0,0:0|0:0,0:0:0:0:
410,245,79169,1,8,0:0:0:0:
372,105,79312,5,2,0:0:0:0:
436,232,79455,1,0,0:0:0:0:
453,64,79598,1,2,0:0:0:0:
339,208,79741,1,8,0:0:0:0:
270,29,79884,1,2,0:0:0:0:
270,29,79955,1,2,0:0:0:0:
270,29,80027,6,0,B|239:20|239:20|155:46,1,90.9999958343508,2|0,0:0|0:0,0:0:0:0:
37,103,80312,1,8,0:0:0:0:
197,130,80455,5,0,0:0:0:0:
59,103,80598,1,0,0:0:0:0:
168,214,80741,1,2,0:0:0:0:
102,36,80884,1,8,0:0:0:0:
65,204,81027,1,0,0:0:0:0:
182,37,81169,5,8,0:0:0:0:
251,220,81312,1,2,0:0:0:0:
307,0,81455,5,8,0:0:0:0:
272,207,81598,1,2,0:0:0:0:
492,146,81741,5,8,0:0:0:0:
286,112,81884,1,2,0:0:0:0:
422,285,82027,5,8,0:0:0:0:
393,60,82169,1,2,0:0:0:0:
293,194,82312,5,4,0:0:0:0:
