osu file format v14

[General]
AudioFilename: audio.mp3
AudioLeadIn: 0
PreviewTime: -1
Countdown: 1
SampleSet: Normal
StackLeniency: 0.7
Mode: 3
LetterboxInBreaks: 0
SpecialStyle: 0
WidescreenStoryboard: 1

[Editor]
DistanceSpacing: 1
BeatDivisor: 6
GridSize: 16
TimelineZoom: 1

[Metadata]
Title:The Seven Seas
TitleUnicode:The Seven Seas
Artist:F-777
ArtistUnicode:F-777
Creator:jasionnn
Version:Extra
Source:
Tags:
BeatmapID:1705421
BeatmapSetID:812627

[Difficulty]
HPDrainRate:8.5
CircleSize:4
OverallDifficulty:7
ApproachRate:5
SliderMultiplier:1.4
SliderTickRate:1

[Events]
//Background and Video events
0,0,"f7777seas.jpg",0,0
//Break Periods
//Storyboard Layer 0 (Background)
//Storyboard Layer 1 (Fail)
//Storyboard Layer 2 (Pass)
//Storyboard Layer 3 (Foreground)
//Storyboard Sound Samples

[TimingPoints]
-316,428.571428571429,4,1,0,100,1,0

[HitObjects]
64,192,112,5,0,0:0:0:0:
448,192,112,1,0,0:0:0:0:
320,192,112,1,0,0:0:0:0:
192,192,255,1,0,0:0:0:0:
320,192,398,1,0,0:0:0:0:
448,192,541,1,0,0:0:0:0:
64,192,541,1,0,0:0:0:0:
192,192,541,1,0,0:0:0:0:
320,192,684,1,0,0:0:0:0:
192,192,826,1,0,0:0:0:0:
64,192,969,1,0,0:0:0:0:
320,192,969,1,0,0:0:0:0:
448,192,969,1,0,0:0:0:0:
192,192,1112,1,0,0:0:0:0:
320,192,1255,1,0,0:0:0:0:
448,192,1398,1,0,0:0:0:0:
192,192,1398,1,0,0:0:0:0:
64,192,1398,1,0,0:0:0:0:
320,192,1684,1,0,0:0:0:0:
64,192,1826,1,0,0:0:0:0:
192,192,1826,1,0,0:0:0:0:
448,192,1826,1,0,0:0:0:0:
320,192,1969,1,0,0:0:0:0:
64,192,2112,1,0,0:0:0:0:
192,192,2255,1,0,0:0:0:0:
320,192,2255,1,0,0:0:0:0:
448,192,2255,1,0,0:0:0:0:
64,192,2398,1,0,0:0:0:0:
192,192,2541,1,0,0:0:0:0:
448,192,2684,1,0,0:0:0:0:
64,192,2684,1,0,0:0:0:0:
320,192,2684,1,0,0:0:0:0:
192,192,2826,1,0,0:0:0:0:
448,192,2969,1,0,0:0:0:0:
64,192,3112,1,0,0:0:0:0:
192,192,3112,1,0,0:0:0:0:
320,192,3112,1,0,0:0:0:0:
448,192,3255,1,0,0:0:0:0:
320,192,3398,1,0,0:0:0:0:
192,192,3541,1,0,0:0:0:0:
64,192,3541,1,0,0:0:0:0:
448,192,3541,1,0,0:0:0:0:
320,192,3684,1,0,0:0:0:0:
192,192,3826,1,0,0:0:0:0:
320,192,3969,1,0,0:0:0:0:
448,192,3969,1,0,0:0:0:0:
64,192,3969,1,0,0:0:0:0:
192,192,4112,1,0,0:0:0:0:
320,192,4255,1,0,0:0:0:0:
192,192,4398,1,0,0:0:0:0:
64,192,4398,1,0,0:0:0:0:
448,192,4398,1,0,0:0:0:0:
320,192,4541,1,0,0:0:0:0:
192,192,4684,1,0,0:0:0:0:
448,192,4826,1,0,0:0:0:0:
64,192,4826,1,0,0:0:0:0:
320,192,4826,1,0,0:0:0:0:
192,192,5112,1,0,0:0:0:0:
448,192,5255,1,0,0:0:0:0:
320,192,5255,1,0,0:0:0:0:
64,192,5255,1,0,0:0:0:0:
192,192,5398,1,0,0:0:0:0:
448,192,5541,1,0,0:0:0:0:
320,192,5684,1,0,0:0:0:0:
192,192,5684,1,0,0:0:0:0:
64,192,5684,1,0,0:0:0:0:
448,192,5826,1,0,0:0:0:0:
320,192,5969,1,0,0:0:0:0:
64,192,6112,1,0,0:0:0:0:
192,192,6112,1,0,0:0:0:0:
448,192,6112,1,0,0:0:0:0:
192,192,6398,1,0,0:0:0:0:
320,192,6398,1,0,0:0:0:0:
448,192,6541,1,0,0:0:0:0:
64,192,6541,128,0,6969:0:0:0:0:
192,192,6969,1,0,0:0:0:0:
448,192,6969,1,0,0:0:0:0:
320,192,6969,1,0,0:0:0:0:
64,192,7112,1,0,0:0:0:0:
320,192,7112,1,0,0:0:0:0:
448,192,7255,1,0,0:0:0:0:
320,192,7255,1,0,0:0:0:0:
192,192,7398,1,0,0:0:0:0:
64,192,7398,1,0,0:0:0:0:
448,192,7398,1,0,0:0:0:0:
320,192,7541,1,0,0:0:0:0:
64,192,7541,1,0,0:0:0:0:
192,192,7684,1,0,0:0:0:0:
448,192,7684,1,0,0:0:0:0:
64,192,7826,1,0,0:0:0:0:
320,192,7826,1,0,0:0:0:0:
192,192,7826,1,0,0:0:0:0:
448,192,7969,1,0,0:0:0:0:
64,192,7969,1,0,0:0:0:0:
192,192,8112,1,0,0:0:0:0:
320,192,8112,1,0,0:0:0:0:
320,192,8255,1,0,0:0:0:0:
448,192,8255,1,0,0:0:0:0:
64,192,8255,1,0,0:0:0:0:
448,192,8541,1,0,0:0:0:0:
64,192,8684,1,0,0:0:0:0:
192,192,8684,1,0,0:0:0:0:
320,192,8684,1,0,0:0:0:0:
192,192,8826,1,0,0:0:0:0:
448,192,8826,1,0,0:0:0:0:
64,192,8969,1,0,0:0:0:0:
192,192,8969,1,0,0:0:0:0:
320,192,9112,1,0,0:0:0:0:
448,192,9112,1,0,0:0:0:0:
64,192,9112,1,0,0:0:0:0:
448,192,9255,1,0,0:0:0:0:
192,192,9255,1,0,0:0:0:0:
320,192,9398,1,0,0:0:0:0:
64,192,9398,1,0,0:0:0:0:
192,192,9541,1,0,0:0:0:0:
320,192,9541,1,0,0:0:0:0:
448,192,9541,1,0,0:0:0:0:
64,192,9684,1,0,0:0:0:0:
192,192,9684,1,0,0:0:0:0:
448,192,9826,1,0,0:0:0:0:
192,192,9826,1,0,0:0:0:0:
192,192,9969,1,0,0:0:0:0:
64,192,9969,1,0,0:0:0:0:
320,192,9969,1,0,0:0:0:0:
64,192,10112,1,0,0:0:0:0:
448,192,10112,1,0,0:0:0:0:
192,192,10255,1,0,0:0:0:0:
320,192,10255,1,0,0:0:0:0:
320,192,10398,1,0,0:0:0:0:
64,192,10398,1,0,0:0:0:0:
448,192,10398,1,0,0:0:0:0:
64,192,10541,1,0,0:0:0:0:
192,192,10541,1,0,0:0:0:0:
64,192,10684,1,0,0:0:0:0:
320,192,10684,1,0,0:0:0:0:
448,192,10826,1,0,0:0:0:0:
192,192,10826,1,0,0:0:0:0:
320,192,10826,1,0,0:0:0:0:
64,192,10969,1,0,0:0:0:0:
192,192,10969,1,0,0:0:0:0:
448,192,11112,1,0,0:0:0:0:
192,192,11112,1,0,0:0:0:0:
448,192,11255,1,0,0:0:0:0:
64,192,11255,1,0,0:0:0:0:
320,192,11255,1,0,0:0:0:0:
192,192,11398,1,0,0:0:0:0:
320,192,11398,1,0,0:0:0:0:
448,192,11541,1,0,0:0:0:0:
64,192,11541,1,0,0:0:0:0:
192,192,11684,1,0,0:0:0:0:
320,192,11684,1,0,0:0:0:0:
64,192,11684,1,0,0:0:0:0:
320,192,11969,1,0,0:0:0:0:
448,192,12112,1,0,0:0:0:0:
64,192,12112,1,0,0:0:0:0:
192,192,12112,1,0,0:0:0:0:
320,192,12255,1,0,0:0:0:0:
192,192,12255,1,0,0:0:0:0:
448,192,12398,1,0,0:0:0:0:
64,192,12398,1,0,0:0:0:0:
320,192,12541,1,0,0:0:0:0:
64,192,12541,1,0,0:0:0:0:
192,192,12541,1,0,0:0:0:0:
448,192,12684,1,0,0:0:0:0:
192,192,12684,1,0,0:0:0:0:
320,192,12826,1,0,0:0:0:0:
192,192,12826,1,0,0:0:0:0:
64,192,12969,1,0,0:0:0:0:
320,192,12969,1,0,0:0:0:0:
448,192,12969,1,0,0:0:0:0:
192,192,13255,1,0,0:0:0:0:
448,192,13255,1,0,0:0:0:0:
64,192,13398,1,0,0:0:0:0:
320,192,13398,128,0,13826:0:0:0:0:
64,192,13826,1,0,0:0:0:0:
448,192,13826,1,0,0:0:0:0:
192,192,13898,1,0,0:0:0:0:
320,192,13969,1,0,0:0:0:0:
448,192,14041,1,0,0:0:0:0:
64,192,14112,1,0,0:0:0:0:
320,192,14184,1,0,0:0:0:0:
448,192,14255,1,0,0:0:0:0:
192,192,14255,1,0,0:0:0:0:
64,192,14326,1,0,0:0:0:0:
320,192,14398,1,0,0:0:0:0:
448,192,14469,1,0,0:0:0:0:
192,192,14541,1,0,0:0:0:0:
320,192,14612,1,0,0:0:0:0:
448,192,14684,1,0,0:0:0:0:
64,192,14684,1,0,0:0:0:0:
320,192,14755,1,0,0:0:0:0:
192,192,14826,1,0,0:0:0:0:
448,192,14898,1,0,0:0:0:0:
64,192,14969,1,0,0:0:0:0:
192,192,15041,1,0,0:0:0:0:
320,192,15112,1,0,0:0:0:0:
448,192,15112,1,0,0:0:0:0:
64,192,15112,1,0,0:0:0:0:
192,192,15398,1,0,0:0:0:0:
448,192,15541,1,0,0:0:0:0:
320,192,15541,1,0,0:0:0:0:
64,192,15612,1,0,0:0:0:0:
192,192,15684,1,0,0:0:0:0:
320,192,15755,1,0,0:0:0:0:
448,192,15826,1,0,0:0:0:0:
192,192,15898,1,0,0:0:0:0:
320,192,15969,1,0,0:0:0:0:
64,192,15969,1,0,0:0:0:0:
448,192,16041,1,0,0:0:0:0:
192,192,16112,1,0,0:0:0:0:
64,192,16184,1,0,0:0:0:0:
192,192,16255,1,0,0:0:0:0:
320,192,16326,1,0,0:0:0:0:
448,192,16398,1,0,0:0:0:0:
192,192,16398,1,0,0:0:0:0:
64,192,16469,1,0,0:0:0:0:
320,192,16541,1,0,0:0:0:0:
192,192,16612,1,0,0:0:0:0:
448,192,16684,1,0,0:0:0:0:
64,192,16755,1,0,0:0:0:0:
192,192,16826,1,0,0:0:0:0:
320,192,16826,1,0,0:0:0:0:
448,192,16898,1,0,0:0:0:0:
320,192,16969,1,0,0:0:0:0:
64,192,16969,1,0,0:0:0:0:
192,192,17041,1,0,0:0:0:0:
320,192,17112,1,0,0:0:0:0:
448,192,17112,1,0,0:0:0:0:
64,192,17184,1,0,0:0:0:0:
320,192,17255,1,0,0:0:0:0:
192,192,17326,1,0,0:0:0:0:
320,192,17398,1,0,0:0:0:0:
448,192,17469,1,0,0:0:0:0:
192,192,17541,1,0,0:0:0:0:
64,192,17612,1,0,0:0:0:0:
320,192,17684,1,0,0:0:0:0:
448,192,17684,1,0,0:0:0:0:
192,192,17755,1,0,0:0:0:0:
448,192,17826,1,0,0:0:0:0:
64,192,17898,1,0,0:0:0:0:
320,192,17969,1,0,0:0:0:0:
192,192,18041,1,0,0:0:0:0:
64,192,18112,1,0,0:0:0:0:
320,192,18112,1,0,0:0:0:0:
448,192,18184,1,0,0:0:0:0:
192,192,18255,1,0,0:0:0:0:
320,192,18255,1,0,0:0:0:0:
64,192,18326,1,0,0:0:0:0:
192,192,18398,1,0,0:0:0:0:
448,192,18398,1,0,0:0:0:0:
320,192,18469,1,0,0:0:0:0:
192,192,18541,1,0,0:0:0:0:
64,192,18541,1,0,0:0:0:0:
448,192,18826,1,0,0:0:0:0:
64,192,18969,1,0,0:0:0:0:
320,192,18969,1,0,0:0:0:0:
192,192,19041,1,0,0:0:0:0:
320,192,19112,1,0,0:0:0:0:
448,192,19184,1,0,0:0:0:0:
192,192,19255,1,0,0:0:0:0:
320,192,19326,1,0,0:0:0:0:
192,192,19398,1,0,0:0:0:0:
64,192,19398,1,0,0:0:0:0:
448,192,19469,1,0,0:0:0:0:
192,192,19541,1,0,0:0:0:0:
320,192,19612,1,0,0:0:0:0:
448,192,19684,1,0,0:0:0:0:
64,192,19755,1,0,0:0:0:0:
320,192,19826,1,0,0:0:0:0:
192,192,19826,1,0,0:0:0:0:
192,192,20112,1,0,0:0:0:0:
448,192,20255,1,0,0:0:0:0:
320,192,20255,1,0,0:0:0:0:
64,192,20398,1,0,0:0:0:0:
320,192,20541,1,0,0:0:0:0:
192,192,20684,1,0,0:0:0:0:
448,192,20684,1,0,0:0:0:0:
64,192,20755,1,0,0:0:0:0:
320,192,20826,1,0,0:0:0:0:
192,192,20898,1,0,0:0:0:0:
320,192,20969,1,0,0:0:0:0:
64,192,20969,1,0,0:0:0:0:
448,192,21041,1,0,0:0:0:0:
192,192,21112,1,0,0:0:0:0:
320,192,21112,1,0,0:0:0:0:
64,192,21184,1,0,0:0:0:0:
320,192,21255,1,0,0:0:0:0:
192,192,21326,1,0,0:0:0:0:
64,192,21398,1,0,0:0:0:0:
448,192,21398,1,0,0:0:0:0:
192,192,21469,1,0,0:0:0:0:
64,192,21541,1,0,0:0:0:0:
320,192,21541,1,0,0:0:0:0:
448,192,21612,1,0,0:0:0:0:
320,192,21684,1,0,0:0:0:0:
192,192,21755,1,0,0:0:0:0:
320,192,21826,1,0,0:0:0:0:
64,192,21826,1,0,0:0:0:0:
448,192,21898,1,0,0:0:0:0:
192,192,21969,1,0,0:0:0:0:
320,192,21969,1,0,0:0:0:0:
64,192,21969,1,0,0:0:0:0:
448,192,22255,1,0,0:0:0:0:
64,192,22398,1,0,0:0:0:0:
192,192,22398,1,0,0:0:0:0:
320,192,22469,1,0,0:0:0:0:
448,192,22541,1,0,0:0:0:0:
64,192,22612,1,0,0:0:0:0:
192,192,22684,1,0,0:0:0:0:
320,192,22684,1,0,0:0:0:0:
448,192,22755,1,0,0:0:0:0:
192,192,22826,1,0,0:0:0:0:
64,192,22826,1,0,0:0:0:0:
320,192,22898,1,0,0:0:0:0:
448,192,22969,1,0,0:0:0:0:
64,192,23041,1,0,0:0:0:0:
192,192,23112,1,0,0:0:0:0:
320,192,23112,1,0,0:0:0:0:
448,192,23184,1,0,0:0:0:0:
320,192,23255,1,0,0:0:0:0:
64,192,23255,1,0,0:0:0:0:
192,192,23326,1,0,0:0:0:0:
320,192,23398,1,0,0:0:0:0:
448,192,23469,1,0,0:0:0:0:
320,192,23541,1,0,0:0:0:0:
192,192,23541,1,0,0:0:0:0:
64,192,23612,1,0,0:0:0:0:
192,192,23684,1,0,0:0:0:0:
448,192,23684,1,0,0:0:0:0:
320,192,23755,1,0,0:0:0:0:
192,192,23826,1,0,0:0:0:0:
448,192,23898,1,0,0:0:0:0:
192,192,23969,1,0,0:0:0:0:
64,192,23969,1,0,0:0:0:0:
320,192,24041,1,0,0:0:0:0:
448,192,24112,1,0,0:0:0:0:
192,192,24112,1,0,0:0:0:0:
64,192,24184,1,0,0:0:0:0:
192,192,24255,1,0,0:0:0:0:
320,192,24255,1,0,0:0:0:0:
448,192,24326,1,0,0:0:0:0:
64,192,24398,1,0,0:0:0:0:
320,192,24398,1,0,0:0:0:0:
192,192,24469,1,0,0:0:0:0:
320,192,24541,1,0,0:0:0:0:
448,192,24541,1,0,0:0:0:0:
64,192,24612,1,0,0:0:0:0:
320,192,24684,1,0,0:0:0:0:
192,192,24684,1,0,0:0:0:0:
448,192,24755,1,0,0:0:0:0:
64,192,24826,1,0,0:0:0:0:
192,192,24826,1,0,0:0:0:0:
320,192,24898,1,0,0:0:0:0:
448,192,24969,1,0,0:0:0:0:
64,192,24969,1,0,0:0:0:0:
192,192,25041,1,0,0:0:0:0:
320,192,25112,1,0,0:0:0:0:
448,192,25112,1,0,0:0:0:0:
64,192,25184,1,0,0:0:0:0:
448,192,25255,1,0,0:0:0:0:
192,192,25255,1,0,0:0:0:0:
320,192,25326,1,0,0:0:0:0:
64,192,25398,1,0,0:0:0:0:
192,192,25398,1,0,0:0:0:0:
448,192,25469,1,0,0:0:0:0:
192,192,25541,1,0,0:0:0:0:
320,192,25541,1,0,0:0:0:0:
64,192,25612,1,0,0:0:0:0:
448,192,25684,1,0,0:0:0:0:
192,192,25684,1,0,0:0:0:0:
320,192,25755,1,0,0:0:0:0:
192,192,25826,1,0,0:0:0:0:
64,192,25826,1,0,0:0:0:0:
320,192,25898,1,0,0:0:0:0:
448,192,25898,1,0,0:0:0:0:
64,192,25969,1,0,0:0:0:0:
192,192,25969,1,0,0:0:0:0:
320,192,26041,1,0,0:0:0:0:
448,192,26041,1,0,0:0:0:0:
192,192,26112,1,0,0:0:0:0:
64,192,26112,1,0,0:0:0:0:
320,192,26184,1,0,0:0:0:0:
448,192,26184,1,0,0:0:0:0:
192,192,26255,1,0,0:0:0:0:
64,192,26255,1,0,0:0:0:0:
448,192,26326,1,0,0:0:0:0:
320,192,26326,1,0,0:0:0:0:
192,192,26398,1,0,0:0:0:0:
64,192,26398,1,0,0:0:0:0:
320,192,26469,1,0,0:0:0:0:
448,192,26469,1,0,0:0:0:0:
64,192,26541,1,0,0:0:0:0:
192,192,26541,1,0,0:0:0:0:
448,192,26612,1,0,0:0:0:0:
320,192,26612,1,0,0:0:0:0:
192,192,26684,1,0,0:0:0:0:
64,192,26684,1,0,0:0:0:0:
320,192,26969,1,0,0:0:0:0:
448,192,27112,128,0,27255:0:0:0:0:
64,192,27255,128,0,27398:0:0:0:0:
192,192,27398,128,0,27541:0:0:0:0:
320,192,27541,1,0,0:0:0:0:
448,192,27541,1,0,0:0:0:0:
64,192,27541,1,0,0:0:0:0:
320,192,27684,1,0,0:0:0:0:
192,192,27684,1,0,0:0:0:0:
448,192,27826,1,0,0:0:0:0:
192,192,27826,1,0,0:0:0:0:
448,192,27969,1,0,0:0:0:0:
192,192,27969,1,0,0:0:0:0:
64,192,27969,1,0,0:0:0:0:
320,192,27969,1,0,0:0:0:0:
64,192,28112,1,0,0:0:0:0:
320,192,28112,1,0,0:0:0:0:
448,192,28255,1,0,0:0:0:0:
320,192,28255,1,0,0:0:0:0:
448,192,28398,1,0,0:0:0:0:
64,192,28398,1,0,0:0:0:0:
192,192,28398,1,0,0:0:0:0:
192,192,28541,1,0,0:0:0:0:
320,192,28541,1,0,0:0:0:0:
64,192,28684,1,0,0:0:0:0:
320,192,28684,1,0,0:0:0:0:
64,192,28826,1,0,0:0:0:0:
192,192,28826,1,0,0:0:0:0:
320,192,28826,1,0,0:0:0:0:
448,192,28826,1,0,0:0:0:0:
192,192,29112,1,0,0:0:0:0:
320,192,29112,1,0,0:0:0:0:
448,192,29255,1,0,0:0:0:0:
320,192,29255,1,0,0:0:0:0:
64,192,29255,1,0,0:0:0:0:
320,192,29398,1,0,0:0:0:0:
192,192,29398,1,0,0:0:0:0:
448,192,29541,1,0,0:0:0:0:
192,192,29541,1,0,0:0:0:0:
64,192,29684,1,0,0:0:0:0:
192,192,29684,1,0,0:0:0:0:
320,192,29684,1,0,0:0:0:0:
448,192,29684,1,0,0:0:0:0:
320,192,29826,1,0,0:0:0:0:
64,192,29826,1,0,0:0:0:0:
192,192,29969,1,0,0:0:0:0:
320,192,29969,1,0,0:0:0:0:
448,192,30112,1,0,0:0:0:0:
64,192,30112,1,0,0:0:0:0:
192,192,30112,1,0,0:0:0:0:
64,192,30255,1,0,0:0:0:0:
320,192,30255,1,0,0:0:0:0:
320,192,30398,1,0,0:0:0:0:
192,192,30398,1,0,0:0:0:0:
448,192,30541,1,0,0:0:0:0:
320,192,30541,1,0,0:0:0:0:
192,192,30541,1,0,0:0:0:0:
64,192,30541,1,0,0:0:0:0:
448,192,30684,1,0,0:0:0:0:
192,192,30684,1,0,0:0:0:0:
64,192,30826,1,0,0:0:0:0:
192,192,30826,1,0,0:0:0:0:
448,192,30969,1,0,0:0:0:0:
320,192,30969,1,0,0:0:0:0:
64,192,30969,1,0,0:0:0:0:
192,192,31112,1,0,0:0:0:0:
448,192,31112,1,0,0:0:0:0:
320,192,31255,1,0,0:0:0:0:
192,192,31255,1,0,0:0:0:0:
64,192,31398,1,0,0:0:0:0:
192,192,31398,1,0,0:0:0:0:
320,192,31398,1,0,0:0:0:0:
448,192,31398,1,0,0:0:0:0:
64,192,31541,1,0,0:0:0:0:
448,192,31541,1,0,0:0:0:0:
192,192,31684,1,0,0:0:0:0:
320,192,31684,1,0,0:0:0:0:
64,192,31826,1,0,0:0:0:0:
192,192,31826,1,0,0:0:0:0:
448,192,31826,1,0,0:0:0:0:
320,192,31969,1,0,0:0:0:0:
64,192,31969,1,0,0:0:0:0:
448,192,32112,1,0,0:0:0:0:
320,192,32112,1,0,0:0:0:0:
448,192,32255,1,0,0:0:0:0:
320,192,32255,1,0,0:0:0:0:
192,192,32255,1,0,0:0:0:0:
64,192,32255,1,0,0:0:0:0:
448,192,32541,1,0,0:0:0:0:
64,192,32541,1,0,0:0:0:0:
64,192,32684,1,0,0:0:0:0:
320,192,32684,1,0,0:0:0:0:
192,192,32684,1,0,0:0:0:0:
448,192,32826,1,0,0:0:0:0:
192,192,32826,1,0,0:0:0:0:
192,192,32969,1,0,0:0:0:0:
320,192,32969,1,0,0:0:0:0:
448,192,33112,1,0,0:0:0:0:
64,192,33112,1,0,0:0:0:0:
192,192,33112,1,0,0:0:0:0:
320,192,33112,1,0,0:0:0:0:
448,192,33255,1,0,0:0:0:0:
192,192,33255,1,0,0:0:0:0:
64,192,33398,1,0,0:0:0:0:
192,192,33398,1,0,0:0:0:0:
320,192,33541,1,0,0:0:0:0:
448,192,33541,1,0,0:0:0:0:
64,192,33541,1,0,0:0:0:0:
192,192,33826,1,0,0:0:0:0:
448,192,33826,1,0,0:0:0:0:
192,192,33969,1,0,0:0:0:0:
320,192,33969,1,0,0:0:0:0:
448,192,33969,1,0,0:0:0:0:
64,192,33969,1,0,0:0:0:0:
192,192,34112,1,0,0:0:0:0:
320,192,34112,1,0,0:0:0:0:
448,192,34255,1,0,0:0:0:0:
64,192,34255,1,0,0:0:0:0:
64,192,34398,1,0,0:0:0:0:
320,192,34398,1,0,0:0:0:0:
192,192,34398,1,0,0:0:0:0:
448,192,34541,1,0,0:0:0:0:
320,192,34541,1,0,0:0:0:0:
448,192,34684,1,0,0:0:0:0:
192,192,34684,1,0,0:0:0:0:
64,192,34826,1,0,0:0:0:0:
448,192,34826,1,0,0:0:0:0:
320,192,34826,1,0,0:0:0:0:
192,192,34826,1,0,0:0:0:0:
192,192,34969,1,0,0:0:0:0:
320,192,34969,1,0,0:0:0:0:
64,192,35112,1,0,0:0:0:0:
448,192,35112,1,0,0:0:0:0:
192,192,35255,1,0,0:0:0:0:
320,192,35255,1,0,0:0:0:0:
448,192,35255,1,0,0:0:0:0:
64,192,35398,1,0,0:0:0:0:
192,192,35398,1,0,0:0:0:0:
192,192,35541,1,0,0:0:0:0:
448,192,35541,1,0,0:0:0:0:
64,192,35684,1,0,0:0:0:0:
192,192,35684,1,0,0:0:0:0:
448,192,35684,1,0,0:0:0:0:
320,192,35684,1,0,0:0:0:0:
320,192,35969,1,0,0:0:0:0:
64,192,35969,1,0,0:0:0:0:
64,192,36112,1,0,0:0:0:0:
448,192,36112,1,0,0:0:0:0:
192,192,36112,1,0,0:0:0:0:
192,192,36255,1,0,0:0:0:0:
320,192,36255,1,0,0:0:0:0:
320,192,36398,1,0,0:0:0:0:
64,192,36398,1,0,0:0:0:0:
64,192,36541,1,0,0:0:0:0:
192,192,36541,1,0,0:0:0:0:
320,192,36541,1,0,0:0:0:0:
448,192,36541,1,0,0:0:0:0:
192,192,36684,1,0,0:0:0:0:
320,192,36684,1,0,0:0:0:0:
64,192,36826,1,0,0:0:0:0:
448,192,36826,1,0,0:0:0:0:
192,192,36969,1,0,0:0:0:0:
320,192,36969,1,0,0:0:0:0:
448,192,36969,1,0,0:0:0:0:
64,192,37112,1,0,0:0:0:0:
192,192,37112,1,0,0:0:0:0:
192,192,37255,1,0,0:0:0:0:
448,192,37255,1,0,0:0:0:0:
448,192,37398,1,0,0:0:0:0:
320,192,37398,1,0,0:0:0:0:
192,192,37398,1,0,0:0:0:0:
64,192,37398,1,0,0:0:0:0:
64,192,37541,1,0,0:0:0:0:
320,192,37541,1,0,0:0:0:0:
448,192,37684,1,0,0:0:0:0:
192,192,37684,1,0,0:0:0:0:
320,192,37826,1,0,0:0:0:0:
192,192,37826,1,0,0:0:0:0:
64,192,37826,1,0,0:0:0:0:
320,192,37969,1,0,0:0:0:0:
448,192,37969,1,0,0:0:0:0:
320,192,38112,1,0,0:0:0:0:
64,192,38112,1,0,0:0:0:0:
64,192,38255,1,0,0:0:0:0:
192,192,38255,1,0,0:0:0:0:
320,192,38255,1,0,0:0:0:0:
448,192,38255,1,0,0:0:0:0:
320,192,38398,1,0,0:0:0:0:
192,192,38398,1,0,0:0:0:0:
64,192,38541,1,0,0:0:0:0:
448,192,38541,1,0,0:0:0:0:
192,192,38684,1,0,0:0:0:0:
320,192,38684,1,0,0:0:0:0:
448,192,38684,1,0,0:0:0:0:
64,192,38826,1,0,0:0:0:0:
320,192,38826,1,0,0:0:0:0:
320,192,38969,1,0,0:0:0:0:
192,192,38969,1,0,0:0:0:0:
448,192,39112,1,0,0:0:0:0:
320,192,39112,1,0,0:0:0:0:
192,192,39112,1,0,0:0:0:0:
64,192,39112,1,0,0:0:0:0:
448,192,39398,1,0,0:0:0:0:
192,192,39398,1,0,0:0:0:0:
320,192,39541,1,0,0:0:0:0:
192,192,39541,1,0,0:0:0:0:
64,192,39541,1,0,0:0:0:0:
320,192,39684,1,0,0:0:0:0:
448,192,39684,1,0,0:0:0:0:
64,192,39826,1,0,0:0:0:0:
448,192,39826,1,0,0:0:0:0:
64,192,39969,1,0,0:0:0:0:
192,192,39969,1,0,0:0:0:0:
320,192,39969,1,0,0:0:0:0:
448,192,39969,1,0,0:0:0:0:
64,192,40112,1,0,0:0:0:0:
320,192,40112,1,0,0:0:0:0:
192,192,40255,1,0,0:0:0:0:
448,192,40255,1,0,0:0:0:0:
320,192,40398,128,0,40826:0:0:0:0:
448,192,40684,1,0,0:0:0:0:
192,192,40826,128,0,41255:0:0:0:0:
64,192,40969,1,0,0:0:0:0:
448,192,41112,1,0,0:0:0:0:
64,192,41255,1,0,0:0:0:0:
320,192,41255,1,0,0:0:0:0:
448,192,41326,1,0,0:0:0:0:
320,192,41398,1,0,0:0:0:0:
64,192,41469,1,0,0:0:0:0:
192,192,41541,1,0,0:0:0:0:
320,192,41612,1,0,0:0:0:0:
192,192,41684,1,0,0:0:0:0:
448,192,41684,1,0,0:0:0:0:
64,192,41755,1,0,0:0:0:0:
320,192,41826,1,0,0:0:0:0:
192,192,41898,1,0,0:0:0:0:
320,192,41969,1,0,0:0:0:0:
448,192,42041,1,0,0:0:0:0:
64,192,42112,1,0,0:0:0:0:
192,192,42112,1,0,0:0:0:0:
320,192,42184,1,0,0:0:0:0:
192,192,42255,1,0,0:0:0:0:
448,192,42326,1,0,0:0:0:0:
64,192,42398,1,0,0:0:0:0:
320,192,42469,1,0,0:0:0:0:
192,192,42541,1,0,0:0:0:0:
448,192,42541,1,0,0:0:0:0:
64,192,42612,1,0,0:0:0:0:
320,192,42684,1,0,0:0:0:0:
448,192,42755,1,0,0:0:0:0:
192,192,42826,1,0,0:0:0:0:
320,192,42898,1,0,0:0:0:0:
192,192,42969,1,0,0:0:0:0:
64,192,42969,1,0,0:0:0:0:
448,192,43041,1,0,0:0:0:0:
192,192,43112,1,0,0:0:0:0:
320,192,43184,1,0,0:0:0:0:
448,192,43255,1,0,0:0:0:0:
64,192,43326,1,0,0:0:0:0:
320,192,43398,1,0,0:0:0:0:
192,192,43398,1,0,0:0:0:0:
448,192,43469,1,0,0:0:0:0:
192,192,43541,1,0,0:0:0:0:
64,192,43612,1,0,0:0:0:0:
320,192,43684,1,0,0:0:0:0:
192,192,43755,1,0,0:0:0:0:
320,192,43826,1,0,0:0:0:0:
64,192,43826,1,0,0:0:0:0:
448,192,43898,1,0,0:0:0:0:
192,192,43969,1,0,0:0:0:0:
320,192,44041,1,0,0:0:0:0:
192,192,44112,1,0,0:0:0:0:
448,192,44112,1,0,0:0:0:0:
64,192,44184,1,0,0:0:0:0:
320,192,44255,1,0,0:0:0:0:
448,192,44255,1,0,0:0:0:0:
64,192,44326,1,0,0:0:0:0:
320,192,44398,1,0,0:0:0:0:
192,192,44398,1,0,0:0:0:0:
448,192,44469,1,0,0:0:0:0:
192,192,44541,1,0,0:0:0:0:
64,192,44541,1,0,0:0:0:0:
320,192,44612,1,0,0:0:0:0:
448,192,44684,1,0,0:0:0:0:
192,192,44684,1,0,0:0:0:0:
64,192,44755,1,0,0:0:0:0:
320,192,44826,1,0,0:0:0:0:
192,192,44898,1,0,0:0:0:0:
320,192,44969,1,0,0:0:0:0:
448,192,45041,1,0,0:0:0:0:
64,192,45112,1,0,0:0:0:0:
192,192,45112,1,0,0:0:0:0:
320,192,45184,1,0,0:0:0:0:
192,192,45255,1,0,0:0:0:0:
320,192,45326,1,0,0:0:0:0:
448,192,45398,1,0,0:0:0:0:
192,192,45469,1,0,0:0:0:0:
64,192,45541,1,0,0:0:0:0:
320,192,45541,1,0,0:0:0:0:
448,192,45612,1,0,0:0:0:0:
192,192,45684,1,0,0:0:0:0:
64,192,45755,1,0,0:0:0:0:
320,192,45826,1,0,0:0:0:0:
192,192,45898,1,0,0:0:0:0:
320,192,45969,1,0,0:0:0:0:
448,192,45969,1,0,0:0:0:0:
64,192,46041,1,0,0:0:0:0:
320,192,46112,1,0,0:0:0:0:
192,192,46184,1,0,0:0:0:0:
64,192,46255,1,0,0:0:0:0:
448,192,46326,1,0,0:0:0:0:
192,192,46398,1,0,0:0:0:0:
320,192,46398,1,0,0:0:0:0:
64,192,46469,1,0,0:0:0:0:
320,192,46541,1,0,0:0:0:0:
448,192,46612,1,0,0:0:0:0:
192,192,46684,1,0,0:0:0:0:
320,192,46755,1,0,0:0:0:0:
192,192,46826,1,0,0:0:0:0:
448,192,46826,1,0,0:0:0:0:
64,192,46898,1,0,0:0:0:0:
320,192,46969,1,0,0:0:0:0:
192,192,47041,1,0,0:0:0:0:
320,192,47112,1,0,0:0:0:0:
448,192,47184,1,0,0:0:0:0:
192,192,47255,1,0,0:0:0:0:
320,192,47255,1,0,0:0:0:0:
64,192,47326,1,0,0:0:0:0:
448,192,47398,1,0,0:0:0:0:
320,192,47469,1,0,0:0:0:0:
192,192,47541,1,0,0:0:0:0:
64,192,47541,1,0,0:0:0:0:
320,192,47612,1,0,0:0:0:0:
448,192,47684,1,0,0:0:0:0:
192,192,47684,1,0,0:0:0:0:
64,192,47755,1,0,0:0:0:0:
192,192,47826,1,0,0:0:0:0:
320,192,47826,1,0,0:0:0:0:
448,192,47898,1,0,0:0:0:0:
320,192,47969,1,0,0:0:0:0:
64,192,47969,1,0,0:0:0:0:
192,192,48041,1,0,0:0:0:0:
320,192,48112,1,0,0:0:0:0:
448,192,48112,1,0,0:0:0:0:
64,192,48184,1,0,0:0:0:0:
320,192,48255,1,0,0:0:0:0:
192,192,48326,1,0,0:0:0:0:
64,192,48398,1,0,0:0:0:0:
448,192,48469,1,0,0:0:0:0:
192,192,48541,1,0,0:0:0:0:
320,192,48541,1,0,0:0:0:0:
64,192,48612,1,0,0:0:0:0:
448,192,48684,1,0,0:0:0:0:
192,192,48755,1,0,0:0:0:0:
320,192,48826,1,0,0:0:0:0:
192,192,48898,1,0,0:0:0:0:
64,192,48969,1,0,0:0:0:0:
320,192,48969,1,0,0:0:0:0:
448,192,49041,1,0,0:0:0:0:
192,192,49112,1,0,0:0:0:0:
320,192,49184,1,0,0:0:0:0:
64,192,49255,1,0,0:0:0:0:
448,192,49326,1,0,0:0:0:0:
192,192,49398,1,0,0:0:0:0:
320,192,49398,1,0,0:0:0:0:
64,192,49469,1,0,0:0:0:0:
320,192,49541,1,0,0:0:0:0:
448,192,49612,1,0,0:0:0:0:
192,192,49684,1,0,0:0:0:0:
320,192,49755,1,0,0:0:0:0:
192,192,49826,1,0,0:0:0:0:
448,192,49826,1,0,0:0:0:0:
64,192,49898,1,0,0:0:0:0:
320,192,49969,1,0,0:0:0:0:
192,192,50041,1,0,0:0:0:0:
320,192,50112,1,0,0:0:0:0:
448,192,50184,1,0,0:0:0:0:
192,192,50255,1,0,0:0:0:0:
64,192,50255,1,0,0:0:0:0:
320,192,50326,1,0,0:0:0:0:
448,192,50398,1,0,0:0:0:0:
64,192,50469,1,0,0:0:0:0:
320,192,50541,1,0,0:0:0:0:
448,192,50541,1,0,0:0:0:0:
192,192,50612,1,0,0:0:0:0:
320,192,50684,1,0,0:0:0:0:
64,192,50684,1,0,0:0:0:0:
448,192,50755,1,0,0:0:0:0:
192,192,50826,1,0,0:0:0:0:
64,192,50826,1,0,0:0:0:0:
320,192,50898,1,0,0:0:0:0:
448,192,50969,1,0,0:0:0:0:
192,192,50969,1,0,0:0:0:0:
64,192,51041,1,0,0:0:0:0:
192,192,51112,1,0,0:0:0:0:
320,192,51112,1,0,0:0:0:0:
448,192,51184,1,0,0:0:0:0:
192,192,51255,1,0,0:0:0:0:
64,192,51255,1,0,0:0:0:0:
320,192,51326,1,0,0:0:0:0:
448,192,51398,1,0,0:0:0:0:
192,192,51398,1,0,0:0:0:0:
64,192,51469,1,0,0:0:0:0:
192,192,51541,1,0,0:0:0:0:
320,192,51541,1,0,0:0:0:0:
448,192,51612,1,0,0:0:0:0:
64,192,51684,1,0,0:0:0:0:
320,192,51755,1,0,0:0:0:0:
192,192,51826,1,0,0:0:0:0:
320,192,51898,1,0,0:0:0:0:
448,192,51969,1,0,0:0:0:0:
192,192,51969,1,0,0:0:0:0:
64,192,52041,1,0,0:0:0:0:
320,192,52112,1,0,0:0:0:0:
192,192,52184,1,0,0:0:0:0:
320,192,52255,1,0,0:0:0:0:
448,192,52326,1,0,0:0:0:0:
320,192,52398,1,0,0:0:0:0:
64,192,52398,1,0,0:0:0:0:
192,192,52469,1,0,0:0:0:0:
448,192,52541,1,0,0:0:0:0:
64,192,52612,1,0,0:0:0:0:
320,192,52684,1,0,0:0:0:0:
192,192,52755,1,0,0:0:0:0:
64,192,52826,1,0,0:0:0:0:
320,192,52826,1,0,0:0:0:0:
448,192,52898,1,0,0:0:0:0:
192,192,52969,1,0,0:0:0:0:
320,192,53041,1,0,0:0:0:0:
192,192,53112,1,0,0:0:0:0:
64,192,53184,1,0,0:0:0:0:
320,192,53255,1,0,0:0:0:0:
448,192,53255,1,0,0:0:0:0:
192,192,53326,1,0,0:0:0:0:
320,192,53398,1,0,0:0:0:0:
192,192,53469,1,0,0:0:0:0:
64,192,53541,1,0,0:0:0:0:
320,192,53541,1,0,0:0:0:0:
448,192,53612,1,0,0:0:0:0:
320,192,53684,1,0,0:0:0:0:
192,192,53684,1,0,0:0:0:0:
64,192,53755,1,0,0:0:0:0:
320,192,53826,1,0,0:0:0:0:
448,192,53826,1,0,0:0:0:0:
192,192,53898,1,0,0:0:0:0:
64,192,53969,1,0,0:0:0:0:
320,192,53969,1,0,0:0:0:0:
448,192,54041,1,0,0:0:0:0:
320,192,54112,1,0,0:0:0:0:
192,192,54112,128,0,54398:0:0:0:0:
64,192,54398,128,0,54541:0:0:0:0:
448,192,54541,128,0,54684:0:0:0:0:
192,192,54684,128,0,54826:0:0:0:0:
320,192,54826,128,0,54969:0:0:0:0:
64,192,54969,1,0,0:0:0:0:
192,192,54969,1,0,0:0:0:0:
448,192,54969,1,0,0:0:0:0:
320,192,55112,1,0,0:0:0:0:
192,192,55112,1,0,0:0:0:0:
192,192,55255,1,0,0:0:0:0:
448,192,55255,1,0,0:0:0:0:
448,192,55398,1,0,0:0:0:0:
64,192,55398,1,0,0:0:0:0:
320,192,55398,1,0,0:0:0:0:
192,192,55398,1,0,0:0:0:0:
64,192,55541,1,0,0:0:0:0:
192,192,55541,1,0,0:0:0:0:
192,192,55684,1,0,0:0:0:0:
448,192,55684,1,0,0:0:0:0:
64,192,55826,1,0,0:0:0:0:
320,192,55826,1,0,0:0:0:0:
448,192,55826,1,0,0:0:0:0:
192,192,55969,1,0,0:0:0:0:
320,192,55969,1,0,0:0:0:0:
64,192,56112,1,0,0:0:0:0:
320,192,56112,1,0,0:0:0:0:
64,192,56255,1,0,0:0:0:0:
192,192,56255,1,0,0:0:0:0:
320,192,56255,1,0,0:0:0:0:
448,192,56255,1,0,0:0:0:0:
320,192,56398,1,0,0:0:0:0:
448,192,56398,1,0,0:0:0:0:
320,192,56541,1,0,0:0:0:0:
64,192,56541,1,0,0:0:0:0:
64,192,56684,1,0,0:0:0:0:
192,192,56684,1,0,0:0:0:0:
448,192,56684,1,0,0:0:0:0:
192,192,56826,1,0,0:0:0:0:
320,192,56826,1,0,0:0:0:0:
192,192,56969,1,0,0:0:0:0:
448,192,56969,1,0,0:0:0:0:
64,192,57112,1,0,0:0:0:0:
192,192,57112,1,0,0:0:0:0:
320,192,57112,1,0,0:0:0:0:
448,192,57112,1,0,0:0:0:0:
64,192,57255,1,0,0:0:0:0:
192,192,57255,1,0,0:0:0:0:
192,192,57398,1,0,0:0:0:0:
448,192,57398,1,0,0:0:0:0:
320,192,57541,1,0,0:0:0:0:
448,192,57541,1,0,0:0:0:0:
64,192,57541,1,0,0:0:0:0:
192,192,57684,1,0,0:0:0:0:
320,192,57684,1,0,0:0:0:0:
64,192,57826,1,0,0:0:0:0:
320,192,57826,1,0,0:0:0:0:
448,192,57969,1,0,0:0:0:0:
320,192,57969,1,0,0:0:0:0:
192,192,57969,1,0,0:0:0:0:
64,192,57969,1,0,0:0:0:0:
192,192,58112,1,0,0:0:0:0:
448,192,58112,1,0,0:0:0:0:
64,192,58255,1,0,0:0:0:0:
192,192,58255,1,0,0:0:0:0:
448,192,58398,1,0,0:0:0:0:
192,192,58398,1,0,0:0:0:0:
320,192,58398,1,0,0:0:0:0:
64,192,58541,1,0,0:0:0:0:
192,192,58541,1,0,0:0:0:0:
192,192,58684,1,0,0:0:0:0:
320,192,58684,1,0,0:0:0:0:
64,192,58826,1,0,0:0:0:0:
192,192,58826,1,0,0:0:0:0:
448,192,58826,1,0,0:0:0:0:
320,192,58826,1,0,0:0:0:0:
64,192,58969,1,0,0:0:0:0:
320,192,58969,1,0,0:0:0:0:
448,192,59112,1,0,0:0:0:0:
192,192,59112,1,0,0:0:0:0:
64,192,59255,1,0,0:0:0:0:
192,192,59255,1,0,0:0:0:0:
320,192,59255,1,0,0:0:0:0:
64,192,59398,1,0,0:0:0:0:
192,192,59398,1,0,0:0:0:0:
192,192,59541,1,0,0:0:0:0:
320,192,59541,1,0,0:0:0:0:
448,192,59684,1,0,0:0:0:0:
320,192,59684,1,0,0:0:0:0:
192,192,59684,1,0,0:0:0:0:
64,192,59684,1,0,0:0:0:0:
192,192,59826,1,0,0:0:0:0:
448,192,59826,1,0,0:0:0:0:
64,192,59969,1,0,0:0:0:0:
320,192,59969,1,0,0:0:0:0:
192,192,60112,1,0,0:0:0:0:
448,192,60112,1,0,0:0:0:0:
64,192,60112,1,0,0:0:0:0:
320,192,60255,1,0,0:0:0:0:
448,192,60255,1,0,0:0:0:0:
192,192,60398,1,0,0:0:0:0:
320,192,60398,1,0,0:0:0:0:
64,192,60541,1,0,0:0:0:0:
192,192,60541,1,0,0:0:0:0:
448,192,60541,1,0,0:0:0:0:
320,192,60541,1,0,0:0:0:0:
192,192,60684,1,0,0:0:0:0:
448,192,60684,1,0,0:0:0:0:
320,192,60826,1,0,0:0:0:0:
64,192,60826,1,0,0:0:0:0:
64,192,60969,1,0,0:0:0:0:
192,192,60969,1,0,0:0:0:0:
448,192,60969,1,0,0:0:0:0:
320,192,61112,1,0,0:0:0:0:
448,192,61112,1,0,0:0:0:0:
192,192,61255,1,0,0:0:0:0:
320,192,61255,1,0,0:0:0:0:
64,192,61398,1,0,0:0:0:0:
192,192,61398,1,0,0:0:0:0:
320,192,61398,1,0,0:0:0:0:
448,192,61398,1,0,0:0:0:0:
192,192,61541,1,0,0:0:0:0:
64,192,61541,1,0,0:0:0:0:
320,192,61684,1,0,0:0:0:0:
192,192,61684,1,0,0:0:0:0:
192,192,61826,1,0,0:0:0:0:
320,192,61826,1,0,0:0:0:0:
64,192,61826,1,0,0:0:0:0:
448,192,61826,128,0,62112:0:0:0:0:
192,192,62112,128,0,62541:0:0:0:0:
320,192,62255,1,0,0:0:0:0:
64,192,62255,1,0,0:0:0:0:
320,192,62541,128,0,62684:0:0:0:0:
64,192,62684,128,0,62969:0:0:0:0:
448,192,62969,128,0,63398:0:0:0:0:
320,192,63112,1,0,0:0:0:0:
192,192,63112,1,0,0:0:0:0:
192,192,63398,128,0,63541:0:0:0:0:
64,192,63541,128,0,63826:0:0:0:0:
320,192,63826,128,0,64255:0:0:0:0:
448,192,63969,1,0,0:0:0:0:
192,192,63969,1,0,0:0:0:0:
448,192,64255,128,0,64398:0:0:0:0:
192,192,64398,128,0,64684:0:0:0:0:
320,192,64684,128,0,65112:0:0:0:0:
448,192,64826,1,0,0:0:0:0:
64,192,64826,1,0,0:0:0:0:
64,192,65255,128,0,65684:0:0:0:0:
192,192,65255,1,0,0:0:0:0:
192,192,65684,128,0,66112:0:0:0:0:
320,192,65684,1,0,0:0:0:0:
320,192,66112,128,0,66541:0:0:0:0:
448,192,66112,1,0,0:0:0:0:
448,192,66541,128,0,66826:0:0:0:0:
192,192,66541,1,0,0:0:0:0:
64,192,66684,1,0,0:0:0:0:
192,192,66826,128,0,66969:0:0:0:0:
64,192,66969,128,0,67398:0:0:0:0:
320,192,67398,128,0,67541:0:0:0:0:
448,192,67541,128,0,67684:0:0:0:0:
192,192,67684,128,0,67826:0:0:0:0:
64,192,67826,128,0,68112:0:0:0:0:
192,192,68112,128,0,68255:0:0:0:0:
320,192,68255,128,0,68684:0:0:0:0:
448,192,68398,1,0,0:0:0:0:
64,192,68541,1,0,0:0:0:0:
192,192,68684,1,0,0:0:0:0:
448,192,68684,1,0,0:0:0:0:
64,192,68826,1,0,0:0:0:0:
448,192,68969,1,0,0:0:0:0:
192,192,69112,1,0,0:0:0:0:
320,192,69255,1,0,0:0:0:0:
64,192,69398,1,0,0:0:0:0:
192,192,69541,1,0,0:0:0:0:
448,192,69684,1,0,0:0:0:0:
320,192,69826,1,0,0:0:0:0:
192,192,69969,1,0,0:0:0:0:
192,192,70255,1,0,0:0:0:0:
320,192,70398,1,0,0:0:0:0:
64,192,70541,1,0,0:0:0:0:
448,192,70684,1,0,0:0:0:0:
320,192,70826,1,0,0:0:0:0:
192,192,70969,1,0,0:0:0:0:
320,192,71112,1,0,0:0:0:0:
448,192,71255,1,0,0:0:0:0:
64,192,71255,1,0,0:0:0:0:
320,192,71398,1,0,0:0:0:0:
192,192,71541,1,0,0:0:0:0:
448,192,71684,1,0,0:0:0:0:
320,192,71826,1,0,0:0:0:0:
64,192,71969,1,0,0:0:0:0:
192,192,72112,1,0,0:0:0:0:
320,192,72255,1,0,0:0:0:0:
448,192,72398,1,0,0:0:0:0:
192,192,72541,1,0,0:0:0:0:
320,192,72684,1,0,0:0:0:0:
192,192,72826,1,0,0:0:0:0:
64,192,72969,1,0,0:0:0:0:
448,192,73112,1,0,0:0:0:0:
192,192,73255,1,0,0:0:0:0:
64,192,73398,1,0,0:0:0:0:
448,192,73684,1,0,0:0:0:0:
320,192,73826,1,0,0:0:0:0:
192,192,73969,1,0,0:0:0:0:
64,192,74112,1,0,0:0:0:0:
320,192,74255,1,0,0:0:0:0:
192,192,74398,1,0,0:0:0:0:
64,192,74541,1,0,0:0:0:0:
192,192,74684,1,0,0:0:0:0:
320,192,74684,1,0,0:0:0:0:
448,192,74684,128,0,74969:0:0:0:0:
64,192,74969,128,0,75112:0:0:0:0:
320,192,75112,128,0,75255:0:0:0:0:
192,192,75255,128,0,75398:0:0:0:0:
448,192,75398,128,0,75541:0:0:0:0:
320,192,75541,1,0,0:0:0:0:
64,192,75541,1,0,0:0:0:0:
192,192,75684,1,0,0:0:0:0:
320,192,75826,1,0,0:0:0:0:
448,192,75969,1,0,0:0:0:0:
192,192,75969,1,0,0:0:0:0:
64,192,76112,1,0,0:0:0:0:
192,192,76255,1,0,0:0:0:0:
320,192,76398,1,0,0:0:0:0:
448,192,76398,1,0,0:0:0:0:
192,192,76541,1,0,0:0:0:0:
64,192,76684,1,0,0:0:0:0:
192,192,76826,1,0,0:0:0:0:
448,192,76826,1,0,0:0:0:0:
320,192,77112,1,0,0:0:0:0:
192,192,77255,1,0,0:0:0:0:
64,192,77255,1,0,0:0:0:0:
320,192,77398,1,0,0:0:0:0:
448,192,77541,1,0,0:0:0:0:
64,192,77684,1,0,0:0:0:0:
320,192,77684,1,0,0:0:0:0:
192,192,77826,1,0,0:0:0:0:
320,192,77969,1,0,0:0:0:0:
448,192,78112,1,0,0:0:0:0:
192,192,78112,1,0,0:0:0:0:
64,192,78255,1,0,0:0:0:0:
192,192,78398,1,0,0:0:0:0:
320,192,78541,1,0,0:0:0:0:
448,192,78541,1,0,0:0:0:0:
64,192,78684,1,0,0:0:0:0:
192,192,78684,1,0,0:0:0:0:
320,192,78826,1,0,0:0:0:0:
448,192,78826,1,0,0:0:0:0:
192,192,78969,1,0,0:0:0:0:
64,192,78969,128,0,79255:0:0:0:0:
320,192,79112,1,0,0:0:0:0:
448,192,79255,1,0,0:0:0:0:
320,192,79398,128,0,79684:0:0:0:0:
192,192,79541,1,0,0:0:0:0:
64,192,79684,1,0,0:0:0:0:
192,192,79826,128,0,80112:0:0:0:0:
320,192,79969,1,0,0:0:0:0:
448,192,80112,1,0,0:0:0:0:
320,192,80255,128,0,80541:0:0:0:0:
64,192,80541,1,0,0:0:0:0:
192,192,80684,128,0,80969:0:0:0:0:
320,192,80826,1,0,0:0:0:0:
448,192,80969,1,0,0:0:0:0:
320,192,81112,128,0,81398:0:0:0:0:
192,192,81255,1,0,0:0:0:0:
64,192,81398,1,0,0:0:0:0:
192,192,81541,128,0,81826:0:0:0:0:
448,192,81826,128,0,82112:0:0:0:0:
64,192,81969,128,0,82112:0:0:0:0:
320,192,82112,128,0,82255:0:0:0:0:
192,192,82255,128,0,82398:0:0:0:0:
64,192,82398,1,0,0:0:0:0:
448,192,82398,1,0,0:0:0:0:
320,192,82398,1,0,0:0:0:0:
320,192,82541,1,0,0:0:0:0:
192,192,82541,1,0,0:0:0:0:
448,192,82684,1,0,0:0:0:0:
192,192,82684,1,0,0:0:0:0:
64,192,82826,1,0,0:0:0:0:
192,192,82826,1,0,0:0:0:0:
320,192,82826,1,0,0:0:0:0:
64,192,82969,1,0,0:0:0:0:
448,192,82969,1,0,0:0:0:0:
192,192,83112,1,0,0:0:0:0:
320,192,83112,1,0,0:0:0:0:
64,192,83255,1,0,0:0:0:0:
192,192,83255,1,0,0:0:0:0:
448,192,83255,1,0,0:0:0:0:
320,192,83398,1,0,0:0:0:0:
64,192,83398,1,0,0:0:0:0:
64,192,83541,1,0,0:0:0:0:
192,192,83541,1,0,0:0:0:0:
192,192,83684,1,0,0:0:0:0:
320,192,83684,1,0,0:0:0:0:
448,192,83684,1,0,0:0:0:0:
64,192,83826,1,0,0:0:0:0:
320,192,83826,1,0,0:0:0:0:
192,192,83969,1,0,0:0:0:0:
320,192,83969,1,0,0:0:0:0:
320,192,84112,1,0,0:0:0:0:
448,192,84112,1,0,0:0:0:0:
64,192,84112,1,0,0:0:0:0:
192,192,84255,1,0,0:0:0:0:
448,192,84255,1,0,0:0:0:0:
192,192,84398,1,0,0:0:0:0:
320,192,84398,1,0,0:0:0:0:
64,192,84541,1,0,0:0:0:0:
192,192,84541,1,0,0:0:0:0:
448,192,84541,1,0,0:0:0:0:
64,192,84684,1,0,0:0:0:0:
320,192,84684,1,0,0:0:0:0:
192,192,84826,1,0,0:0:0:0:
320,192,84826,1,0,0:0:0:0:
320,192,84969,1,0,0:0:0:0:
448,192,84969,1,0,0:0:0:0:
64,192,84969,1,0,0:0:0:0:
192,192,85112,1,0,0:0:0:0:
448,192,85112,1,0,0:0:0:0:
192,192,85255,1,0,0:0:0:0:
320,192,85255,1,0,0:0:0:0:
64,192,85398,1,0,0:0:0:0:
192,192,85398,1,0,0:0:0:0:
448,192,85398,1,0,0:0:0:0:
64,192,85541,1,0,0:0:0:0:
320,192,85541,1,0,0:0:0:0:
192,192,85684,1,0,0:0:0:0:
320,192,85684,1,0,0:0:0:0:
448,192,85826,1,0,0:0:0:0:
320,192,85826,1,0,0:0:0:0:
64,192,85826,1,0,0:0:0:0:
192,192,85969,1,0,0:0:0:0:
448,192,85969,1,0,0:0:0:0:
320,192,86112,1,0,0:0:0:0:
192,192,86112,1,0,0:0:0:0:
64,192,86255,1,0,0:0:0:0:
192,192,86255,1,0,0:0:0:0:
448,192,86255,1,0,0:0:0:0:
64,192,86398,1,0,0:0:0:0:
320,192,86398,1,0,0:0:0:0:
192,192,86541,1,0,0:0:0:0:
320,192,86541,1,0,0:0:0:0:
320,192,86684,1,0,0:0:0:0:
64,192,86684,1,0,0:0:0:0:
192,192,86684,1,0,0:0:0:0:
192,192,86826,1,0,0:0:0:0:
448,192,86826,1,0,0:0:0:0:
192,192,86969,1,0,0:0:0:0:
320,192,86969,1,0,0:0:0:0:
448,192,87112,1,0,0:0:0:0:
320,192,87112,1,0,0:0:0:0:
192,192,87112,1,0,0:0:0:0:
64,192,87255,1,0,0:0:0:0:
320,192,87255,1,0,0:0:0:0:
192,192,87398,1,0,0:0:0:0:
448,192,87398,1,0,0:0:0:0:
320,192,87398,1,0,0:0:0:0:
320,192,87541,1,0,0:0:0:0:
192,192,87541,1,0,0:0:0:0:
64,192,87541,1,0,0:0:0:0:
448,192,87684,1,0,0:0:0:0:
192,192,87684,1,0,0:0:0:0:
320,192,87826,1,0,0:0:0:0:
192,192,87826,1,0,0:0:0:0:
448,192,87969,1,0,0:0:0:0:
320,192,87969,1,0,0:0:0:0:
64,192,87969,1,0,0:0:0:0:
192,192,88112,1,0,0:0:0:0:
64,192,88112,1,0,0:0:0:0:
448,192,88255,1,0,0:0:0:0:
192,192,88255,1,0,0:0:0:0:
320,192,88398,1,0,0:0:0:0:
64,192,88398,1,0,0:0:0:0:
192,192,88398,1,0,0:0:0:0:
320,192,88826,1,0,0:0:0:0:
448,192,88826,1,0,0:0:0:0:
192,192,88969,1,0,0:0:0:0:
320,192,88969,1,0,0:0:0:0:
64,192,89112,1,0,0:0:0:0:
192,192,89112,1,0,0:0:0:0:
320,192,89255,128,0,89541:0:0:0:0:
448,192,89541,128,0,89826:0:0:0:0:
192,192,89684,1,0,0:0:0:0:
64,192,89684,1,0,0:0:0:0:
64,192,89969,128,0,90112:0:0:0:0:
320,192,90112,128,0,90398:0:0:0:0:
192,192,90398,128,0,90684:0:0:0:0:
64,192,90541,1,0,0:0:0:0:
448,192,90541,1,0,0:0:0:0:
448,192,90826,128,0,90969:0:0:0:0:
64,192,90969,128,0,91255:0:0:0:0:
192,192,90969,1,0,0:0:0:0:
320,192,91255,128,0,91541:0:0:0:0:
448,192,91398,1,0,0:0:0:0:
192,192,91398,1,0,0:0:0:0:
192,192,91684,128,0,91826:0:0:0:0:
320,192,91826,128,0,92112:0:0:0:0:
448,192,91826,1,0,0:0:0:0:
64,192,92112,128,0,92398:0:0:0:0:
448,192,92684,128,0,93969:0:0:0:0:
192,192,92684,1,0,0:0:0:0:
320,192,93112,128,0,93969:0:0:0:0:
64,192,93112,1,0,0:0:0:0:
192,192,93541,128,0,93969:0:0:0:0:
64,192,93969,128,0,94255:0:0:0:0:
448,192,94255,128,0,94398:0:0:0:0:
192,192,94398,128,0,94826:0:0:0:0:
320,192,94398,1,0,0:0:0:0:
320,192,94826,128,0,95112:0:0:0:0:
448,192,94826,1,0,0:0:0:0:
64,192,95112,128,0,95255:0:0:0:0:
448,192,95255,128,0,95684:0:0:0:0:
64,192,95684,128,0,95826:0:0:0:0:
192,192,95826,128,0,95969:0:0:0:0:
320,192,95969,128,0,96112:0:0:0:0:
448,192,96112,1,0,0:0:0:0:
64,192,96112,1,0,0:0:0:0:
192,192,96112,1,0,0:0:0:0:
192,192,96255,1,0,0:0:0:0:
320,192,96255,1,0,0:0:0:0:
448,192,96398,1,0,0:0:0:0:
320,192,96398,1,0,0:0:0:0:
64,192,96541,1,0,0:0:0:0:
320,192,96541,1,0,0:0:0:0:
448,192,96541,1,0,0:0:0:0:
192,192,96541,1,0,0:0:0:0:
320,192,96684,1,0,0:0:0:0:
192,192,96684,1,0,0:0:0:0:
64,192,96826,1,0,0:0:0:0:
192,192,96826,1,0,0:0:0:0:
64,192,96969,1,0,0:0:0:0:
448,192,96969,1,0,0:0:0:0:
320,192,96969,1,0,0:0:0:0:
192,192,97112,1,0,0:0:0:0:
320,192,97112,1,0,0:0:0:0:
320,192,97255,1,0,0:0:0:0:
448,192,97255,1,0,0:0:0:0:
320,192,97398,1,0,0:0:0:0:
448,192,97398,1,0,0:0:0:0:
64,192,97398,1,0,0:0:0:0:
192,192,97398,1,0,0:0:0:0:
192,192,97541,1,0,0:0:0:0:
320,192,97541,1,0,0:0:0:0:
64,192,97684,1,0,0:0:0:0:
192,192,97684,1,0,0:0:0:0:
320,192,97826,1,0,0:0:0:0:
448,192,97826,1,0,0:0:0:0:
192,192,97826,1,0,0:0:0:0:
64,192,97969,1,0,0:0:0:0:
320,192,97969,1,0,0:0:0:0:
192,192,98112,1,0,0:0:0:0:
320,192,98112,1,0,0:0:0:0:
64,192,98255,1,0,0:0:0:0:
192,192,98255,1,0,0:0:0:0:
448,192,98255,1,0,0:0:0:0:
320,192,98255,1,0,0:0:0:0:
192,192,98398,1,0,0:0:0:0:
448,192,98398,1,0,0:0:0:0:
192,192,98541,1,0,0:0:0:0:
320,192,98541,1,0,0:0:0:0:
64,192,98684,1,0,0:0:0:0:
192,192,98684,1,0,0:0:0:0:
448,192,98684,1,0,0:0:0:0:
64,192,98826,1,0,0:0:0:0:
320,192,98826,1,0,0:0:0:0:
192,192,98969,1,0,0:0:0:0:
320,192,98969,1,0,0:0:0:0:
448,192,99112,1,0,0:0:0:0:
320,192,99112,1,0,0:0:0:0:
192,192,99112,1,0,0:0:0:0:
64,192,99112,1,0,0:0:0:0:
192,192,99255,1,0,0:0:0:0:
448,192,99255,1,0,0:0:0:0:
320,192,99398,1,0,0:0:0:0:
192,192,99398,1,0,0:0:0:0:
320,192,99541,1,0,0:0:0:0:
64,192,99541,1,0,0:0:0:0:
448,192,99541,1,0,0:0:0:0:
192,192,99684,1,0,0:0:0:0:
448,192,99684,1,0,0:0:0:0:
320,192,99826,1,0,0:0:0:0:
192,192,99826,1,0,0:0:0:0:
64,192,99969,1,0,0:0:0:0:
192,192,99969,1,0,0:0:0:0:
320,192,99969,1,0,0:0:0:0:
448,192,99969,1,0,0:0:0:0:
448,192,100112,1,0,0:0:0:0:
64,192,100112,1,0,0:0:0:0:
320,192,100255,1,0,0:0:0:0:
192,192,100255,1,0,0:0:0:0:
192,192,100398,1,0,0:0:0:0:
64,192,100398,1,0,0:0:0:0:
448,192,100398,1,0,0:0:0:0:
320,192,100541,1,0,0:0:0:0:
64,192,100541,1,0,0:0:0:0:
192,192,100684,1,0,0:0:0:0:
320,192,100684,1,0,0:0:0:0:
448,192,100826,1,0,0:0:0:0:
320,192,100826,1,0,0:0:0:0:
192,192,100826,1,0,0:0:0:0:
64,192,100826,1,0,0:0:0:0:
64,192,101112,1,0,0:0:0:0:
192,192,101112,1,0,0:0:0:0:
320,192,101255,1,0,0:0:0:0:
64,192,101255,1,0,0:0:0:0:
448,192,101255,1,0,0:0:0:0:
192,192,101398,1,0,0:0:0:0:
448,192,101398,1,0,0:0:0:0:
192,192,101541,1,0,0:0:0:0:
320,192,101541,1,0,0:0:0:0:
448,192,101684,1,0,0:0:0:0:
320,192,101684,1,0,0:0:0:0:
192,192,101684,1,0,0:0:0:0:
64,192,101684,1,0,0:0:0:0:
64,192,101826,1,0,0:0:0:0:
448,192,101826,1,0,0:0:0:0:
192,192,101969,1,0,0:0:0:0:
320,192,101969,1,0,0:0:0:0:
64,192,102112,1,0,0:0:0:0:
192,192,102112,1,0,0:0:0:0:
448,192,102112,1,0,0:0:0:0:
320,192,102398,1,0,0:0:0:0:
64,192,102398,1,0,0:0:0:0:
192,192,102541,1,0,0:0:0:0:
320,192,102541,1,0,0:0:0:0:
448,192,102541,1,0,0:0:0:0:
64,192,102541,1,0,0:0:0:0:
448,192,102684,1,0,0:0:0:0:
192,192,102684,1,0,0:0:0:0:
320,192,102826,1,0,0:0:0:0:
64,192,102826,1,0,0:0:0:0:
64,192,102969,1,0,0:0:0:0:
448,192,102969,1,0,0:0:0:0:
320,192,102969,1,0,0:0:0:0:
192,192,103112,1,0,0:0:0:0:
320,192,103112,1,0,0:0:0:0:
192,192,103255,1,0,0:0:0:0:
448,192,103255,1,0,0:0:0:0:
448,192,103398,1,0,0:0:0:0:
320,192,103398,1,0,0:0:0:0:
192,192,103398,1,0,0:0:0:0:
64,192,103398,1,0,0:0:0:0:
64,192,103541,1,0,0:0:0:0:
448,192,103541,1,0,0:0:0:0:
320,192,103684,1,0,0:0:0:0:
192,192,103684,1,0,0:0:0:0:
64,192,103826,1,0,0:0:0:0:
192,192,103826,1,0,0:0:0:0:
448,192,103826,1,0,0:0:0:0:
320,192,103969,1,0,0:0:0:0:
64,192,103969,1,0,0:0:0:0:
192,192,104112,1,0,0:0:0:0:
320,192,104112,1,0,0:0:0:0:
64,192,104255,1,0,0:0:0:0:
192,192,104255,1,0,0:0:0:0:
320,192,104255,1,0,0:0:0:0:
448,192,104255,1,0,0:0:0:0:
192,192,104541,1,0,0:0:0:0:
320,192,104541,1,0,0:0:0:0:
320,192,104684,1,0,0:0:0:0:
448,192,104684,1,0,0:0:0:0:
64,192,104684,1,0,0:0:0:0:
192,192,104826,1,0,0:0:0:0:
448,192,104826,1,0,0:0:0:0:
320,192,104969,1,0,0:0:0:0:
192,192,104969,1,0,0:0:0:0:
448,192,105112,1,0,0:0:0:0:
320,192,105112,1,0,0:0:0:0:
64,192,105112,1,0,0:0:0:0:
192,192,105112,1,0,0:0:0:0:
64,192,105255,1,0,0:0:0:0:
448,192,105255,1,0,0:0:0:0:
320,192,105398,1,0,0:0:0:0:
192,192,105398,1,0,0:0:0:0:
448,192,105541,1,0,0:0:0:0:
192,192,105541,1,0,0:0:0:0:
64,192,105541,1,0,0:0:0:0:
64,192,105684,1,0,0:0:0:0:
320,192,105684,1,0,0:0:0:0:
192,192,105826,1,0,0:0:0:0:
320,192,105826,1,0,0:0:0:0:
192,192,105969,1,0,0:0:0:0:
320,192,105969,1,0,0:0:0:0:
448,192,105969,1,0,0:0:0:0:
64,192,105969,1,0,0:0:0:0:
64,192,106112,1,0,0:0:0:0:
448,192,106112,1,0,0:0:0:0:
192,192,106255,1,0,0:0:0:0:
320,192,106255,1,0,0:0:0:0:
320,192,106398,1,0,0:0:0:0:
448,192,106398,1,0,0:0:0:0:
64,192,106398,1,0,0:0:0:0:
192,192,106541,1,0,0:0:0:0:
448,192,106541,1,0,0:0:0:0:
192,192,106684,1,0,0:0:0:0:
64,192,106684,1,0,0:0:0:0:
64,192,106826,1,0,0:0:0:0:
192,192,106826,1,0,0:0:0:0:
320,192,106826,1,0,0:0:0:0:
448,192,106826,1,0,0:0:0:0:
448,192,106969,1,0,0:0:0:0:
192,192,106969,1,0,0:0:0:0:
64,192,107112,1,0,0:0:0:0:
448,192,107112,1,0,0:0:0:0:
320,192,107255,1,0,0:0:0:0:
192,192,107255,1,0,0:0:0:0:
64,192,107255,1,0,0:0:0:0:
448,192,107398,1,0,0:0:0:0:
192,192,107398,1,0,0:0:0:0:
192,192,107541,1,0,0:0:0:0:
320,192,107541,1,0,0:0:0:0:
448,192,107684,1,0,0:0:0:0:
320,192,107684,1,0,0:0:0:0:
192,192,107684,1,0,0:0:0:0:
64,192,107684,1,0,0:0:0:0:
64,192,107969,1,0,0:0:0:0:
320,192,107969,1,0,0:0:0:0:
192,192,108112,1,0,0:0:0:0:
320,192,108112,1,0,0:0:0:0:
448,192,108112,1,0,0:0:0:0:
64,192,108255,1,0,0:0:0:0:
192,192,108255,1,0,0:0:0:0:
448,192,108398,1,0,0:0:0:0:
192,192,108398,1,0,0:0:0:0:
64,192,108541,1,0,0:0:0:0:
192,192,108541,1,0,0:0:0:0:
320,192,108541,1,0,0:0:0:0:
448,192,108541,128,0,108684:0:0:0:0:
64,192,108684,128,0,108826:0:0:0:0:
448,192,108826,128,0,108969:0:0:0:0:
192,192,108969,128,0,109255:0:0:0:0:
320,192,109255,128,0,109398:0:0:0:0:
64,192,109398,128,0,109541:0:0:0:0:
448,192,109398,128,0,109541:0:0:0:0:
320,192,109541,128,0,109684:0:0:0:0:
192,192,109684,128,0,109826:0:0:0:0:
448,192,109826,1,0,0:0:0:0:
64,192,109826,1,0,0:0:0:0:
320,192,109898,1,0,0:0:0:0:
192,192,109969,1,0,0:0:0:0:
64,192,110041,1,0,0:0:0:0:
320,192,110112,1,0,0:0:0:0:
448,192,110184,1,0,0:0:0:0:
192,192,110255,1,0,0:0:0:0:
64,192,110255,1,0,0:0:0:0:
320,192,110326,1,0,0:0:0:0:
192,192,110398,1,0,0:0:0:0:
320,192,110469,1,0,0:0:0:0:
448,192,110541,1,0,0:0:0:0:
192,192,110612,1,0,0:0:0:0:
64,192,110684,1,0,0:0:0:0:
320,192,110684,1,0,0:0:0:0:
448,192,110755,1,0,0:0:0:0:
192,192,110826,1,0,0:0:0:0:
320,192,110898,1,0,0:0:0:0:
192,192,110969,1,0,0:0:0:0:
64,192,111041,1,0,0:0:0:0:
320,192,111112,1,0,0:0:0:0:
448,192,111112,1,0,0:0:0:0:
192,192,111184,1,0,0:0:0:0:
320,192,111255,1,0,0:0:0:0:
448,192,111326,1,0,0:0:0:0:
192,192,111398,1,0,0:0:0:0:
64,192,111469,1,0,0:0:0:0:
192,192,111541,1,0,0:0:0:0:
320,192,111541,1,0,0:0:0:0:
448,192,111612,1,0,0:0:0:0:
64,192,111684,1,0,0:0:0:0:
192,192,111755,1,0,0:0:0:0:
320,192,111826,1,0,0:0:0:0:
192,192,111898,1,0,0:0:0:0:
320,192,111969,1,0,0:0:0:0:
64,192,111969,1,0,0:0:0:0:
448,192,112041,1,0,0:0:0:0:
192,192,112112,1,0,0:0:0:0:
320,192,112184,1,0,0:0:0:0:
192,192,112255,1,0,0:0:0:0:
64,192,112255,1,0,0:0:0:0:
320,192,112326,1,0,0:0:0:0:
448,192,112398,1,0,0:0:0:0:
192,192,112398,1,0,0:0:0:0:
64,192,112469,1,0,0:0:0:0:
192,192,112541,1,0,0:0:0:0:
320,192,112541,1,0,0:0:0:0:
448,192,112612,1,0,0:0:0:0:
64,192,112684,1,0,0:0:0:0:
192,192,112684,1,0,0:0:0:0:
320,192,112755,1,0,0:0:0:0:
192,192,112826,1,0,0:0:0:0:
448,192,112826,1,0,0:0:0:0:
64,192,112898,1,0,0:0:0:0:
192,192,112969,1,0,0:0:0:0:
320,192,112969,1,0,0:0:0:0:
448,192,113041,1,0,0:0:0:0:
320,192,113112,1,0,0:0:0:0:
64,192,113112,1,0,0:0:0:0:
192,192,113184,1,0,0:0:0:0:
320,192,113255,1,0,0:0:0:0:
448,192,113255,1,0,0:0:0:0:
64,192,113326,1,0,0:0:0:0:
192,192,113398,1,0,0:0:0:0:
320,192,113469,1,0,0:0:0:0:
448,192,113541,1,0,0:0:0:0:
320,192,113612,1,0,0:0:0:0:
64,192,113684,1,0,0:0:0:0:
192,192,113684,1,0,0:0:0:0:
448,192,113755,1,0,0:0:0:0:
192,192,113826,1,0,0:0:0:0:
320,192,113898,1,0,0:0:0:0:
192,192,113969,1,0,0:0:0:0:
64,192,114041,1,0,0:0:0:0:
320,192,114112,1,0,0:0:0:0:
192,192,114112,1,0,0:0:0:0:
448,192,114184,1,0,0:0:0:0:
64,192,114255,1,0,0:0:0:0:
320,192,114326,1,0,0:0:0:0:
192,192,114398,1,0,0:0:0:0:
448,192,114469,1,0,0:0:0:0:
320,192,114541,1,0,0:0:0:0:
64,192,114541,1,0,0:0:0:0:
192,192,114612,1,0,0:0:0:0:
320,192,114684,1,0,0:0:0:0:
448,192,114755,1,0,0:0:0:0:
192,192,114826,1,0,0:0:0:0:
64,192,114898,1,0,0:0:0:0:
320,192,114969,1,0,0:0:0:0:
448,192,114969,1,0,0:0:0:0:
192,192,115041,1,0,0:0:0:0:
320,192,115112,1,0,0:0:0:0:
192,192,115184,1,0,0:0:0:0:
64,192,115255,1,0,0:0:0:0:
320,192,115326,1,0,0:0:0:0:
448,192,115398,1,0,0:0:0:0:
192,192,115398,1,0,0:0:0:0:
64,192,115469,1,0,0:0:0:0:
192,192,115541,1,0,0:0:0:0:
448,192,115612,1,0,0:0:0:0:
320,192,115684,1,0,0:0:0:0:
64,192,115684,1,0,0:0:0:0:
192,192,115755,1,0,0:0:0:0:
320,192,115826,1,0,0:0:0:0:
448,192,115826,1,0,0:0:0:0:
64,192,115898,1,0,0:0:0:0:
192,192,115969,1,0,0:0:0:0:
448,192,116041,1,0,0:0:0:0:
320,192,116112,1,0,0:0:0:0:
192,192,116184,1,0,0:0:0:0:
64,192,116255,1,0,0:0:0:0:
320,192,116255,1,0,0:0:0:0:
448,192,116326,1,0,0:0:0:0:
320,192,116398,1,0,0:0:0:0:
192,192,116398,1,0,0:0:0:0:
64,192,116469,1,0,0:0:0:0:
320,192,116541,1,0,0:0:0:0:
448,192,116541,1,0,0:0:0:0:
192,192,116612,1,0,0:0:0:0:
320,192,116684,1,0,0:0:0:0:
64,192,116684,1,0,0:0:0:0:
448,192,116755,1,0,0:0:0:0:
192,192,116826,1,0,0:0:0:0:
320,192,116898,1,0,0:0:0:0:
192,192,116969,1,0,0:0:0:0:
64,192,117041,1,0,0:0:0:0:
320,192,117112,1,0,0:0:0:0:
448,192,117112,1,0,0:0:0:0:
192,192,117184,1,0,0:0:0:0:
320,192,117255,1,0,0:0:0:0:
448,192,117326,1,0,0:0:0:0:
192,192,117398,1,0,0:0:0:0:
64,192,117469,1,0,0:0:0:0:
192,192,117541,1,0,0:0:0:0:
320,192,117541,1,0,0:0:0:0:
448,192,117612,1,0,0:0:0:0:
192,192,117684,1,0,0:0:0:0:
64,192,117755,1,0,0:0:0:0:
320,192,117826,1,0,0:0:0:0:
192,192,117898,1,0,0:0:0:0:
320,192,117969,1,0,0:0:0:0:
64,192,117969,1,0,0:0:0:0:
448,192,118041,1,0,0:0:0:0:
192,192,118112,1,0,0:0:0:0:
320,192,118184,1,0,0:0:0:0:
192,192,118255,1,0,0:0:0:0:
64,192,118326,1,0,0:0:0:0:
192,192,118398,1,0,0:0:0:0:
448,192,118398,1,0,0:0:0:0:
320,192,118469,1,0,0:0:0:0:
192,192,118541,1,0,0:0:0:0:
64,192,118612,1,0,0:0:0:0:
320,192,118684,1,0,0:0:0:0:
448,192,118755,1,0,0:0:0:0:
192,192,118826,1,0,0:0:0:0:
64,192,118826,1,0,0:0:0:0:
320,192,118898,1,0,0:0:0:0:
448,192,118969,1,0,0:0:0:0:
192,192,119041,1,0,0:0:0:0:
64,192,119112,1,0,0:0:0:0:
320,192,119112,1,0,0:0:0:0:
448,192,119184,1,0,0:0:0:0:
192,192,119255,1,0,0:0:0:0:
320,192,119255,1,0,0:0:0:0:
64,192,119326,1,0,0:0:0:0:
448,192,119398,1,0,0:0:0:0:
320,192,119398,1,0,0:0:0:0:
192,192,119469,1,0,0:0:0:0:
320,192,119541,1,0,0:0:0:0:
64,192,119541,1,0,0:0:0:0:
448,192,119612,1,0,0:0:0:0:
320,192,119684,1,0,0:0:0:0:
192,192,119684,1,0,0:0:0:0:
64,192,119755,1,0,0:0:0:0:
448,192,119826,1,0,0:0:0:0:
192,192,119826,1,0,0:0:0:0:
320,192,119898,1,0,0:0:0:0:
192,192,119969,1,0,0:0:0:0:
64,192,119969,1,0,0:0:0:0:
448,192,120041,1,0,0:0:0:0:
320,192,120112,1,0,0:0:0:0:
64,192,120112,1,0,0:0:0:0:
192,192,120184,1,0,0:0:0:0:
320,192,120255,1,0,0:0:0:0:
448,192,120326,1,0,0:0:0:0:
320,192,120398,1,0,0:0:0:0:
192,192,120469,1,0,0:0:0:0:
64,192,120541,1,0,0:0:0:0:
320,192,120541,1,0,0:0:0:0:
448,192,120612,1,0,0:0:0:0:
320,192,120684,1,0,0:0:0:0:
192,192,120755,1,0,0:0:0:0:
64,192,120826,1,0,0:0:0:0:
192,192,120898,1,0,0:0:0:0:
320,192,120969,1,0,0:0:0:0:
448,192,120969,1,0,0:0:0:0:
192,192,121041,1,0,0:0:0:0:
64,192,121112,1,0,0:0:0:0:
192,192,121184,1,0,0:0:0:0:
320,192,121255,1,0,0:0:0:0:
448,192,121326,1,0,0:0:0:0:
64,192,121398,1,0,0:0:0:0:
320,192,121398,1,0,0:0:0:0:
192,192,121469,1,0,0:0:0:0:
320,192,121541,1,0,0:0:0:0:
448,192,121612,1,0,0:0:0:0:
320,192,121684,1,0,0:0:0:0:
192,192,121755,1,0,0:0:0:0:
64,192,121826,1,0,0:0:0:0:
320,192,121826,1,0,0:0:0:0:
448,192,121898,1,0,0:0:0:0:
320,192,121969,1,0,0:0:0:0:
192,192,122041,1,0,0:0:0:0:
64,192,122112,1,0,0:0:0:0:
192,192,122184,1,0,0:0:0:0:
448,192,122255,1,0,0:0:0:0:
320,192,122255,1,0,0:0:0:0:
192,192,122398,1,0,0:0:0:0:
64,192,122398,1,0,0:0:0:0:
320,192,122541,1,0,0:0:0:0:
448,192,122541,1,0,0:0:0:0:
64,192,122684,128,0,123255:0:0:0:0:
192,192,122826,128,0,122969:0:0:0:0:
320,192,122969,128,0,123112:0:0:0:0:
448,192,123112,128,0,123255:0:0:0:0:
192,192,123255,128,0,123541:0:0:0:0:
320,192,123398,128,0,123541:0:0:0:0:
64,192,123541,128,0,124398:0:0:0:0:
448,192,123541,128,0,124826:0:0:0:0:
192,192,123969,128,0,124541:0:0:0:0:
320,192,124255,128,0,125255:0:0:0:0:
64,192,124684,128,0,124969:0:0:0:0:
192,192,124826,128,0,125398:0:0:0:0:
448,192,125112,128,0,125684:0:0:0:0:
64,192,125255,128,0,125826:0:0:0:0:
320,192,125541,128,0,125969:0:0:0:0:
192,192,125684,128,0,126184:0:0:0:0:
448,192,125969,128,0,126541:0:0:0:0:
64,192,126398,128,0,126684:0:0:0:0:
192,192,126541,128,0,127112:0:0:0:0:
320,192,126826,128,0,127398:0:0:0:0:
64,192,126969,128,0,127969:0:0:0:0:
448,192,127255,128,0,128255:0:0:0:0:
192,192,127398,128,0,127826:0:0:0:0:
320,192,127684,128,0,128398:0:0:0:0:
192,192,128112,128,0,128826:0:0:0:0:
64,192,128255,128,0,128684:0:0:0:0:
448,192,128541,128,0,129541:0:0:0:0:
320,192,128684,128,0,129112:0:0:0:0:
64,192,128969,128,0,129684:0:0:0:0:
192,192,129112,128,0,129969:0:0:0:0:
320,192,129398,128,0,130112:0:0:0:0:
448,192,129826,128,0,130541:0:0:0:0:
64,192,129969,128,0,130826:0:0:0:0:
192,192,130255,128,0,131398:0:0:0:0:
320,192,130398,128,0,131255:0:0:0:0:
448,192,130826,128,0,131684:0:0:0:0:
64,192,131112,128,0,131826:0:0:0:0:
320,192,131541,128,0,132969:0:0:0:0:
192,192,131684,128,0,132112:0:0:0:0:
448,192,131969,128,0,132255:0:0:0:0:
64,192,132112,128,0,132541:0:0:0:0:
192,192,132398,128,0,133398:0:0:0:0:
448,192,132541,128,0,133112:0:0:0:0:
64,192,132826,128,0,133541:0:0:0:0:
320,192,133255,128,0,134041:0:0:0:0:
448,192,133398,128,0,133826:0:0:0:0:
192,192,133684,128,0,134826:0:0:0:0:
64,192,133826,128,0,134255:0:0:0:0:
448,192,134112,128,0,135112:0:0:0:0:
320,192,134255,128,0,135255:0:0:0:0:
64,192,134541,128,0,135684:0:0:0:0:
192,192,135112,128,0,136541:0:0:0:0:
448,192,135398,128,0,135969:0:0:0:0:
320,192,135541,128,0,136969:0:0:0:0:
64,192,135969,128,0,137684:0:0:0:0:
448,192,136255,128,0,138112:0:0:0:0:
192,192,136826,128,0,138541:0:0:0:0:
320,192,137255,128,0,138969:0:0:0:0:
