osu file format v14

[General]
AudioFilename: audio.mp3
AudioLeadIn: 0
PreviewTime: 22154
Countdown: 0
SampleSet: Soft
StackLeniency: 0.5
Mode: 0
LetterboxInBreaks: 0
WidescreenStoryboard: 1

[Editor]
Bookmarks: 27582,41296,68725,75582,96154,109868,123582
DistanceSpacing: 1.2
BeatDivisor: 6
GridSize: 32
TimelineZoom: 1.9

[Metadata]
Title:The 7 Seas
TitleUnicode:The 7 Seas
Artist:F-777
ArtistUnicode:F-777
Creator:Aurorance
Version:iRedi's Hard
Source:Geometry Dash Meltdown
Tags:mappers' guild instrumental video game electronic f777 iredi wither featured artist fa seven
BeatmapID:3764196
BeatmapSetID:1833543

[Difficulty]
HPDrainRate:4
CircleSize:3.5
OverallDifficulty:6
ApproachRate:7
SliderMultiplier:1.5
SliderTickRate:1

[Events]
//Background and Video events
0,0,"7sea.jpg",0,0
//Break Periods
2,68925,74682
//Storyboard Layer 0 (Background)
//Storyboard Layer 1 (Fail)
//Storyboard Layer 2 (Pass)
//Storyboard Layer 3 (Foreground)
//Storyboard Layer 4 (Overlay)
//Storyboard Sound Samples

[TimingPoints]
154,428.571428571429,4,2,1,40,1,0
7011,-100,4,2,1,45,0,0
13868,-100,4,2,1,50,0,0
20725,-100,4,2,1,55,0,0
27582,-90.9090909090909,4,2,1,65,0,0
28011,-90.9090909090909,4,2,2,65,0,0
41296,-90.9090909090909,4,2,2,70,0,0
55011,-90.9090909090909,4,2,2,60,0,0
75582,-90.9090909090909,4,2,1,50,0,0
77296,-100,4,2,1,50,0,0
82439,-100,4,2,1,55,0,0
94439,-100,4,2,1,45,0,0
96154,-90.9090909090909,4,2,1,65,0,0
96582,-90.9090909090909,4,2,2,65,0,0
109868,-90.9090909090909,4,2,2,70,0,0
123582,-100,4,2,2,55,0,0
135582,-100,4,2,2,40,0,0
137296,-100,4,2,2,55,0,0

[Colours]
Combo1 : 57,255,176
Combo2 : 104,186,253
Combo3 : 28,0,181

[HitObjects]
58,365,154,6,0,L|31:217,1,150,8|8,2:0|2:0,0:0:0:0:
157,320,1011,2,0,L|130:172,1,150,8|8,2:0|2:0,0:0:0:0:
256,275,1868,2,0,L|229:127,1,150,8|8,2:0|2:0,0:0:0:0:
355,230,2725,1,8,2:0:0:0:
328,82,3154,1,8,2:0:0:0:
184,28,3582,6,0,L|36:55,1,150,8|8,2:0|2:0,0:0:0:0:
229,127,4439,2,0,L|81:154,1,150,8|8,2:0|2:0,0:0:0:0:
274,226,5296,2,0,L|126:253,1,150,8|8,2:0|2:0,0:0:0:0:
343,324,6154,1,8,2:0:0:0:
196,351,6582,2,0,P|148:364|100:352,1,100,12|0,2:0|0:0,0:0:0:0:
51,289,7011,6,0,L|73:162,1,100,8|0,3:2|0:0,0:0:0:0:
54,111,7439,2,0,L|180:133,1,100,8|0,2:0|0:0,0:0:0:0:
232,114,7868,2,0,L|209:240,1,100,8|0,2:0|0:0,0:0:0:0:
229,292,8296,1,8,2:0:0:0:
51,289,8582,1,0,0:0:0:0:
51,289,8725,6,0,L|73:162,1,100,8|0,3:2|0:0,0:0:0:0:
54,111,9154,2,0,L|180:133,1,100,8|0,2:0|0:0,0:0:0:0:
221,178,9582,2,0,L|243:51,1,100,8|0,3:2|0:0,0:0:0:0:
224,0,10011,2,0,L|350:22,1,100,8|0,2:0|0:0,0:0:0:0:
402,3,10439,6,0,L|379:129,1,100,8|0,3:2|0:0,0:0:0:0:
473,53,10868,2,0,L|450:179,1,100,8|0,2:0|0:0,0:0:0:0:
381,184,11296,2,0,L|358:310,1,100,8|0,3:2|0:0,0:0:0:0:
452,234,11725,1,8,2:0:0:0:
430,354,12011,1,0,0:0:0:0:
429,353,12154,6,0,L|302:375,1,100,8|0,3:2|0:0,0:0:0:0:
285,302,12582,2,0,L|186:284,1,100,8|0,2:0|0:0,0:0:0:0:
141,353,13011,1,8,3:2:0:0:
42,370,13296,1,0,0:0:0:0:
42,370,13439,2,0,P|53:322|40:274,1,100,12|0,2:0|0:0,0:0:0:0:
82,203,13868,6,0,L|33:190,2,50,8|0|0,3:2|0:0|0:0,0:0:0:0:
120,130,14296,2,0,L|71:117,2,50,8|0|0,2:0|0:0|0:0,0:0:0:0:
158,57,14725,2,0,L|109:44,2,50,8|0|0,2:0|0:0|0:0,0:0:0:0:
229,15,15154,1,8,2:0:0:0:
209,134,15439,1,0,0:0:0:0:
209,134,15582,6,0,L|221:182,2,50,8|0|0,3:2|0:0|0:0,0:0:0:0:
282,96,16011,2,0,L|294:144,2,50,8|0|0,2:0|0:0|0:0,0:0:0:0:
355,58,16439,2,0,L|367:106,2,50,8|0|0,3:2|0:0|0:0,0:0:0:0:
440,68,16868,2,0,L|427:19,2,50,8|0|0,2:0|0:0|0:0,0:0:0:0:
441,150,17296,6,0,L|490:138,2,50,8|0|0,3:2|0:0|0:0,0:0:0:0:
482,221,17725,2,0,L|494:269,2,50,8|0|0,2:0|0:0|0:0,0:0:0:0:
411,261,18154,2,0,L|362:273,2,50,8|0|0,3:2|0:0|0:0,0:0:0:0:
371,190,18582,1,8,2:0:0:0:
286,295,18868,1,0,0:0:0:0:
286,295,19011,6,0,L|273:246,2,50,8|0|0,3:2|0:0|0:0,0:0:0:0:
215,336,19439,2,0,L|202:384,2,50,8|0|0,2:0|0:0|0:0,0:0:0:0:
144,294,19868,2,0,L|105:152,1,100,8|0,3:2|0:0,0:0:0:0:
46,160,20296,1,8,2:0:0:0:
46,160,20439,1,0,0:0:0:0:
46,160,20582,1,0,0:0:0:0:
115,115,20725,6,0,L|176:98,1,50,8|0,3:2|0:0,0:0:0:0:
196,26,21011,1,8,2:0:0:0:
196,26,21154,2,0,L|257:42,1,50,8|0,2:0|0:0,0:0:0:0:
277,115,21439,1,8,2:0:0:0:
277,115,21582,2,0,L|338:98,1,50,8|0,2:0|0:0,0:0:0:0:
358,26,21868,1,8,2:0:0:0:
358,26,22011,1,8,2:0:0:0:
393,151,22296,1,8,2:0:0:0:
393,151,22439,6,0,L|410:212,1,50,8|0,3:2|0:0,0:0:0:0:
466,264,22725,1,8,2:0:0:0:
466,264,22868,2,0,L|405:281,1,50,8|0,2:0|0:0,0:0:0:0:
353,337,23154,1,8,2:0:0:0:
353,337,23296,2,0,L|336:276,1,50,8|0,3:2|0:0,0:0:0:0:
280,224,23582,1,8,2:0:0:0:
280,224,23725,2,0,L|341:207,2,50,8|0|8,2:0|0:0|3:2,0:0:0:0:
261,301,24154,6,0,L|200:284,1,50,8|0,3:2|3:2,0:0:0:0:
134,266,24439,1,0,3:2:0:0:
56,241,24582,2,0,L|73:180,1,50,8|0,3:2|3:2,0:0:0:0:
91,114,24868,1,0,3:2:0:0:
116,36,25011,2,0,L|177:53,1,50,8|0,3:2|3:2,0:0:0:0:
243,71,25296,1,0,3:2:0:0:
321,96,25439,2,0,L|304:157,1,50,8|0,3:2|3:2,0:0:0:0:
286,223,25725,1,0,3:2:0:0:
261,301,25868,6,0,L|230:292,5,25,8|0|0|0|0|0,3:2|3:2|3:2|3:2|3:2|3:2,0:0:0:0:
208,318,26296,2,0,L|177:309,5,25,8|0|0|0|0|0,3:2|3:2|3:2|3:2|3:2|3:2,0:0:0:0:
155,335,26725,1,8,3:2:0:0:
5,204,27154,2,0,B|23:157|23:157|5:110,1,100,8|0,3:2|0:0,0:0:0:0:
70,54,27582,6,0,L|81:-9,2,55,6|2|2,3:2|2:0|2:0,0:0:0:0:
104,132,28011,1,10,3:2:0:0:
108,137,28154,1,2,2:0:0:0:
112,142,28296,1,2,2:0:0:0:
142,216,28439,2,0,L|130:279,2,55,2|2|2,3:2|2:0|2:0,0:0:0:0:
201,154,28868,1,10,3:2:0:0:
261,300,29154,1,2,2:0:0:0:
261,300,29296,6,0,L|206:309,2,55,2|2|2,3:2|2:0|2:0,0:0:0:0:
352,327,29725,1,10,3:2:0:0:
356,332,29868,1,2,2:0:0:0:
360,337,30011,1,2,2:0:0:0:
442,364,30154,6,0,L|496:354,2,55,2|2|2,3:2|2:0|2:0,0:0:0:0:
360,337,30582,1,10,3:2:0:0:
356,332,30725,1,2,2:0:0:0:
352,327,30868,1,2,2:0:0:0:
415,270,31011,6,0,L|405:216,1,55,2|2,3:2|2:0,0:0:0:0:
447,142,31296,1,2,2:0:0:0:
447,142,31439,2,0,L|393:132,1,55,10|2,3:2|2:0,0:0:0:0:
319,174,31725,1,2,2:0:0:0:
319,174,31868,6,0,L|309:120,1,55,2|2,3:2|2:0,0:0:0:0:
351,46,32154,1,2,2:0:0:0:
351,46,32296,1,10,3:2:0:0:
224,104,32582,1,2,2:0:0:0:
224,104,32725,6,0,L|234:50,2,55,2|2|2,3:2|2:0|2:0,0:0:0:0:
154,156,33154,1,10,3:2:0:0:
158,161,33296,1,2,2:0:0:0:
162,166,33439,1,2,2:0:0:0:
142,68,33582,2,0,P|91:52|37:68,1,110,2|2,3:2|2:0,0:0:0:0:
29,156,34011,1,10,3:2:0:0:
33,161,34154,1,2,2:0:0:0:
37,166,34296,1,2,2:0:0:0:
99,225,34439,6,0,L|88:288,2,55,2|2|2,3:2|2:0|2:0,0:0:0:0:
154,156,34868,1,10,3:2:0:0:
158,161,35011,1,2,2:0:0:0:
162,166,35154,1,2,2:0:0:0:
229,218,35296,2,0,L|218:281,2,55,2|2|2,3:2|2:0|2:0,0:0:0:0:
284,149,35725,1,10,3:2:0:0:
411,269,36011,1,2,2:0:0:0:
411,269,36154,6,0,L|474:280,2,55,2|2|2,3:2|2:0|2:0,0:0:0:0:
352,206,36582,1,10,3:2:0:0:
348,201,36725,1,2,2:0:0:0:
344,196,36868,1,2,2:0:0:0:
404,139,37011,2,0,L|467:150,2,55,2|2|2,3:2|2:0|2:0,0:0:0:0:
337,66,37439,1,10,3:2:0:0:
341,71,37582,1,2,2:0:0:0:
345,76,37725,1,2,2:0:0:0:
267,111,37868,6,0,L|213:101,1,55,2|2,3:2|2:0,0:0:0:0:
139,143,38154,1,2,2:0:0:0:
139,143,38296,2,0,L|129:197,1,55,10|2,3:2|2:0,0:0:0:0:
171,271,38582,1,2,2:0:0:0:
171,271,38725,2,0,L|225:281,1,55,2|2,3:2|2:0,0:0:0:0:
299,239,39011,1,2,2:0:0:0:
299,239,39154,1,10,3:2:0:0:
421,362,39439,1,2,2:0:0:0:
421,362,39582,6,0,L|475:372,2,55,2|2|2,3:2|2:0|2:0,0:0:0:0:
354,296,40011,1,10,3:2:0:0:
358,300,40154,1,2,2:0:0:0:
362,305,40296,1,2,2:0:0:0:
438,280,40439,2,0,P|422:227|438:176,1,110,2|2,3:2|2:0,0:0:0:0:
507,125,40868,1,10,3:2:0:0:
503,105,41011,1,2,2:0:0:0:
500,86,41154,1,2,2:0:0:0:
433,34,41296,6,0,L|307:57,1,110,6|2,3:2|2:0,0:0:0:0:
264,114,41725,2,0,L|155:94,1,110,10|2,3:2|2:0,0:0:0:0:
80,54,42154,2,0,L|70:0,2,55,2|2|2,3:2|2:0|2:0,0:0:0:0:
79,145,42582,2,0,P|57:191|76:244,1,110,10|2,3:2|2:0,0:0:0:0:
56,328,43011,6,0,L|182:305,1,110,2|2,3:2|2:0,0:0:0:0:
225,248,43439,1,10,3:2:0:0:
379,330,43725,1,2,2:0:0:0:
379,330,43868,2,0,L|389:384,2,55,2|2|2,3:2|2:0|2:0,0:0:0:0:
302,288,44296,2,0,L|312:234,1,55,10|2,3:2|2:0,0:0:0:0:
381,189,44582,1,2,2:0:0:0:
381,189,44725,6,0,B|377:130|377:130|407:81,1,110,2|2,3:2|2:0,0:0:0:0:
346,22,45154,2,0,B|287:26|287:26|238:-4,1,110,10|2,3:2|2:0,0:0:0:0:
177,52,45582,2,0,L|167:106,2,55,2|2|2,3:2|2:0|2:0,0:0:0:0:
104,9,46011,2,0,P|43:28|16:78,1,110,10|2,3:2|2:0,0:0:0:0:
84,120,46439,6,0,B|88:179|88:179|58:228,1,110,2|2,3:2|2:0,0:0:0:0:
119,287,46868,1,10,3:2:0:0:
285,239,47154,1,2,2:0:0:0:
285,239,47296,2,0,L|295:185,2,55,2|0|2,3:2|0:0|2:0,0:0:0:0:
358,282,47725,2,0,L|368:336,1,55,10|2,3:2|2:0,0:0:0:0:
439,384,48011,1,2,2:0:0:0:
439,384,48154,6,0,L|461:257,1,110,2|2,3:2|2:0,0:0:0:0:
505,205,48582,2,0,L|482:78,1,110,10|2,3:2|2:0,0:0:0:0:
422,40,49011,2,0,L|327:56,2,55,2|2|2,3:2|2:0|2:0,0:0:0:0:
411,124,49439,1,10,3:2:0:0:
292,11,49725,1,2,2:0:0:0:
292,11,49868,6,0,L|165:33,1,110,2|2,3:2|2:0,0:0:0:0:
113,77,50296,1,10,3:2:0:0:
258,164,50582,1,2,2:0:0:0:
258,164,50725,2,0,L|194:175,2,55,2|2|2,3:2|2:0|2:0,0:0:0:0:
319,225,51154,2,0,L|382:236,1,55,10|2,3:2|2:0,0:0:0:0:
441,183,51439,1,2,2:0:0:0:
441,183,51582,6,0,B|437:124|437:124|467:75,1,110,2|2,3:2|2:0,0:0:0:0:
406,16,52011,2,0,B|347:20|347:20|298:-10,1,110,10|2,3:2|2:0,0:0:0:0:
237,46,52439,2,0,L|227:100,2,55,2|2|2,3:2|2:0|2:0,0:0:0:0:
164,3,52868,2,0,P|103:22|76:72,1,110,10|2,3:2|2:0,0:0:0:0:
142,119,53296,6,0,B|168:162|168:162|164:221,1,110,2|2,3:2|2:0,0:0:0:0:
103,281,53725,2,0,L|39:292,1,55,10|2,3:2|2:0,0:0:0:0:
0,361,54011,1,2,2:0:0:0:
0,361,54154,2,0,L|126:383,1,110,2|2,3:2|2:0,0:0:0:0:
175,328,54582,1,10,3:2:0:0:
195,324,54725,1,2,2:0:0:0:
214,321,54868,1,2,2:0:0:0:
290,361,55011,6,0,P|357:371|395:339,1,110,6|2,3:2|2:0,0:0:0:0:
372,264,55439,1,8,3:2:0:0:
482,136,55725,1,2,2:0:0:0:
482,136,55868,2,0,L|470:199,2,55,2|0|2,3:2|0:0|2:0,0:0:0:0:
438,61,56296,1,8,3:2:0:0:
324,187,56582,1,2,2:0:0:0:
324,187,56725,6,0,P|257:197|219:165,1,110,2|2,3:2|2:0,0:0:0:0:
231,89,57154,1,8,3:2:0:0:
74,54,57439,1,2,2:0:0:0:
74,54,57582,2,0,L|62:-9,2,55,2|0|2,3:2|0:0|2:0,0:0:0:0:
30,129,58011,2,0,L|18:192,2,55,8|0|0,3:2|0:0|0:0,0:0:0:0:
113,130,58439,6,0,L|93:235,1,55,2|0,3:2|0:0,0:0:0:0:
62,260,58725,1,0,0:0:0:0:
62,260,58868,2,0,L|125:271,1,55,10|0,3:2|0:0,0:0:0:0:
189,313,59154,1,0,0:0:0:0:
189,313,59296,2,0,L|200:249,1,55,2|0,3:2|0:0,0:0:0:0:
242,186,59582,1,0,0:0:0:0:
242,186,59725,1,10,3:2:0:0:
141,48,60011,1,2,2:0:0:0:
141,48,60154,6,0,L|298:75,1,110,2|0,3:2|0:0,0:0:0:0:
304,132,60582,2,0,L|461:104,1,110,10|0,3:2|0:0,0:0:0:0:
452,39,61011,1,2,3:2:0:0:
408,203,61296,1,0,0:0:0:0:
408,203,61439,2,0,L|353:212,2,55,10|2|2,3:2|2:0|2:0,0:0:0:0:
469,264,61868,6,0,P|479:331|447:369,1,110,2|2,3:2|2:0,0:0:0:0:
371,357,62296,1,8,3:2:0:0:
238,259,62582,1,2,2:0:0:0:
238,259,62725,2,0,L|301:271,2,55,2|0|2,3:2|0:0|2:0,0:0:0:0:
163,303,63154,1,8,3:2:0:0:
275,176,63439,1,2,2:0:0:0:
275,176,63582,6,0,P|285:109|253:71,1,110,2|2,3:2|2:0,0:0:0:0:
177,83,64011,1,8,3:2:0:0:
82,225,64296,1,2,2:0:0:0:
82,225,64439,2,0,L|19:237,2,55,2|0|2,3:2|0:0|2:0,0:0:0:0:
157,269,64868,2,0,L|220:281,2,55,8|0|0,3:2|0:0|0:0,0:0:0:0:
156,183,65296,6,0,L|145:128,1,55,2|0,3:2|0:0,0:0:0:0:
105,53,65582,1,0,0:0:0:0:
105,53,65725,2,0,L|159:43,1,55,10|0,3:2|0:0,0:0:0:0:
232,0,66011,1,0,0:0:0:0:
232,0,66154,2,0,L|241:54,1,55,2|0,3:2|0:0,0:0:0:0:
285,127,66439,1,0,0:0:0:0:
285,127,66582,1,10,3:2:0:0:
425,29,66868,1,2,2:0:0:0:
425,29,67011,6,0,L|398:186,1,110,2|0,3:2|0:0,0:0:0:0:
341,192,67439,2,0,L|369:349,1,110,10|0,3:2|0:0,0:0:0:0:
434,340,67868,1,2,3:2:0:0:
270,296,68154,1,0,0:0:0:0:
270,296,68296,2,0,L|260:241,2,55,10|2|2,3:2|2:0|2:0,0:0:0:0:
309,372,68725,5,4,2:0:0:0:
25,376,75582,5,8,3:2:0:0:
162,352,76011,1,8,2:0:0:0:
138,214,76439,1,8,2:0:0:0:
0,239,76868,1,8,2:0:0:0:
47,99,77296,2,0,L|204:126,1,150,8|8,3:2|2:0,0:0:0:0:
308,42,78154,1,8,3:2:0:0:
446,67,78582,1,8,2:0:0:0:
421,205,79011,5,8,3:2:0:0:
283,180,79439,1,8,2:0:0:0:
259,318,79868,1,8,3:2:0:0:
396,342,80296,1,8,2:0:0:0:
343,207,80725,6,0,L|331:143,2,50,8|0|0,3:2|0:0|0:0,0:0:0:0:
407,259,81154,2,0,L|533:236,1,100,8|0,2:0|0:0,0:0:0:0:
486,159,81582,1,8,3:2:0:0:
461,21,82011,1,8,2:0:0:0:
268,97,82439,6,0,L|141:74,1,100,6|2,3:2|2:0,0:0:0:0:
95,35,82868,2,0,L|72:161,1,100,8|2,3:2|2:0,0:0:0:0:
33,208,83296,2,0,L|159:230,1,100,2|2,3:2|2:0,0:0:0:0:
206,270,83725,2,0,L|228:143,1,100,8|2,3:2|2:0,0:0:0:0:
207,87,84154,6,0,L|333:109,1,100,2|2,3:2|2:0,0:0:0:0:
390,87,84582,2,0,L|367:213,1,100,8|2,3:2|2:0,0:0:0:0:
389,271,85011,2,0,L|262:248,1,100,2|2,3:2|2:0,0:0:0:0:
206,270,85439,2,0,L|228:143,1,100,8|0,3:2|0:0,0:0:0:0:
207,87,85868,5,2,3:2:0:0:
69,112,86296,1,10,3:2:0:0:
94,249,86725,1,2,3:2:0:0:
69,112,87154,2,0,L|195:89,1,100,10|2,3:2|2:0,0:0:0:0:
238,49,87582,6,0,L|247:0,2,50,2|0|0,3:2|0:0|0:0,0:0:0:0:
279,134,88011,2,0,L|377:150,1,100,10|0,3:2|0:0,0:0:0:0:
427,219,88439,1,2,3:2:0:0:
403,357,88868,2,0,L|466:345,2,50,10|2|2,3:2|2:0|2:0,0:0:0:0:
347,297,89296,6,0,L|220:274,1,100,10|2,3:2|2:0,0:0:0:0:
180,327,89725,1,8,3:2:0:0:
47,241,90011,1,2,2:0:0:0:
47,241,90154,2,0,L|70:114,1,100,10|2,3:2|2:0,0:0:0:0:
17,74,90582,1,8,3:2:0:0:
182,33,90868,1,2,2:0:0:0:
182,33,91011,6,0,L|309:56,1,100,10|2,3:2|2:0,0:0:0:0:
349,3,91439,1,8,3:2:0:0:
482,89,91725,1,2,2:0:0:0:
482,89,91868,2,0,L|459:216,1,100,10|2,3:2|2:0,0:0:0:0:
512,256,92296,1,8,3:2:0:0:
396,342,92725,5,10,3:2:0:0:
259,318,93154,1,10,3:2:0:0:
178,204,93582,1,10,3:2:0:0:
40,179,94011,1,10,3:2:0:0:
123,102,94296,1,2,2:0:0:0:
123,102,94439,5,2,3:2:0:0:
260,128,94868,1,10,3:2:0:0:
397,150,95296,1,2,3:2:0:0:
372,289,95725,2,0,L|360:352,2,50,10|2|2,3:2|2:0|2:0,0:0:0:0:
302,241,96154,6,0,L|313:178,2,55,6|2|2,3:2|2:0|2:0,0:0:0:0:
243,302,96582,1,10,3:2:0:0:
247,307,96725,1,2,2:0:0:0:
251,312,96868,1,2,2:0:0:0:
191,228,97011,2,0,L|202:165,2,55,2|2|2,3:2|2:0|2:0,0:0:0:0:
132,289,97439,1,10,3:2:0:0:
2,165,97725,1,2,2:0:0:0:
2,165,97868,6,0,L|-9:102,2,55,2|2|2,3:2|2:0|2:0,0:0:0:0:
61,226,98296,1,10,3:2:0:0:
65,231,98439,1,2,2:0:0:0:
69,236,98582,1,2,2:0:0:0:
113,152,98725,2,0,L|101:89,2,55,2|2|2,3:2|2:0|2:0,0:0:0:0:
172,213,99154,1,10,3:2:0:0:
176,218,99296,1,2,2:0:0:0:
180,223,99439,1,2,2:0:0:0:
248,175,99582,6,0,L|302:185,1,55,2|2,3:2|2:0,0:0:0:0:
376,143,99868,1,2,2:0:0:0:
376,143,100011,2,0,L|386:89,1,55,10|2,3:2|2:0,0:0:0:0:
344,15,100296,1,2,2:0:0:0:
344,15,100439,2,0,L|290:5,1,55,2|2,3:2|2:0,0:0:0:0:
216,47,100725,1,2,2:0:0:0:
216,47,100868,1,10,3:2:0:0:
54,89,101154,1,2,2:0:0:0:
54,89,101296,6,0,L|44:35,2,55,2|2|2,3:2|2:0|2:0,0:0:0:0:
116,162,101725,1,10,3:2:0:0:
120,167,101868,1,2,2:0:0:0:
124,172,102011,1,2,2:0:0:0:
28,176,102154,2,0,P|44:227|28:281,1,110,2|2,3:2|2:0,0:0:0:0:
67,366,102582,1,10,3:2:0:0:
71,371,102725,1,2,2:0:0:0:
75,376,102868,1,2,2:0:0:0:
148,330,103011,6,0,L|159:393,2,55,2|2|2,3:2|2:0|2:0,0:0:0:0:
182,252,103439,1,10,3:2:0:0:
178,247,103582,1,2,2:0:0:0:
174,242,103725,1,2,2:0:0:0:
216,173,103868,2,0,L|204:110,2,55,2|2|2,3:2|2:0|2:0,0:0:0:0:
275,235,104296,1,10,3:2:0:0:
444,257,104582,1,2,2:0:0:0:
444,257,104725,6,0,L|507:268,2,55,2|2|2,3:2|2:0|2:0,0:0:0:0:
366,291,105154,1,10,3:2:0:0:
370,296,105296,1,2,2:0:0:0:
374,301,105439,1,2,2:0:0:0:
287,325,105582,6,0,L|224:313,2,55,2|2|2,3:2|2:0|2:0,0:0:0:0:
374,301,106011,1,10,3:2:0:0:
370,296,106154,1,2,2:0:0:0:
366,291,106296,1,2,2:0:0:0:
285,242,106439,6,0,L|230:232,1,55,2|2,3:2|2:0,0:0:0:0:
175,168,106725,1,2,2:0:0:0:
175,168,106868,2,0,L|147:215,1,55,10|2,3:2|2:0,0:0:0:0:
161,299,107154,1,2,2:0:0:0:
161,299,107296,2,0,L|106:289,1,55,2|2,3:2|2:0,0:0:0:0:
52,225,107582,1,2,2:0:0:0:
52,225,107725,1,10,3:2:0:0:
137,79,108011,1,2,2:0:0:0:
137,79,108154,6,0,L|127:25,2,55,2|2|2,3:2|2:0|2:0,0:0:0:0:
207,131,108582,1,10,3:2:0:0:
211,136,108725,1,2,2:0:0:0:
215,141,108868,1,2,2:0:0:0:
213,47,109011,2,0,P|264:63|318:47,1,110,2|2,3:2|2:0,0:0:0:0:
374,110,109439,1,10,3:2:0:0:
394,106,109582,1,2,2:0:0:0:
413,103,109725,1,2,2:0:0:0:
475,40,109868,6,0,B|499:89|499:89|493:143,1,110,6|2,3:2|2:0,0:0:0:0:
420,188,110296,2,0,B|395:237|395:237|401:291,1,110,10|2,3:2|2:0,0:0:0:0:
458,354,110725,2,0,L|521:342,2,55,2|2|2,3:2|2:0|2:0,0:0:0:0:
375,372,111154,2,0,P|325:345|271:353,1,110,10|2,3:2|2:0,0:0:0:0:
198,384,111582,6,0,B|173:334|173:334|183:280,1,110,2|2,3:2|2:0,0:0:0:0:
263,259,112011,1,10,3:2:0:0:
99,243,112296,1,2,2:0:0:0:
99,243,112439,2,0,L|89:297,2,55,2|2|2,3:2|2:0|2:0,0:0:0:0:
176,201,112868,2,0,L|166:147,1,55,10|2,3:2|2:0,0:0:0:0:
130,69,113154,1,2,2:0:0:0:
130,69,113296,6,0,L|287:41,1,110,2|2,3:2|2:0,0:0:0:0:
316,14,113725,2,0,L|343:171,1,110,10|2,3:2|2:0,0:0:0:0:
393,185,114154,2,0,L|487:201,2,55,2|2|2,3:2|2:0|2:0,0:0:0:0:
311,207,114582,2,0,P|284:257|292:310,1,110,10|2,3:2|2:0,0:0:0:0:
241,377,115011,6,0,L|83:349,1,110,2|2,3:2|2:0,0:0:0:0:
79,292,115439,1,10,3:2:0:0:
54,128,115725,1,2,2:0:0:0:
54,128,115868,2,0,L|0:118,2,55,2|0|2,3:2|0:0|2:0,0:0:0:0:
97,55,116296,2,0,L|151:45,1,55,10|2,3:2|2:0,0:0:0:0:
224,89,116582,1,2,2:0:0:0:
283,29,116725,6,0,B|332:53|332:53|386:47,1,110,2|2,3:2|2:0,0:0:0:0:
445,109,117154,2,0,B|420:158|420:158|426:212,1,110,10|2,3:2|2:0,0:0:0:0:
491,275,117582,2,0,L|479:338,2,55,2|2|2,3:2|2:0|2:0,0:0:0:0:
408,295,118011,2,0,P|358:322|304:313,1,110,10|2,3:2|2:0,0:0:0:0:
257,246,118439,6,0,B|207:270|207:270|153:264,1,110,2|2,3:2|2:0,0:0:0:0:
93,326,118868,1,10,3:2:0:0:
10,185,119154,1,2,2:0:0:0:
10,185,119296,2,0,L|0:239,2,55,2|2|2,3:2|2:0|2:0,0:0:0:0:
87,143,119725,2,0,L|77:89,1,55,10|2,3:2|2:0,0:0:0:0:
65,9,120011,1,2,2:0:0:0:
65,9,120154,6,0,L|222:36,1,110,2|2,3:2|2:0,0:0:0:0:
232,90,120582,2,0,L|389:62,1,110,10|2,3:2|2:0,0:0:0:0:
407,17,121011,2,0,L|501:33,2,55,2|2|2,3:2|2:0|2:0,0:0:0:0:
418,101,121439,2,0,P|445:151|436:204,1,110,10|2,3:2|2:0,0:0:0:0:
480,276,121868,6,0,L|322:303,1,110,2|2,3:2|2:0,0:0:0:0:
293,327,122296,2,0,L|283:381,2,55,10|2|2,3:2|2:0|2:0,0:0:0:0:
301,243,122725,1,2,3:2:0:0:
166,311,123011,1,2,2:0:0:0:
166,311,123154,2,0,L|112:301,1,55,10|2,3:2|2:0,0:0:0:0:
39,345,123439,1,2,2:0:0:0:
39,345,123582,6,0,L|16:218,1,100,6|0,3:2|0:0,0:0:0:0:
80,186,124011,1,8,3:2:0:0:
49,39,124296,1,2,2:0:0:0:
49,39,124439,2,0,L|-14:27,2,50,2|0|0,3:2|0:0|0:0,0:0:0:0:
105,104,124868,2,0,P|164:97|197:61,1,100,10|0,3:2|0:0,0:0:0:0:
260,21,125296,6,0,L|283:148,1,100,2|0,3:2|0:0,0:0:0:0:
212,173,125725,1,8,3:2:0:0:
350,278,126011,1,2,2:0:0:0:
350,278,126154,2,0,L|413:289,2,50,2|0|0,3:2|0:0|0:0,0:0:0:0:
307,351,126582,2,0,P|251:328|229:285,1,100,10|0,3:2|0:0,0:0:0:0:
162,248,127011,6,0,L|35:271,1,100,2|0,3:2|0:0,0:0:0:0:
10,200,127439,1,8,3:2:0:0:
84,52,127725,1,2,2:0:0:0:
84,52,127868,2,0,L|95:-11,2,50,2|0|0,3:2|0:0|0:0,0:0:0:0:
130,123,128296,2,0,P|187:136|209:176,1,100,10|0,3:2|0:0,0:0:0:0:
275,220,128725,6,0,L|402:198,1,100,2|0,3:2|0:0,0:0:0:0:
444,251,129154,1,8,3:2:0:0:
463,88,129439,1,2,2:0:0:0:
463,88,129582,2,0,L|526:76,2,50,2|0|0,3:2|0:0|0:0,0:0:0:0:
398,33,130011,2,0,P|351:68|306:59,1,100,10|0,3:2|0:0,0:0:0:0:
239,14,130439,6,0,L|216:140,1,100,6|0,3:2|0:0,0:0:0:0:
155,34,130868,2,0,L|132:160,1,100,8|2,3:2|2:0,0:0:0:0:
71,54,131296,2,0,L|48:180,1,100,2|0,3:2|0:0,0:0:0:0:
113,216,131725,1,10,3:2:0:0:
165,381,132011,1,0,0:0:0:0:
165,381,132154,6,0,L|187:254,1,100,2|0,3:2|0:0,0:0:0:0:
249,361,132582,2,0,L|271:234,1,100,8|2,3:2|2:0,0:0:0:0:
333,341,133011,2,0,L|355:214,1,100,2|0,3:2|0:0,0:0:0:0:
291,179,133439,1,10,3:2:0:0:
327,15,133725,1,0,0:0:0:0:
327,15,133868,6,0,L|349:141,1,100,2|0,3:2|0:0,0:0:0:0:
411,35,134296,2,0,L|433:161,1,100,8|2,3:2|2:0,0:0:0:0:
495,55,134725,2,0,L|517:181,1,100,2|0,3:2|0:0,0:0:0:0:
453,217,135154,1,10,3:2:0:0:
512,374,135439,1,0,0:0:0:0:
512,374,135582,6,0,L|354:346,1,150,2|8,3:2|3:2,0:0:0:0:
298,198,136296,1,2,2:0:0:0:
298,198,136439,2,0,L|192:216,1,100,2|0,3:2|0:0,0:0:0:0:
114,232,136868,1,10,3:2:0:0:
0,384,137296,5,14,3:2:0:0:
