osu file format v14

[General]
AudioFilename: audio.mp3
AudioLeadIn: 0
PreviewTime: 22154
Countdown: 0
SampleSet: Soft
StackLeniency: 0.7
Mode: 0
LetterboxInBreaks: 0
WidescreenStoryboard: 0

[Editor]
Bookmarks: 27582,41296,68725,75582,96154,109868,123582
DistanceSpacing: 1
BeatDivisor: 3
GridSize: 32
TimelineZoom: 1.9

[Metadata]
Title:The 7 Seas
TitleUnicode:The 7 Seas
Artist:F-777
ArtistUnicode:F-777
Creator:Aurorance
Version:Normal
Source:Geometry Dash Meltdown
Tags:mappers' guild instrumental video game electronic f777 iredi wither featured artist fa seven
BeatmapID:3764197
BeatmapSetID:1833543

[Difficulty]
HPDrainRate:3
CircleSize:3
OverallDifficulty:4
ApproachRate:6
SliderMultiplier:1.28
SliderTickRate:1

[Events]
//Background and Video events
0,0,"7sea.jpg",0,0
//Break Periods
2,68925,74532
//Storyboard Layer 0 (Background)
//Storyboard Layer 1 (Fail)
//Storyboard Layer 2 (Pass)
//Storyboard Layer 3 (Foreground)
//Storyboard Layer 4 (Overlay)
//Storyboard Sound Samples

[TimingPoints]
154,428.571428571429,4,2,1,40,1,0
7011,-100,4,2,1,45,0,0
13868,-100,4,2,1,50,0,0
20725,-100,4,2,1,55,0,0
27582,-100,4,2,1,65,0,0
28011,-100,4,2,2,65,0,0
41296,-100,4,2,2,70,0,0
55011,-100,4,2,2,60,0,0
75582,-100,4,2,1,50,0,0
82439,-100,4,2,1,55,0,0
94439,-100,4,2,1,45,0,0
96154,-100,4,2,1,65,0,0
96582,-100,4,2,2,65,0,0
109868,-100,4,2,2,70,0,0
123582,-100,4,2,2,55,0,0
135582,-100,4,2,2,40,0,0
137296,-100,4,2,2,55,0,0

[Colours]
Combo1 : 57,255,176
Combo2 : 104,186,253
Combo3 : 28,0,181

[HitObjects]
20,33,154,6,1,L|37:186,1,128,8|8,2:0|2:0,0:0:0:0:
143,227,1011,2,1,L|128:99,1,128,8|8,2:0|2:0,0:0:0:0:
221,10,1868,2,1,L|238:163,1,128,8|8,2:0|2:0,0:0:0:0:
317,235,2725,1,8,2:0:0:0:
361,115,3154,1,8,2:0:0:0:
235,137,3582,6,1,L|83:117,1,128,8|8,2:0|2:0,0:0:0:0:
20,214,4439,2,1,L|172:234,1,128,8|8,2:0|2:0,0:0:0:0:
201,346,5296,2,1,P|250:283|320:284,1,128,8|8,2:0|2:0,0:0:0:0:
413,322,6154,1,8,2:0:0:0:
457,202,6582,2,1,L|441:110,1,85.3333333333333,12|0,2:0|0:0,0:0:0:0:
432,76,7011,5,8,3:2:0:0:
320,138,7439,1,8,2:0:0:0:
242,35,7868,2,1,P|174:45|120:8,1,128,8|8,2:0|2:0,0:0:0:0:
17,84,8725,2,1,L|42:224,1,128,8|8,3:2|2:0,0:0:0:0:
138,290,9582,1,8,3:2:0:0:
165,165,10011,1,8,2:0:0:0:
288,129,10439,6,1,L|442:153,1,128,8|8,3:2|2:0,0:0:0:0:
498,245,11296,1,8,3:2:0:0:
372,269,11725,1,8,2:0:0:0:
414,148,12154,2,1,P|421:91|368:30,1,128,8|8,3:2|2:0,0:0:0:0:
257,69,13011,1,8,3:2:0:0:
134,106,13439,2,1,L|153:220,1,85.3333333333333,12|0,2:0|0:0,0:0:0:0:
154,232,13868,6,0,B|130:292|130:292|171:350,1,128,8|8,3:2|2:0,0:0:0:0:
274,274,14725,1,8,2:0:0:0:
389,329,15154,1,8,2:0:0:0:
446,214,15582,2,0,B|470:154|470:154|429:96,1,128,8|8,3:2|2:0,0:0:0:0:
316,49,16439,1,8,3:2:0:0:
225,139,16868,1,8,2:0:0:0:
268,259,17296,6,0,P|262:313|231:339,1,85.3333333333333,8|0,3:2|0:0,0:0:0:0:
204,355,17725,1,8,2:0:0:0:
85,306,18154,2,0,B|66:245|66:245|86:178,1,128,8|8,3:2|2:0,0:0:0:0:
124,61,19011,1,8,3:2:0:0:
234,125,19439,1,8,2:0:0:0:
280,5,19868,2,0,L|377:16,1,85.3333333333333,8|0,3:2|0:0,0:0:0:0:
407,20,20296,1,8,2:0:0:0:
486,120,20725,6,0,P|493:172|472:206,1,85.3333333333333,8|8,3:2|2:0,0:0:0:0:
444,226,21154,1,8,2:0:0:0:
374,186,21439,1,8,2:0:0:0:
374,186,21582,2,0,L|231:199,1,128,8|8,2:0|2:0,0:0:0:0:
125,240,22439,2,0,P|118:292|139:326,1,85.3333333333333,8|8,3:2|2:0,0:0:0:0:
167,346,22868,1,8,2:0:0:0:
248,314,23154,1,8,2:0:0:0:
248,314,23296,2,0,L|263:180,1,128,8|8,3:2|2:0,0:0:0:0:
184,84,24154,6,0,L|106:96,2,42.6666666666667,8|0|0,3:2|3:2|3:2,0:0:0:0:
214,53,24582,1,8,3:2:0:0:
313,133,25011,2,0,L|391:145,2,42.6666666666667,8|0|0,3:2|3:2|3:2,0:0:0:0:
282,163,25439,1,8,3:2:0:0:
161,202,25868,1,8,3:2:0:0:
161,330,26296,1,8,3:2:0:0:
282,370,26725,1,8,3:2:0:0:
358,266,27154,1,8,3:2:0:0:
282,163,27582,6,0,L|225:173,2,42.6666666666667,6|2|2,3:2|2:0|2:0,0:0:0:0:
315,129,28011,2,0,L|296:24,1,85.3333333333333,10|2,3:2|2:0,0:0:0:0:
267,11,28439,2,0,L|162:29,1,85.3333333333333,2|2,3:2|2:0,0:0:0:0:
149,58,28868,1,10,3:2:0:0:
75,178,29296,2,0,L|32:170,2,42.6666666666667,2|2|2,3:2|2:0|2:0,0:0:0:0:
97,220,29725,2,0,L|139:212,2,42.6666666666667,10|2|2,3:2|2:0|2:0,0:0:0:0:
70,260,30154,2,0,L|27:252,2,42.6666666666667,2|2|2,3:2|2:0|2:0,0:0:0:0:
92,302,30582,1,10,3:2:0:0:
219,363,31011,6,0,L|303:349,1,85.3333333333333,2|2,3:2|2:0,0:0:0:0:
323,307,31439,2,0,L|310:222,1,85.3333333333333,10|2,3:2|2:0,0:0:0:0:
327,178,31868,2,0,L|390:166,2,42.6666666666667,2|2|2,3:2|2:0|2:0,0:0:0:0:
297,141,32296,1,10,3:2:0:0:
209,175,32582,1,2,2:0:0:0:
209,175,32725,2,0,L|221:247,2,42.6666666666667,2|2|2,3:2|2:0|2:0,0:0:0:0:
169,148,33154,2,0,L|181:76,2,42.6666666666667,10|2|2,3:2|2:0|2:0,0:0:0:0:
127,170,33582,1,2,3:2:0:0:
20,262,34011,1,10,3:2:0:0:
135,342,34439,6,0,L|125:285,2,42.6666666666667,2|2|2,3:2|2:0|2:0,0:0:0:0:
169,375,34868,2,0,L|274:356,1,85.3333333333333,10|2,3:2|2:0,0:0:0:0:
287,327,35296,2,0,L|269:222,1,85.3333333333333,2|2,3:2|2:0,0:0:0:0:
240,209,35725,1,10,3:2:0:0:
328,99,36154,2,0,L|320:56,2,42.6666666666667,2|2|2,3:2|2:0|2:0,0:0:0:0:
370,121,36582,2,0,L|362:163,2,42.6666666666667,10|2|2,3:2|2:0|2:0,0:0:0:0:
410,94,37011,2,0,L|402:49,2,42.6666666666667,2|2|2,3:2|2:0|2:0,0:0:0:0:
452,116,37439,1,10,3:2:0:0:
504,246,37868,6,0,L|490:330,1,85.3333333333333,2|2,3:2|2:0,0:0:0:0:
448,350,38296,2,0,L|363:337,1,85.3333333333333,10|2,3:2|2:0,0:0:0:0:
323,311,38725,2,0,L|330:264,2,42.6666666666667,2|2|2,3:2|2:0|2:0,0:0:0:0:
283,336,39154,1,10,3:2:0:0:
205,293,39439,1,2,2:0:0:0:
205,293,39582,2,0,L|219:194,1,85.3333333333333,2|2,3:2|2:0,0:0:0:0:
181,177,40011,2,0,L|188:127,2,42.6666666666667,10|2|2,3:2|2:0|2:0,0:0:0:0:
135,190,40439,1,2,3:2:0:0:
59,143,40725,1,2,2:0:0:0:
59,143,40868,2,0,L|-6:150,2,42.6666666666667,10|2|2,3:2|2:0|2:0,0:0:0:0:
87,105,41296,6,0,P|105:54|161:41,1,85.3333333333333,6|2,3:2|2:0,0:0:0:0:
176,32,41725,1,10,3:2:0:0:
241,156,42154,2,0,L|293:151,2,42.6666666666667,2|2|2,3:2|2:0|2:0,0:0:0:0:
207,189,42582,1,10,3:2:0:0:
150,318,43011,2,0,P|120:353|66:358,1,85.3333333333333,2|2,3:2|2:0,0:0:0:0:
36,361,43439,1,10,3:2:0:0:
6,277,43725,1,2,2:0:0:0:
6,277,43868,2,0,L|21:143,1,128,2|10,3:2|3:2,0:0:0:0:
72,18,44725,6,0,P|101:56|152:65,1,85.3333333333333,2|2,3:2|2:0,0:0:0:0:
182,69,45154,1,10,3:2:0:0:
321,47,45582,2,0,L|326:-5,2,42.6666666666667,2|2|2,3:2|2:0|2:0,0:0:0:0:
354,80,46011,1,10,3:2:0:0:
235,156,46439,2,0,P|219:197|231:245,1,85.3333333333333,2|2,3:2|2:0,0:0:0:0:
251,271,46868,1,10,3:2:0:0:
331,329,47154,1,2,2:0:0:0:
331,329,47296,2,0,L|447:315,1,85.3333333333333,2|2,3:2|2:0,0:0:0:0:
459,335,47725,2,0,L|452:383,2,42.6666666666667,10|2|2,3:2|2:0|2:0,0:0:0:0:
499,309,48154,6,0,P|515:265|500:212,1,85.3333333333333,2|2,3:2|2:0,0:0:0:0:
483,188,48582,1,10,3:2:0:0:
363,113,49011,2,0,L|368:61,2,42.6666666666667,2|2|2,3:2|2:0|2:0,0:0:0:0:
330,147,49439,1,10,3:2:0:0:
382,277,49868,2,0,P|352:312|298:317,1,85.3333333333333,2|2,3:2|2:0,0:0:0:0:
268,320,50296,1,10,3:2:0:0:
194,261,50582,1,2,2:0:0:0:
194,261,50725,2,0,B|132:277|132:277|68:245,1,128,2|10,3:2|3:2,0:0:0:0:
14,120,51582,6,0,P|53:109|102:114,1,85.3333333333333,2|2,3:2|2:0,0:0:0:0:
142,125,52011,1,10,3:2:0:0:
260,49,52439,2,0,L|255:-3,2,42.6666666666667,2|2|2,3:2|2:0|2:0,0:0:0:0:
293,82,52868,1,10,3:2:0:0:
414,11,53296,2,0,P|458:12|488:44,1,85.3333333333333,2|2,3:2|2:0,0:0:0:0:
500,84,53725,1,10,3:2:0:0:
436,153,54011,1,2,2:0:0:0:
436,153,54154,2,0,L|421:248,1,85.3333333333333,2|2,3:2|2:0,0:0:0:0:
440,280,54582,2,0,L|490:288,2,42.6666666666667,10|2|2,3:2|2:0|2:0,0:0:0:0:
409,316,55011,6,0,P|372:341|316:337,1,85.3333333333333,6|2,3:2|2:0,0:0:0:0:
286,333,55439,1,8,3:2:0:0:
225,261,55725,1,2,2:0:0:0:
225,261,55868,2,0,L|240:160,1,85.3333333333333,2|2,3:2|2:0,0:0:0:0:
246,130,56296,1,8,3:2:0:0:
190,54,56582,1,2,2:0:0:0:
190,54,56725,6,0,P|149:26|103:24,1,85.3333333333333,2|2,3:2|2:0,0:0:0:0:
67,27,57154,1,8,3:2:0:0:
12,104,57439,1,2,2:0:0:0:
12,104,57582,2,0,L|23:208,1,85.3333333333333,2|2,3:2|2:0,0:0:0:0:
27,235,58011,1,8,3:2:0:0:
110,347,58439,6,0,P|152:354|205:328,1,85.3333333333333,2|0,3:2|0:0,0:0:0:0:
233,316,58868,2,0,L|220:209,1,85.3333333333333,10|0,3:2|0:0,0:0:0:0:
189,198,59296,2,0,L|202:91,1,85.3333333333333,2|0,3:2|0:0,0:0:0:0:
232,79,59725,1,10,3:2:0:0:
175,11,60011,1,2,2:0:0:0:
175,11,60154,2,0,P|110:18|72:69,2,128,2|10|2,3:2|3:2|3:2,0:0:0:0:
261,60,61296,1,0,0:0:0:0:
261,60,61439,2,0,L|316:53,2,42.6666666666667,10|2|2,3:2|2:0|2:0,0:0:0:0:
229,95,61868,6,0,P|218:134|225:181,1,85.3333333333333,2|2,3:2|2:0,0:0:0:0:
244,220,62296,1,8,3:2:0:0:
302,300,62582,1,2,2:0:0:0:
302,300,62725,2,0,L|402:289,1,85.3333333333333,2|2,3:2|2:0,0:0:0:0:
433,284,63154,1,8,3:2:0:0:
491,211,63439,1,2,2:0:0:0:
491,211,63582,6,0,P|460:170|458:126,1,85.3333333333333,2|2,3:2|2:0,0:0:0:0:
463,90,64011,1,8,3:2:0:0:
398,27,64296,1,2,2:0:0:0:
398,27,64439,2,0,L|294:38,1,85.3333333333333,2|2,3:2|2:0,0:0:0:0:
266,43,64868,1,8,3:2:0:0:
146,117,65296,6,0,P|139:159|165:212,1,85.3333333333333,2|0,3:2|0:0,0:0:0:0:
184,234,65725,2,0,L|291:221,1,85.3333333333333,10|0,3:2|0:0,0:0:0:0:
302,257,66154,2,0,P|319:301|302:361,1,85.3333333333333,2|0,3:2|0:0,0:0:0:0:
281,371,66582,1,10,3:2:0:0:
199,334,66868,1,2,2:0:0:0:
199,334,67011,2,0,L|60:349,2,128,2|10|2,3:2|3:2|3:2,0:0:0:0:
245,254,68154,1,0,0:0:0:0:
245,254,68296,2,0,L|315:244,2,42.6666666666667,10|2|2,3:2|2:0|2:0,0:0:0:0:
204,229,68725,5,4,2:0:0:0:
17,356,75582,6,0,L|144:346,1,128,8|8,3:2|2:0,0:0:0:0:
247,270,76439,1,8,2:0:0:0:
131,215,76868,1,8,2:0:0:0:
216,120,77296,2,0,P|277:142|343:141,1,128,8|8,3:2|2:0,0:0:0:0:
447,73,78154,1,8,3:2:0:0:
333,13,78582,1,8,2:0:0:0:
339,141,79011,5,8,3:2:0:0:
241,223,79439,1,8,2:0:0:0:
323,321,79868,1,8,3:2:0:0:
421,239,80296,1,8,2:0:0:0:
339,141,80725,6,0,L|351:47,1,85.3333333333333,8|0,3:2|0:0,0:0:0:0:
323,22,81154,1,8,2:0:0:0:
246,52,81439,1,0,0:0:0:0:
246,52,81582,2,0,L|234:146,1,85.3333333333333,8|0,3:2|0:0,0:0:0:0:
262,171,82011,1,8,2:0:0:0:
312,288,82439,6,0,P|352:266|407:261,1,85.3333333333333,6|2,3:2|2:0,0:0:0:0:
433,259,82868,1,8,3:2:0:0:
479,187,83154,1,2,2:0:0:0:
479,187,83296,2,0,L|466:74,1,85.3333333333333,2|2,3:2|2:0,0:0:0:0:
356,52,84011,1,2,2:0:0:0:
356,52,84154,2,0,L|369:165,1,85.3333333333333,2|2,3:2|2:0,0:0:0:0:
347,267,84868,1,2,2:0:0:0:
347,267,85011,2,0,P|311:235|262:226,1,85.3333333333333,2|2,3:2|2:0,0:0:0:0:
232,224,85439,1,8,3:2:0:0:
147,320,85868,5,2,3:2:0:0:
36,255,86296,1,10,3:2:0:0:
121,159,86725,1,2,3:2:0:0:
232,224,87154,1,10,3:2:0:0:
307,181,87439,1,2,2:0:0:0:
307,181,87582,2,0,P|361:182|415:136,2,128,2|10|2,3:2|3:2|3:2,0:0:0:0:
229,78,88868,2,0,L|237:21,2,42.6666666666667,10|2|2,3:2|2:0|2:0,0:0:0:0:
195,103,89296,6,0,L|86:88,1,85.3333333333333,10|2,3:2|2:0,0:0:0:0:
67,85,89725,1,8,3:2:0:0:
6,145,90011,1,2,2:0:0:0:
6,145,90154,2,0,L|16:240,1,85.3333333333333,10|2,3:2|2:0,0:0:0:0:
20,272,90582,1,8,3:2:0:0:
84,336,90868,1,2,2:0:0:0:
84,336,91011,6,0,L|193:321,1,85.3333333333333,10|2,3:2|2:0,0:0:0:0:
212,318,91439,1,8,3:2:0:0:
277,263,91725,1,2,2:0:0:0:
277,263,91868,2,0,L|386:278,1,85.3333333333333,10|2,3:2|2:0,0:0:0:0:
405,281,92296,1,8,3:2:0:0:
383,154,92725,5,10,3:2:0:0:
409,29,93154,1,10,3:2:0:0:
504,114,93582,1,10,3:2:0:0:
383,154,94011,1,10,3:2:0:0:
314,113,94296,1,2,2:0:0:0:
314,113,94439,2,0,P|249:137|183:125,1,128,2|10,3:2|3:2,0:0:0:0:
74,78,95296,1,2,3:2:0:0:
41,202,95725,2,0,L|-1:208,2,42.6666666666667,10|2|2,3:2|2:0|2:0,0:0:0:0:
74,235,96154,6,0,L|64:292,2,42.6666666666667,6|2|2,3:2|2:0|2:0,0:0:0:0:
120,244,96582,2,0,L|225:263,1,85.3333333333333,10|2,3:2|2:0,0:0:0:0:
249,269,97011,2,0,L|263:184,1,85.3333333333333,2|2,3:2|2:0,0:0:0:0:
272,138,97439,1,10,3:2:0:0:
148,71,97868,2,0,L|156:114,2,42.6666666666667,2|2|2,3:2|2:0|2:0,0:0:0:0:
106,49,98296,2,0,L|97:3,2,42.6666666666667,10|2|2,3:2|2:0|2:0,0:0:0:0:
67,75,98725,2,0,L|73:118,2,42.6666666666667,2|2|2,3:2|2:0|2:0,0:0:0:0:
24,55,99154,1,10,3:2:0:0:
13,194,99582,6,0,L|32:294,1,85.3333333333333,2|2,3:2|2:0,0:0:0:0:
37,324,100011,2,0,L|137:305,1,85.3333333333333,10|2,3:2|2:0,0:0:0:0:
167,299,100439,2,0,L|179:362,2,42.6666666666667,2|2|2,3:2|2:0|2:0,0:0:0:0:
160,252,100868,1,10,3:2:0:0:
233,193,101154,1,2,2:0:0:0:
233,193,101296,2,0,L|221:121,2,42.6666666666667,2|2|2,3:2|2:0|2:0,0:0:0:0:
273,217,101725,2,0,L|261:289,2,42.6666666666667,10|2|2,3:2|2:0|2:0,0:0:0:0:
316,199,102154,1,2,3:2:0:0:
407,91,102582,1,10,3:2:0:0:
274,42,103011,6,0,L|284:-15,2,42.6666666666667,2|2|2,3:2|2:0|2:0,0:0:0:0:
264,88,103439,2,0,L|159:69,1,85.3333333333333,10|2,3:2|2:0,0:0:0:0:
133,64,103868,2,0,L|118:148,1,85.3333333333333,2|2,3:2|2:0,0:0:0:0:
110,194,104296,1,10,3:2:0:0:
211,291,104725,2,0,L|203:334,2,42.6666666666667,2|2|2,3:2|2:0|2:0,0:0:0:0:
253,269,105154,2,0,L|262:218,2,42.6666666666667,10|2|2,3:2|2:0|2:0,0:0:0:0:
293,296,105582,2,0,L|286:339,2,42.6666666666667,2|2|2,3:2|2:0|2:0,0:0:0:0:
335,274,106011,1,10,3:2:0:0:
460,210,106439,6,0,L|446:126,1,85.3333333333333,2|2,3:2|2:0,0:0:0:0:
437,79,106868,2,0,L|352:92,1,85.3333333333333,10|2,3:2|2:0,0:0:0:0:
306,100,107296,2,0,L|313:147,2,42.6666666666667,2|2|2,3:2|2:0|2:0,0:0:0:0:
298,53,107725,1,10,3:2:0:0:
218,99,108011,1,2,2:0:0:0:
218,99,108154,2,0,L|232:198,1,85.3333333333333,2|2,3:2|2:0,0:0:0:0:
237,230,108582,2,0,L|187:237,2,42.6666666666667,10|2|2,3:2|2:0|2:0,0:0:0:0:
283,222,109011,1,2,3:2:0:0:
374,261,109296,1,2,2:0:0:0:
374,261,109439,2,0,L|365:325,2,42.6666666666667,10|2|2,3:2|2:0|2:0,0:0:0:0:
414,237,109868,6,0,P|432:202|430:151,1,85.3333333333333,6|2,3:2|2:0,0:0:0:0:
413,113,110296,1,10,3:2:0:0:
286,49,110725,2,0,L|291:-3,2,42.6666666666667,2|2|2,3:2|2:0|2:0,0:0:0:0:
252,82,111154,1,10,3:2:0:0:
281,176,111439,1,2,2:0:0:0:
281,176,111582,2,0,P|254:216|204:228,1,85.3333333333333,2|2,3:2|2:0,0:0:0:0:
174,235,112011,1,10,3:2:0:0:
116,168,112296,1,2,2:0:0:0:
116,168,112439,2,0,L|126:60,1,85.3333333333333,2|2,3:2|2:0,0:0:0:0:
129,36,112868,1,10,3:2:0:0:
257,95,113296,6,0,P|286:57|337:48,1,85.3333333333333,2|2,3:2|2:0,0:0:0:0:
367,46,113725,1,10,3:2:0:0:
470,141,114154,2,0,L|522:146,2,42.6666666666667,2|2|2,3:2|2:0|2:0,0:0:0:0:
437,174,114582,1,10,3:2:0:0:
354,141,114868,1,2,2:0:0:0:
354,141,115011,2,0,P|329:174|326:222,1,85.3333333333333,2|2,3:2|2:0,0:0:0:0:
332,263,115439,1,10,3:2:0:0:
265,329,115725,1,2,2:0:0:0:
265,329,115868,2,0,L|149:315,1,85.3333333333333,2|2,3:2|2:0,0:0:0:0:
147,285,116296,2,0,L|154:237,2,42.6666666666667,10|2|2,3:2|2:0|2:0,0:0:0:0:
103,302,116725,6,0,P|59:274|52:217,1,85.3333333333333,2|2,3:2|2:0,0:0:0:0:
46,197,117154,1,10,3:2:0:0:
126,81,117582,2,0,L|131:29,2,42.6666666666667,2|2|2,3:2|2:0|2:0,0:0:0:0:
159,114,118011,1,10,3:2:0:0:
245,73,118296,1,2,2:0:0:0:
245,73,118439,2,0,P|290:82|320:127,1,85.3333333333333,2|2,3:2|2:0,0:0:0:0:
335,152,118868,1,10,3:2:0:0:
278,228,119154,1,2,2:0:0:0:
278,228,119296,2,0,B|313:252|313:252|365:244,1,85.3333333333333,2|2,3:2|2:0,0:0:0:0:
402,238,119725,1,10,3:2:0:0:
473,116,120154,6,0,P|423:100|404:53,1,85.3333333333333,2|2,3:2|2:0,0:0:0:0:
395,27,120582,1,10,3:2:0:0:
272,96,121011,2,0,L|280:149,2,42.6666666666667,2|2|2,3:2|2:0|2:0,0:0:0:0:
238,62,121439,1,10,3:2:0:0:
177,133,121725,1,2,2:0:0:0:
177,133,121868,2,0,P|182:176|159:225,1,85.3333333333333,2|2,3:2|2:0,0:0:0:0:
134,248,122296,1,10,3:2:0:0:
187,332,122582,1,2,2:0:0:0:
187,332,122725,2,0,L|282:347,1,85.3333333333333,2|2,3:2|2:0,0:0:0:0:
314,328,123154,2,0,L|322:278,2,42.6666666666667,10|2|2,3:2|2:0|2:0,0:0:0:0:
350,357,123582,5,6,3:2:0:0:
464,299,124011,1,8,3:2:0:0:
435,224,124296,1,2,2:0:0:0:
435,224,124439,2,0,P|364:214|288:194,1,128,2|10,3:2|3:2,0:0:0:0:
202,130,125296,2,0,P|218:194|222:270,1,128,2|8,3:2|3:2,0:0:0:0:
162,316,126011,1,2,2:0:0:0:
162,316,126154,2,0,P|89:317|57:253,1,128,2|10,3:2|3:2,0:0:0:0:
58,148,127011,6,0,P|125:165|188:171,1,128,2|8,3:2|3:2,0:0:0:0:
252,119,127725,1,2,2:0:0:0:
252,119,127868,2,0,P|272:55|331:44,1,128,2|10,3:2|3:2,0:0:0:0:
448,79,128725,2,0,P|453:146|464:222,1,128,2|8,3:2|3:2,0:0:0:0:
408,274,129439,1,2,2:0:0:0:
408,274,129582,2,0,P|355:232|284:232,1,128,2|10,3:2|3:2,0:0:0:0:
172,261,130439,5,6,3:2:0:0:
205,137,130868,1,8,3:2:0:0:
163,69,131154,1,2,2:0:0:0:
163,69,131296,2,0,P|110:28|31:36,1,128,2|10,3:2|3:2,0:0:0:0:
0,145,132154,2,0,L|35:283,1,128,2|8,3:2|3:2,0:0:0:0:
120,273,132868,1,2,2:0:0:0:
120,273,133011,2,0,L|85:135,1,128,2|10,3:2|3:2,0:0:0:0:
153,38,133868,6,0,P|219:47|250:100,1,128,2|8,3:2|3:2,0:0:0:0:
241,184,134582,1,2,2:0:0:0:
241,184,134725,2,0,P|222:253|257:310,1,128,2|10,3:2|3:2,0:0:0:0:
354,368,135582,2,0,P|420:361|462:302,1,128,2|8,3:2|3:2,0:0:0:0:
465,231,136296,2,0,B|397:174|397:174|313:198,1,170.666666666667,2|10,2:0|3:2,0:0:0:0:
196,237,137296,5,14,3:2:0:0:
