osu file format v14

[General]
AudioFilename: audio.mp3
AudioLeadIn: 0
PreviewTime: 160731
Countdown: 0
SampleSet: Normal
StackLeniency: 0.7
Mode: 1
LetterboxInBreaks: 0
WidescreenStoryboard: 1

[Editor]
Bookmarks: 243,14679,29115,36333,43551,57987,65205,72423,86859,94077,101295,115731,130167,144603,151821,160844,175280,189716
DistanceSpacing: 0.7
BeatDivisor: 4
GridSize: 32
TimelineZoom: 1.5

[Metadata]
Title:System Split
TitleUnicode:System Split
Artist:F-777
ArtistUnicode:F-777
Creator:Nepuri
Version:Inner Oni
Source:osu!
Tags:jesse valentine f777 seven newgrounds electronic instrumental synth geometry dash cynplytholowazy cynpzy gn junior featured artist fa mpg mappers' guild Cynp-zy -GN Jr. breakbeat dance trance Edmonton
BeatmapID:2306707
BeatmapSetID:1103941

[Difficulty]
HPDrainRate:6
CircleSize:5
OverallDifficulty:6
ApproachRate:10
SliderMultiplier:1.4
SliderTickRate:1

[Events]
//Background and Video events
0,0,"2356d73883247d2d8642a2c9615613fb59801cab_s2_n1.png",0,0
//Break Periods
2,158788,160394
//Storyboard Layer 0 (Background)
//Storyboard Layer 1 (Fail)
//Storyboard Layer 2 (Pass)
//Storyboard Layer 3 (Foreground)
//Storyboard Layer 4 (Overlay)
//Storyboard Sound Samples

[TimingPoints]
243,451.127819548872,4,1,0,100,1,0
36333,-83.3333333333333,4,1,0,100,0,0
43776,-86.9565217391304,4,1,0,100,0,0
43889,-88.8888888888889,4,1,0,100,0,0
44002,-90.9090909090909,4,1,0,100,0,0
44227,-95.2380952380952,4,1,0,100,0,0
44340,-97.5609756097561,4,1,0,100,0,0
44453,-100,4,1,0,100,0,0
58889,-125,4,1,0,100,0,0
65205,-100,4,1,0,100,0,0
72310,-90.9090909090909,4,1,0,100,0,0
72423,-83.3333333333333,4,1,0,100,0,1
86859,-83.3333333333333,4,1,0,100,0,0
88551,-125,4,1,0,100,0,0
92273,-100,4,1,0,100,0,0
92949,-90.9090909090909,4,1,0,100,0,0
94528,-111.111111111111,4,1,0,100,0,0
101295,-100,4,1,0,100,0,0
129491,-95.2380952380952,4,1,0,100,0,0
129716,-90.9090909090909,4,1,0,100,0,0
129942,-86.9565217391304,4,1,0,100,0,0
130055,-85.1063829787234,4,1,0,100,0,0
130167,-83.3333333333333,4,1,0,100,0,0
146182,-125,4,1,0,100,0,0
151709,-111.111111111111,4,1,0,100,0,0
160844,-83.3333333333333,4,1,0,100,0,1
175167,-80,4,1,0,100,0,1
175280,-76.9230769230769,4,1,0,100,0,1
189716,-76.9230769230769,4,1,0,100,0,0

[HitObjects]
174,70,243,5,4,0:0:0:0:
231,125,581,1,0,0:0:0:0:
248,141,694,1,8,0:0:0:0:
267,158,806,1,0,0:0:0:0:
285,176,919,1,8,0:0:0:0:
265,175,1032,1,8,0:0:0:0:
233,172,1145,1,0,0:0:0:0:
285,176,1370,1,8,0:0:0:0:
233,172,1596,1,0,0:0:0:0:
233,172,1709,1,8,0:0:0:0:
233,172,1821,1,8,0:0:0:0:
274,214,2047,1,0,0:0:0:0:
259,182,2197,1,8,0:0:0:0:
296,236,2273,1,0,0:0:0:0:
278,204,2423,1,8,0:0:0:0:
296,236,2498,1,0,0:0:0:0:
279,205,2649,1,8,0:0:0:0:
271,191,2724,1,0,0:0:0:0:
255,161,2874,1,8,0:0:0:0:
248,148,2949,1,0,0:0:0:0:
232,117,3100,1,8,0:0:0:0:
232,117,3175,1,0,0:0:0:0:
232,117,3325,1,8,0:0:0:0:
232,117,3400,1,8,0:0:0:0:
232,117,3551,1,8,0:0:0:0:
232,117,3626,1,8,0:0:0:0:
202,114,3776,1,8,0:0:0:0:
232,117,3852,1,0,0:0:0:0:
333,113,4303,1,8,0:0:0:0:
333,113,4528,1,0,0:0:0:0:
333,113,4641,1,8,0:0:0:0:
333,113,4754,1,0,0:0:0:0:
311,117,4867,1,8,0:0:0:0:
333,113,4979,1,8,0:0:0:0:
282,123,5205,1,0,0:0:0:0:
235,97,5430,1,8,0:0:0:0:
187,86,5656,1,0,0:0:0:0:
187,86,5769,1,0,0:0:0:0:
187,86,5882,1,8,0:0:0:0:
187,86,6107,1,0,0:0:0:0:
187,86,6220,1,8,0:0:0:0:
187,86,6333,1,8,0:0:0:0:
212,130,6558,1,0,0:0:0:0:
224,150,6671,1,8,0:0:0:0:
224,150,6784,1,0,0:0:0:0:
224,150,6897,1,0,0:0:0:0:
224,150,7009,1,8,0:0:0:0:
224,150,7122,1,8,0:0:0:0:
224,150,7235,1,0,0:0:0:0:
224,150,7348,1,8,0:0:0:0:
224,150,7461,1,4,0:0:0:0:
231,125,7799,1,0,0:0:0:0:
248,141,7912,1,8,0:0:0:0:
267,158,8024,1,0,0:0:0:0:
285,176,8137,1,8,0:0:0:0:
265,175,8250,1,8,0:0:0:0:
233,172,8363,1,0,0:0:0:0:
285,176,8588,1,8,0:0:0:0:
233,172,8814,1,0,0:0:0:0:
233,172,8927,1,8,0:0:0:0:
233,172,9039,1,8,0:0:0:0:
274,214,9265,1,0,0:0:0:0:
259,182,9415,1,8,0:0:0:0:
296,236,9491,1,0,0:0:0:0:
278,204,9641,1,8,0:0:0:0:
296,236,9716,1,0,0:0:0:0:
279,205,9867,1,8,0:0:0:0:
271,191,9942,1,8,0:0:0:0:
255,161,10092,1,8,0:0:0:0:
248,148,10167,1,8,0:0:0:0:
232,117,10318,1,8,0:0:0:0:
232,117,10393,1,8,0:0:0:0:
232,117,10543,1,8,0:0:0:0:
232,117,10618,1,0,0:0:0:0:
232,117,10769,1,8,0:0:0:0:
232,117,10844,1,8,0:0:0:0:
216,106,10919,1,8,0:0:0:0:
202,114,10994,1,8,0:0:0:0:
232,117,11070,1,0,0:0:0:0:
178,120,11295,1,8,0:0:0:0:
333,113,11521,1,0,0:0:0:0:
307,102,11633,1,8,0:0:0:0:
221,137,11972,1,0,0:0:0:0:
189,150,12197,1,8,0:0:0:0:
189,150,12310,1,8,0:0:0:0:
189,150,12423,1,0,0:0:0:0:
221,137,12649,1,8,0:0:0:0:
165,127,12874,1,0,0:0:0:0:
137,122,12987,1,8,0:0:0:0:
137,122,13100,1,8,0:0:0:0:
137,122,13212,1,0,0:0:0:0:
137,122,13325,1,8,0:0:0:0:
137,122,13551,1,8,0:0:0:0:
137,122,13664,1,0,0:0:0:0:
137,122,14002,1,8,0:0:0:0:
86,105,14227,1,8,0:0:0:0:
135,121,14453,1,8,0:0:0:0:
110,113,14566,1,8,0:0:0:0:
110,113,14679,1,4,0:0:0:0:
156,105,14904,1,0,0:0:0:0:
231,125,15017,1,8,0:0:0:0:
248,141,15130,1,0,0:0:0:0:
267,158,15242,1,8,0:0:0:0:
285,176,15355,1,8,0:0:0:0:
265,175,15468,1,8,0:0:0:0:
233,172,15581,1,0,0:0:0:0:
285,176,15806,1,8,0:0:0:0:
233,172,16032,1,0,0:0:0:0:
233,172,16145,1,8,0:0:0:0:
233,172,16257,1,8,0:0:0:0:
274,214,16483,1,0,0:0:0:0:
259,182,16633,1,8,0:0:0:0:
296,236,16709,1,0,0:0:0:0:
278,204,16859,1,8,0:0:0:0:
296,236,16934,1,0,0:0:0:0:
279,205,17085,1,8,0:0:0:0:
271,191,17160,1,0,0:0:0:0:
255,161,17310,1,8,0:0:0:0:
248,148,17385,1,0,0:0:0:0:
232,117,17536,1,8,0:0:0:0:
232,117,17611,1,0,0:0:0:0:
232,117,17761,1,8,0:0:0:0:
232,117,17836,1,8,0:0:0:0:
232,117,17987,1,8,0:0:0:0:
232,117,18062,1,8,0:0:0:0:
202,114,18212,1,8,0:0:0:0:
232,117,18288,1,0,0:0:0:0:
191,151,18513,1,0,0:0:0:0:
333,113,18739,1,8,0:0:0:0:
333,113,18964,1,0,0:0:0:0:
333,113,19077,1,8,0:0:0:0:
333,113,19190,1,0,0:0:0:0:
311,117,19303,1,8,0:0:0:0:
333,113,19415,1,8,0:0:0:0:
282,123,19641,1,0,0:0:0:0:
235,97,19866,1,8,0:0:0:0:
187,86,20092,1,0,0:0:0:0:
187,86,20205,1,0,0:0:0:0:
187,86,20318,1,8,0:0:0:0:
187,86,20543,1,0,0:0:0:0:
187,86,20656,1,8,0:0:0:0:
187,86,20769,1,8,0:0:0:0:
212,130,20994,1,0,0:0:0:0:
224,150,21107,1,8,0:0:0:0:
224,150,21220,1,0,0:0:0:0:
224,150,21333,1,0,0:0:0:0:
224,150,21445,1,8,0:0:0:0:
224,150,21558,1,0,0:0:0:0:
224,150,21671,1,8,0:0:0:0:
224,150,21784,1,8,0:0:0:0:
224,150,21897,1,4,0:0:0:0:
183,111,22122,1,0,0:0:0:0:
231,125,22235,1,0,0:0:0:0:
248,141,22348,1,8,0:0:0:0:
267,158,22460,1,0,0:0:0:0:
285,176,22573,1,8,0:0:0:0:
265,175,22686,1,8,0:0:0:0:
233,172,22799,1,0,0:0:0:0:
285,176,23024,1,8,0:0:0:0:
233,172,23250,1,0,0:0:0:0:
233,172,23363,1,8,0:0:0:0:
233,172,23475,1,8,0:0:0:0:
274,214,23701,1,0,0:0:0:0:
259,182,23851,1,8,0:0:0:0:
296,236,23927,1,0,0:0:0:0:
278,204,24077,1,8,0:0:0:0:
296,236,24152,1,0,0:0:0:0:
279,205,24303,1,8,0:0:0:0:
271,191,24378,1,8,0:0:0:0:
255,161,24528,1,8,0:0:0:0:
248,148,24603,1,8,0:0:0:0:
232,117,24754,1,8,0:0:0:0:
232,117,24829,1,0,0:0:0:0:
232,117,24979,1,8,0:0:0:0:
232,117,25055,1,8,0:0:0:0:
181,111,25280,1,0,0:0:0:0:
156,108,25393,1,8,0:0:0:0:
232,117,25506,1,0,0:0:0:0:
178,120,25731,1,8,0:0:0:0:
333,113,25957,1,0,0:0:0:0:
307,102,26069,1,8,0:0:0:0:
221,137,26408,1,0,0:0:0:0:
189,150,26633,1,8,0:0:0:0:
189,150,26746,1,8,0:0:0:0:
189,150,26859,1,0,0:0:0:0:
221,137,27085,1,8,0:0:0:0:
165,127,27310,1,0,0:0:0:0:
137,122,27423,1,8,0:0:0:0:
137,122,27536,1,8,0:0:0:0:
137,122,27648,1,0,0:0:0:0:
137,122,27761,1,8,0:0:0:0:
137,122,27987,1,8,0:0:0:0:
137,122,28100,1,0,0:0:0:0:
137,122,28438,1,8,0:0:0:0:
86,105,28663,1,8,0:0:0:0:
135,121,28889,1,8,0:0:0:0:
110,113,29002,1,8,0:0:0:0:
133,102,29115,1,4,0:0:0:0:
315,160,29340,1,0,0:0:0:0:
208,126,29453,1,0,0:0:0:0:
230,133,29566,1,8,0:0:0:0:
256,141,29679,1,0,0:0:0:0:
286,151,29791,1,8,0:0:0:0:
315,160,29904,1,8,0:0:0:0:
315,160,30017,1,0,0:0:0:0:
230,133,30242,1,8,0:0:0:0:
230,133,30468,1,8,0:0:0:0:
230,133,30581,1,0,0:0:0:0:
230,133,30694,1,8,0:0:0:0:
230,133,30919,1,8,0:0:0:0:
204,130,31032,1,0,0:0:0:0:
179,127,31145,1,0,0:0:0:0:
157,124,31258,1,0,0:0:0:0:
132,122,31370,1,8,0:0:0:0:
106,120,31483,1,8,0:0:0:0:
106,120,31596,1,0,0:0:0:0:
106,120,31709,1,0,0:0:0:0:
106,120,31821,1,8,0:0:0:0:
106,120,31934,1,0,0:0:0:0:
106,120,32047,1,8,0:0:0:0:
106,120,32160,1,0,0:0:0:0:
106,120,32273,1,8,0:0:0:0:
106,120,32385,1,8,0:0:0:0:
106,120,32498,1,8,0:0:0:0:
106,120,32611,1,8,0:0:0:0:
106,120,32724,1,0,0:0:0:0:
158,135,32949,1,0,0:0:0:0:
208,149,33175,1,8,0:0:0:0:
257,163,33400,1,0,0:0:0:0:
257,163,33513,1,8,0:0:0:0:
257,163,33626,1,0,0:0:0:0:
257,163,33739,1,8,0:0:0:0:
257,163,33852,1,8,0:0:0:0:
257,163,34077,1,0,0:0:0:0:
257,163,34303,1,8,0:0:0:0:
257,163,34528,1,0,0:0:0:0:
257,163,34641,1,8,0:0:0:0:
257,163,34754,1,0,0:0:0:0:
257,163,34867,1,0,0:0:0:0:
257,163,34979,1,0,0:0:0:0:
257,163,35092,1,8,0:0:0:0:
257,163,35205,1,8,0:0:0:0:
257,163,35318,1,8,0:0:0:0:
237,144,35430,1,0,0:0:0:0:
210,132,35543,1,8,0:0:0:0:
190,107,35656,1,0,0:0:0:0:
234,80,35882,1,8,0:0:0:0:
212,94,35994,1,0,0:0:0:0:
212,94,36107,1,0,0:0:0:0:
176,50,36333,1,4,0:0:0:0:
148,197,36633,1,0,0:0:0:0:
158,147,36784,1,8,0:0:0:0:
153,171,36934,1,8,0:0:0:0:
148,197,37085,1,8,0:0:0:0:
148,197,37235,1,0,0:0:0:0:
148,197,37536,1,8,0:0:0:0:
148,197,37686,1,0,0:0:0:0:
148,197,37836,1,0,0:0:0:0:
148,197,37987,1,8,0:0:0:0:
148,197,38137,1,0,0:0:0:0:
148,197,38288,1,0,0:0:0:0:
148,197,38438,1,0,0:0:0:0:
148,197,38588,1,8,0:0:0:0:
148,197,38739,1,0,0:0:0:0:
148,197,38889,1,0,0:0:0:0:
148,197,39039,1,0,0:0:0:0:
148,197,39340,1,0,0:0:0:0:
178,177,39491,1,8,0:0:0:0:
191,168,39566,1,0,0:0:0:0:
205,158,39641,1,8,0:0:0:0:
221,148,39716,1,0,0:0:0:0:
236,138,39791,1,8,0:0:0:0:
236,138,39867,1,8,0:0:0:0:
236,138,39942,1,0,0:0:0:0:
277,130,40092,1,8,0:0:0:0:
300,125,40242,1,8,0:0:0:0:
334,120,40393,1,8,0:0:0:0:
299,118,40543,1,8,0:0:0:0:
314,118,40618,1,0,0:0:0:0:
277,116,40769,1,8,0:0:0:0:
250,121,40844,1,0,0:0:0:0:
212,117,40994,1,8,0:0:0:0:
197,126,41070,1,0,0:0:0:0:
161,118,41220,1,8,0:0:0:0:
195,125,41295,1,8,0:0:0:0:
211,131,41446,1,8,0:0:0:0:
197,126,41521,1,8,0:0:0:0:
206,117,41596,1,8,0:0:0:0:
216,108,41671,1,8,0:0:0:0:
211,131,41746,1,0,0:0:0:0:
227,181,41972,1,8,0:0:0:0:
233,201,42085,1,0,0:0:0:0:
233,201,42197,1,8,0:0:0:0:
233,201,42310,1,8,0:0:0:0:
233,201,42423,1,0,0:0:0:0:
233,201,42536,1,0,0:0:0:0:
233,201,42649,1,8,0:0:0:0:
233,201,42761,1,0,0:0:0:0:
233,201,42874,1,8,0:0:0:0:
233,201,42987,1,0,0:0:0:0:
233,201,43100,1,8,0:0:0:0:
233,201,43212,1,0,0:0:0:0:
233,201,43325,1,8,0:0:0:0:
233,201,43438,1,8,0:0:0:0:
233,201,43551,1,4,0:0:0:0:
250,152,43776,1,8,0:0:0:0:
250,152,43889,1,0,0:0:0:0:
250,152,44002,1,8,0:0:0:0:
250,152,44227,1,8,0:0:0:0:
250,152,44340,1,8,0:0:0:0:
250,152,44453,1,0,0:0:0:0:
250,152,44679,1,8,0:0:0:0:
250,152,44904,1,8,0:0:0:0:
250,152,45130,1,8,0:0:0:0:
250,152,45242,1,8,0:0:0:0:
250,152,45355,1,0,0:0:0:0:
276,180,45468,1,8,0:0:0:0:
299,204,45581,1,0,0:0:0:0:
299,204,45694,1,8,0:0:0:0:
299,204,45806,1,8,0:0:0:0:
256,169,46032,1,8,0:0:0:0:
232,149,46145,1,8,0:0:0:0:
206,128,46258,1,0,0:0:0:0:
158,88,46483,1,8,0:0:0:0:
205,127,46709,1,8,0:0:0:0:
162,91,46934,1,0,0:0:0:0:
184,110,47047,1,8,0:0:0:0:
184,110,47160,1,0,0:0:0:0:
184,110,47273,1,8,0:0:0:0:
184,110,47385,1,0,0:0:0:0:
184,110,47498,1,0,0:0:0:0:
184,110,47611,1,8,0:0:0:0:
184,110,47836,1,8,0:0:0:0:
184,110,47949,1,8,0:0:0:0:
184,110,48062,1,0,0:0:0:0:
184,110,48288,1,0,0:0:0:0:
184,110,48513,1,8,0:0:0:0:
184,110,48739,1,8,0:0:0:0:
184,110,48852,1,8,0:0:0:0:
184,110,48964,1,0,0:0:0:0:
184,110,49077,1,8,0:0:0:0:
184,110,49190,1,0,0:0:0:0:
184,110,49303,1,0,0:0:0:0:
184,110,49415,1,8,0:0:0:0:
184,110,49641,1,8,0:0:0:0:
184,110,49754,1,8,0:0:0:0:
184,110,49867,1,0,0:0:0:0:
184,110,50092,1,8,0:0:0:0:
184,110,50318,1,8,0:0:0:0:
184,110,50543,1,0,0:0:0:0:
184,110,50656,1,8,0:0:0:0:
184,110,50769,1,4,0:0:0:0:
218,152,50994,1,0,0:0:0:0:
236,174,51107,1,0,0:0:0:0:
252,194,51220,1,8,0:0:0:0:
285,234,51446,1,8,0:0:0:0:
285,234,51558,1,0,0:0:0:0:
285,234,51897,1,0,0:0:0:0:
285,234,52122,1,8,0:0:0:0:
285,234,52348,1,8,0:0:0:0:
285,234,52461,1,0,0:0:0:0:
285,234,52686,1,0,0:0:0:0:
285,234,52799,1,8,0:0:0:0:
285,234,52912,1,8,0:0:0:0:
285,234,53024,1,8,0:0:0:0:
240,197,53250,1,8,0:0:0:0:
222,182,53363,1,0,0:0:0:0:
157,131,53701,1,0,0:0:0:0:
201,165,53927,1,8,0:0:0:0:
160,133,54152,1,8,0:0:0:0:
178,147,54265,1,8,0:0:0:0:
206,188,54491,1,8,0:0:0:0:
206,188,54603,1,0,0:0:0:0:
206,188,54716,1,0,0:0:0:0:
206,188,54829,1,8,0:0:0:0:
206,188,55055,1,0,0:0:0:0:
206,188,55167,1,8,0:0:0:0:
206,188,55506,1,0,0:0:0:0:
206,188,55731,1,8,0:0:0:0:
206,188,55957,1,8,0:0:0:0:
206,188,56070,1,8,0:0:0:0:
189,168,56182,1,0,0:0:0:0:
206,188,56295,1,8,0:0:0:0:
188,167,56408,1,0,0:0:0:0:
173,149,56521,1,0,0:0:0:0:
157,130,56633,1,8,0:0:0:0:
157,130,56859,1,8,0:0:0:0:
157,130,56972,1,0,0:0:0:0:
157,130,57310,1,8,0:0:0:0:
157,130,57536,1,8,0:0:0:0:
157,130,57761,1,8,0:0:0:0:
157,130,57874,1,8,0:0:0:0:
157,130,57987,1,4,0:0:0:0:
313,113,59791,1,0,0:0:0:0:
313,113,61596,1,8,0:0:0:0:
313,113,63400,5,0,0:0:0:0:
209,118,65205,5,4,0:0:0:0:
257,140,65430,1,0,0:0:0:0:
274,171,65543,5,0,0:0:0:0:
302,162,65656,1,8,0:0:0:0:
301,179,65769,1,0,0:0:0:0:
299,234,65994,1,0,0:0:0:0:
299,234,66220,1,8,0:0:0:0:
299,234,66333,1,0,0:0:0:0:
299,234,66558,1,8,0:0:0:0:
253,201,66784,1,0,0:0:0:0:
235,188,66897,1,8,0:0:0:0:
212,171,67009,1,0,0:0:0:0:
185,127,67235,1,0,0:0:0:0:
185,127,67461,1,8,0:0:0:0:
159,128,67573,1,0,0:0:0:0:
111,131,67799,1,0,0:0:0:0:
130,120,67912,1,0,0:0:0:0:
150,109,68024,1,8,0:0:0:0:
174,96,68137,1,0,0:0:0:0:
213,132,68363,1,8,0:0:0:0:
250,165,68588,1,8,0:0:0:0:
250,165,68701,1,8,0:0:0:0:
250,165,68814,1,0,0:0:0:0:
257,140,69039,1,0,0:0:0:0:
274,171,69152,5,0,0:0:0:0:
302,162,69265,1,8,0:0:0:0:
301,179,69378,1,0,0:0:0:0:
299,234,69603,1,0,0:0:0:0:
299,234,69829,1,8,0:0:0:0:
299,234,69942,1,0,0:0:0:0:
299,234,70167,1,8,0:0:0:0:
253,201,70393,1,0,0:0:0:0:
235,188,70506,1,8,0:0:0:0:
212,171,70618,1,0,0:0:0:0:
185,127,70844,1,0,0:0:0:0:
185,127,71070,1,0,0:0:0:0:
159,128,71182,1,0,0:0:0:0:
120,69,71521,1,0,0:0:0:0:
148,112,71746,1,8,0:0:0:0:
173,125,71859,1,0,0:0:0:0:
199,138,71972,1,0,0:0:0:0:
233,156,72085,1,8,0:0:0:0:
285,183,72310,1,8,0:0:0:0:
307,195,72423,1,4,0:0:0:0:
305,137,72649,1,8,0:0:0:0:
305,137,72761,1,0,0:0:0:0:
305,137,72874,1,8,0:0:0:0:
305,137,73100,1,8,0:0:0:0:
305,137,73212,1,0,0:0:0:0:
305,137,73325,1,8,0:0:0:0:
305,137,73438,1,8,0:0:0:0:
305,137,73551,1,8,0:0:0:0:
305,137,73664,1,0,0:0:0:0:
305,137,73776,1,8,0:0:0:0:
305,137,73889,1,0,0:0:0:0:
305,137,74002,1,8,0:0:0:0:
305,137,74115,1,8,0:0:0:0:
305,137,74227,1,0,0:0:0:0:
305,137,74340,1,8,0:0:0:0:
305,137,74453,1,0,0:0:0:0:
305,137,74566,1,0,0:0:0:0:
305,137,74679,1,8,0:0:0:0:
303,158,74791,1,0,0:0:0:0:
305,137,74904,1,8,0:0:0:0:
305,137,75017,1,8,0:0:0:0:
282,124,75130,1,0,0:0:0:0:
260,112,75242,1,8,0:0:0:0:
238,101,75355,1,8,0:0:0:0:
238,101,75468,1,0,0:0:0:0:
238,101,75581,1,8,0:0:0:0:
238,101,75806,1,8,0:0:0:0:
238,101,75919,1,8,0:0:0:0:
238,101,76032,1,0,0:0:0:0:
215,101,76145,1,8,0:0:0:0:
305,137,76258,1,8,0:0:0:0:
305,137,76370,1,0,0:0:0:0:
305,137,76483,1,8,0:0:0:0:
305,137,76709,1,8,0:0:0:0:
305,137,76821,1,0,0:0:0:0:
305,137,76934,1,8,0:0:0:0:
305,137,77047,1,8,0:0:0:0:
305,137,77160,1,0,0:0:0:0:
305,137,77273,1,0,0:0:0:0:
305,137,77385,1,8,0:0:0:0:
305,137,77498,1,0,0:0:0:0:
305,137,77611,1,0,0:0:0:0:
305,137,77724,1,8,0:0:0:0:
305,137,77836,1,0,0:0:0:0:
305,137,77949,1,8,0:0:0:0:
305,137,78062,1,8,0:0:0:0:
305,137,78175,1,0,0:0:0:0:
305,137,78288,1,8,0:0:0:0:
305,137,78513,1,8,0:0:0:0:
305,137,78626,1,0,0:0:0:0:
282,124,78739,1,8,0:0:0:0:
260,112,78851,1,8,0:0:0:0:
238,101,78964,1,0,0:0:0:0:
238,101,79077,1,8,0:0:0:0:
238,101,79190,1,0,0:0:0:0:
238,101,79415,1,8,0:0:0:0:
238,101,79528,1,8,0:0:0:0:
238,101,79641,1,0,0:0:0:0:
214,84,79754,1,8,0:0:0:0:
305,137,79867,1,0,0:0:0:0:
305,137,79979,1,8,0:0:0:0:
305,137,80092,1,8,0:0:0:0:
305,137,80318,1,0,0:0:0:0:
305,137,80430,1,0,0:0:0:0:
305,137,80543,1,8,0:0:0:0:
305,137,80656,1,0,0:0:0:0:
305,137,80769,1,8,0:0:0:0:
305,137,80882,1,0,0:0:0:0:
305,137,80994,1,8,0:0:0:0:
305,137,81107,1,8,0:0:0:0:
305,137,81220,1,0,0:0:0:0:
305,137,81333,1,8,0:0:0:0:
305,137,81445,1,0,0:0:0:0:
305,137,81558,1,8,0:0:0:0:
305,137,81671,1,8,0:0:0:0:
305,137,81784,1,0,0:0:0:0:
305,137,81897,1,8,0:0:0:0:
283,139,82009,1,0,0:0:0:0:
305,137,82122,1,8,0:0:0:0:
305,137,82235,1,8,0:0:0:0:
282,124,82348,1,8,0:0:0:0:
260,112,82460,1,0,0:0:0:0:
238,101,82573,1,8,0:0:0:0:
238,101,82686,1,0,0:0:0:0:
238,101,82799,1,8,0:0:0:0:
238,101,83024,1,8,0:0:0:0:
238,101,83137,1,8,0:0:0:0:
238,101,83250,1,0,0:0:0:0:
212,84,83363,1,0,0:0:0:0:
305,137,83476,1,8,0:0:0:0:
305,137,83588,1,0,0:0:0:0:
305,137,83701,1,8,0:0:0:0:
305,137,83927,1,8,0:0:0:0:
305,137,84039,1,8,0:0:0:0:
305,137,84152,1,0,0:0:0:0:
305,137,84265,1,8,0:0:0:0:
305,137,84378,1,8,0:0:0:0:
305,137,84491,1,0,0:0:0:0:
305,137,84603,1,8,0:0:0:0:
305,137,84716,1,0,0:0:0:0:
305,137,84829,1,8,0:0:0:0:
305,137,84942,1,8,0:0:0:0:
305,137,85054,1,0,0:0:0:0:
305,137,85167,1,8,0:0:0:0:
305,137,85280,1,0,0:0:0:0:
305,137,85393,1,0,0:0:0:0:
305,137,85506,1,8,0:0:0:0:
305,137,85731,1,8,0:0:0:0:
305,137,85844,1,8,0:0:0:0:
282,124,85957,1,0,0:0:0:0:
260,112,86069,1,8,0:0:0:0:
238,101,86182,1,8,0:0:0:0:
238,101,86295,1,0,0:0:0:0:
238,101,86408,1,8,0:0:0:0:
238,101,86633,1,8,0:0:0:0:
238,101,86746,1,8,0:0:0:0:
238,101,86859,1,4,0:0:0:0:
98,247,88664,1,0,0:0:0:0:
116,178,90468,1,8,0:0:0:0:
149,98,92273,1,4,0:0:0:0:
251,202,92949,1,8,0:0:0:0:
217,168,93175,1,8,0:0:0:0:
167,116,93400,1,0,0:0:0:0:
120,96,93626,1,0,0:0:0:0:
120,96,93739,1,8,0:0:0:0:
120,96,93852,1,0,0:0:0:0:
120,96,93964,1,8,0:0:0:0:
120,96,94077,1,4,0:0:0:0:
155,58,94754,1,0,0:0:0:0:
211,171,94979,1,8,0:0:0:0:
143,65,95656,1,0,0:0:0:0:
211,171,95882,1,0,0:0:0:0:
136,65,96220,1,0,0:0:0:0:
211,171,96558,1,0,0:0:0:0:
211,171,96784,1,8,0:0:0:0:
139,93,97122,1,0,0:0:0:0:
96,122,97348,1,0,0:0:0:0:
190,240,97461,1,0,0:0:0:0:
211,171,97686,1,0,0:0:0:0:
186,117,98363,1,0,0:0:0:0:
211,171,98588,1,8,0:0:0:0:
179,110,99265,1,0,0:0:0:0:
211,171,99491,1,0,0:0:0:0:
211,171,100167,1,0,0:0:0:0:
211,171,100393,1,8,0:0:0:0:
178,110,100844,1,8,0:0:0:0:
171,88,100957,1,8,0:0:0:0:
169,90,101070,1,8,0:0:0:0:
205,171,101295,1,4,0:0:0:0:
231,125,101633,1,0,0:0:0:0:
248,141,101746,1,8,0:0:0:0:
267,158,101858,1,0,0:0:0:0:
285,176,101971,1,8,0:0:0:0:
265,175,102084,1,8,0:0:0:0:
233,172,102197,1,0,0:0:0:0:
285,176,102422,1,8,0:0:0:0:
233,172,102648,1,0,0:0:0:0:
233,172,102761,1,8,0:0:0:0:
233,172,102873,1,8,0:0:0:0:
274,214,103099,1,0,0:0:0:0:
259,182,103249,1,8,0:0:0:0:
296,236,103325,1,0,0:0:0:0:
278,204,103475,1,8,0:0:0:0:
296,236,103550,1,0,0:0:0:0:
279,205,103701,1,8,0:0:0:0:
271,191,103776,1,0,0:0:0:0:
255,161,103926,1,8,0:0:0:0:
248,148,104001,1,0,0:0:0:0:
232,117,104152,1,8,0:0:0:0:
232,117,104227,1,0,0:0:0:0:
232,117,104377,1,8,0:0:0:0:
232,117,104452,1,8,0:0:0:0:
232,117,104603,1,8,0:0:0:0:
232,117,104678,1,8,0:0:0:0:
202,114,104828,1,8,0:0:0:0:
232,117,104904,1,0,0:0:0:0:
333,113,105355,1,8,0:0:0:0:
333,113,105580,1,0,0:0:0:0:
333,113,105693,1,8,0:0:0:0:
333,113,105806,1,0,0:0:0:0:
311,117,105919,1,8,0:0:0:0:
333,113,106031,1,8,0:0:0:0:
282,123,106257,1,0,0:0:0:0:
235,97,106482,1,8,0:0:0:0:
187,86,106708,1,0,0:0:0:0:
187,86,106821,1,0,0:0:0:0:
187,86,106934,1,8,0:0:0:0:
187,86,107159,1,0,0:0:0:0:
187,86,107272,1,8,0:0:0:0:
187,86,107385,1,8,0:0:0:0:
212,130,107610,1,0,0:0:0:0:
224,150,107723,1,8,0:0:0:0:
224,150,107836,1,0,0:0:0:0:
224,150,107949,1,0,0:0:0:0:
224,150,108061,1,8,0:0:0:0:
224,150,108174,1,8,0:0:0:0:
224,150,108287,1,0,0:0:0:0:
224,150,108400,1,8,0:0:0:0:
224,150,108513,1,4,0:0:0:0:
231,125,108851,1,0,0:0:0:0:
248,141,108964,1,8,0:0:0:0:
267,158,109076,1,0,0:0:0:0:
285,176,109189,1,8,0:0:0:0:
265,175,109302,1,8,0:0:0:0:
233,172,109415,1,0,0:0:0:0:
285,176,109640,1,8,0:0:0:0:
233,172,109866,1,0,0:0:0:0:
233,172,109979,1,8,0:0:0:0:
233,172,110091,1,8,0:0:0:0:
274,214,110317,1,0,0:0:0:0:
259,182,110467,1,8,0:0:0:0:
296,236,110543,1,0,0:0:0:0:
278,204,110693,1,8,0:0:0:0:
296,236,110768,1,0,0:0:0:0:
279,205,110919,1,8,0:0:0:0:
271,191,110994,1,8,0:0:0:0:
255,161,111144,1,8,0:0:0:0:
248,148,111219,1,8,0:0:0:0:
232,117,111370,1,8,0:0:0:0:
232,117,111445,1,8,0:0:0:0:
232,117,111595,1,8,0:0:0:0:
232,117,111670,1,0,0:0:0:0:
232,117,111821,1,8,0:0:0:0:
232,117,111896,1,8,0:0:0:0:
216,106,111971,1,8,0:0:0:0:
202,114,112046,1,8,0:0:0:0:
232,117,112122,1,0,0:0:0:0:
178,120,112347,1,8,0:0:0:0:
333,113,112573,1,0,0:0:0:0:
307,102,112685,1,8,0:0:0:0:
221,137,113024,1,0,0:0:0:0:
189,150,113249,1,8,0:0:0:0:
189,150,113362,1,8,0:0:0:0:
189,150,113475,1,0,0:0:0:0:
221,137,113701,1,8,0:0:0:0:
165,127,113926,1,0,0:0:0:0:
183,226,114152,1,0,0:0:0:0:
183,226,114265,1,0,0:0:0:0:
183,226,114378,1,8,0:0:0:0:
183,226,114491,1,0,0:0:0:0:
183,226,114716,1,0,0:0:0:0:
183,226,114942,1,8,0:0:0:0:
183,226,115055,1,0,0:0:0:0:
183,226,115280,1,8,0:0:0:0:
183,226,115506,1,0,0:0:0:0:
183,226,115618,1,8,0:0:0:0:
177,223,115731,1,4,0:0:0:0:
156,105,115957,1,0,0:0:0:0:
231,125,116070,1,8,0:0:0:0:
248,141,116183,1,0,0:0:0:0:
267,158,116295,1,8,0:0:0:0:
285,176,116408,1,8,0:0:0:0:
265,175,116521,1,8,0:0:0:0:
233,172,116634,1,0,0:0:0:0:
285,176,116859,1,8,0:0:0:0:
233,172,117085,1,0,0:0:0:0:
233,172,117198,1,8,0:0:0:0:
233,172,117310,1,8,0:0:0:0:
274,214,117536,1,0,0:0:0:0:
259,182,117686,1,8,0:0:0:0:
296,236,117762,1,0,0:0:0:0:
278,204,117912,1,8,0:0:0:0:
296,236,117987,1,0,0:0:0:0:
279,205,118138,1,8,0:0:0:0:
271,191,118213,1,0,0:0:0:0:
255,161,118363,1,8,0:0:0:0:
248,148,118438,1,0,0:0:0:0:
232,117,118589,1,8,0:0:0:0:
232,117,118664,1,0,0:0:0:0:
232,117,118814,1,8,0:0:0:0:
232,117,118889,1,8,0:0:0:0:
232,117,119040,1,8,0:0:0:0:
232,117,119115,1,8,0:0:0:0:
202,114,119265,1,8,0:0:0:0:
232,117,119341,1,0,0:0:0:0:
191,151,119566,1,0,0:0:0:0:
333,113,119792,1,8,0:0:0:0:
333,113,120017,1,0,0:0:0:0:
333,113,120130,1,8,0:0:0:0:
333,113,120243,1,0,0:0:0:0:
311,117,120356,1,8,0:0:0:0:
333,113,120468,1,8,0:0:0:0:
282,123,120694,1,0,0:0:0:0:
235,97,120919,1,8,0:0:0:0:
187,86,121145,1,0,0:0:0:0:
187,86,121258,1,0,0:0:0:0:
187,86,121371,1,8,0:0:0:0:
187,86,121596,1,0,0:0:0:0:
187,86,121709,1,8,0:0:0:0:
187,86,121822,1,8,0:0:0:0:
212,130,122047,1,0,0:0:0:0:
224,150,122160,1,8,0:0:0:0:
224,150,122273,1,0,0:0:0:0:
224,150,122386,1,0,0:0:0:0:
224,150,122498,1,8,0:0:0:0:
224,150,122611,1,0,0:0:0:0:
224,150,122724,1,8,0:0:0:0:
224,150,122837,1,8,0:0:0:0:
224,150,122950,1,4,0:0:0:0:
183,111,123175,1,0,0:0:0:0:
231,125,123288,1,0,0:0:0:0:
248,141,123401,1,8,0:0:0:0:
267,158,123513,1,0,0:0:0:0:
285,176,123626,1,8,0:0:0:0:
265,175,123739,1,8,0:0:0:0:
233,172,123852,1,0,0:0:0:0:
285,176,124077,1,8,0:0:0:0:
233,172,124303,1,0,0:0:0:0:
233,172,124416,1,8,0:0:0:0:
233,172,124528,1,8,0:0:0:0:
274,214,124754,1,0,0:0:0:0:
259,182,124904,1,8,0:0:0:0:
296,236,124980,1,0,0:0:0:0:
278,204,125130,1,8,0:0:0:0:
296,236,125205,1,0,0:0:0:0:
279,205,125356,1,8,0:0:0:0:
271,191,125431,1,8,0:0:0:0:
255,161,125581,1,8,0:0:0:0:
248,148,125656,1,8,0:0:0:0:
232,117,125807,1,8,0:0:0:0:
232,117,125882,1,0,0:0:0:0:
232,117,126032,1,8,0:0:0:0:
232,117,126108,1,8,0:0:0:0:
84,83,126258,1,8,0:0:0:0:
84,83,126333,1,8,0:0:0:0:
84,83,126408,1,8,0:0:0:0:
84,83,126483,1,8,0:0:0:0:
232,117,126559,1,0,0:0:0:0:
178,120,126784,1,8,0:0:0:0:
333,113,127010,1,0,0:0:0:0:
307,102,127122,1,8,0:0:0:0:
221,137,127461,1,0,0:0:0:0:
189,150,127686,1,8,0:0:0:0:
189,150,127799,1,8,0:0:0:0:
189,150,127912,1,0,0:0:0:0:
221,137,128138,1,8,0:0:0:0:
165,127,128363,1,0,0:0:0:0:
137,122,128476,1,8,0:0:0:0:
137,122,128589,1,8,0:0:0:0:
137,122,128701,1,0,0:0:0:0:
137,122,128814,1,8,0:0:0:0:
137,122,129040,1,8,0:0:0:0:
137,122,129153,1,0,0:0:0:0:
137,122,129491,1,8,0:0:0:0:
86,105,129716,1,8,0:0:0:0:
135,121,129942,1,8,0:0:0:0:
110,113,130055,1,8,0:0:0:0:
226,180,130167,1,4,0:0:0:0:
296,203,130468,1,0,0:0:0:0:
296,203,130618,1,8,0:0:0:0:
296,203,130769,1,8,0:0:0:0:
296,203,130919,1,0,0:0:0:0:
296,203,131070,1,8,0:0:0:0:
137,129,131370,1,8,0:0:0:0:
137,129,131521,1,0,0:0:0:0:
137,129,131671,1,0,0:0:0:0:
137,129,131821,1,8,0:0:0:0:
137,129,131972,1,0,0:0:0:0:
243,169,132122,1,0,0:0:0:0:
243,169,132273,1,0,0:0:0:0:
243,169,132423,1,8,0:0:0:0:
243,169,132573,1,0,0:0:0:0:
243,169,132724,1,0,0:0:0:0:
243,169,132874,1,0,0:0:0:0:
243,169,133175,1,0,0:0:0:0:
358,104,133325,1,8,0:0:0:0:
358,104,133400,1,0,0:0:0:0:
358,104,133476,1,8,0:0:0:0:
358,104,133551,1,0,0:0:0:0:
358,104,133626,1,8,0:0:0:0:
358,104,133701,1,8,0:0:0:0:
358,104,133776,1,0,0:0:0:0:
131,154,133927,1,8,0:0:0:0:
131,154,134077,1,8,0:0:0:0:
131,154,134227,1,8,0:0:0:0:
241,167,134528,1,8,0:0:0:0:
241,167,134603,1,8,0:0:0:0:
241,167,134679,1,0,0:0:0:0:
241,167,134979,1,0,0:0:0:0:
241,167,135055,1,8,0:0:0:0:
241,167,135130,1,0,0:0:0:0:
169,164,135430,1,8,0:0:0:0:
169,164,135581,1,0,0:0:0:0:
169,164,135731,1,8,0:0:0:0:
169,164,135882,1,8,0:0:0:0:
169,164,136032,1,0,0:0:0:0:
144,141,136182,1,0,0:0:0:0:
144,141,136333,1,8,0:0:0:0:
144,141,136483,1,0,0:0:0:0:
144,141,136633,1,8,0:0:0:0:
144,141,136784,1,8,0:0:0:0:
144,141,136934,1,8,0:0:0:0:
140,146,137085,1,0,0:0:0:0:
140,146,137235,1,8,0:0:0:0:
140,146,137385,1,4,0:0:0:0:
248,180,137686,1,8,0:0:0:0:
248,180,137836,1,0,0:0:0:0:
248,180,137987,1,0,0:0:0:0:
248,180,138137,1,8,0:0:0:0:
248,180,138288,1,0,0:0:0:0:
244,86,138588,1,8,0:0:0:0:
244,86,138739,1,0,0:0:0:0:
244,86,138889,1,8,0:0:0:0:
244,86,139039,1,8,0:0:0:0:
244,86,139190,1,0,0:0:0:0:
193,133,139340,1,0,0:0:0:0:
193,133,139491,1,0,0:0:0:0:
193,133,139641,1,8,0:0:0:0:
193,133,139791,1,0,0:0:0:0:
193,133,139942,1,0,0:0:0:0:
193,133,140092,1,0,0:0:0:0:
193,133,140393,1,0,0:0:0:0:
245,134,140543,1,8,0:0:0:0:
245,134,140618,1,0,0:0:0:0:
245,134,140694,1,8,0:0:0:0:
245,134,140769,1,0,0:0:0:0:
245,134,140844,1,8,0:0:0:0:
245,134,140919,1,0,0:0:0:0:
245,134,140994,1,8,0:0:0:0:
164,146,141145,1,8,0:0:0:0:
164,146,141295,1,8,0:0:0:0:
164,146,141446,1,0,0:0:0:0:
141,167,141746,1,8,0:0:0:0:
141,167,141821,1,0,0:0:0:0:
141,167,141897,1,0,0:0:0:0:
141,167,142197,1,8,0:0:0:0:
141,167,142273,1,8,0:0:0:0:
141,167,142348,1,0,0:0:0:0:
141,167,142649,1,8,0:0:0:0:
140,78,142799,1,8,0:0:0:0:
185,141,142949,1,0,0:0:0:0:
185,141,143100,1,0,0:0:0:0:
185,141,143250,1,8,0:0:0:0:
185,141,143400,1,8,0:0:0:0:
185,141,143551,1,0,0:0:0:0:
185,141,143701,1,8,0:0:0:0:
185,141,143852,1,8,0:0:0:0:
185,141,144002,1,0,0:0:0:0:
185,141,144152,1,8,0:0:0:0:
185,141,144303,1,8,0:0:0:0:
185,141,144453,1,8,0:0:0:0:
185,141,144603,1,4,0:0:0:0:
174,174,146408,1,0,0:0:0:0:
200,141,148212,1,8,0:0:0:0:
198,109,150017,1,0,0:0:0:0:
175,150,151821,1,0,0:0:0:0:
175,150,152273,1,8,0:0:0:0:
175,150,153175,1,8,0:0:0:0:
173,100,153626,1,0,0:0:0:0:
166,144,154077,1,8,0:0:0:0:
166,144,154979,1,8,0:0:0:0:
166,144,155430,1,0,0:0:0:0:
213,130,155882,1,8,0:0:0:0:
213,130,156784,1,8,0:0:0:0:
213,130,157235,1,0,0:0:0:0:
213,130,157686,1,8,0:0:0:0:
213,130,158588,1,8,0:0:0:0:
118,135,160844,5,4,0:0:0:0:
305,137,161070,1,8,0:0:0:0:
305,137,161182,1,0,0:0:0:0:
305,137,161295,1,8,0:0:0:0:
305,137,161521,1,8,0:0:0:0:
305,137,161633,1,0,0:0:0:0:
305,137,161746,1,8,0:0:0:0:
305,137,161859,1,8,0:0:0:0:
305,137,161972,1,8,0:0:0:0:
305,137,162085,1,0,0:0:0:0:
305,137,162197,1,8,0:0:0:0:
305,137,162310,1,0,0:0:0:0:
305,137,162423,1,8,0:0:0:0:
305,137,162536,1,8,0:0:0:0:
305,137,162648,1,0,0:0:0:0:
305,137,162761,1,8,0:0:0:0:
305,137,162874,1,0,0:0:0:0:
305,137,162987,1,0,0:0:0:0:
305,137,163100,1,8,0:0:0:0:
303,158,163212,1,0,0:0:0:0:
305,137,163325,1,8,0:0:0:0:
305,137,163438,1,8,0:0:0:0:
282,124,163551,1,0,0:0:0:0:
260,112,163663,1,8,0:0:0:0:
238,101,163776,1,8,0:0:0:0:
238,101,163889,1,0,0:0:0:0:
238,101,164002,1,8,0:0:0:0:
238,101,164227,1,8,0:0:0:0:
238,101,164340,1,8,0:0:0:0:
238,101,164453,1,0,0:0:0:0:
215,101,164566,1,8,0:0:0:0:
305,137,164679,1,8,0:0:0:0:
305,137,164791,1,0,0:0:0:0:
305,137,164904,1,8,0:0:0:0:
305,137,165130,1,8,0:0:0:0:
305,137,165242,1,0,0:0:0:0:
305,137,165355,1,8,0:0:0:0:
305,137,165468,1,8,0:0:0:0:
305,137,165581,1,0,0:0:0:0:
305,137,165694,1,0,0:0:0:0:
305,137,165806,1,8,0:0:0:0:
305,137,165919,1,0,0:0:0:0:
305,137,166032,1,0,0:0:0:0:
305,137,166145,1,8,0:0:0:0:
305,137,166257,1,0,0:0:0:0:
305,137,166370,1,8,0:0:0:0:
305,137,166483,1,8,0:0:0:0:
305,137,166596,1,0,0:0:0:0:
305,137,166709,1,8,0:0:0:0:
305,137,166934,1,8,0:0:0:0:
305,137,167047,1,0,0:0:0:0:
282,124,167160,1,8,0:0:0:0:
260,112,167272,1,8,0:0:0:0:
238,101,167385,1,0,0:0:0:0:
238,101,167498,1,8,0:0:0:0:
238,101,167611,1,0,0:0:0:0:
238,101,167836,1,8,0:0:0:0:
238,101,167949,1,8,0:0:0:0:
238,101,168062,1,0,0:0:0:0:
214,84,168175,1,8,0:0:0:0:
305,137,168288,1,0,0:0:0:0:
305,137,168400,1,8,0:0:0:0:
305,137,168513,1,8,0:0:0:0:
305,137,168739,1,0,0:0:0:0:
305,137,168851,1,0,0:0:0:0:
305,137,168964,1,8,0:0:0:0:
305,137,169077,1,0,0:0:0:0:
305,137,169190,1,8,0:0:0:0:
305,137,169303,1,0,0:0:0:0:
305,137,169415,1,8,0:0:0:0:
305,137,169528,1,8,0:0:0:0:
305,137,169641,1,0,0:0:0:0:
305,137,169754,1,8,0:0:0:0:
305,137,169866,1,0,0:0:0:0:
305,137,169979,1,8,0:0:0:0:
305,137,170092,1,8,0:0:0:0:
305,137,170205,1,0,0:0:0:0:
305,137,170318,1,8,0:0:0:0:
283,139,170430,1,0,0:0:0:0:
305,137,170543,1,8,0:0:0:0:
305,137,170656,1,8,0:0:0:0:
282,124,170769,1,8,0:0:0:0:
260,112,170881,1,0,0:0:0:0:
238,101,170994,1,8,0:0:0:0:
238,101,171107,1,0,0:0:0:0:
238,101,171220,1,8,0:0:0:0:
238,101,171445,1,8,0:0:0:0:
238,101,171558,1,8,0:0:0:0:
238,101,171671,1,0,0:0:0:0:
212,84,171784,1,0,0:0:0:0:
305,137,171897,1,8,0:0:0:0:
305,137,172009,1,0,0:0:0:0:
305,137,172122,1,8,0:0:0:0:
305,137,172348,1,8,0:0:0:0:
305,137,172460,1,8,0:0:0:0:
305,137,172573,1,0,0:0:0:0:
305,137,172686,1,8,0:0:0:0:
305,137,172799,1,8,0:0:0:0:
305,137,172912,1,0,0:0:0:0:
305,137,173024,1,8,0:0:0:0:
305,137,173137,1,0,0:0:0:0:
305,137,173250,1,8,0:0:0:0:
305,137,173363,1,8,0:0:0:0:
197,100,173588,1,8,0:0:0:0:
103,215,173701,1,8,0:0:0:0:
103,215,173814,1,0,0:0:0:0:
103,215,173927,1,8,0:0:0:0:
103,215,174152,1,8,0:0:0:0:
103,215,174265,1,0,0:0:0:0:
103,215,174491,1,0,0:0:0:0:
103,215,174603,1,8,0:0:0:0:
103,215,174716,1,0,0:0:0:0:
103,215,174829,1,8,0:0:0:0:
103,215,175055,1,0,0:0:0:0:
103,215,175167,1,8,0:0:0:0:
103,215,175280,1,4,0:0:0:0:
305,137,175506,1,8,0:0:0:0:
305,137,175618,1,0,0:0:0:0:
305,137,175731,1,8,0:0:0:0:
305,137,175957,1,8,0:0:0:0:
305,137,176069,1,0,0:0:0:0:
305,137,176182,1,8,0:0:0:0:
305,137,176295,1,8,0:0:0:0:
305,137,176408,1,8,0:0:0:0:
305,137,176521,1,0,0:0:0:0:
305,137,176633,1,8,0:0:0:0:
305,137,176746,1,0,0:0:0:0:
305,137,176859,1,8,0:0:0:0:
305,137,176972,1,8,0:0:0:0:
305,137,177084,1,0,0:0:0:0:
305,137,177197,1,8,0:0:0:0:
305,137,177310,1,0,0:0:0:0:
305,137,177423,1,0,0:0:0:0:
305,137,177536,1,8,0:0:0:0:
303,158,177648,1,0,0:0:0:0:
305,137,177761,1,8,0:0:0:0:
305,137,177874,1,8,0:0:0:0:
282,124,177987,1,8,0:0:0:0:
260,112,178099,1,0,0:0:0:0:
238,101,178212,1,8,0:0:0:0:
238,101,178325,1,0,0:0:0:0:
238,101,178438,1,8,0:0:0:0:
132,114,178551,1,0,0:0:0:0:
238,101,178663,1,8,0:0:0:0:
238,101,178776,1,8,0:0:0:0:
238,101,178889,1,0,0:0:0:0:
215,101,179002,1,8,0:0:0:0:
305,137,179115,1,8,0:0:0:0:
305,137,179227,1,0,0:0:0:0:
305,137,179340,1,8,0:0:0:0:
305,137,179566,1,8,0:0:0:0:
305,137,179678,1,0,0:0:0:0:
305,137,179791,1,8,0:0:0:0:
305,137,179904,1,8,0:0:0:0:
305,137,180017,1,0,0:0:0:0:
305,137,180130,1,0,0:0:0:0:
305,137,180242,1,8,0:0:0:0:
305,137,180355,1,0,0:0:0:0:
305,137,180468,1,0,0:0:0:0:
305,137,180581,1,8,0:0:0:0:
305,137,180693,1,0,0:0:0:0:
305,137,180806,1,8,0:0:0:0:
305,137,180919,1,8,0:0:0:0:
305,137,181032,1,0,0:0:0:0:
305,137,181145,1,8,0:0:0:0:
36,111,181258,1,0,0:0:0:0:
305,137,181370,1,8,0:0:0:0:
305,137,181483,1,0,0:0:0:0:
282,124,181596,1,8,0:0:0:0:
260,112,181708,1,8,0:0:0:0:
238,101,181821,1,0,0:0:0:0:
238,101,181934,1,8,0:0:0:0:
238,101,182047,1,0,0:0:0:0:
36,111,182160,1,0,0:0:0:0:
238,101,182272,1,8,0:0:0:0:
238,101,182385,1,8,0:0:0:0:
238,101,182498,1,0,0:0:0:0:
214,84,182611,1,8,0:0:0:0:
305,137,182724,1,0,0:0:0:0:
305,137,182836,1,8,0:0:0:0:
305,137,182949,1,8,0:0:0:0:
305,137,183175,1,0,0:0:0:0:
305,137,183287,1,0,0:0:0:0:
305,137,183400,1,8,0:0:0:0:
305,137,183513,1,0,0:0:0:0:
305,137,183626,1,8,0:0:0:0:
305,137,183739,1,0,0:0:0:0:
305,137,183851,1,8,0:0:0:0:
305,137,183964,1,8,0:0:0:0:
305,137,184077,1,0,0:0:0:0:
305,137,184190,1,8,0:0:0:0:
305,137,184302,1,0,0:0:0:0:
305,137,184415,1,8,0:0:0:0:
305,137,184528,1,8,0:0:0:0:
305,137,184641,1,0,0:0:0:0:
305,137,184754,1,8,0:0:0:0:
283,139,184866,1,0,0:0:0:0:
305,137,184979,1,8,0:0:0:0:
305,137,185092,1,8,0:0:0:0:
282,124,185205,1,8,0:0:0:0:
260,112,185317,1,0,0:0:0:0:
238,101,185430,1,8,0:0:0:0:
238,101,185543,1,0,0:0:0:0:
238,101,185656,1,8,0:0:0:0:
31,107,185769,1,0,0:0:0:0:
238,101,185881,1,8,0:0:0:0:
238,101,185994,1,8,0:0:0:0:
238,101,186107,1,0,0:0:0:0:
212,84,186220,1,0,0:0:0:0:
305,137,186333,1,8,0:0:0:0:
305,137,186445,1,0,0:0:0:0:
305,137,186558,1,8,0:0:0:0:
305,137,186784,1,8,0:0:0:0:
305,137,186896,1,8,0:0:0:0:
305,137,187009,1,0,0:0:0:0:
305,137,187122,1,8,0:0:0:0:
305,137,187235,1,8,0:0:0:0:
305,137,187348,1,0,0:0:0:0:
305,137,187460,1,8,0:0:0:0:
305,137,187573,1,0,0:0:0:0:
305,137,187686,1,8,0:0:0:0:
305,137,187799,1,8,0:0:0:0:
305,137,187911,1,0,0:0:0:0:
305,137,188024,1,8,0:0:0:0:
305,137,188137,1,0,0:0:0:0:
305,137,188250,1,0,0:0:0:0:
305,137,188363,1,8,0:0:0:0:
31,107,188476,1,0,0:0:0:0:
305,137,188588,1,8,0:0:0:0:
305,137,188701,1,8,0:0:0:0:
282,124,188814,1,0,0:0:0:0:
260,112,188926,1,8,0:0:0:0:
238,101,189039,1,8,0:0:0:0:
238,101,189152,1,0,0:0:0:0:
238,101,189265,1,8,0:0:0:0:
238,101,189490,1,8,0:0:0:0:
238,101,189603,1,8,0:0:0:0:
31,107,189716,1,4,0:0:0:0:
