osu file format v14

[General]
AudioFilename: audio.mp3
AudioLeadIn: 0
PreviewTime: 107608
Countdown: 0
SampleSet: Normal
StackLeniency: 0.7
Mode: 3
LetterboxInBreaks: 0
SpecialStyle: 0
WidescreenStoryboard: 1

[Editor]
Bookmarks: 3296
DistanceSpacing: 1
BeatDivisor: 1
GridSize: 4
TimelineZoom: 0.8000002

[Metadata]
Title:Sonic Blaster
TitleUnicode:Sonic Blaster
Artist:F-777
ArtistUnicode:F-777
Creator:Qwan
Version:Pre-Launch
Source:Newgrounds.com
Tags:Videogame Electronic
BeatmapID:985457
BeatmapSetID:460017

[Difficulty]
HPDrainRate:4
CircleSize:4
OverallDifficulty:7
ApproachRate:5
SliderMultiplier:1.4
SliderTickRate:1

[Events]
//Background and Video events
0,0,"Sonic blaster.jpg",0,0
//Break Periods
//Storyboard Layer 0 (Background)
//Storyboard Layer 1 (Fail)
//Storyboard Layer 2 (Pass)
//Storyboard Layer 3 (Foreground)
//Storyboard Sound Samples

[TimingPoints]
18,413.793103448276,4,1,0,10,1,0

[HitObjects]
320,192,431,5,0,0:0:0:0:
64,192,845,1,0,0:0:0:0:
320,192,1259,1,0,0:0:0:0:
448,192,1673,1,0,0:0:0:0:
192,192,1673,1,0,0:0:0:0:
320,192,2086,1,0,0:0:0:0:
192,192,2500,1,0,0:0:0:0:
64,192,2914,1,0,0:0:0:0:
192,192,3328,1,0,0:0:0:0:
320,192,3328,1,0,0:0:0:0:
448,192,3742,1,0,0:0:0:0:
192,192,4155,1,0,0:0:0:0:
64,192,4569,1,0,0:0:0:0:
320,192,4983,1,0,0:0:0:0:
192,192,4983,1,0,0:0:0:0:
448,192,5397,1,0,0:0:0:0:
192,192,5811,1,0,0:0:0:0:
64,192,6224,1,0,0:0:0:0:
448,192,6638,1,0,0:0:0:0:
192,192,6638,1,0,0:0:0:0:
320,192,7052,1,0,0:0:0:0:
64,192,7052,1,0,0:0:0:0:
192,192,7466,1,0,0:0:0:0:
448,192,7466,1,0,0:0:0:0:
64,192,7880,1,0,0:0:0:0:
320,192,7880,1,0,0:0:0:0:
448,192,8293,1,0,0:0:0:0:
320,192,8293,1,0,0:0:0:0:
192,192,8707,1,0,0:0:0:0:
64,192,8707,1,0,0:0:0:0:
448,192,9121,1,0,0:0:0:0:
320,192,9121,1,0,0:0:0:0:
64,192,9535,1,0,0:0:0:0:
192,192,9535,1,0,0:0:0:0:
64,192,9949,1,0,0:0:0:0:
320,192,9949,1,0,0:0:0:0:
192,192,10362,1,0,0:0:0:0:
64,192,10776,1,0,0:0:0:0:
448,192,10776,1,0,0:0:0:0:
320,192,11190,1,0,0:0:0:0:
448,192,11604,1,0,0:0:0:0:
192,192,11604,1,0,0:0:0:0:
320,192,12018,1,0,0:0:0:0:
64,192,12431,1,0,0:0:0:0:
448,192,12431,1,0,0:0:0:0:
192,192,12845,1,0,0:0:0:0:
320,192,13259,1,0,0:0:0:0:
448,192,13259,128,0,16569:0:0:0:0:
192,192,13673,1,0,0:0:0:0:
64,192,14086,1,0,0:0:0:0:
192,192,14500,1,0,0:0:0:0:
320,192,14914,1,0,0:0:0:0:
64,192,15328,1,0,0:0:0:0:
320,192,15742,1,0,0:0:0:0:
64,192,16155,1,0,0:0:0:0:
64,192,16569,128,0,19880:0:0:0:0:
192,192,16569,1,0,0:0:0:0:
320,192,16983,1,0,0:0:0:0:
448,192,17397,1,0,0:0:0:0:
192,192,17811,1,0,0:0:0:0:
448,192,18224,1,0,0:0:0:0:
192,192,18638,1,0,0:0:0:0:
448,192,19052,1,0,0:0:0:0:
320,192,19466,1,0,0:0:0:0:
320,192,19880,128,0,23190:0:0:0:0:
192,192,19880,1,0,0:0:0:0:
64,192,20293,1,0,0:0:0:0:
448,192,20707,1,0,0:0:0:0:
64,192,21121,1,0,0:0:0:0:
192,192,21535,1,0,0:0:0:0:
448,192,21949,1,0,0:0:0:0:
64,192,22362,1,0,0:0:0:0:
448,192,22776,1,0,0:0:0:0:
64,192,23190,1,0,0:0:0:0:
192,192,23190,128,0,26500:0:0:0:0:
320,192,23604,1,0,0:0:0:0:
448,192,24018,1,0,0:0:0:0:
64,192,24431,1,0,0:0:0:0:
448,192,24845,1,0,0:0:0:0:
320,192,25259,1,0,0:0:0:0:
64,192,25673,1,0,0:0:0:0:
448,192,26086,1,0,0:0:0:0:
320,192,26707,1,0,0:0:0:0:
192,192,27121,1,0,0:0:0:0:
448,192,27535,1,0,0:0:0:0:
64,192,27949,1,0,0:0:0:0:
320,192,28362,1,0,0:0:0:0:
192,192,28776,1,0,0:0:0:0:
448,192,29190,1,0,0:0:0:0:
64,192,29604,1,0,0:0:0:0:
192,192,30018,1,0,0:0:0:0:
320,192,30431,1,0,0:0:0:0:
448,192,30845,1,0,0:0:0:0:
64,192,31259,1,0,0:0:0:0:
320,192,31673,1,0,0:0:0:0:
192,192,32086,1,0,0:0:0:0:
64,192,32500,1,0,0:0:0:0:
448,192,32914,1,0,0:0:0:0:
192,192,33328,1,0,0:0:0:0:
320,192,33742,1,0,0:0:0:0:
64,192,34155,1,0,0:0:0:0:
448,192,34569,1,0,0:0:0:0:
320,192,34983,1,0,0:0:0:0:
192,192,35397,1,0,0:0:0:0:
64,192,35811,1,0,0:0:0:0:
320,192,36250,1,0,0:0:0:0:
448,192,36457,1,0,0:0:0:0:
64,192,36457,1,0,0:0:0:0:
64,192,36871,1,0,0:0:0:0:
448,192,36871,1,0,0:0:0:0:
448,192,37259,1,0,0:0:0:0:
64,192,37259,1,0,0:0:0:0:
64,192,37673,1,0,0:0:0:0:
448,192,37673,1,0,0:0:0:0:
192,192,38112,1,0,0:0:0:0:
320,192,38112,1,0,0:0:0:0:
192,192,38526,1,0,0:0:0:0:
320,192,38526,1,0,0:0:0:0:
320,192,38940,1,0,0:0:0:0:
192,192,39147,1,0,0:0:0:0:
320,192,39354,1,0,0:0:0:0:
192,192,39561,1,0,0:0:0:0:
448,192,39768,1,0,0:0:0:0:
64,192,39768,128,0,41423:0:0:0:0:
320,192,40181,1,0,0:0:0:0:
192,192,40595,1,0,0:0:0:0:
192,192,41009,1,0,0:0:0:0:
448,192,41423,128,0,43078:0:0:0:0:
192,192,41836,1,0,0:0:0:0:
320,192,42250,1,0,0:0:0:0:
64,192,42664,1,0,0:0:0:0:
192,192,43078,1,0,0:0:0:0:
64,192,43078,128,0,46388:0:0:0:0:
320,192,43492,1,0,0:0:0:0:
192,192,43905,1,0,0:0:0:0:
320,192,44319,1,0,0:0:0:0:
448,192,44733,1,0,0:0:0:0:
320,192,45147,1,0,0:0:0:0:
448,192,45561,1,0,0:0:0:0:
192,192,45974,1,0,0:0:0:0:
448,192,46388,1,0,0:0:0:0:
320,192,46802,1,0,0:0:0:0:
192,192,47216,1,0,0:0:0:0:
64,192,47630,1,0,0:0:0:0:
448,192,48043,1,0,0:0:0:0:
64,192,48457,128,0,48871:0:0:0:0:
320,192,48871,1,0,0:0:0:0:
448,192,49285,1,0,0:0:0:0:
192,192,49699,1,0,0:0:0:0:
320,192,49699,1,0,0:0:0:0:
64,192,50112,1,0,0:0:0:0:
192,192,50526,1,0,0:0:0:0:
448,192,50940,1,0,0:0:0:0:
64,192,51354,1,0,0:0:0:0:
320,192,51768,1,0,0:0:0:0:
192,192,52181,1,0,0:0:0:0:
192,192,52595,1,0,0:0:0:0:
64,192,53009,1,0,0:0:0:0:
448,192,53423,1,0,0:0:0:0:
192,192,53836,1,0,0:0:0:0:
448,192,54250,1,0,0:0:0:0:
64,192,54664,1,0,0:0:0:0:
320,192,55078,1,0,0:0:0:0:
192,192,55492,1,0,0:0:0:0:
448,192,55905,1,0,0:0:0:0:
64,192,56319,1,0,0:0:0:0:
448,192,56733,1,0,0:0:0:0:
192,192,57147,1,0,0:0:0:0:
320,192,57561,1,0,0:0:0:0:
64,192,57974,1,0,0:0:0:0:
64,192,58388,1,0,0:0:0:0:
448,192,58802,1,0,0:0:0:0:
64,192,59216,1,0,0:0:0:0:
448,192,59630,1,0,0:0:0:0:
192,192,60043,1,0,0:0:0:0:
320,192,60457,1,0,0:0:0:0:
64,192,60871,1,0,0:0:0:0:
192,192,61285,1,0,0:0:0:0:
448,192,61699,1,0,0:0:0:0:
64,192,62112,1,0,0:0:0:0:
192,192,62526,1,0,0:0:0:0:
448,192,62940,1,0,0:0:0:0:
320,192,63354,1,0,0:0:0:0:
192,192,63768,1,0,0:0:0:0:
64,192,64181,1,0,0:0:0:0:
448,192,64595,1,0,0:0:0:0:
192,192,65009,1,0,0:0:0:0:
448,192,65423,1,0,0:0:0:0:
192,192,65836,1,0,0:0:0:0:
64,192,66250,1,0,0:0:0:0:
192,192,66664,1,0,0:0:0:0:
320,192,67078,1,0,0:0:0:0:
448,192,67492,1,0,0:0:0:0:
320,192,67905,1,0,0:0:0:0:
192,192,68319,1,0,0:0:0:0:
320,192,68733,1,0,0:0:0:0:
448,192,69147,1,0,0:0:0:0:
320,192,69561,1,0,0:0:0:0:
192,192,69974,1,0,0:0:0:0:
64,192,70388,1,0,0:0:0:0:
192,192,70802,1,0,0:0:0:0:
320,192,71216,1,0,0:0:0:0:
192,192,71630,1,0,0:0:0:0:
64,192,72043,1,0,0:0:0:0:
192,192,72457,1,0,0:0:0:0:
448,192,72871,1,0,0:0:0:0:
192,192,73285,1,0,0:0:0:0:
64,192,73699,1,0,0:0:0:0:
448,192,74112,1,0,0:0:0:0:
192,192,74526,1,0,0:0:0:0:
320,192,74940,1,0,0:0:0:0:
192,192,75354,1,0,0:0:0:0:
64,192,75768,1,0,0:0:0:0:
448,192,76181,1,0,0:0:0:0:
192,192,76595,1,0,0:0:0:0:
64,192,77009,1,0,0:0:0:0:
320,192,77423,1,0,0:0:0:0:
192,192,77836,1,0,0:0:0:0:
448,192,78250,1,0,0:0:0:0:
64,192,78664,1,0,0:0:0:0:
320,192,79078,1,0,0:0:0:0:
448,192,79492,1,0,0:0:0:0:
64,192,79905,1,0,0:0:0:0:
320,192,80319,1,0,0:0:0:0:
192,192,80733,1,0,0:0:0:0:
64,192,81147,1,0,0:0:0:0:
448,192,81561,1,0,0:0:0:0:
320,192,81974,1,0,0:0:0:0:
192,192,82388,1,0,0:0:0:0:
64,192,82802,1,0,0:0:0:0:
448,192,83216,1,0,0:0:0:0:
192,192,83630,1,0,0:0:0:0:
320,192,84043,1,0,0:0:0:0:
192,192,84457,1,0,0:0:0:0:
64,192,84871,1,0,0:0:0:0:
192,192,85285,1,0,0:0:0:0:
320,192,85699,1,0,0:0:0:0:
448,192,86112,1,0,0:0:0:0:
64,192,86526,1,0,0:0:0:0:
320,192,86940,1,0,0:0:0:0:
192,192,87354,1,0,0:0:0:0:
64,192,87768,1,0,0:0:0:0:
192,192,88190,1,0,0:0:0:0:
320,192,88604,1,0,0:0:0:0:
448,192,89009,1,0,0:0:0:0:
64,192,89423,1,0,0:0:0:0:
192,192,89845,1,0,0:0:0:0:
320,192,90259,1,0,0:0:0:0:
448,192,90673,1,0,0:0:0:0:
64,192,91086,1,0,0:0:0:0:
192,192,91500,1,0,0:0:0:0:
448,192,91914,1,0,0:0:0:0:
320,192,92328,1,0,0:0:0:0:
192,192,92742,1,0,0:0:0:0:
64,192,93155,1,0,0:0:0:0:
448,192,93569,1,0,0:0:0:0:
64,192,93983,1,0,0:0:0:0:
192,192,94397,1,0,0:0:0:0:
320,192,94811,1,0,0:0:0:0:
448,192,95224,1,0,0:0:0:0:
192,192,95638,1,0,0:0:0:0:
64,192,96052,1,0,0:0:0:0:
192,192,96466,1,0,0:0:0:0:
448,192,96880,1,0,0:0:0:0:
320,192,97293,1,0,0:0:0:0:
192,192,97707,1,0,0:0:0:0:
64,192,98121,1,0,0:0:0:0:
192,192,98535,1,0,0:0:0:0:
64,192,98949,1,0,0:0:0:0:
320,192,99362,1,0,0:0:0:0:
448,192,99776,1,0,0:0:0:0:
192,192,100190,1,0,0:0:0:0:
64,192,100604,1,0,0:0:0:0:
192,192,101018,1,0,0:0:0:0:
64,192,101431,1,0,0:0:0:0:
448,192,101845,1,0,0:0:0:0:
320,192,102259,1,0,0:0:0:0:
192,192,102673,1,0,0:0:0:0:
192,192,103086,1,0,0:0:0:0:
192,192,103500,1,0,0:0:0:0:
192,192,103914,1,0,0:0:0:0:
448,192,104328,1,0,0:0:0:0:
448,192,104742,1,0,0:0:0:0:
64,192,105155,1,0,0:0:0:0:
192,192,105362,1,0,0:0:0:0:
320,192,105569,1,0,0:0:0:0:
448,192,105776,1,0,0:0:0:0:
64,192,105983,128,0,106811:0:0:0:0:
320,192,106811,1,0,0:0:0:0:
448,192,106811,1,0,0:0:0:0:
320,192,107224,1,0,0:0:0:0:
448,192,107224,1,0,0:0:0:0:
64,192,107638,1,0,0:0:0:0:
448,192,108052,1,0,0:0:0:0:
320,192,108466,1,0,0:0:0:0:
192,192,108880,1,0,0:0:0:0:
64,192,109293,1,0,0:0:0:0:
448,192,109707,1,0,0:0:0:0:
192,192,110121,1,0,0:0:0:0:
320,192,110535,1,0,0:0:0:0:
448,192,110949,1,0,0:0:0:0:
320,192,111362,1,0,0:0:0:0:
192,192,111776,1,0,0:0:0:0:
64,192,112190,1,0,0:0:0:0:
448,192,112604,1,0,0:0:0:0:
320,192,113018,1,0,0:0:0:0:
64,192,113431,1,0,0:0:0:0:
192,192,113845,1,0,0:0:0:0:
320,192,114259,1,0,0:0:0:0:
448,192,114673,1,0,0:0:0:0:
320,192,115086,1,0,0:0:0:0:
192,192,115500,1,0,0:0:0:0:
448,192,115914,1,0,0:0:0:0:
320,192,116328,1,0,0:0:0:0:
192,192,116742,1,0,0:0:0:0:
64,192,117155,1,0,0:0:0:0:
192,192,117569,1,0,0:0:0:0:
448,192,117983,1,0,0:0:0:0:
64,192,118397,1,0,0:0:0:0:
192,192,118811,1,0,0:0:0:0:
320,192,119224,1,0,0:0:0:0:
64,192,119638,1,0,0:0:0:0:
448,192,120052,1,0,0:0:0:0:
320,192,120466,1,0,0:0:0:0:
192,192,120880,1,0,0:0:0:0:
448,192,121293,1,0,0:0:0:0:
64,192,121707,1,0,0:0:0:0:
192,192,122121,1,0,0:0:0:0:
320,192,122535,1,0,0:0:0:0:
448,192,122949,1,0,0:0:0:0:
64,192,123362,1,0,0:0:0:0:
192,192,123776,1,0,0:0:0:0:
320,192,124190,1,0,0:0:0:0:
64,192,124604,1,0,0:0:0:0:
448,192,125018,1,0,0:0:0:0:
320,192,125449,1,0,0:0:0:0:
192,192,125862,1,0,0:0:0:0:
64,192,126276,1,0,0:0:0:0:
192,192,126690,1,0,0:0:0:0:
448,192,127104,1,0,0:0:0:0:
64,192,127518,1,0,0:0:0:0:
192,192,127931,1,0,0:0:0:0:
320,192,128345,1,0,0:0:0:0:
64,192,128759,1,0,0:0:0:0:
192,192,129173,1,0,0:0:0:0:
448,192,129586,1,0,0:0:0:0:
64,192,130000,1,0,0:0:0:0:
192,192,130414,1,0,0:0:0:0:
320,192,130828,1,0,0:0:0:0:
64,192,131242,1,0,0:0:0:0:
448,192,131655,1,0,0:0:0:0:
320,192,132069,1,0,0:0:0:0:
192,192,132483,1,0,0:0:0:0:
64,192,132897,1,0,0:0:0:0:
192,192,133311,1,0,0:0:0:0:
64,192,133724,1,0,0:0:0:0:
320,192,134138,128,0,134552:0:0:0:0:
448,192,134552,1,0,0:0:0:0:
192,192,134966,128,0,135380:0:0:0:0:
64,192,135380,1,0,0:0:0:0:
448,192,135793,128,0,136207:0:0:0:0:
320,192,136207,1,0,0:0:0:0:
64,192,136621,128,0,137035:0:0:0:0:
192,192,137035,1,0,0:0:0:0:
448,192,137449,1,0,0:0:0:0:
64,192,137862,1,0,0:0:0:0:
192,192,138276,1,0,0:0:0:0:
320,192,138690,1,0,0:0:0:0:
64,192,139104,1,0,0:0:0:0:
192,192,139518,1,0,0:0:0:0:
448,192,139931,1,0,0:0:0:0:
64,192,140345,1,0,0:0:0:0:
448,192,140759,1,0,0:0:0:0:
320,192,141173,1,0,0:0:0:0:
192,192,141586,1,0,0:0:0:0:
448,192,142000,1,0,0:0:0:0:
320,192,142414,1,0,0:0:0:0:
64,192,142828,1,0,0:0:0:0:
448,192,143242,1,0,0:0:0:0:
320,192,143655,1,0,0:0:0:0:
192,192,144069,1,0,0:0:0:0:
448,192,144483,1,0,0:0:0:0:
320,192,144897,1,0,0:0:0:0:
64,192,145311,1,0,0:0:0:0:
192,192,145724,1,0,0:0:0:0:
320,192,146138,1,0,0:0:0:0:
64,192,146552,1,0,0:0:0:0:
192,192,146966,1,0,0:0:0:0:
64,192,147380,1,0,0:0:0:0:
448,192,147380,1,0,0:0:0:0:
192,192,147793,1,0,0:0:0:0:
64,192,148207,1,0,0:0:0:0:
192,192,148621,1,0,0:0:0:0:
64,192,149035,1,0,0:0:0:0:
192,192,149449,1,0,0:0:0:0:
448,192,149862,1,0,0:0:0:0:
320,192,150276,1,0,0:0:0:0:
64,192,150690,1,0,0:0:0:0:
448,192,150690,1,0,0:0:0:0:
320,192,151104,1,0,0:0:0:0:
448,192,151518,1,0,0:0:0:0:
320,192,151931,1,0,0:0:0:0:
64,192,152345,1,0,0:0:0:0:
448,192,152759,1,0,0:0:0:0:
320,192,153173,1,0,0:0:0:0:
192,192,153586,1,0,0:0:0:0:
448,192,154000,1,0,0:0:0:0:
64,192,154000,1,0,0:0:0:0:
192,192,154414,1,0,0:0:0:0:
448,192,154828,1,0,0:0:0:0:
320,192,155242,1,0,0:0:0:0:
64,192,155655,1,0,0:0:0:0:
192,192,156069,1,0,0:0:0:0:
320,192,156483,1,0,0:0:0:0:
64,192,156897,1,0,0:0:0:0:
448,192,157311,1,0,0:0:0:0:
64,192,157724,1,0,0:0:0:0:
320,192,158138,1,0,0:0:0:0:
192,192,158552,1,0,0:0:0:0:
448,192,158966,1,0,0:0:0:0:
64,192,159380,1,0,0:0:0:0:
320,192,159793,1,0,0:0:0:0:
192,192,160207,1,0,0:0:0:0:
64,192,160621,1,0,0:0:0:0:
448,192,160621,1,0,0:0:0:0:
192,192,161035,1,0,0:0:0:0:
320,192,161035,1,0,0:0:0:0:
64,192,161449,1,0,0:0:0:0:
448,192,161449,1,0,0:0:0:0:
192,192,161862,1,0,0:0:0:0:
320,192,161862,1,0,0:0:0:0:
64,192,162276,1,0,0:0:0:0:
448,192,162276,1,0,0:0:0:0:
192,192,162690,1,0,0:0:0:0:
320,192,162690,1,0,0:0:0:0:
64,192,163104,1,0,0:0:0:0:
448,192,163518,1,0,0:0:0:0:
64,192,163931,1,0,0:0:0:0:
320,192,163931,1,0,0:0:0:0:
192,192,164345,1,0,0:0:0:0:
448,192,164345,1,0,0:0:0:0:
320,192,164759,1,0,0:0:0:0:
64,192,164759,1,0,0:0:0:0:
448,192,165173,1,0,0:0:0:0:
192,192,165173,1,0,0:0:0:0:
64,192,165586,1,0,0:0:0:0:
448,192,166000,1,0,0:0:0:0:
64,192,166414,1,0,0:0:0:0:
320,192,166828,1,0,0:0:0:0:
192,192,167242,1,0,0:0:0:0:
448,192,167655,1,0,0:0:0:0:
320,192,168069,1,0,0:0:0:0:
192,192,168483,1,0,0:0:0:0:
64,192,168897,1,0,0:0:0:0:
192,192,169311,1,0,0:0:0:0:
448,192,169724,1,0,0:0:0:0:
320,192,170138,1,0,0:0:0:0:
192,192,170552,1,0,0:0:0:0:
320,192,170552,1,0,0:0:0:0:
448,192,170552,1,0,0:0:0:0:
448,192,170966,1,0,0:0:0:0:
320,192,170966,1,0,0:0:0:0:
192,192,170966,1,0,0:0:0:0:
64,192,171380,1,0,0:0:0:0:
192,192,171380,1,0,0:0:0:0:
320,192,171380,1,0,0:0:0:0:
320,192,171793,1,0,0:0:0:0:
192,192,171793,1,0,0:0:0:0:
64,192,171793,1,0,0:0:0:0:
448,192,172207,1,0,0:0:0:0:
320,192,172207,1,0,0:0:0:0:
64,192,172621,1,0,0:0:0:0:
192,192,172621,1,0,0:0:0:0:
448,192,173035,1,0,0:0:0:0:
320,192,173035,1,0,0:0:0:0:
64,192,173449,1,0,0:0:0:0:
192,192,173449,1,0,0:0:0:0:
64,192,173862,128,0,177190:0:0:0:0:
192,192,173862,128,0,177190:0:0:0:0:
320,192,173862,128,0,177190:0:0:0:0:
448,192,173862,128,0,177190:0:0:0:0:
