osu file format v14

[General]
AudioFilename: audio.mp3
AudioLeadIn: 0
PreviewTime: 107608
Countdown: 0
SampleSet: Normal
StackLeniency: 0.7
Mode: 3
LetterboxInBreaks: 0
SpecialStyle: 0
WidescreenStoryboard: 0

[Editor]
Bookmarks: 3296
DistanceSpacing: 1
BeatDivisor: 2
GridSize: 4
TimelineZoom: 3.399999

[Metadata]
Title:Sonic Blaster
TitleUnicode:Sonic Blaster
Artist:F-777
ArtistUnicode:F-777
Creator:Qwan
Version:Blast Off!
Source:Newgrounds.com
Tags:Videogame Electronic
BeatmapID:985334
BeatmapSetID:460017

[Difficulty]
HPDrainRate:6
CircleSize:4
OverallDifficulty:7
ApproachRate:5
SliderMultiplier:1.4
SliderTickRate:1

[Events]
//Background and Video events
0,0,"Sonic blaster.jpg",0,0
//Break Periods
//Storyboard Layer 0 (Background)
//Storyboard Layer 1 (Fail)
//Storyboard Layer 2 (Pass)
//Storyboard Layer 3 (Foreground)
//Storyboard Sound Samples

[TimingPoints]
18,413.793103448276,4,1,0,10,1,0

[HitObjects]
448,192,18,5,0,0:0:0:0:
320,192,18,5,0,0:0:0:0:
192,192,224,1,0,0:0:0:0:
320,192,224,1,0,0:0:0:0:
64,192,224,128,0,431:0:0:0:0:
320,192,431,1,0,0:0:0:0:
448,192,431,128,0,638:0:0:0:0:
64,192,638,1,0,0:0:0:0:
192,192,638,128,0,845:0:0:0:0:
320,192,845,128,0,1052:0:0:0:0:
448,192,845,1,0,0:0:0:0:
192,192,1052,1,0,0:0:0:0:
448,192,1052,128,0,1259:0:0:0:0:
64,192,1259,128,0,1466:0:0:0:0:
192,192,1259,1,0,0:0:0:0:
448,192,1466,1,0,0:0:0:0:
320,192,1466,128,0,1673:0:0:0:0:
192,192,1673,128,0,1880:0:0:0:0:
64,192,1673,1,0,0:0:0:0:
64,192,1880,1,0,0:0:0:0:
448,192,1880,128,0,2086:0:0:0:0:
320,192,2086,128,0,2293:0:0:0:0:
64,192,2086,1,0,0:0:0:0:
448,192,2293,1,0,0:0:0:0:
64,192,2293,1,0,0:0:0:0:
192,192,2293,1,0,0:0:0:0:
448,192,2500,128,0,2707:0:0:0:0:
192,192,2500,1,0,0:0:0:0:
192,192,2707,128,0,2914:0:0:0:0:
64,192,2707,1,0,0:0:0:0:
64,192,2914,128,0,3121:0:0:0:0:
320,192,3121,1,0,0:0:0:0:
448,192,3328,1,0,0:0:0:0:
192,192,3328,1,0,0:0:0:0:
320,192,3328,1,0,0:0:0:0:
64,192,3328,1,0,0:0:0:0:
192,192,3535,1,0,0:0:0:0:
448,192,3535,1,0,0:0:0:0:
64,192,3535,1,0,0:0:0:0:
320,192,3535,1,0,0:0:0:0:
448,192,3535,128,0,3742:0:0:0:0:
192,192,3742,128,0,3949:0:0:0:0:
320,192,3742,1,0,0:0:0:0:
64,192,3949,1,0,0:0:0:0:
320,192,3949,1,0,0:0:0:0:
448,192,3949,128,0,4155:0:0:0:0:
192,192,4155,1,0,0:0:0:0:
64,192,4155,128,0,4362:0:0:0:0:
320,192,4362,1,0,0:0:0:0:
192,192,4362,128,0,4569:0:0:0:0:
448,192,4569,128,0,4776:0:0:0:0:
64,192,4569,1,0,0:0:0:0:
192,192,4776,1,0,0:0:0:0:
64,192,4776,1,0,0:0:0:0:
320,192,4776,128,0,4983:0:0:0:0:
448,192,4983,128,0,5190:0:0:0:0:
192,192,4983,1,0,0:0:0:0:
192,192,5190,128,0,5397:0:0:0:0:
320,192,5190,1,0,0:0:0:0:
320,192,5397,128,0,5604:0:0:0:0:
64,192,5397,1,0,0:0:0:0:
192,192,5604,1,0,0:0:0:0:
64,192,5604,1,0,0:0:0:0:
448,192,5604,1,0,0:0:0:0:
192,192,5811,128,0,6018:0:0:0:0:
448,192,5811,1,0,0:0:0:0:
320,192,6018,1,0,0:0:0:0:
448,192,6018,128,0,6224:0:0:0:0:
64,192,6224,1,0,0:0:0:0:
448,192,6431,128,0,6638:0:0:0:0:
192,192,6431,1,0,0:0:0:0:
64,192,6431,1,0,0:0:0:0:
320,192,6431,1,0,0:0:0:0:
192,192,6638,1,0,0:0:0:0:
448,192,6845,1,0,0:0:0:0:
320,192,6845,1,0,0:0:0:0:
64,192,6845,128,0,7052:0:0:0:0:
320,192,7052,1,0,0:0:0:0:
448,192,7052,128,0,7259:0:0:0:0:
64,192,7259,1,0,0:0:0:0:
192,192,7259,128,0,7466:0:0:0:0:
320,192,7466,128,0,7673:0:0:0:0:
448,192,7466,1,0,0:0:0:0:
192,192,7673,1,0,0:0:0:0:
448,192,7673,128,0,7880:0:0:0:0:
64,192,7880,128,0,8086:0:0:0:0:
192,192,7880,1,0,0:0:0:0:
448,192,8086,1,0,0:0:0:0:
320,192,8086,128,0,8293:0:0:0:0:
192,192,8293,128,0,8500:0:0:0:0:
64,192,8293,1,0,0:0:0:0:
64,192,8500,1,0,0:0:0:0:
448,192,8500,128,0,8707:0:0:0:0:
320,192,8707,128,0,8914:0:0:0:0:
64,192,8707,1,0,0:0:0:0:
448,192,8914,1,0,0:0:0:0:
64,192,8914,1,0,0:0:0:0:
192,192,8914,1,0,0:0:0:0:
448,192,9121,128,0,9328:0:0:0:0:
192,192,9121,1,0,0:0:0:0:
192,192,9328,128,0,9535:0:0:0:0:
64,192,9328,1,0,0:0:0:0:
64,192,9535,128,0,9742:0:0:0:0:
192,192,9742,1,0,0:0:0:0:
448,192,9742,1,0,0:0:0:0:
320,192,9949,1,0,0:0:0:0:
64,192,9949,1,0,0:0:0:0:
320,192,10155,1,0,0:0:0:0:
448,192,10155,1,0,0:0:0:0:
192,192,10155,1,0,0:0:0:0:
64,192,10155,1,0,0:0:0:0:
320,192,10362,1,0,0:0:0:0:
448,192,10362,1,0,0:0:0:0:
192,192,10569,1,0,0:0:0:0:
320,192,10569,1,0,0:0:0:0:
448,192,10569,1,0,0:0:0:0:
64,192,10569,1,0,0:0:0:0:
192,192,10776,1,0,0:0:0:0:
64,192,10776,1,0,0:0:0:0:
320,192,10983,1,0,0:0:0:0:
64,192,10983,1,0,0:0:0:0:
448,192,10983,1,0,0:0:0:0:
192,192,10983,1,0,0:0:0:0:
320,192,11190,1,0,0:0:0:0:
64,192,11190,1,0,0:0:0:0:
448,192,11397,1,0,0:0:0:0:
448,192,11397,1,0,0:0:0:0:
64,192,11397,1,0,0:0:0:0:
320,192,11604,1,0,0:0:0:0:
192,192,11604,1,0,0:0:0:0:
64,192,11604,1,0,0:0:0:0:
448,192,11604,1,0,0:0:0:0:
192,192,11604,1,0,0:0:0:0:
64,192,11811,1,0,0:0:0:0:
320,192,11811,1,0,0:0:0:0:
192,192,11811,1,0,0:0:0:0:
64,192,11811,1,0,0:0:0:0:
320,192,11811,1,0,0:0:0:0:
448,192,12018,1,0,0:0:0:0:
192,192,12018,1,0,0:0:0:0:
448,192,12018,1,0,0:0:0:0:
192,192,12018,1,0,0:0:0:0:
320,192,12018,1,0,0:0:0:0:
64,192,12224,1,0,0:0:0:0:
448,192,12224,1,0,0:0:0:0:
192,192,12224,1,0,0:0:0:0:
64,192,12224,1,0,0:0:0:0:
320,192,12224,1,0,0:0:0:0:
448,192,12431,1,0,0:0:0:0:
64,192,12431,1,0,0:0:0:0:
320,192,12431,1,0,0:0:0:0:
192,192,12431,1,0,0:0:0:0:
448,192,12431,1,0,0:0:0:0:
64,192,12431,128,0,12638:0:0:0:0:
320,192,12638,1,0,0:0:0:0:
448,192,12638,1,0,0:0:0:0:
320,192,12638,1,0,0:0:0:0:
192,192,12638,1,0,0:0:0:0:
448,192,12638,128,0,12845:0:0:0:0:
320,192,12845,128,0,13052:0:0:0:0:
448,192,13052,128,0,14707:0:0:0:0:
64,192,13052,1,0,0:0:0:0:
192,192,13052,1,0,0:0:0:0:
320,192,13259,1,0,0:0:0:0:
192,192,13259,1,0,0:0:0:0:
64,192,13466,1,0,0:0:0:0:
320,192,13466,1,0,0:0:0:0:
192,192,13466,128,0,13673:0:0:0:0:
64,192,13673,1,0,0:0:0:0:
64,192,13673,128,0,13880:0:0:0:0:
320,192,13880,1,0,0:0:0:0:
320,192,13880,128,0,14086:0:0:0:0:
192,192,13880,1,0,0:0:0:0:
64,192,14086,1,0,0:0:0:0:
64,192,14086,128,0,14293:0:0:0:0:
192,192,14293,1,0,0:0:0:0:
320,192,14293,128,0,14293:0:0:0:0:
192,192,14500,128,0,14500:0:0:0:0:
64,192,14500,128,0,14707:0:0:0:0:
320,192,14707,1,0,0:0:0:0:
192,192,14707,128,0,15535:0:0:0:0:
320,192,14914,1,0,0:0:0:0:
448,192,14914,128,0,15121:0:0:0:0:
320,192,15121,1,0,0:0:0:0:
64,192,15121,128,0,15328:0:0:0:0:
448,192,15328,128,0,15535:0:0:0:0:
64,192,15742,1,0,0:0:0:0:
192,192,15742,128,0,15949:0:0:0:0:
448,192,15949,128,0,16155:0:0:0:0:
64,192,15949,1,0,0:0:0:0:
320,192,16155,1,0,0:0:0:0:
192,192,16362,1,0,0:0:0:0:
448,192,16362,1,0,0:0:0:0:
320,192,16362,1,0,0:0:0:0:
64,192,16362,128,0,18018:0:0:0:0:
192,192,16569,1,0,0:0:0:0:
320,192,16569,1,0,0:0:0:0:
448,192,16776,1,0,0:0:0:0:
192,192,16776,1,0,0:0:0:0:
320,192,16776,128,0,16983:0:0:0:0:
448,192,16983,1,0,0:0:0:0:
448,192,16983,128,0,17190:0:0:0:0:
192,192,17190,1,0,0:0:0:0:
192,192,17190,128,0,17397:0:0:0:0:
320,192,17190,1,0,0:0:0:0:
448,192,17397,1,0,0:0:0:0:
448,192,17397,128,0,17604:0:0:0:0:
320,192,17604,1,0,0:0:0:0:
192,192,17604,128,0,17811:0:0:0:0:
320,192,17811,128,0,17811:0:0:0:0:
448,192,17811,128,0,18018:0:0:0:0:
192,192,18018,1,0,0:0:0:0:
320,192,18018,128,0,18845:0:0:0:0:
64,192,18224,1,0,0:0:0:0:
64,192,18224,128,0,18431:0:0:0:0:
192,192,18224,1,0,0:0:0:0:
448,192,18431,1,0,0:0:0:0:
192,192,18431,1,0,0:0:0:0:
448,192,18431,128,0,18638:0:0:0:0:
64,192,18638,1,0,0:0:0:0:
64,192,18638,128,0,18845:0:0:0:0:
192,192,18638,1,0,0:0:0:0:
448,192,18845,1,0,0:0:0:0:
448,192,19052,1,0,0:0:0:0:
320,192,19052,128,0,19259:0:0:0:0:
64,192,19259,128,0,19466:0:0:0:0:
448,192,19259,1,0,0:0:0:0:
448,192,19466,128,0,19673:0:0:0:0:
192,192,19466,1,0,0:0:0:0:
64,192,19673,1,0,0:0:0:0:
192,192,19673,1,0,0:0:0:0:
448,192,19880,1,0,0:0:0:0:
192,192,19880,1,0,0:0:0:0:
320,192,20086,1,0,0:0:0:0:
192,192,20086,1,0,0:0:0:0:
64,192,20086,1,0,0:0:0:0:
448,192,20086,1,0,0:0:0:0:
320,192,20293,1,0,0:0:0:0:
64,192,20293,1,0,0:0:0:0:
448,192,20500,1,0,0:0:0:0:
320,192,20500,1,0,0:0:0:0:
64,192,20500,1,0,0:0:0:0:
192,192,20500,1,0,0:0:0:0:
448,192,20707,1,0,0:0:0:0:
320,192,20707,1,0,0:0:0:0:
192,192,20914,1,0,0:0:0:0:
64,192,20914,1,0,0:0:0:0:
320,192,20914,1,0,0:0:0:0:
448,192,20914,1,0,0:0:0:0:
192,192,21121,1,0,0:0:0:0:
448,192,21121,1,0,0:0:0:0:
64,192,21328,1,0,0:0:0:0:
192,192,21328,1,0,0:0:0:0:
448,192,21328,1,0,0:0:0:0:
320,192,21328,1,0,0:0:0:0:
64,192,21535,1,0,0:0:0:0:
448,192,21535,1,0,0:0:0:0:
320,192,21742,1,0,0:0:0:0:
192,192,21742,1,0,0:0:0:0:
448,192,21742,1,0,0:0:0:0:
64,192,21742,1,0,0:0:0:0:
320,192,21949,1,0,0:0:0:0:
64,192,21949,1,0,0:0:0:0:
448,192,22155,1,0,0:0:0:0:
64,192,22155,1,0,0:0:0:0:
320,192,22155,1,0,0:0:0:0:
192,192,22155,1,0,0:0:0:0:
192,192,22362,1,0,0:0:0:0:
448,192,22362,1,0,0:0:0:0:
320,192,22569,1,0,0:0:0:0:
192,192,22569,1,0,0:0:0:0:
64,192,22776,1,0,0:0:0:0:
448,192,22983,1,0,0:0:0:0:
192,192,22983,1,0,0:0:0:0:
320,192,23190,1,0,0:0:0:0:
192,192,23190,1,0,0:0:0:0:
448,192,23190,1,0,0:0:0:0:
320,192,23397,1,0,0:0:0:0:
448,192,23397,1,0,0:0:0:0:
64,192,23397,1,0,0:0:0:0:
320,192,23397,1,0,0:0:0:0:
192,192,23604,1,0,0:0:0:0:
64,192,23604,1,0,0:0:0:0:
320,192,23604,1,0,0:0:0:0:
192,192,23811,1,0,0:0:0:0:
448,192,23811,1,0,0:0:0:0:
64,192,23811,1,0,0:0:0:0:
320,192,23811,1,0,0:0:0:0:
320,192,24018,1,0,0:0:0:0:
192,192,24018,1,0,0:0:0:0:
64,192,24224,1,0,0:0:0:0:
448,192,24224,1,0,0:0:0:0:
320,192,24431,1,0,0:0:0:0:
192,192,24431,1,0,0:0:0:0:
64,192,24638,1,0,0:0:0:0:
448,192,24638,1,0,0:0:0:0:
320,192,24845,1,0,0:0:0:0:
192,192,24845,1,0,0:0:0:0:
64,192,24845,1,0,0:0:0:0:
448,192,24845,1,0,0:0:0:0:
320,192,25052,1,0,0:0:0:0:
192,192,25052,1,0,0:0:0:0:
64,192,25052,1,0,0:0:0:0:
448,192,25052,1,0,0:0:0:0:
320,192,25259,1,0,0:0:0:0:
192,192,25259,1,0,0:0:0:0:
64,192,25259,1,0,0:0:0:0:
448,192,25259,1,0,0:0:0:0:
320,192,25466,1,0,0:0:0:0:
192,192,25466,1,0,0:0:0:0:
64,192,25466,1,0,0:0:0:0:
448,192,25466,1,0,0:0:0:0:
320,192,25466,1,0,0:0:0:0:
192,192,25673,1,0,0:0:0:0:
64,192,25673,1,0,0:0:0:0:
448,192,25673,1,0,0:0:0:0:
320,192,25673,1,0,0:0:0:0:
192,192,25673,1,0,0:0:0:0:
64,192,25673,1,0,0:0:0:0:
448,192,25673,1,0,0:0:0:0:
320,192,25673,1,0,0:0:0:0:
192,192,25880,1,0,0:0:0:0:
64,192,25880,1,0,0:0:0:0:
448,192,25880,1,0,0:0:0:0:
320,192,25880,1,0,0:0:0:0:
192,192,25880,1,0,0:0:0:0:
64,192,25880,1,0,0:0:0:0:
320,192,25880,1,0,0:0:0:0:
448,192,25880,1,0,0:0:0:0:
192,192,26086,1,0,0:0:0:0:
64,192,26086,1,0,0:0:0:0:
320,192,26086,1,0,0:0:0:0:
448,192,26086,1,0,0:0:0:0:
192,192,26086,1,0,0:0:0:0:
64,192,26086,1,0,0:0:0:0:
448,192,26086,1,0,0:0:0:0:
320,192,26086,1,0,0:0:0:0:
192,192,26293,1,0,0:0:0:0:
64,192,26293,1,0,0:0:0:0:
320,192,26293,1,0,0:0:0:0:
448,192,26293,1,0,0:0:0:0:
192,192,26293,1,0,0:0:0:0:
64,192,26293,1,0,0:0:0:0:
448,192,26293,128,0,27949:0:0:0:0:
320,192,26293,1,0,0:0:0:0:
192,192,26500,1,0,0:0:0:0:
64,192,26500,1,0,0:0:0:0:
192,192,26707,1,0,0:0:0:0:
320,192,26707,1,0,0:0:0:0:
64,192,26707,1,0,0:0:0:0:
192,192,26707,1,0,0:0:0:0:
320,192,26914,1,0,0:0:0:0:
64,192,26914,1,0,0:0:0:0:
192,192,27121,1,0,0:0:0:0:
320,192,27121,1,0,0:0:0:0:
64,192,27121,1,0,0:0:0:0:
320,192,27121,1,0,0:0:0:0:
192,192,27328,1,0,0:0:0:0:
64,192,27328,1,0,0:0:0:0:
192,192,27535,1,0,0:0:0:0:
320,192,27535,1,0,0:0:0:0:
192,192,27535,1,0,0:0:0:0:
64,192,27535,1,0,0:0:0:0:
192,192,27742,1,0,0:0:0:0:
64,192,27742,1,0,0:0:0:0:
192,192,27949,1,0,0:0:0:0:
320,192,27949,1,0,0:0:0:0:
64,192,27949,128,0,29604:0:0:0:0:
192,192,27949,1,0,0:0:0:0:
320,192,28155,1,0,0:0:0:0:
448,192,28155,1,0,0:0:0:0:
320,192,28362,1,0,0:0:0:0:
192,192,28362,1,0,0:0:0:0:
448,192,28362,1,0,0:0:0:0:
320,192,28362,1,0,0:0:0:0:
192,192,28569,1,0,0:0:0:0:
448,192,28569,1,0,0:0:0:0:
320,192,28776,1,0,0:0:0:0:
192,192,28776,1,0,0:0:0:0:
448,192,28776,1,0,0:0:0:0:
192,192,28776,1,0,0:0:0:0:
320,192,28983,1,0,0:0:0:0:
448,192,28983,1,0,0:0:0:0:
320,192,29190,1,0,0:0:0:0:
192,192,29190,1,0,0:0:0:0:
320,192,29190,1,0,0:0:0:0:
448,192,29190,1,0,0:0:0:0:
320,192,29397,1,0,0:0:0:0:
448,192,29397,1,0,0:0:0:0:
320,192,29604,1,0,0:0:0:0:
192,192,29604,1,0,0:0:0:0:
448,192,29604,128,0,30018:0:0:0:0:
192,192,29604,1,0,0:0:0:0:
64,192,29811,1,0,0:0:0:0:
64,192,29811,128,0,30018:0:0:0:0:
320,192,29811,1,0,0:0:0:0:
192,192,30018,1,0,0:0:0:0:
320,192,30018,1,0,0:0:0:0:
192,192,30018,128,0,30431:0:0:0:0:
64,192,30224,1,0,0:0:0:0:
448,192,30224,1,0,0:0:0:0:
320,192,30224,128,0,30431:0:0:0:0:
64,192,30431,128,0,30845:0:0:0:0:
448,192,30638,1,0,0:0:0:0:
448,192,30638,128,0,30845:0:0:0:0:
192,192,30638,1,0,0:0:0:0:
320,192,30845,1,0,0:0:0:0:
320,192,30845,128,0,31259:0:0:0:0:
192,192,30845,1,0,0:0:0:0:
64,192,31052,1,0,0:0:0:0:
448,192,31052,1,0,0:0:0:0:
192,192,31052,128,0,31259:0:0:0:0:
64,192,31259,1,0,0:0:0:0:
448,192,31259,128,0,31673:0:0:0:0:
64,192,31466,1,0,0:0:0:0:
64,192,31466,128,0,31673:0:0:0:0:
320,192,31466,1,0,0:0:0:0:
192,192,31673,1,0,0:0:0:0:
320,192,31673,1,0,0:0:0:0:
192,192,31673,128,0,32086:0:0:0:0:
64,192,31880,1,0,0:0:0:0:
448,192,31880,1,0,0:0:0:0:
320,192,31880,128,0,32086:0:0:0:0:
64,192,32086,128,0,32500:0:0:0:0:
448,192,32293,1,0,0:0:0:0:
448,192,32293,128,0,32500:0:0:0:0:
192,192,32293,1,0,0:0:0:0:
320,192,32500,1,0,0:0:0:0:
320,192,32500,128,0,32914:0:0:0:0:
192,192,32500,1,0,0:0:0:0:
64,192,32707,1,0,0:0:0:0:
448,192,32707,1,0,0:0:0:0:
64,192,32914,1,0,0:0:0:0:
448,192,32914,1,0,0:0:0:0:
64,192,32914,128,0,33328:0:0:0:0:
192,192,32914,1,0,0:0:0:0:
448,192,33121,1,0,0:0:0:0:
448,192,33121,128,0,33328:0:0:0:0:
192,192,33121,1,0,0:0:0:0:
320,192,33328,1,0,0:0:0:0:
192,192,33328,1,0,0:0:0:0:
320,192,33328,128,0,33742:0:0:0:0:
448,192,33535,1,0,0:0:0:0:
64,192,33535,1,0,0:0:0:0:
192,192,33535,128,0,33742:0:0:0:0:
448,192,33742,128,0,34155:0:0:0:0:
64,192,33949,1,0,0:0:0:0:
64,192,33949,128,0,34155:0:0:0:0:
320,192,33949,1,0,0:0:0:0:
192,192,34155,1,0,0:0:0:0:
192,192,34155,128,0,34569:0:0:0:0:
320,192,34155,1,0,0:0:0:0:
448,192,34362,1,0,0:0:0:0:
64,192,34362,1,0,0:0:0:0:
320,192,34362,128,0,34569:0:0:0:0:
448,192,34569,1,0,0:0:0:0:
64,192,34569,128,0,34983:0:0:0:0:
448,192,34776,1,0,0:0:0:0:
448,192,34776,128,0,34983:0:0:0:0:
192,192,34776,1,0,0:0:0:0:
320,192,34983,1,0,0:0:0:0:
192,192,34983,1,0,0:0:0:0:
320,192,34983,128,0,35397:0:0:0:0:
448,192,35190,1,0,0:0:0:0:
64,192,35190,1,0,0:0:0:0:
192,192,35190,128,0,35397:0:0:0:0:
448,192,35397,128,0,35811:0:0:0:0:
64,192,35604,1,0,0:0:0:0:
64,192,35604,128,0,35811:0:0:0:0:
320,192,35604,1,0,0:0:0:0:
192,192,35811,1,0,0:0:0:0:
192,192,35811,128,0,36250:0:0:0:0:
320,192,35811,1,0,0:0:0:0:
448,192,36018,1,0,0:0:0:0:
320,192,36018,128,0,36250:0:0:0:0:
64,192,36018,1,0,0:0:0:0:
448,192,36250,1,0,0:0:0:0:
64,192,36250,1,0,0:0:0:0:
64,192,36457,1,0,0:0:0:0:
320,192,36457,1,0,0:0:0:0:
192,192,36664,1,0,0:0:0:0:
448,192,36664,1,0,0:0:0:0:
64,192,36871,1,0,0:0:0:0:
320,192,36871,1,0,0:0:0:0:
192,192,37078,1,0,0:0:0:0:
448,192,37078,1,0,0:0:0:0:
192,192,37285,1,0,0:0:0:0:
448,192,37285,1,0,0:0:0:0:
64,192,37492,1,0,0:0:0:0:
320,192,37492,1,0,0:0:0:0:
64,192,37699,1,0,0:0:0:0:
320,192,37699,1,0,0:0:0:0:
64,192,37905,1,0,0:0:0:0:
448,192,37905,1,0,0:0:0:0:
192,192,37905,1,0,0:0:0:0:
320,192,38112,1,0,0:0:0:0:
192,192,38112,1,0,0:0:0:0:
320,192,38112,1,0,0:0:0:0:
448,192,38112,1,0,0:0:0:0:
64,192,38112,1,0,0:0:0:0:
320,192,38319,1,0,0:0:0:0:
448,192,38319,1,0,0:0:0:0:
192,192,38319,1,0,0:0:0:0:
64,192,38319,1,0,0:0:0:0:
320,192,38319,1,0,0:0:0:0:
448,192,38319,1,0,0:0:0:0:
192,192,38526,1,0,0:0:0:0:
448,192,38526,1,0,0:0:0:0:
64,192,38526,1,0,0:0:0:0:
192,192,38526,1,0,0:0:0:0:
448,192,38526,1,0,0:0:0:0:
320,192,38733,1,0,0:0:0:0:
192,192,38733,1,0,0:0:0:0:
64,192,38733,1,0,0:0:0:0:
192,192,38733,1,0,0:0:0:0:
448,192,38733,1,0,0:0:0:0:
320,192,38733,128,0,39147:0:0:0:0:
448,192,38940,1,0,0:0:0:0:
192,192,38940,1,0,0:0:0:0:
448,192,39147,1,0,0:0:0:0:
64,192,39147,1,0,0:0:0:0:
192,192,39354,1,0,0:0:0:0:
64,192,39354,1,0,0:0:0:0:
320,192,39354,1,0,0:0:0:0:
448,192,39561,1,0,0:0:0:0:
192,192,39561,1,0,0:0:0:0:
64,192,39561,1,0,0:0:0:0:
320,192,39561,1,0,0:0:0:0:
448,192,39561,1,0,0:0:0:0:
448,192,39768,1,0,0:0:0:0:
64,192,39768,128,0,39974:0:0:0:0:
320,192,39974,128,0,40181:0:0:0:0:
192,192,39974,1,0,0:0:0:0:
192,192,40181,128,0,40388:0:0:0:0:
64,192,40181,1,0,0:0:0:0:
320,192,40388,128,0,40595:0:0:0:0:
448,192,40388,1,0,0:0:0:0:
448,192,40595,128,0,40802:0:0:0:0:
192,192,40595,1,0,0:0:0:0:
320,192,40802,128,0,40802:0:0:0:0:
64,192,40802,1,0,0:0:0:0:
192,192,41009,128,0,41009:0:0:0:0:
448,192,41009,1,0,0:0:0:0:
64,192,41009,128,0,41009:0:0:0:0:
320,192,41009,1,0,0:0:0:0:
192,192,41216,128,0,41216:0:0:0:0:
448,192,41216,1,0,0:0:0:0:
320,192,41216,1,0,0:0:0:0:
448,192,41216,1,0,0:0:0:0:
64,192,41423,128,0,41630:0:0:0:0:
192,192,41423,1,0,0:0:0:0:
320,192,41630,128,0,41836:0:0:0:0:
448,192,41630,1,0,0:0:0:0:
192,192,41836,128,0,42043:0:0:0:0:
448,192,41836,1,0,0:0:0:0:
448,192,42043,128,0,42250:0:0:0:0:
64,192,42043,1,0,0:0:0:0:
192,192,42250,128,0,42457:0:0:0:0:
320,192,42250,1,0,0:0:0:0:
64,192,42457,128,0,42664:0:0:0:0:
448,192,42457,1,0,0:0:0:0:
192,192,42664,128,0,42871:0:0:0:0:
320,192,42664,1,0,0:0:0:0:
448,192,42871,1,0,0:0:0:0:
64,192,42871,128,0,43078:0:0:0:0:
448,192,43078,128,0,43285:0:0:0:0:
320,192,43078,1,0,0:0:0:0:
64,192,43285,128,0,43492:0:0:0:0:
192,192,43285,1,0,0:0:0:0:
448,192,43492,128,0,43699:0:0:0:0:
320,192,43492,1,0,0:0:0:0:
192,192,43699,128,0,43905:0:0:0:0:
64,192,43699,1,0,0:0:0:0:
64,192,43905,128,0,44112:0:0:0:0:
448,192,43905,1,0,0:0:0:0:
448,192,44112,128,0,44319:0:0:0:0:
320,192,44319,128,0,44319:0:0:0:0:
64,192,44319,1,0,0:0:0:0:
192,192,44319,128,0,44526:0:0:0:0:
448,192,44319,1,0,0:0:0:0:
64,192,44526,128,0,44526:0:0:0:0:
320,192,44526,1,0,0:0:0:0:
192,192,44526,1,0,0:0:0:0:
448,192,44526,1,0,0:0:0:0:
64,192,44733,128,0,44940:0:0:0:0:
320,192,44733,1,0,0:0:0:0:
192,192,44940,128,0,45147:0:0:0:0:
448,192,44940,1,0,0:0:0:0:
320,192,45147,128,0,45354:0:0:0:0:
64,192,45147,1,0,0:0:0:0:
64,192,45354,128,0,45561:0:0:0:0:
192,192,45354,1,0,0:0:0:0:
448,192,45561,128,0,45768:0:0:0:0:
320,192,45561,1,0,0:0:0:0:
192,192,45768,128,0,45974:0:0:0:0:
64,192,45768,1,0,0:0:0:0:
448,192,45974,128,0,46181:0:0:0:0:
320,192,45974,1,0,0:0:0:0:
320,192,46181,1,0,0:0:0:0:
192,192,46181,128,0,46388:0:0:0:0:
448,192,46388,1,0,0:0:0:0:
64,192,46388,128,0,46595:0:0:0:0:
320,192,46595,128,0,46802:0:0:0:0:
192,192,46595,1,0,0:0:0:0:
192,192,46802,128,0,47009:0:0:0:0:
64,192,46802,1,0,0:0:0:0:
320,192,47009,128,0,47216:0:0:0:0:
448,192,47009,1,0,0:0:0:0:
448,192,47216,128,0,47423:0:0:0:0:
192,192,47216,1,0,0:0:0:0:
320,192,47423,128,0,47423:0:0:0:0:
64,192,47423,1,0,0:0:0:0:
192,192,47630,128,0,47630:0:0:0:0:
448,192,47630,1,0,0:0:0:0:
64,192,47630,128,0,47630:0:0:0:0:
320,192,47630,1,0,0:0:0:0:
192,192,47836,128,0,47836:0:0:0:0:
448,192,47836,1,0,0:0:0:0:
320,192,47836,1,0,0:0:0:0:
448,192,47836,1,0,0:0:0:0:
64,192,48043,128,0,48250:0:0:0:0:
192,192,48043,1,0,0:0:0:0:
320,192,48250,128,0,48457:0:0:0:0:
448,192,48250,1,0,0:0:0:0:
192,192,48457,128,0,48664:0:0:0:0:
448,192,48457,1,0,0:0:0:0:
448,192,48664,128,0,48871:0:0:0:0:
64,192,48664,1,0,0:0:0:0:
192,192,48871,128,0,49078:0:0:0:0:
320,192,48871,1,0,0:0:0:0:
64,192,49078,128,0,49285:0:0:0:0:
448,192,49078,1,0,0:0:0:0:
192,192,49285,128,0,49492:0:0:0:0:
320,192,49285,1,0,0:0:0:0:
448,192,49492,1,0,0:0:0:0:
64,192,49492,128,0,49699:0:0:0:0:
448,192,49699,128,0,49905:0:0:0:0:
320,192,49699,1,0,0:0:0:0:
64,192,49905,128,0,50112:0:0:0:0:
192,192,49905,1,0,0:0:0:0:
448,192,50112,128,0,50319:0:0:0:0:
320,192,50112,1,0,0:0:0:0:
192,192,50319,128,0,50526:0:0:0:0:
64,192,50319,1,0,0:0:0:0:
64,192,50526,128,0,50733:0:0:0:0:
448,192,50526,1,0,0:0:0:0:
448,192,50733,128,0,50940:0:0:0:0:
320,192,50940,128,0,50940:0:0:0:0:
64,192,50940,1,0,0:0:0:0:
192,192,50940,128,0,51147:0:0:0:0:
448,192,50940,1,0,0:0:0:0:
64,192,51147,128,0,51147:0:0:0:0:
320,192,51147,1,0,0:0:0:0:
192,192,51147,1,0,0:0:0:0:
448,192,51147,1,0,0:0:0:0:
64,192,51354,128,0,51561:0:0:0:0:
320,192,51354,1,0,0:0:0:0:
192,192,51561,128,0,51768:0:0:0:0:
448,192,51561,1,0,0:0:0:0:
320,192,51768,128,0,51974:0:0:0:0:
64,192,51768,1,0,0:0:0:0:
64,192,51974,128,0,52181:0:0:0:0:
192,192,51974,1,0,0:0:0:0:
448,192,52181,128,0,52388:0:0:0:0:
320,192,52181,1,0,0:0:0:0:
192,192,52388,128,0,52595:0:0:0:0:
64,192,52388,1,0,0:0:0:0:
448,192,52595,128,0,52802:0:0:0:0:
320,192,52595,1,0,0:0:0:0:
320,192,52802,1,0,0:0:0:0:
192,192,52802,128,0,53009:0:0:0:0:
448,192,53009,1,0,0:0:0:0:
320,192,53009,1,0,0:0:0:0:
64,192,53009,128,0,53009:0:0:0:0:
192,192,53216,1,0,0:0:0:0:
320,192,53216,1,0,0:0:0:0:
448,192,53216,128,0,53216:0:0:0:0:
320,192,53423,1,0,0:0:0:0:
64,192,53423,1,0,0:0:0:0:
192,192,53423,128,0,53423:0:0:0:0:
320,192,53630,1,0,0:0:0:0:
448,192,53630,1,0,0:0:0:0:
64,192,53630,128,0,53630:0:0:0:0:
320,192,53836,128,0,53836:0:0:0:0:
192,192,53836,1,0,0:0:0:0:
448,192,53836,1,0,0:0:0:0:
64,192,54043,128,0,54043:0:0:0:0:
192,192,54043,1,0,0:0:0:0:
448,192,54043,1,0,0:0:0:0:
320,192,54250,1,0,0:0:0:0:
192,192,54250,1,0,0:0:0:0:
448,192,54250,1,0,0:0:0:0:
320,192,54457,1,0,0:0:0:0:
64,192,54457,1,0,0:0:0:0:
192,192,54457,1,0,0:0:0:0:
448,192,54664,128,0,54664:0:0:0:0:
64,192,54664,1,0,0:0:0:0:
192,192,54664,1,0,0:0:0:0:
192,192,54871,128,0,55078:0:0:0:0:
320,192,54871,1,0,0:0:0:0:
64,192,54871,1,0,0:0:0:0:
64,192,55078,128,0,55285:0:0:0:0:
320,192,55078,1,0,0:0:0:0:
448,192,55078,1,0,0:0:0:0:
320,192,55285,128,0,55492:0:0:0:0:
192,192,55285,1,0,0:0:0:0:
448,192,55285,1,0,0:0:0:0:
192,192,55492,128,0,55699:0:0:0:0:
64,192,55492,1,0,0:0:0:0:
448,192,55492,1,0,0:0:0:0:
448,192,55699,128,0,55905:0:0:0:0:
320,192,55699,1,0,0:0:0:0:
64,192,55699,1,0,0:0:0:0:
192,192,55905,1,0,0:0:0:0:
64,192,55905,1,0,0:0:0:0:
320,192,55905,128,0,56112:0:0:0:0:
448,192,56112,1,0,0:0:0:0:
64,192,56112,1,0,0:0:0:0:
320,192,56319,1,0,0:0:0:0:
192,192,56319,1,0,0:0:0:0:
64,192,56319,128,0,56526:0:0:0:0:
192,192,56526,1,0,0:0:0:0:
448,192,56526,1,0,0:0:0:0:
320,192,56526,128,0,56733:0:0:0:0:
192,192,56733,1,0,0:0:0:0:
64,192,56733,1,0,0:0:0:0:
448,192,56733,128,0,56940:0:0:0:0:
192,192,56940,128,0,57147:0:0:0:0:
320,192,56940,1,0,0:0:0:0:
64,192,56940,1,0,0:0:0:0:
448,192,57147,128,0,57354:0:0:0:0:
320,192,57147,1,0,0:0:0:0:
64,192,57147,1,0,0:0:0:0:
192,192,57354,1,0,0:0:0:0:
320,192,57354,1,0,0:0:0:0:
64,192,57354,1,0,0:0:0:0:
192,192,57561,1,0,0:0:0:0:
448,192,57561,1,0,0:0:0:0:
320,192,57561,1,0,0:0:0:0:
64,192,57768,128,0,57974:0:0:0:0:
448,192,57768,1,0,0:0:0:0:
320,192,57768,1,0,0:0:0:0:
320,192,57974,128,0,57974:0:0:0:0:
192,192,57974,1,0,0:0:0:0:
448,192,57974,1,0,0:0:0:0:
448,192,58181,128,0,58181:0:0:0:0:
192,192,58181,1,0,0:0:0:0:
64,192,58181,1,0,0:0:0:0:
192,192,58388,128,0,58388:0:0:0:0:
320,192,58388,1,0,0:0:0:0:
64,192,58388,1,0,0:0:0:0:
320,192,58595,128,0,58595:0:0:0:0:
448,192,58595,1,0,0:0:0:0:
64,192,58595,1,0,0:0:0:0:
192,192,58802,1,0,0:0:0:0:
320,192,58802,1,0,0:0:0:0:
64,192,58802,128,0,58802:0:0:0:0:
192,192,58802,1,0,0:0:0:0:
448,192,58802,1,0,0:0:0:0:
320,192,59009,1,0,0:0:0:0:
64,192,59009,1,0,0:0:0:0:
192,192,59009,128,0,59216:0:0:0:0:
320,192,59009,1,0,0:0:0:0:
448,192,59009,1,0,0:0:0:0:
320,192,59216,1,0,0:0:0:0:
448,192,59216,1,0,0:0:0:0:
64,192,59423,1,0,0:0:0:0:
448,192,59423,1,0,0:0:0:0:
320,192,59423,1,0,0:0:0:0:
192,192,59423,1,0,0:0:0:0:
320,192,59630,1,0,0:0:0:0:
192,192,59630,1,0,0:0:0:0:
64,192,59630,128,0,59630:0:0:0:0:
192,192,59836,1,0,0:0:0:0:
448,192,59836,1,0,0:0:0:0:
320,192,59836,128,0,59836:0:0:0:0:
192,192,60043,1,0,0:0:0:0:
64,192,60043,1,0,0:0:0:0:
448,192,60043,128,0,60043:0:0:0:0:
192,192,60250,128,0,60250:0:0:0:0:
320,192,60250,1,0,0:0:0:0:
64,192,60250,1,0,0:0:0:0:
448,192,60457,128,0,60457:0:0:0:0:
320,192,60457,1,0,0:0:0:0:
64,192,60457,1,0,0:0:0:0:
192,192,60664,1,0,0:0:0:0:
320,192,60664,1,0,0:0:0:0:
64,192,60664,1,0,0:0:0:0:
192,192,60871,1,0,0:0:0:0:
448,192,60871,1,0,0:0:0:0:
320,192,60871,1,0,0:0:0:0:
64,192,61078,128,0,61078:0:0:0:0:
448,192,61078,1,0,0:0:0:0:
320,192,61078,1,0,0:0:0:0:
320,192,61285,128,0,61492:0:0:0:0:
448,192,61285,1,0,0:0:0:0:
448,192,61492,128,0,61699:0:0:0:0:
64,192,61492,1,0,0:0:0:0:
320,192,61699,1,0,0:0:0:0:
64,192,61699,1,0,0:0:0:0:
192,192,61699,128,0,61905:0:0:0:0:
320,192,61905,128,0,62112:0:0:0:0:
448,192,61905,1,0,0:0:0:0:
64,192,61905,1,0,0:0:0:0:
64,192,62112,128,0,62319:0:0:0:0:
448,192,62112,1,0,0:0:0:0:
192,192,62112,1,0,0:0:0:0:
320,192,62319,1,0,0:0:0:0:
448,192,62319,1,0,0:0:0:0:
192,192,62319,128,0,62526:0:0:0:0:
448,192,62526,1,0,0:0:0:0:
320,192,62526,1,0,0:0:0:0:
64,192,62526,128,0,62733:0:0:0:0:
448,192,62733,128,0,62940:0:0:0:0:
320,192,62733,1,0,0:0:0:0:
192,192,62733,1,0,0:0:0:0:
320,192,62940,1,0,0:0:0:0:
64,192,62940,1,0,0:0:0:0:
192,192,62940,128,0,63147:0:0:0:0:
320,192,63147,1,0,0:0:0:0:
448,192,63147,1,0,0:0:0:0:
64,192,63147,128,0,63354:0:0:0:0:
320,192,63354,128,0,63561:0:0:0:0:
192,192,63354,1,0,0:0:0:0:
448,192,63354,1,0,0:0:0:0:
64,192,63561,128,0,63768:0:0:0:0:
192,192,63561,1,0,0:0:0:0:
448,192,63561,1,0,0:0:0:0:
448,192,63768,1,0,0:0:0:0:
192,192,63768,128,0,63974:0:0:0:0:
320,192,63768,1,0,0:0:0:0:
320,192,63974,1,0,0:0:0:0:
448,192,63974,1,0,0:0:0:0:
64,192,63974,128,0,64181:0:0:0:0:
64,192,64181,1,0,0:0:0:0:
192,192,64181,1,0,0:0:0:0:
448,192,64181,128,0,64388:0:0:0:0:
320,192,64388,1,0,0:0:0:0:
64,192,64388,1,0,0:0:0:0:
192,192,64388,128,0,66043:0:0:0:0:
320,192,64595,1,0,0:0:0:0:
448,192,64595,1,0,0:0:0:0:
64,192,64595,128,0,64595:0:0:0:0:
320,192,64802,128,0,64802:0:0:0:0:
448,192,64802,1,0,0:0:0:0:
448,192,65009,1,0,0:0:0:0:
448,192,65216,128,0,65216:0:0:0:0:
320,192,65216,1,0,0:0:0:0:
64,192,65216,1,0,0:0:0:0:
320,192,65423,128,0,65423:0:0:0:0:
64,192,65630,128,0,65630:0:0:0:0:
320,192,65836,128,0,65836:0:0:0:0:
448,192,66043,128,0,66250:0:0:0:0:
64,192,66043,128,0,66250:0:0:0:0:
320,192,66250,128,0,66457:0:0:0:0:
64,192,66457,128,0,66664:0:0:0:0:
192,192,66457,128,0,66664:0:0:0:0:
320,192,66664,128,0,66871:0:0:0:0:
64,192,66871,128,0,67078:0:0:0:0:
192,192,66871,128,0,67078:0:0:0:0:
320,192,67078,128,0,67285:0:0:0:0:
64,192,67285,128,0,67492:0:0:0:0:
448,192,67285,128,0,67285:0:0:0:0:
320,192,67492,128,0,67492:0:0:0:0:
192,192,67492,128,0,67492:0:0:0:0:
64,192,67699,128,0,67699:0:0:0:0:
192,192,67699,128,0,67905:0:0:0:0:
448,192,67699,128,0,67905:0:0:0:0:
448,192,68112,128,0,68319:0:0:0:0:
192,192,68112,128,0,68319:0:0:0:0:
320,192,68319,128,0,68526:0:0:0:0:
64,192,68319,128,0,68526:0:0:0:0:
448,192,68526,128,0,68733:0:0:0:0:
320,192,68733,128,0,68940:0:0:0:0:
192,192,68733,128,0,68940:0:0:0:0:
64,192,68940,128,0,69147:0:0:0:0:
320,192,69147,128,0,69354:0:0:0:0:
192,192,69147,128,0,69354:0:0:0:0:
448,192,69354,128,0,69561:0:0:0:0:
64,192,69354,128,0,69561:0:0:0:0:
320,192,69561,128,0,69768:0:0:0:0:
448,192,69768,128,0,69974:0:0:0:0:
64,192,69768,128,0,69974:0:0:0:0:
192,192,69974,128,0,70181:0:0:0:0:
448,192,70181,128,0,70388:0:0:0:0:
64,192,70181,128,0,70388:0:0:0:0:
320,192,70388,128,0,70595:0:0:0:0:
448,192,70595,128,0,70802:0:0:0:0:
192,192,70595,128,0,70802:0:0:0:0:
64,192,70802,128,0,70802:0:0:0:0:
192,192,70802,128,0,70802:0:0:0:0:
64,192,71009,128,0,71009:0:0:0:0:
192,192,71009,128,0,71216:0:0:0:0:
320,192,71009,128,0,71216:0:0:0:0:
448,192,71423,128,0,71423:0:0:0:0:
192,192,71630,128,0,71836:0:0:0:0:
320,192,71630,128,0,71836:0:0:0:0:
448,192,71836,128,0,72043:0:0:0:0:
64,192,72043,128,0,72250:0:0:0:0:
320,192,72043,128,0,72250:0:0:0:0:
192,192,72250,128,0,72457:0:0:0:0:
448,192,72457,128,0,72664:0:0:0:0:
64,192,72664,128,0,72871:0:0:0:0:
320,192,72664,128,0,72871:0:0:0:0:
192,192,72871,128,0,73078:0:0:0:0:
448,192,73078,128,0,73285:0:0:0:0:
320,192,73078,128,0,73285:0:0:0:0:
192,192,73285,128,0,73492:0:0:0:0:
448,192,73492,128,0,73699:0:0:0:0:
320,192,73492,128,0,73699:0:0:0:0:
192,192,73699,128,0,73905:0:0:0:0:
448,192,73905,128,0,74112:0:0:0:0:
64,192,73905,128,0,73905:0:0:0:0:
192,192,74112,128,0,74112:0:0:0:0:
320,192,74112,128,0,74319:0:0:0:0:
448,192,74319,128,0,74319:0:0:0:0:
320,192,74319,128,0,74526:0:0:0:0:
64,192,74319,128,0,74526:0:0:0:0:
64,192,74733,128,0,74940:0:0:0:0:
320,192,74733,128,0,74940:0:0:0:0:
192,192,74940,128,0,75147:0:0:0:0:
448,192,74940,128,0,75147:0:0:0:0:
64,192,75147,128,0,75354:0:0:0:0:
192,192,75354,128,0,75561:0:0:0:0:
320,192,75354,128,0,75561:0:0:0:0:
448,192,75561,128,0,75768:0:0:0:0:
192,192,75768,128,0,75974:0:0:0:0:
320,192,75768,128,0,75974:0:0:0:0:
64,192,75974,128,0,76181:0:0:0:0:
448,192,75974,128,0,76181:0:0:0:0:
192,192,76181,128,0,76388:0:0:0:0:
64,192,76388,128,0,76595:0:0:0:0:
448,192,76388,128,0,76595:0:0:0:0:
320,192,76595,128,0,76802:0:0:0:0:
64,192,76802,128,0,77009:0:0:0:0:
448,192,76802,128,0,77009:0:0:0:0:
192,192,77009,128,0,77216:0:0:0:0:
64,192,77216,128,0,77423:0:0:0:0:
320,192,77216,128,0,77423:0:0:0:0:
448,192,77423,128,0,77423:0:0:0:0:
320,192,77423,128,0,77423:0:0:0:0:
448,192,77630,128,0,77630:0:0:0:0:
320,192,77630,128,0,77836:0:0:0:0:
192,192,77630,128,0,77836:0:0:0:0:
64,192,78043,128,0,78250:0:0:0:0:
320,192,78250,128,0,78457:0:0:0:0:
192,192,78250,128,0,78457:0:0:0:0:
64,192,78457,128,0,78664:0:0:0:0:
448,192,78664,128,0,78871:0:0:0:0:
192,192,78664,128,0,78871:0:0:0:0:
320,192,78871,128,0,79078:0:0:0:0:
448,192,79078,128,0,79285:0:0:0:0:
192,192,79078,128,0,79285:0:0:0:0:
64,192,79285,1,0,0:0:0:0:
320,192,79285,1,0,0:0:0:0:
448,192,79492,1,0,0:0:0:0:
64,192,79699,1,0,0:0:0:0:
320,192,79699,1,0,0:0:0:0:
448,192,79905,1,0,0:0:0:0:
192,192,80112,1,0,0:0:0:0:
64,192,80112,1,0,0:0:0:0:
320,192,80112,1,0,0:0:0:0:
64,192,80319,1,0,0:0:0:0:
448,192,80526,1,0,0:0:0:0:
192,192,80526,1,0,0:0:0:0:
64,192,80526,1,0,0:0:0:0:
320,192,80733,1,0,0:0:0:0:
192,192,80733,1,0,0:0:0:0:
64,192,80940,1,0,0:0:0:0:
192,192,80940,1,0,0:0:0:0:
448,192,80940,1,0,0:0:0:0:
320,192,80940,1,0,0:0:0:0:
448,192,81147,1,0,0:0:0:0:
320,192,81354,1,0,0:0:0:0:
192,192,81354,1,0,0:0:0:0:
64,192,81354,1,0,0:0:0:0:
192,192,81561,1,0,0:0:0:0:
320,192,81561,1,0,0:0:0:0:
192,192,81768,1,0,0:0:0:0:
320,192,81768,1,0,0:0:0:0:
448,192,81768,1,0,0:0:0:0:
64,192,81974,1,0,0:0:0:0:
192,192,82181,1,0,0:0:0:0:
320,192,82181,1,0,0:0:0:0:
64,192,82181,1,0,0:0:0:0:
320,192,82388,1,0,0:0:0:0:
448,192,82595,1,0,0:0:0:0:
320,192,82595,1,0,0:0:0:0:
64,192,82595,1,0,0:0:0:0:
192,192,82802,1,0,0:0:0:0:
448,192,83009,1,0,0:0:0:0:
64,192,83009,1,0,0:0:0:0:
320,192,83009,1,0,0:0:0:0:
320,192,83216,1,0,0:0:0:0:
64,192,83423,1,0,0:0:0:0:
192,192,83423,1,0,0:0:0:0:
448,192,83423,1,0,0:0:0:0:
320,192,83630,1,0,0:0:0:0:
64,192,83836,1,0,0:0:0:0:
192,192,83836,1,0,0:0:0:0:
448,192,83836,1,0,0:0:0:0:
320,192,84043,1,0,0:0:0:0:
192,192,84043,1,0,0:0:0:0:
64,192,84250,1,0,0:0:0:0:
448,192,84250,1,0,0:0:0:0:
192,192,84250,1,0,0:0:0:0:
320,192,84250,1,0,0:0:0:0:
64,192,84457,1,0,0:0:0:0:
320,192,84457,1,0,0:0:0:0:
448,192,84457,1,0,0:0:0:0:
64,192,84664,1,0,0:0:0:0:
192,192,84664,1,0,0:0:0:0:
320,192,84664,1,0,0:0:0:0:
448,192,84871,1,0,0:0:0:0:
192,192,84871,1,0,0:0:0:0:
64,192,84871,1,0,0:0:0:0:
192,192,85078,1,0,0:0:0:0:
448,192,85078,1,0,0:0:0:0:
320,192,85078,1,0,0:0:0:0:
192,192,85285,1,0,0:0:0:0:
64,192,85285,1,0,0:0:0:0:
192,192,85492,1,0,0:0:0:0:
320,192,85492,1,0,0:0:0:0:
320,192,85699,1,0,0:0:0:0:
448,192,85699,1,0,0:0:0:0:
192,192,85905,1,0,0:0:0:0:
320,192,85905,1,0,0:0:0:0:
64,192,85905,128,0,87561:0:0:0:0:
448,192,86112,1,0,0:0:0:0:
192,192,86112,1,0,0:0:0:0:
192,192,86319,1,0,0:0:0:0:
448,192,86526,1,0,0:0:0:0:
320,192,86733,1,0,0:0:0:0:
448,192,86733,1,0,0:0:0:0:
192,192,86940,1,0,0:0:0:0:
448,192,87147,1,0,0:0:0:0:
192,192,87147,1,0,0:0:0:0:
320,192,87354,1,0,0:0:0:0:
192,192,87354,1,0,0:0:0:0:
448,192,87561,1,0,0:0:0:0:
320,192,87561,1,0,0:0:0:0:
192,192,87561,1,0,0:0:0:0:
448,192,87768,1,0,0:0:0:0:
320,192,87983,1,0,0:0:0:0:
64,192,87983,1,0,0:0:0:0:
448,192,87983,1,0,0:0:0:0:
192,192,88190,1,0,0:0:0:0:
320,192,88190,1,0,0:0:0:0:
448,192,88397,1,0,0:0:0:0:
320,192,88397,1,0,0:0:0:0:
192,192,88397,1,0,0:0:0:0:
64,192,88604,1,0,0:0:0:0:
192,192,88811,1,0,0:0:0:0:
320,192,88811,1,0,0:0:0:0:
64,192,88811,1,0,0:0:0:0:
320,192,89018,1,0,0:0:0:0:
448,192,89224,1,0,0:0:0:0:
192,192,89224,1,0,0:0:0:0:
64,192,89224,1,0,0:0:0:0:
64,192,89431,1,0,0:0:0:0:
448,192,89638,1,0,0:0:0:0:
64,192,89638,1,0,0:0:0:0:
320,192,89638,1,0,0:0:0:0:
320,192,89845,1,0,0:0:0:0:
192,192,90052,1,0,0:0:0:0:
64,192,90052,1,0,0:0:0:0:
448,192,90052,1,0,0:0:0:0:
64,192,90259,1,0,0:0:0:0:
320,192,90466,1,0,0:0:0:0:
448,192,90466,1,0,0:0:0:0:
192,192,90466,1,0,0:0:0:0:
64,192,90673,1,0,0:0:0:0:
320,192,90673,1,0,0:0:0:0:
448,192,90880,1,0,0:0:0:0:
64,192,90880,1,0,0:0:0:0:
192,192,90880,1,0,0:0:0:0:
320,192,90880,1,0,0:0:0:0:
448,192,91086,1,0,0:0:0:0:
320,192,91293,1,0,0:0:0:0:
64,192,91293,1,0,0:0:0:0:
448,192,91293,1,0,0:0:0:0:
192,192,91500,1,0,0:0:0:0:
448,192,91707,1,0,0:0:0:0:
320,192,91707,1,0,0:0:0:0:
192,192,91707,1,0,0:0:0:0:
64,192,91914,1,0,0:0:0:0:
192,192,92121,1,0,0:0:0:0:
64,192,92121,1,0,0:0:0:0:
448,192,92121,1,0,0:0:0:0:
192,192,92328,1,0,0:0:0:0:
320,192,92535,1,0,0:0:0:0:
64,192,92535,1,0,0:0:0:0:
448,192,92535,128,0,94190:0:0:0:0:
320,192,92742,128,0,92949:0:0:0:0:
192,192,92742,1,0,0:0:0:0:
64,192,92949,1,0,0:0:0:0:
192,192,93155,1,0,0:0:0:0:
64,192,93155,128,0,93362:0:0:0:0:
320,192,93362,1,0,0:0:0:0:
320,192,93569,128,0,93776:0:0:0:0:
192,192,93569,1,0,0:0:0:0:
64,192,93776,1,0,0:0:0:0:
192,192,93983,1,0,0:0:0:0:
64,192,93983,128,0,94190:0:0:0:0:
320,192,93983,1,0,0:0:0:0:
192,192,94190,1,0,0:0:0:0:
320,192,94190,1,0,0:0:0:0:
192,192,94397,128,0,94604:0:0:0:0:
448,192,94397,1,0,0:0:0:0:
320,192,94604,1,0,0:0:0:0:
448,192,94811,128,0,94811:0:0:0:0:
192,192,94811,1,0,0:0:0:0:
448,192,95018,1,0,0:0:0:0:
448,192,95018,1,0,0:0:0:0:
64,192,95018,1,0,0:0:0:0:
448,192,95224,1,0,0:0:0:0:
448,192,95224,128,0,95431:0:0:0:0:
192,192,95224,1,0,0:0:0:0:
64,192,95431,128,0,95638:0:0:0:0:
320,192,95431,1,0,0:0:0:0:
192,192,95638,1,0,0:0:0:0:
192,192,95845,1,0,0:0:0:0:
448,192,95845,1,0,0:0:0:0:
64,192,95845,128,0,97500:0:0:0:0:
192,192,96052,128,0,96259:0:0:0:0:
320,192,96052,1,0,0:0:0:0:
448,192,96259,1,0,0:0:0:0:
320,192,96466,1,0,0:0:0:0:
448,192,96466,128,0,96673:0:0:0:0:
192,192,96673,1,0,0:0:0:0:
192,192,96880,128,0,97086:0:0:0:0:
320,192,96880,1,0,0:0:0:0:
448,192,97086,1,0,0:0:0:0:
320,192,97293,1,0,0:0:0:0:
448,192,97293,128,0,97500:0:0:0:0:
192,192,97293,1,0,0:0:0:0:
320,192,97500,1,0,0:0:0:0:
192,192,97500,1,0,0:0:0:0:
320,192,97707,128,0,97914:0:0:0:0:
64,192,97707,1,0,0:0:0:0:
192,192,97914,1,0,0:0:0:0:
64,192,98121,128,0,98121:0:0:0:0:
320,192,98121,1,0,0:0:0:0:
64,192,98328,1,0,0:0:0:0:
64,192,98328,1,0,0:0:0:0:
448,192,98328,1,0,0:0:0:0:
64,192,98535,1,0,0:0:0:0:
64,192,98535,128,0,98742:0:0:0:0:
320,192,98535,1,0,0:0:0:0:
448,192,98742,128,0,98949:0:0:0:0:
192,192,98742,1,0,0:0:0:0:
320,192,98949,1,0,0:0:0:0:
448,192,99155,128,0,100811:0:0:0:0:
64,192,99155,1,0,0:0:0:0:
320,192,99155,1,0,0:0:0:0:
192,192,99362,1,0,0:0:0:0:
320,192,99362,128,0,99569:0:0:0:0:
64,192,99569,1,0,0:0:0:0:
64,192,99776,128,0,99983:0:0:0:0:
192,192,99776,1,0,0:0:0:0:
320,192,99983,1,0,0:0:0:0:
192,192,100190,1,0,0:0:0:0:
320,192,100190,128,0,100397:0:0:0:0:
64,192,100397,1,0,0:0:0:0:
192,192,100604,1,0,0:0:0:0:
320,192,100604,1,0,0:0:0:0:
64,192,100604,128,0,100811:0:0:0:0:
192,192,100811,1,0,0:0:0:0:
320,192,100811,1,0,0:0:0:0:
448,192,101018,1,0,0:0:0:0:
192,192,101018,128,0,101224:0:0:0:0:
320,192,101224,1,0,0:0:0:0:
448,192,101431,128,0,101431:0:0:0:0:
192,192,101431,1,0,0:0:0:0:
448,192,101638,1,0,0:0:0:0:
64,192,101638,1,0,0:0:0:0:
448,192,101638,1,0,0:0:0:0:
448,192,101845,1,0,0:0:0:0:
192,192,101845,1,0,0:0:0:0:
448,192,101845,128,0,102052:0:0:0:0:
320,192,102052,1,0,0:0:0:0:
64,192,102052,128,0,102259:0:0:0:0:
192,192,102259,1,0,0:0:0:0:
64,192,102466,128,0,104121:0:0:0:0:
448,192,102466,1,0,0:0:0:0:
192,192,102466,1,0,0:0:0:0:
320,192,102673,1,0,0:0:0:0:
192,192,102673,128,0,102880:0:0:0:0:
448,192,102880,1,0,0:0:0:0:
448,192,103086,128,0,103293:0:0:0:0:
320,192,103086,1,0,0:0:0:0:
192,192,103293,1,0,0:0:0:0:
320,192,103500,1,0,0:0:0:0:
192,192,103500,128,0,103707:0:0:0:0:
448,192,103707,1,0,0:0:0:0:
320,192,103914,1,0,0:0:0:0:
192,192,103914,1,0,0:0:0:0:
448,192,103914,128,0,104121:0:0:0:0:
320,192,104121,1,0,0:0:0:0:
192,192,104121,1,0,0:0:0:0:
64,192,104328,1,0,0:0:0:0:
320,192,104328,128,0,104535:0:0:0:0:
192,192,104535,1,0,0:0:0:0:
64,192,104742,128,0,104742:0:0:0:0:
320,192,104742,1,0,0:0:0:0:
64,192,104949,1,0,0:0:0:0:
448,192,104949,1,0,0:0:0:0:
64,192,104949,1,0,0:0:0:0:
64,192,105155,1,0,0:0:0:0:
320,192,105155,1,0,0:0:0:0:
64,192,105155,128,0,105362:0:0:0:0:
192,192,105362,1,0,0:0:0:0:
448,192,105362,128,0,105569:0:0:0:0:
320,192,105569,1,0,0:0:0:0:
64,192,105776,128,0,106604:0:0:0:0:
448,192,106604,1,0,0:0:0:0:
320,192,106811,1,0,0:0:0:0:
192,192,106811,1,0,0:0:0:0:
448,192,107018,1,0,0:0:0:0:
64,192,107018,1,0,0:0:0:0:
192,192,107224,1,0,0:0:0:0:
320,192,107224,1,0,0:0:0:0:
448,192,107431,1,0,0:0:0:0:
64,192,107431,1,0,0:0:0:0:
320,192,107431,1,0,0:0:0:0:
448,192,107431,1,0,0:0:0:0:
448,192,107638,1,0,0:0:0:0:
64,192,107638,128,0,107845:0:0:0:0:
320,192,107845,128,0,108052:0:0:0:0:
192,192,107845,1,0,0:0:0:0:
192,192,108052,128,0,108259:0:0:0:0:
64,192,108052,1,0,0:0:0:0:
320,192,108259,128,0,108466:0:0:0:0:
448,192,108259,1,0,0:0:0:0:
448,192,108466,128,0,108673:0:0:0:0:
192,192,108466,1,0,0:0:0:0:
320,192,108673,128,0,108880:0:0:0:0:
64,192,108673,1,0,0:0:0:0:
192,192,108880,128,0,108880:0:0:0:0:
448,192,108880,1,0,0:0:0:0:
64,192,108880,128,0,109086:0:0:0:0:
320,192,108880,1,0,0:0:0:0:
192,192,109086,128,0,109086:0:0:0:0:
448,192,109086,1,0,0:0:0:0:
320,192,109086,1,0,0:0:0:0:
448,192,109086,1,0,0:0:0:0:
64,192,109293,128,0,109500:0:0:0:0:
192,192,109293,1,0,0:0:0:0:
320,192,109500,128,0,109707:0:0:0:0:
448,192,109500,1,0,0:0:0:0:
192,192,109707,128,0,109914:0:0:0:0:
448,192,109707,1,0,0:0:0:0:
448,192,109914,128,0,110121:0:0:0:0:
64,192,109914,1,0,0:0:0:0:
192,192,110121,128,0,110328:0:0:0:0:
320,192,110121,1,0,0:0:0:0:
64,192,110328,128,0,110535:0:0:0:0:
448,192,110328,1,0,0:0:0:0:
192,192,110535,128,0,110742:0:0:0:0:
320,192,110535,1,0,0:0:0:0:
448,192,110742,1,0,0:0:0:0:
64,192,110742,128,0,110949:0:0:0:0:
448,192,110949,128,0,111155:0:0:0:0:
320,192,110949,1,0,0:0:0:0:
64,192,111155,128,0,111362:0:0:0:0:
192,192,111155,1,0,0:0:0:0:
448,192,111362,128,0,111569:0:0:0:0:
320,192,111362,1,0,0:0:0:0:
192,192,111569,128,0,111776:0:0:0:0:
64,192,111569,1,0,0:0:0:0:
64,192,111776,128,0,111983:0:0:0:0:
448,192,111776,1,0,0:0:0:0:
448,192,111983,128,0,111983:0:0:0:0:
320,192,112190,128,0,112190:0:0:0:0:
64,192,112190,1,0,0:0:0:0:
192,192,112190,128,0,112190:0:0:0:0:
448,192,112190,1,0,0:0:0:0:
64,192,112397,128,0,112397:0:0:0:0:
320,192,112397,1,0,0:0:0:0:
192,192,112397,1,0,0:0:0:0:
448,192,112397,1,0,0:0:0:0:
64,192,112604,128,0,112811:0:0:0:0:
320,192,112604,1,0,0:0:0:0:
192,192,112811,128,0,113018:0:0:0:0:
448,192,112811,1,0,0:0:0:0:
320,192,113018,128,0,113224:0:0:0:0:
64,192,113018,1,0,0:0:0:0:
64,192,113224,128,0,113431:0:0:0:0:
192,192,113224,1,0,0:0:0:0:
448,192,113431,128,0,113638:0:0:0:0:
320,192,113431,1,0,0:0:0:0:
192,192,113638,128,0,113845:0:0:0:0:
64,192,113638,1,0,0:0:0:0:
320,192,113845,1,0,0:0:0:0:
320,192,114052,1,0,0:0:0:0:
64,192,114052,1,0,0:0:0:0:
448,192,114259,128,0,114466:0:0:0:0:
64,192,114259,1,0,0:0:0:0:
320,192,114466,1,0,0:0:0:0:
192,192,114466,128,0,114673:0:0:0:0:
448,192,114673,1,0,0:0:0:0:
320,192,114673,128,0,114880:0:0:0:0:
64,192,114880,1,0,0:0:0:0:
192,192,114880,128,0,115086:0:0:0:0:
320,192,115086,1,0,0:0:0:0:
64,192,115086,128,0,115293:0:0:0:0:
448,192,115293,1,0,0:0:0:0:
192,192,115293,128,0,115500:0:0:0:0:
64,192,115500,1,0,0:0:0:0:
320,192,115500,128,0,115500:0:0:0:0:
192,192,115500,1,0,0:0:0:0:
448,192,115500,128,0,115707:0:0:0:0:
64,192,115707,1,0,0:0:0:0:
320,192,115707,128,0,115707:0:0:0:0:
64,192,115707,1,0,0:0:0:0:
192,192,115707,1,0,0:0:0:0:
320,192,115914,1,0,0:0:0:0:
448,192,115914,128,0,116121:0:0:0:0:
64,192,116121,1,0,0:0:0:0:
192,192,116121,128,0,116328:0:0:0:0:
64,192,116328,1,0,0:0:0:0:
320,192,116328,128,0,116535:0:0:0:0:
448,192,116535,1,0,0:0:0:0:
64,192,116535,128,0,116742:0:0:0:0:
192,192,116742,1,0,0:0:0:0:
320,192,116742,128,0,116949:0:0:0:0:
64,192,116949,1,0,0:0:0:0:
448,192,116949,128,0,117155:0:0:0:0:
192,192,117155,1,0,0:0:0:0:
320,192,117155,128,0,117362:0:0:0:0:
448,192,117362,128,0,117569:0:0:0:0:
64,192,117362,1,0,0:0:0:0:
192,192,117569,1,0,0:0:0:0:
64,192,117569,128,0,117776:0:0:0:0:
320,192,117776,1,0,0:0:0:0:
448,192,117776,128,0,117983:0:0:0:0:
192,192,117983,1,0,0:0:0:0:
64,192,117983,128,0,118190:0:0:0:0:
448,192,118190,1,0,0:0:0:0:
320,192,118190,128,0,118397:0:0:0:0:
64,192,118397,1,0,0:0:0:0:
448,192,118397,128,0,118604:0:0:0:0:
64,192,118604,128,0,118604:0:0:0:0:
448,192,118811,1,0,0:0:0:0:
192,192,118811,128,0,118811:0:0:0:0:
64,192,118811,1,0,0:0:0:0:
320,192,118811,128,0,118811:0:0:0:0:
192,192,119018,1,0,0:0:0:0:
448,192,119018,128,0,119018:0:0:0:0:
64,192,119018,1,0,0:0:0:0:
320,192,119018,1,0,0:0:0:0:
192,192,119224,1,0,0:0:0:0:
448,192,119224,128,0,119431:0:0:0:0:
64,192,119431,1,0,0:0:0:0:
320,192,119431,128,0,119638:0:0:0:0:
448,192,119638,1,0,0:0:0:0:
192,192,119638,128,0,119845:0:0:0:0:
320,192,119845,1,0,0:0:0:0:
448,192,119845,128,0,120052:0:0:0:0:
192,192,120052,1,0,0:0:0:0:
64,192,120052,128,0,120259:0:0:0:0:
448,192,120259,1,0,0:0:0:0:
320,192,120259,128,0,120466:0:0:0:0:
192,192,120466,1,0,0:0:0:0:
64,192,120466,128,0,120673:0:0:0:0:
448,192,120673,1,0,0:0:0:0:
320,192,120673,1,0,0:0:0:0:
192,192,120673,1,0,0:0:0:0:
64,192,120880,1,0,0:0:0:0:
448,192,121086,1,0,0:0:0:0:
192,192,121086,1,0,0:0:0:0:
320,192,121086,1,0,0:0:0:0:
64,192,121293,1,0,0:0:0:0:
192,192,121500,1,0,0:0:0:0:
320,192,121500,1,0,0:0:0:0:
448,192,121500,1,0,0:0:0:0:
64,192,121707,1,0,0:0:0:0:
192,192,121914,1,0,0:0:0:0:
320,192,121914,1,0,0:0:0:0:
448,192,121914,1,0,0:0:0:0:
64,192,122121,1,0,0:0:0:0:
192,192,122121,1,0,0:0:0:0:
320,192,122328,1,0,0:0:0:0:
192,192,122328,1,0,0:0:0:0:
64,192,122328,1,0,0:0:0:0:
448,192,122328,1,0,0:0:0:0:
192,192,122535,1,0,0:0:0:0:
320,192,122535,1,0,0:0:0:0:
64,192,122742,1,0,0:0:0:0:
448,192,122742,1,0,0:0:0:0:
320,192,122742,1,0,0:0:0:0:
320,192,122949,1,0,0:0:0:0:
192,192,122949,1,0,0:0:0:0:
64,192,123155,1,0,0:0:0:0:
192,192,123155,1,0,0:0:0:0:
448,192,123155,1,0,0:0:0:0:
192,192,123362,1,0,0:0:0:0:
320,192,123362,1,0,0:0:0:0:
64,192,123569,1,0,0:0:0:0:
320,192,123569,1,0,0:0:0:0:
448,192,123569,1,0,0:0:0:0:
192,192,123776,1,0,0:0:0:0:
320,192,123776,1,0,0:0:0:0:
64,192,123983,1,0,0:0:0:0:
448,192,123983,1,0,0:0:0:0:
448,192,124190,1,0,0:0:0:0:
320,192,124190,1,0,0:0:0:0:
192,192,124397,1,0,0:0:0:0:
64,192,124397,1,0,0:0:0:0:
192,192,124604,1,0,0:0:0:0:
320,192,124604,1,0,0:0:0:0:
320,192,124811,1,0,0:0:0:0:
448,192,124811,1,0,0:0:0:0:
320,192,125018,1,0,0:0:0:0:
192,192,125018,1,0,0:0:0:0:
64,192,125242,1,0,0:0:0:0:
192,192,125242,1,0,0:0:0:0:
320,192,125449,1,0,0:0:0:0:
448,192,125449,1,0,0:0:0:0:
320,192,125655,1,0,0:0:0:0:
192,192,125655,1,0,0:0:0:0:
64,192,125655,1,0,0:0:0:0:
448,192,125655,1,0,0:0:0:0:
320,192,125862,1,0,0:0:0:0:
192,192,125862,1,0,0:0:0:0:
64,192,126069,1,0,0:0:0:0:
192,192,126069,1,0,0:0:0:0:
448,192,126276,1,0,0:0:0:0:
320,192,126276,1,0,0:0:0:0:
192,192,126483,1,0,0:0:0:0:
320,192,126483,1,0,0:0:0:0:
64,192,126690,1,0,0:0:0:0:
448,192,126690,1,0,0:0:0:0:
448,192,126897,1,0,0:0:0:0:
64,192,126897,1,0,0:0:0:0:
64,192,127104,1,0,0:0:0:0:
448,192,127104,1,0,0:0:0:0:
320,192,127311,1,0,0:0:0:0:
192,192,127311,1,0,0:0:0:0:
64,192,127311,1,0,0:0:0:0:
448,192,127518,1,0,0:0:0:0:
64,192,127724,1,0,0:0:0:0:
320,192,127724,1,0,0:0:0:0:
192,192,127724,1,0,0:0:0:0:
448,192,127931,1,0,0:0:0:0:
320,192,128138,1,0,0:0:0:0:
192,192,128138,1,0,0:0:0:0:
64,192,128138,1,0,0:0:0:0:
448,192,128345,1,0,0:0:0:0:
320,192,128552,1,0,0:0:0:0:
192,192,128552,1,0,0:0:0:0:
64,192,128552,1,0,0:0:0:0:
448,192,128759,1,0,0:0:0:0:
320,192,128759,1,0,0:0:0:0:
192,192,128966,1,0,0:0:0:0:
320,192,128966,1,0,0:0:0:0:
448,192,128966,1,0,0:0:0:0:
64,192,128966,1,0,0:0:0:0:
320,192,129173,1,0,0:0:0:0:
192,192,129173,1,0,0:0:0:0:
448,192,129380,1,0,0:0:0:0:
64,192,129380,1,0,0:0:0:0:
192,192,129380,1,0,0:0:0:0:
192,192,129586,1,0,0:0:0:0:
320,192,129586,1,0,0:0:0:0:
448,192,129793,1,0,0:0:0:0:
320,192,129793,1,0,0:0:0:0:
64,192,129793,1,0,0:0:0:0:
320,192,130000,1,0,0:0:0:0:
192,192,130000,1,0,0:0:0:0:
448,192,130207,1,0,0:0:0:0:
192,192,130207,1,0,0:0:0:0:
64,192,130207,1,0,0:0:0:0:
320,192,130414,1,0,0:0:0:0:
192,192,130414,1,0,0:0:0:0:
448,192,130621,1,0,0:0:0:0:
64,192,130621,1,0,0:0:0:0:
64,192,130828,1,0,0:0:0:0:
192,192,130828,1,0,0:0:0:0:
320,192,131035,1,0,0:0:0:0:
448,192,131035,1,0,0:0:0:0:
320,192,131242,1,0,0:0:0:0:
192,192,131242,1,0,0:0:0:0:
192,192,131449,1,0,0:0:0:0:
64,192,131449,1,0,0:0:0:0:
192,192,131655,1,0,0:0:0:0:
320,192,131655,1,0,0:0:0:0:
448,192,131862,1,0,0:0:0:0:
320,192,131862,1,0,0:0:0:0:
192,192,132069,1,0,0:0:0:0:
64,192,132069,1,0,0:0:0:0:
192,192,132276,1,0,0:0:0:0:
320,192,132276,1,0,0:0:0:0:
448,192,132276,1,0,0:0:0:0:
64,192,132276,1,0,0:0:0:0:
192,192,132483,1,0,0:0:0:0:
320,192,132483,1,0,0:0:0:0:
448,192,132690,1,0,0:0:0:0:
320,192,132690,1,0,0:0:0:0:
64,192,132897,1,0,0:0:0:0:
192,192,132897,1,0,0:0:0:0:
320,192,133104,1,0,0:0:0:0:
192,192,133104,1,0,0:0:0:0:
448,192,133311,1,0,0:0:0:0:
64,192,133311,1,0,0:0:0:0:
320,192,133518,1,0,0:0:0:0:
192,192,133518,1,0,0:0:0:0:
448,192,133724,1,0,0:0:0:0:
64,192,133724,1,0,0:0:0:0:
64,192,133931,1,0,0:0:0:0:
192,192,133931,1,0,0:0:0:0:
320,192,133931,1,0,0:0:0:0:
192,192,134138,1,0,0:0:0:0:
64,192,134138,1,0,0:0:0:0:
448,192,134138,1,0,0:0:0:0:
320,192,134138,128,0,134345:0:0:0:0:
64,192,134345,1,0,0:0:0:0:
448,192,134345,1,0,0:0:0:0:
192,192,134345,1,0,0:0:0:0:
320,192,134552,1,0,0:0:0:0:
448,192,134552,1,0,0:0:0:0:
64,192,134552,128,0,134759:0:0:0:0:
320,192,134759,1,0,0:0:0:0:
448,192,134759,1,0,0:0:0:0:
192,192,134759,1,0,0:0:0:0:
64,192,134966,1,0,0:0:0:0:
448,192,134966,1,0,0:0:0:0:
320,192,134966,128,0,135173:0:0:0:0:
192,192,135173,1,0,0:0:0:0:
64,192,135173,1,0,0:0:0:0:
448,192,135173,1,0,0:0:0:0:
64,192,135380,1,0,0:0:0:0:
192,192,135380,1,0,0:0:0:0:
320,192,135380,128,0,135586:0:0:0:0:
448,192,135586,1,0,0:0:0:0:
192,192,135793,1,0,0:0:0:0:
64,192,135793,1,0,0:0:0:0:
448,192,135793,128,0,136000:0:0:0:0:
192,192,136000,1,0,0:0:0:0:
320,192,136000,1,0,0:0:0:0:
320,192,136207,1,0,0:0:0:0:
448,192,136207,1,0,0:0:0:0:
64,192,136207,128,0,136414:0:0:0:0:
192,192,136414,1,0,0:0:0:0:
320,192,136414,1,0,0:0:0:0:
448,192,136621,1,0,0:0:0:0:
192,192,136621,1,0,0:0:0:0:
64,192,136621,128,0,136828:0:0:0:0:
320,192,136828,1,0,0:0:0:0:
448,192,136828,128,0,137035:0:0:0:0:
64,192,137035,1,0,0:0:0:0:
192,192,137035,128,0,137242:0:0:0:0:
448,192,137242,1,0,0:0:0:0:
320,192,137242,1,0,0:0:0:0:
448,192,137449,1,0,0:0:0:0:
64,192,137449,1,0,0:0:0:0:
192,192,137449,128,0,137655:0:0:0:0:
64,192,137655,1,0,0:0:0:0:
320,192,137655,1,0,0:0:0:0:
192,192,137862,1,0,0:0:0:0:
448,192,137862,128,0,138069:0:0:0:0:
320,192,137862,1,0,0:0:0:0:
64,192,138069,1,0,0:0:0:0:
192,192,138069,1,0,0:0:0:0:
320,192,138276,1,0,0:0:0:0:
448,192,138276,1,0,0:0:0:0:
64,192,138276,1,0,0:0:0:0:
192,192,138276,128,0,138483:0:0:0:0:
320,192,138483,1,0,0:0:0:0:
448,192,138483,1,0,0:0:0:0:
320,192,138690,1,0,0:0:0:0:
64,192,138690,1,0,0:0:0:0:
192,192,138690,128,0,138897:0:0:0:0:
64,192,138897,1,0,0:0:0:0:
320,192,139104,1,0,0:0:0:0:
448,192,139104,1,0,0:0:0:0:
64,192,139104,128,0,139311:0:0:0:0:
320,192,139311,1,0,0:0:0:0:
192,192,139311,1,0,0:0:0:0:
192,192,139518,1,0,0:0:0:0:
64,192,139518,1,0,0:0:0:0:
448,192,139518,128,0,139724:0:0:0:0:
320,192,139724,1,0,0:0:0:0:
192,192,139724,1,0,0:0:0:0:
64,192,139931,1,0,0:0:0:0:
320,192,139931,1,0,0:0:0:0:
448,192,139931,128,0,140138:0:0:0:0:
192,192,140138,1,0,0:0:0:0:
64,192,140138,128,0,140345:0:0:0:0:
320,192,140345,128,0,140552:0:0:0:0:
448,192,140345,1,0,0:0:0:0:
64,192,140552,128,0,140966:0:0:0:0:
192,192,140552,1,0,0:0:0:0:
448,192,140552,1,0,0:0:0:0:
448,192,140759,1,0,0:0:0:0:
320,192,140759,1,0,0:0:0:0:
192,192,140966,1,0,0:0:0:0:
320,192,140966,1,0,0:0:0:0:
64,192,141173,1,0,0:0:0:0:
320,192,141173,1,0,0:0:0:0:
448,192,141173,1,0,0:0:0:0:
320,192,141380,1,0,0:0:0:0:
192,192,141380,1,0,0:0:0:0:
64,192,141586,1,0,0:0:0:0:
192,192,141586,1,0,0:0:0:0:
448,192,141586,1,0,0:0:0:0:
320,192,141793,1,0,0:0:0:0:
192,192,141793,1,0,0:0:0:0:
320,192,142000,1,0,0:0:0:0:
192,192,142000,1,0,0:0:0:0:
448,192,142000,1,0,0:0:0:0:
64,192,142207,1,0,0:0:0:0:
448,192,142207,1,0,0:0:0:0:
64,192,142414,1,0,0:0:0:0:
192,192,142414,1,0,0:0:0:0:
320,192,142414,1,0,0:0:0:0:
448,192,142621,1,0,0:0:0:0:
64,192,142621,1,0,0:0:0:0:
320,192,142621,1,0,0:0:0:0:
192,192,142828,1,0,0:0:0:0:
320,192,142828,1,0,0:0:0:0:
448,192,142828,1,0,0:0:0:0:
64,192,143035,1,0,0:0:0:0:
320,192,143035,1,0,0:0:0:0:
192,192,143242,1,0,0:0:0:0:
448,192,143242,1,0,0:0:0:0:
64,192,143449,1,0,0:0:0:0:
192,192,143449,1,0,0:0:0:0:
320,192,143655,1,0,0:0:0:0:
448,192,143655,1,0,0:0:0:0:
448,192,143862,1,0,0:0:0:0:
320,192,144069,1,0,0:0:0:0:
64,192,144276,1,0,0:0:0:0:
192,192,144483,1,0,0:0:0:0:
448,192,144690,1,0,0:0:0:0:
320,192,144897,1,0,0:0:0:0:
64,192,145104,1,0,0:0:0:0:
192,192,145311,1,0,0:0:0:0:
448,192,145518,1,0,0:0:0:0:
64,192,145518,1,0,0:0:0:0:
192,192,145518,1,0,0:0:0:0:
64,192,145931,1,0,0:0:0:0:
320,192,145931,1,0,0:0:0:0:
448,192,145931,1,0,0:0:0:0:
320,192,146345,1,0,0:0:0:0:
192,192,146345,1,0,0:0:0:0:
64,192,146345,1,0,0:0:0:0:
448,192,146345,1,0,0:0:0:0:
64,192,146759,1,0,0:0:0:0:
192,192,146759,1,0,0:0:0:0:
320,192,146759,1,0,0:0:0:0:
448,192,146759,1,0,0:0:0:0:
192,192,147173,1,0,0:0:0:0:
64,192,147173,1,0,0:0:0:0:
448,192,147173,128,0,148828:0:0:0:0:
320,192,147380,1,0,0:0:0:0:
192,192,147380,1,0,0:0:0:0:
64,192,147586,1,0,0:0:0:0:
192,192,147586,128,0,147793:0:0:0:0:
320,192,147586,1,0,0:0:0:0:
64,192,147793,1,0,0:0:0:0:
64,192,147793,128,0,148000:0:0:0:0:
320,192,148000,1,0,0:0:0:0:
192,192,148000,1,0,0:0:0:0:
320,192,148000,128,0,148207:0:0:0:0:
64,192,148207,1,0,0:0:0:0:
64,192,148207,128,0,148414:0:0:0:0:
192,192,148414,1,0,0:0:0:0:
320,192,148414,128,0,148414:0:0:0:0:
192,192,148621,128,0,148621:0:0:0:0:
64,192,148621,128,0,148828:0:0:0:0:
320,192,148828,1,0,0:0:0:0:
192,192,148828,128,0,149655:0:0:0:0:
320,192,149035,1,0,0:0:0:0:
448,192,149035,128,0,149242:0:0:0:0:
64,192,149242,128,0,149449:0:0:0:0:
320,192,149242,1,0,0:0:0:0:
448,192,149449,128,0,149655:0:0:0:0:
64,192,149862,1,0,0:0:0:0:
192,192,149862,128,0,150069:0:0:0:0:
64,192,150069,1,0,0:0:0:0:
448,192,150069,128,0,150276:0:0:0:0:
320,192,150276,1,0,0:0:0:0:
192,192,150483,1,0,0:0:0:0:
64,192,150483,128,0,152138:0:0:0:0:
320,192,150483,1,0,0:0:0:0:
448,192,150483,1,0,0:0:0:0:
192,192,150690,1,0,0:0:0:0:
320,192,150690,1,0,0:0:0:0:
448,192,150897,1,0,0:0:0:0:
320,192,150897,128,0,151104:0:0:0:0:
192,192,150897,1,0,0:0:0:0:
448,192,151104,1,0,0:0:0:0:
448,192,151104,128,0,151311:0:0:0:0:
192,192,151311,1,0,0:0:0:0:
320,192,151311,1,0,0:0:0:0:
192,192,151311,128,0,151518:0:0:0:0:
448,192,151518,1,0,0:0:0:0:
448,192,151518,128,0,151724:0:0:0:0:
320,192,151724,1,0,0:0:0:0:
192,192,151724,128,0,151931:0:0:0:0:
320,192,151931,128,0,151931:0:0:0:0:
448,192,151931,128,0,152138:0:0:0:0:
192,192,152138,1,0,0:0:0:0:
320,192,152138,128,0,152966:0:0:0:0:
64,192,152345,1,0,0:0:0:0:
192,192,152345,1,0,0:0:0:0:
64,192,152345,128,0,152552:0:0:0:0:
448,192,152552,1,0,0:0:0:0:
448,192,152552,128,0,152759:0:0:0:0:
192,192,152552,1,0,0:0:0:0:
64,192,152759,1,0,0:0:0:0:
192,192,152759,1,0,0:0:0:0:
64,192,152759,128,0,152966:0:0:0:0:
448,192,152966,1,0,0:0:0:0:
448,192,153173,1,0,0:0:0:0:
320,192,153173,128,0,153380:0:0:0:0:
448,192,153380,1,0,0:0:0:0:
64,192,153380,128,0,153586:0:0:0:0:
192,192,153586,1,0,0:0:0:0:
448,192,153586,128,0,153793:0:0:0:0:
192,192,153793,1,0,0:0:0:0:
64,192,153793,1,0,0:0:0:0:
448,192,154000,1,0,0:0:0:0:
192,192,154000,1,0,0:0:0:0:
320,192,154207,1,0,0:0:0:0:
448,192,154207,1,0,0:0:0:0:
64,192,154207,1,0,0:0:0:0:
192,192,154207,1,0,0:0:0:0:
320,192,154414,1,0,0:0:0:0:
64,192,154414,1,0,0:0:0:0:
448,192,154621,1,0,0:0:0:0:
192,192,154621,1,0,0:0:0:0:
64,192,154621,1,0,0:0:0:0:
320,192,154621,1,0,0:0:0:0:
448,192,154828,1,0,0:0:0:0:
320,192,154828,1,0,0:0:0:0:
192,192,155035,1,0,0:0:0:0:
448,192,155035,1,0,0:0:0:0:
320,192,155035,1,0,0:0:0:0:
64,192,155035,1,0,0:0:0:0:
192,192,155242,1,0,0:0:0:0:
448,192,155242,1,0,0:0:0:0:
64,192,155449,1,0,0:0:0:0:
320,192,155449,1,0,0:0:0:0:
448,192,155449,1,0,0:0:0:0:
192,192,155449,1,0,0:0:0:0:
64,192,155655,1,0,0:0:0:0:
448,192,155655,1,0,0:0:0:0:
320,192,155862,1,0,0:0:0:0:
64,192,155862,1,0,0:0:0:0:
448,192,155862,1,0,0:0:0:0:
192,192,155862,1,0,0:0:0:0:
320,192,156069,1,0,0:0:0:0:
64,192,156069,1,0,0:0:0:0:
448,192,156276,1,0,0:0:0:0:
192,192,156276,1,0,0:0:0:0:
320,192,156276,1,0,0:0:0:0:
64,192,156276,1,0,0:0:0:0:
192,192,156483,1,0,0:0:0:0:
448,192,156483,1,0,0:0:0:0:
192,192,156690,1,0,0:0:0:0:
320,192,156690,1,0,0:0:0:0:
64,192,156897,1,0,0:0:0:0:
64,192,157104,128,0,157311:0:0:0:0:
192,192,157104,1,0,0:0:0:0:
320,192,157311,1,0,0:0:0:0:
448,192,157311,1,0,0:0:0:0:
192,192,157518,1,0,0:0:0:0:
64,192,157518,128,0,157931:0:0:0:0:
320,192,157518,1,0,0:0:0:0:
192,192,157724,1,0,0:0:0:0:
448,192,157724,1,0,0:0:0:0:
320,192,157931,1,0,0:0:0:0:
192,192,157931,1,0,0:0:0:0:
64,192,158138,1,0,0:0:0:0:
64,192,158138,128,0,158345:0:0:0:0:
192,192,158138,1,0,0:0:0:0:
448,192,158345,1,0,0:0:0:0:
320,192,158345,1,0,0:0:0:0:
64,192,158552,1,0,0:0:0:0:
320,192,158552,1,0,0:0:0:0:
64,192,158759,1,0,0:0:0:0:
448,192,158759,1,0,0:0:0:0:
192,192,158759,128,0,159173:0:0:0:0:
320,192,158966,1,0,0:0:0:0:
64,192,158966,1,0,0:0:0:0:
320,192,159173,1,0,0:0:0:0:
448,192,159173,1,0,0:0:0:0:
320,192,159380,1,0,0:0:0:0:
192,192,159380,1,0,0:0:0:0:
64,192,159586,1,0,0:0:0:0:
448,192,159586,1,0,0:0:0:0:
64,192,159793,1,0,0:0:0:0:
320,192,159793,1,0,0:0:0:0:
192,192,160000,1,0,0:0:0:0:
64,192,160000,1,0,0:0:0:0:
192,192,160207,1,0,0:0:0:0:
320,192,160207,1,0,0:0:0:0:
448,192,160414,1,0,0:0:0:0:
64,192,160414,128,0,163724:0:0:0:0:
192,192,160414,1,0,0:0:0:0:
448,192,160621,1,0,0:0:0:0:
320,192,160621,1,0,0:0:0:0:
192,192,160621,1,0,0:0:0:0:
320,192,160828,1,0,0:0:0:0:
192,192,160828,1,0,0:0:0:0:
320,192,161035,1,0,0:0:0:0:
448,192,161035,1,0,0:0:0:0:
192,192,161035,1,0,0:0:0:0:
448,192,161242,1,0,0:0:0:0:
320,192,161242,1,0,0:0:0:0:
192,192,161449,1,0,0:0:0:0:
320,192,161449,1,0,0:0:0:0:
448,192,161449,1,0,0:0:0:0:
192,192,161655,1,0,0:0:0:0:
320,192,161655,1,0,0:0:0:0:
320,192,161862,1,0,0:0:0:0:
192,192,161862,1,0,0:0:0:0:
448,192,161862,1,0,0:0:0:0:
320,192,162069,1,0,0:0:0:0:
448,192,162069,1,0,0:0:0:0:
320,192,162276,1,0,0:0:0:0:
192,192,162276,1,0,0:0:0:0:
448,192,162276,1,0,0:0:0:0:
320,192,162483,1,0,0:0:0:0:
192,192,162483,1,0,0:0:0:0:
320,192,162690,1,0,0:0:0:0:
192,192,162690,1,0,0:0:0:0:
448,192,162690,1,0,0:0:0:0:
448,192,162897,1,0,0:0:0:0:
320,192,162897,1,0,0:0:0:0:
448,192,163104,1,0,0:0:0:0:
320,192,163104,1,0,0:0:0:0:
192,192,163104,1,0,0:0:0:0:
320,192,163311,1,0,0:0:0:0:
192,192,163311,1,0,0:0:0:0:
448,192,163518,1,0,0:0:0:0:
192,192,163518,1,0,0:0:0:0:
320,192,163518,1,0,0:0:0:0:
448,192,163724,128,0,167035:0:0:0:0:
192,192,163724,1,0,0:0:0:0:
320,192,163724,1,0,0:0:0:0:
64,192,163931,1,0,0:0:0:0:
192,192,163931,1,0,0:0:0:0:
320,192,163931,1,0,0:0:0:0:
64,192,164138,1,0,0:0:0:0:
192,192,164138,1,0,0:0:0:0:
64,192,164345,1,0,0:0:0:0:
192,192,164345,1,0,0:0:0:0:
320,192,164345,1,0,0:0:0:0:
320,192,164552,1,0,0:0:0:0:
192,192,164552,1,0,0:0:0:0:
192,192,164759,1,0,0:0:0:0:
64,192,164759,1,0,0:0:0:0:
320,192,164759,1,0,0:0:0:0:
64,192,164966,1,0,0:0:0:0:
192,192,164966,1,0,0:0:0:0:
320,192,165173,1,0,0:0:0:0:
64,192,165173,1,0,0:0:0:0:
192,192,165173,1,0,0:0:0:0:
192,192,165380,1,0,0:0:0:0:
320,192,165380,1,0,0:0:0:0:
320,192,165586,1,0,0:0:0:0:
192,192,165586,1,0,0:0:0:0:
64,192,165586,1,0,0:0:0:0:
192,192,165793,1,0,0:0:0:0:
64,192,165793,1,0,0:0:0:0:
64,192,166000,1,0,0:0:0:0:
192,192,166000,1,0,0:0:0:0:
320,192,166000,1,0,0:0:0:0:
192,192,166207,1,0,0:0:0:0:
320,192,166207,1,0,0:0:0:0:
320,192,166414,1,0,0:0:0:0:
192,192,166414,1,0,0:0:0:0:
64,192,166414,1,0,0:0:0:0:
64,192,166621,1,0,0:0:0:0:
192,192,166621,1,0,0:0:0:0:
64,192,166828,1,0,0:0:0:0:
320,192,166828,1,0,0:0:0:0:
192,192,166828,1,0,0:0:0:0:
192,192,167035,1,0,0:0:0:0:
320,192,167035,1,0,0:0:0:0:
64,192,167035,128,0,170345:0:0:0:0:
448,192,167242,1,0,0:0:0:0:
320,192,167242,1,0,0:0:0:0:
192,192,167242,1,0,0:0:0:0:
448,192,167449,1,0,0:0:0:0:
192,192,167449,1,0,0:0:0:0:
320,192,167655,1,0,0:0:0:0:
192,192,167655,1,0,0:0:0:0:
192,192,167862,1,0,0:0:0:0:
448,192,167862,1,0,0:0:0:0:
320,192,168069,1,0,0:0:0:0:
448,192,168069,1,0,0:0:0:0:
320,192,168276,1,0,0:0:0:0:
192,192,168276,1,0,0:0:0:0:
320,192,168483,1,0,0:0:0:0:
448,192,168483,1,0,0:0:0:0:
320,192,168690,1,0,0:0:0:0:
192,192,168690,1,0,0:0:0:0:
192,192,168897,1,0,0:0:0:0:
448,192,168897,1,0,0:0:0:0:
320,192,169104,1,0,0:0:0:0:
448,192,169104,1,0,0:0:0:0:
192,192,169311,1,0,0:0:0:0:
320,192,169518,1,0,0:0:0:0:
448,192,169518,1,0,0:0:0:0:
192,192,169724,1,0,0:0:0:0:
192,192,169931,1,0,0:0:0:0:
320,192,169931,1,0,0:0:0:0:
448,192,170138,1,0,0:0:0:0:
448,192,170345,128,0,172000:0:0:0:0:
192,192,170345,1,0,0:0:0:0:
320,192,170345,1,0,0:0:0:0:
320,192,170552,1,0,0:0:0:0:
192,192,170552,1,0,0:0:0:0:
192,192,170759,1,0,0:0:0:0:
64,192,170759,1,0,0:0:0:0:
320,192,170966,1,0,0:0:0:0:
192,192,170966,1,0,0:0:0:0:
64,192,171173,1,0,0:0:0:0:
192,192,171173,1,0,0:0:0:0:
192,192,171380,1,0,0:0:0:0:
320,192,171380,1,0,0:0:0:0:
192,192,171586,1,0,0:0:0:0:
64,192,171586,1,0,0:0:0:0:
192,192,171793,1,0,0:0:0:0:
320,192,171793,1,0,0:0:0:0:
320,192,172000,128,0,172621:0:0:0:0:
64,192,172000,1,0,0:0:0:0:
192,192,172000,1,0,0:0:0:0:
64,192,172207,1,0,0:0:0:0:
192,192,172414,1,0,0:0:0:0:
448,192,172414,1,0,0:0:0:0:
192,192,172621,1,0,0:0:0:0:
320,192,172828,128,0,173655:0:0:0:0:
64,192,172828,1,0,0:0:0:0:
192,192,173035,1,0,0:0:0:0:
448,192,173242,1,0,0:0:0:0:
192,192,173449,1,0,0:0:0:0:
64,192,173655,128,0,180293:0:0:0:0:
448,192,173655,128,0,180293:0:0:0:0:
