osu file format v14

[General]
AudioFilename: audio.mp3
AudioLeadIn: 0
PreviewTime: 91186
Countdown: 0
SampleSet: Normal
StackLeniency: 1
Mode: 1
LetterboxInBreaks: 0
WidescreenStoryboard: 0

[Editor]
Bookmarks: 12986,25786,38586,51386,64186,76986,91386,104186,116986,129786,142586,155386,168186,180986,193786,206586,219386,233786,246586,259386,272186,284986,297786,310586,323386,323486,323586,323686,323786,323886,323986,324086,324186,324286,324386,324486,324586,324686,324786,324886,324986,325086,325186,325286,325386,325486,325586,325686,325786,325886,325986,326086,326186,326286,326386,326486,326586
DistanceSpacing: 0.8
BeatDivisor: 4
GridSize: 32
TimelineZoom: 1

[Metadata]
Title:Shaolin Warrior
TitleUnicode:Shaolin Warrior
Artist:F-777
ArtistUnicode:F-777
Creator:Nardoxyribonucleic
Version:Vulkin's Oni
Source:osu!
Tags:Taiko Featured Artist FA Mappers' Guild MG F777 Jesse Valentine Chinese Dance Machine Electronic Instrumental trance Vulkin
BeatmapID:2301597
BeatmapSetID:1101722

[Difficulty]
HPDrainRate:6
CircleSize:5
OverallDifficulty:5
ApproachRate:6
SliderMultiplier:1.4
SliderTickRate:1

[Events]
//Background and Video events
0,0,"bg.jpg",0,0
//Break Periods
//Storyboard Layer 0 (Background)
//Storyboard Layer 1 (Fail)
//Storyboard Layer 2 (Pass)
//Storyboard Layer 3 (Foreground)
//Storyboard Layer 4 (Overlay)
//Storyboard Sound Samples

[TimingPoints]
186,400,4,1,0,70,1,0
186,-142.857142857143,4,1,0,70,0,0
5786,-138.888888888889,4,1,0,70,0,0
5986,-135.135135135135,4,1,0,70,0,0
6186,-131.578947368421,4,1,0,70,0,0
6386,-128.205128205128,4,1,0,70,0,0
6586,-125,4,1,0,60,0,0
12186,-121.951219512195,4,1,0,60,0,0
12386,-119.047619047619,4,1,0,60,0,0
12586,-116.279069767442,4,1,0,60,0,0
12786,-113.636363636364,4,1,0,60,0,0
12986,-111.111111111111,4,1,0,70,0,0
24886,-109.89010989011,4,1,0,70,0,0
24986,-108.695652173913,4,1,0,70,0,0
25086,-107.52688172043,4,1,0,70,0,0
25186,-106.382978723404,4,1,0,70,0,0
25386,-104.166666666667,4,1,0,70,0,0
25586,-102.040816326531,4,1,0,70,0,0
25786,-100,4,1,0,80,0,0
37686,-99.009900990099,4,1,0,80,0,0
37886,-97.0873786407767,4,1,0,80,0,0
37986,-96.1538461538461,4,1,0,80,0,0
38186,-94.3396226415094,4,1,0,80,0,0
38286,-93.4579439252336,4,1,0,80,0,0
38386,-92.5925925925926,4,1,0,80,0,0
38486,-91.743119266055,4,1,0,80,0,0
38586,-90.9090909090909,4,1,0,80,0,0
38786,-100,4,1,0,50,0,0
40986,-105.263157894737,4,1,0,50,0,0
41786,-111.111111111111,4,1,0,50,0,0
43386,-125,4,1,0,50,0,0
44186,-133.333333333333,4,1,0,50,0,0
44986,-142.857142857143,4,1,0,50,0,0
49786,-138.888888888889,4,1,0,50,0,0
50186,-135.135135135135,4,1,0,50,0,0
50586,-131.578947368421,4,1,0,50,0,0
50986,-128.205128205128,4,1,0,50,0,0
51386,-100,4,1,0,60,0,0
51586,-125,4,1,0,60,0,0
56186,-121.951219512195,4,1,0,60,0,0
56586,-119.047619047619,4,1,0,60,0,0
56986,-116.279069767442,4,1,0,60,0,0
57386,-113.636363636364,4,1,0,60,0,0
57786,-90.9090909090909,4,1,0,60,0,0
57986,-111.111111111111,4,1,0,60,0,0
62586,-108.695652173913,4,1,0,60,0,0
62986,-106.382978723404,4,1,0,60,0,0
63386,-104.166666666667,4,1,0,60,0,0
63786,-102.040816326531,4,1,0,60,0,0
64186,-83.3333333333333,4,1,0,70,0,0
64386,-85.7142612244968,4,1,0,70,0,0
64486,-86.9565217391304,4,1,0,70,0,0
64586,-88.2353200692118,4,1,0,70,0,0
64786,-90.9090909090909,4,1,0,70,0,0
64986,-93.7499707031342,4,1,0,70,0,0
65186,-96.774224765879,4,1,0,70,0,0
65386,-100,4,1,0,70,0,0
75786,-100,4,1,0,70,0,0
75986,-96.7957696376837,4,1,0,70,0,0
76186,-93.7904178081742,4,1,0,70,0,0
76286,-92.3566555438468,4,1,0,70,0,0
76386,-90.9661514950287,4,1,0,70,0,0
76486,-89.6168164163669,4,1,0,70,0,0
76586,-88.3069266187101,4,1,0,70,0,0
76786,-85.7988343370367,4,1,0,70,0,0
76986,-83.429207397501,4,1,0,70,0,0
77786,-85.1039928240313,4,1,0,70,0,0
78586,-86.9516070830779,4,1,0,70,0,0
79386,-88.8811463534732,4,1,0,70,0,0
79786,-89.8784304349936,4,1,0,70,0,0
79986,-90.3855122870065,4,1,0,70,0,0
80186,-90.89834837701,4,1,0,70,0,0
80586,-91.9416795538254,4,1,0,70,0,0
80986,-93.0091530307497,4,1,0,70,0,0
81386,-94.1017936742892,4,1,0,70,0,0
81786,-95.2204114473979,4,1,0,70,0,0
82186,-96.3659438899655,4,1,0,70,0,0
82386,-96.9491085044727,4,1,0,70,0,0
82486,-97.2432510752673,4,1,0,70,0,0
82586,-97.5392790676806,4,1,0,70,0,0
82786,-98.1367751863127,4,1,0,70,0,0
82986,-98.7416365833814,4,1,0,70,0,0
83186,-99.3540002901137,4,1,0,70,0,0
83386,-99.9740067582429,4,1,0,70,0,0
83786,-98.7669928611218,4,1,0,70,0,0
84186,-97.5641166983913,4,1,0,70,0,0
84586,-96.3900945683218,4,1,0,70,0,0
84986,-95.2439912946992,4,1,0,70,0,0
85386,-94.1248226923653,4,1,0,70,0,0
85586,-93.5750439100893,4,1,0,70,0,0
85786,-93.0317368467079,4,1,0,70,0,0
85986,-92.4946168133015,4,1,0,70,0,0
86086,-92.2283759044145,4,1,0,70,0,0
86186,-91.9636633173501,4,1,0,70,0,0
86286,-91.7004659300674,4,1,0,70,0,0
86386,-91.4387707703168,4,1,0,70,0,0
86586,-90.9198359806159,4,1,0,70,0,0
86986,-89.8994384881072,4,1,0,70,0,0
87186,-89.3977807894897,4,1,0,70,0,0
87386,-88.9017697675308,4,1,0,70,0,0
87586,-88.4111543048717,4,1,0,70,0,0
87786,-87.9259241674074,4,1,0,70,0,0
87986,-87.4459911697038,4,1,0,70,0,0
88186,-86.9712690412722,4,1,0,70,0,0
88286,-86.7358356043666,4,1,0,70,0,0
88386,-86.5016733748714,4,1,0,70,0,0
88486,-86.2687720848057,4,1,0,70,0,0
88586,-86.0371215764754,4,1,0,70,0,0
88786,-85.5775328168444,4,1,0,70,0,0
88986,-85.1229004436606,4,1,0,70,0,0
89186,-84.67300133614,4,1,0,70,0,0
89286,-84.4498304669653,4,1,0,70,0,0
89386,-84.2278329189324,4,1,0,70,0,0
89586,-83.7873209674419,4,1,0,70,0,0
89686,-83.5687883946352,4,1,0,70,0,0
89786,-83.3513928017737,4,1,0,70,0,0
91386,-76.9230769230769,4,1,0,90,0,1
91786,-100,4,1,0,90,0,1
115386,-90.9090909090909,4,1,0,90,0,1
115586,-91.9485272144654,4,1,0,90,0,1
115786,-93.0120078502135,4,1,0,90,0,1
115986,-94.100465420902,4,1,0,90,0,1
116086,-94.6542139582783,4,1,0,90,0,1
116286,-95.7816790719905,4,1,0,90,0,1
116386,-96.3554514060187,4,1,0,90,0,1
116586,-97.5239640760726,4,1,0,90,0,1
116686,-98.1189613911699,4,1,0,90,0,1
116786,-98.7212634742184,4,1,0,90,0,1
116986,-100,4,1,0,80,0,0
129786,-100,4,1,0,70,0,0
129986,-142.857142857143,4,1,0,70,0,0
136186,-125,4,1,0,70,0,0
139386,-111.111111111111,4,1,0,70,0,0
140986,-100,4,1,0,70,0,0
142586,-76.9230769230769,4,1,0,90,0,1
142986,-80.459779363193,4,1,0,90,0,1
143086,-81.3953772309455,4,1,0,90,0,1
143186,-82.3529217993125,4,1,0,90,0,1
143386,-84.3373697198481,4,1,0,90,0,1
143786,-88.6076285851754,4,1,0,90,0,1
143886,-89.7435667324188,4,1,0,90,0,1
143986,-90.9090909090909,4,1,0,90,0,1
155386,-83.3333333333333,4,1,0,90,0,1
155586,-85.1063829787234,4,1,0,90,0,1
155786,-86.9565217391304,4,1,0,90,0,1
155886,-87.9120879120879,4,1,0,90,0,1
155986,-88.8888888888889,4,1,0,90,0,1
156186,-90.9090909090909,4,1,0,90,0,1
156386,-93.0232558139535,4,1,0,90,0,1
156786,-97.5609756097561,4,1,0,90,0,1
156986,-100,4,1,0,90,0,1
168186,-90.9090909090909,4,1,0,90,0,1
168586,-94.3396226415094,4,1,0,90,0,1
168786,-96.1538461538461,4,1,0,90,0,1
169086,-99.009900990099,4,1,0,90,0,1
169186,-100,4,1,0,90,0,1
179386,-100,4,1,0,90,0,1
179586,-98.7654320987654,4,1,0,90,0,1
179786,-97.5609756097561,4,1,0,90,0,1
179986,-96.3855421686747,4,1,0,90,0,1
180186,-95.2380952380952,4,1,0,90,0,1
180286,-94.6745562130178,4,1,0,90,0,1
180386,-94.1176470588235,4,1,0,90,0,1
180486,-93.5672514619883,4,1,0,90,0,1
180586,-93.0232558139535,4,1,0,90,0,1
180686,-92.485549132948,4,1,0,90,0,1
180786,-91.9540229885058,4,1,0,90,0,1
180986,-90.9090909090909,4,1,0,80,0,0
181186,-100,4,1,0,50,0,0
183386,-105.263157894737,4,1,0,50,0,0
184186,-111.111111111111,4,1,0,50,0,0
185786,-125,4,1,0,50,0,0
186586,-133.333333333333,4,1,0,50,0,0
187386,-142.857142857143,4,1,0,50,0,0
192186,-138.888888888889,4,1,0,50,0,0
192586,-135.135135135135,4,1,0,50,0,0
192986,-131.578947368421,4,1,0,50,0,0
193386,-128.205128205128,4,1,0,50,0,0
193786,-100,4,1,0,60,0,0
193986,-125,4,1,0,60,0,0
198586,-121.951219512195,4,1,0,60,0,0
198986,-119.047619047619,4,1,0,60,0,0
199386,-116.279069767442,4,1,0,60,0,0
199786,-113.636363636364,4,1,0,60,0,0
200186,-90.9090909090909,4,1,0,60,0,0
200386,-111.111111111111,4,1,0,60,0,0
204986,-108.695652173913,4,1,0,60,0,0
205386,-106.382978723404,4,1,0,60,0,0
205786,-104.166666666667,4,1,0,60,0,0
206186,-102.040816326531,4,1,0,60,0,0
206586,-83.3333333333333,4,1,0,70,0,0
206786,-85.7142612244968,4,1,0,70,0,0
206886,-86.9565217391304,4,1,0,70,0,0
206986,-88.2353200692118,4,1,0,70,0,0
207186,-90.9090909090909,4,1,0,70,0,0
207386,-93.7499707031342,4,1,0,70,0,0
207586,-96.774224765879,4,1,0,70,0,0
207786,-100,4,1,0,70,0,0
218186,-100,4,1,0,70,0,0
218386,-96.7957696376837,4,1,0,70,0,0
218586,-93.7904178081742,4,1,0,70,0,0
218686,-92.3566555438468,4,1,0,70,0,0
218786,-90.9661514950287,4,1,0,70,0,0
218886,-89.6168164163669,4,1,0,70,0,0
218986,-88.3069266187101,4,1,0,70,0,0
219186,-85.7988343370367,4,1,0,70,0,0
219386,-83.429207397501,4,1,0,70,0,0
220186,-85.1039928240313,4,1,0,70,0,0
220986,-86.9516070830779,4,1,0,70,0,0
221786,-88.8811463534732,4,1,0,70,0,0
222186,-89.8784304349936,4,1,0,70,0,0
222386,-90.3855122870065,4,1,0,70,0,0
222586,-90.89834837701,4,1,0,70,0,0
222986,-91.9416795538254,4,1,0,70,0,0
223386,-93.0091530307497,4,1,0,70,0,0
223786,-94.1017936742892,4,1,0,70,0,0
224186,-95.2204114473979,4,1,0,70,0,0
224586,-96.3659438899655,4,1,0,70,0,0
224786,-96.9491085044727,4,1,0,70,0,0
224886,-97.2432510752673,4,1,0,70,0,0
224986,-97.5392790676806,4,1,0,70,0,0
225186,-98.1367751863127,4,1,0,70,0,0
225386,-98.7416365833814,4,1,0,70,0,0
225586,-99.3540002901137,4,1,0,70,0,0
225786,-99.9740067582429,4,1,0,70,0,0
226186,-98.7669928611218,4,1,0,70,0,0
226586,-97.5641166983913,4,1,0,70,0,0
226986,-96.3900945683218,4,1,0,70,0,0
227386,-95.2439912946992,4,1,0,70,0,0
227786,-94.1248226923653,4,1,0,70,0,0
227986,-93.5750439100893,4,1,0,70,0,0
228186,-93.0317368467079,4,1,0,70,0,0
228386,-92.4946168133015,4,1,0,70,0,0
228486,-92.2283759044145,4,1,0,70,0,0
228586,-91.9636633173501,4,1,0,70,0,0
228686,-91.7004659300674,4,1,0,70,0,0
228786,-91.4387707703168,4,1,0,70,0,0
228986,-90.9198359806159,4,1,0,70,0,0
229386,-89.8994384881072,4,1,0,70,0,0
229586,-89.3977807894897,4,1,0,70,0,0
229786,-88.9017697675308,4,1,0,70,0,0
229986,-88.4111543048717,4,1,0,70,0,0
230186,-87.9259241674074,4,1,0,70,0,0
230386,-87.4459911697038,4,1,0,70,0,0
230586,-86.9712690412722,4,1,0,70,0,0
230686,-86.7358356043666,4,1,0,70,0,0
230786,-86.5016733748714,4,1,0,70,0,0
230886,-86.2687720848057,4,1,0,70,0,0
230986,-86.0371215764754,4,1,0,70,0,0
231186,-85.5775328168444,4,1,0,70,0,0
231386,-85.1229004436606,4,1,0,70,0,0
231586,-84.67300133614,4,1,0,70,0,0
231686,-84.4498304669653,4,1,0,70,0,0
231786,-84.2278329189324,4,1,0,70,0,0
231986,-83.7873209674419,4,1,0,70,0,0
232086,-83.5687883946352,4,1,0,70,0,0
232186,-83.3513928017737,4,1,0,70,0,0
233786,-76.9230769230769,4,1,0,90,0,1
234186,-100,4,1,0,90,0,1
257786,-90.9090909090909,4,1,0,90,0,1
257986,-91.9485272144654,4,1,0,90,0,1
258186,-93.0120078502135,4,1,0,90,0,1
258386,-94.100465420902,4,1,0,90,0,1
258486,-94.6542139582783,4,1,0,90,0,1
258686,-95.7816790719905,4,1,0,90,0,1
258786,-96.3554514060187,4,1,0,90,0,1
258986,-97.5239640760726,4,1,0,90,0,1
259086,-98.1189613911699,4,1,0,90,0,1
259186,-98.7212634742184,4,1,0,90,0,1
259386,-100,4,1,0,80,0,0
272186,-100,4,1,0,70,0,0
272386,-142.857142857143,4,1,0,70,0,0
278586,-125,4,1,0,70,0,0
281786,-111.111111111111,4,1,0,70,0,0
283386,-100,4,1,0,70,0,0
284986,-76.9230769230769,4,1,0,90,0,1
285386,-80.459779363193,4,1,0,90,0,1
285486,-81.3953772309455,4,1,0,90,0,1
285586,-82.3529217993125,4,1,0,90,0,1
285786,-84.3373697198481,4,1,0,90,0,1
286186,-88.6076285851754,4,1,0,90,0,1
286286,-89.7435667324188,4,1,0,90,0,1
286386,-90.9090909090909,4,1,0,90,0,1
297786,-83.3333333333333,4,1,0,90,0,1
297986,-85.1063829787234,4,1,0,90,0,1
298186,-86.9565217391304,4,1,0,90,0,1
298286,-87.9120879120879,4,1,0,90,0,1
298386,-88.8888888888889,4,1,0,90,0,1
298586,-90.9090909090909,4,1,0,90,0,1
298786,-93.0232558139535,4,1,0,90,0,1
299186,-97.5609756097561,4,1,0,90,0,1
299386,-100,4,1,0,90,0,1
310585,-90.9090909090909,4,1,0,90,0,1
310985,-94.3396226415094,4,1,0,90,0,1
311185,-96.1538461538461,4,1,0,90,0,1
311485,-99.009900990099,4,1,0,90,0,1
311585,-100,4,1,0,90,0,1
321786,-100,4,1,0,90,0,1
321986,-98.7654320987654,4,1,0,90,0,1
322186,-97.5609756097561,4,1,0,90,0,1
322386,-96.3855421686747,4,1,0,90,0,1
322586,-95.2380952380952,4,1,0,90,0,1
322686,-94.6745562130178,4,1,0,90,0,1
322786,-94.1176470588235,4,1,0,90,0,1
322886,-93.5672514619883,4,1,0,90,0,1
322986,-93.0232558139535,4,1,0,90,0,1
323086,-92.485549132948,4,1,0,90,0,1
323186,-91.9540229885058,4,1,0,90,0,1
323386,-90.9090909090909,4,1,0,70,0,0

[HitObjects]
256,192,186,5,0,0:0:0:0:
256,192,586,5,8,0:0:0:0:
256,192,786,1,0,0:0:0:0:
256,192,986,5,8,0:0:0:0:
256,192,1786,5,0,0:0:0:0:
256,192,2586,5,8,0:0:0:0:
256,192,3386,5,0,0:0:0:0:
256,192,3786,5,8,0:0:0:0:
256,192,3986,1,0,0:0:0:0:
256,192,4186,5,8,0:0:0:0:
256,192,4986,5,0,0:0:0:0:
256,192,5786,5,8,0:0:0:0:
256,192,5986,5,0,0:0:0:0:
256,192,6186,5,8,0:0:0:0:
256,192,6386,5,8,0:0:0:0:
256,192,6586,5,0,0:0:0:0:
256,192,6986,5,8,0:0:0:0:
256,192,7386,5,8,0:0:0:0:
256,192,7586,5,0,0:0:0:0:
256,192,7786,5,8,0:0:0:0:
256,192,8186,5,0,0:0:0:0:
256,192,8586,5,8,0:0:0:0:
256,192,8986,5,0,0:0:0:0:
256,192,9186,5,0,0:0:0:0:
256,192,9386,5,8,0:0:0:0:
256,192,9786,5,0,0:0:0:0:
256,192,10186,5,8,0:0:0:0:
256,192,10586,5,8,0:0:0:0:
256,192,10786,5,0,0:0:0:0:
256,192,10986,5,8,0:0:0:0:
256,192,11386,5,0,0:0:0:0:
256,192,11786,5,8,0:0:0:0:
256,192,11986,5,0,0:0:0:0:
256,192,12186,5,8,0:0:0:0:
256,192,12386,5,8,0:0:0:0:
256,192,12586,5,0,0:0:0:0:
256,192,12786,5,8,0:0:0:0:
256,192,12986,5,4,0:0:0:0:
256,192,13386,5,8,0:0:0:0:
256,192,13986,5,0,0:0:0:0:
256,192,14186,5,8,0:0:0:0:
256,192,14586,5,0,0:0:0:0:
256,192,14986,5,8,0:0:0:0:
256,192,15186,5,0,0:0:0:0:
256,192,15586,5,0,0:0:0:0:
256,192,15786,5,8,0:0:0:0:
256,192,15986,5,0,0:0:0:0:
256,192,16186,5,0,0:0:0:0:
256,192,16586,5,8,0:0:0:0:
256,192,17186,5,0,0:0:0:0:
256,192,17386,5,8,0:0:0:0:
256,192,17786,5,0,0:0:0:0:
256,192,18186,5,8,0:0:0:0:
256,192,18386,5,0,0:0:0:0:
256,192,18586,5,0,0:0:0:0:
256,192,18786,5,0,0:0:0:0:
256,192,18886,5,0,0:0:0:0:
256,192,18986,5,8,0:0:0:0:
256,192,19186,5,8,0:0:0:0:
256,192,19386,5,0,0:0:0:0:
256,192,19786,5,8,0:0:0:0:
256,192,20386,5,0,0:0:0:0:
256,192,20586,5,8,0:0:0:0:
256,192,20986,5,0,0:0:0:0:
256,192,21386,5,8,0:0:0:0:
256,192,21586,5,0,0:0:0:0:
256,192,21986,5,0,0:0:0:0:
256,192,22186,5,8,0:0:0:0:
256,192,22386,5,0,0:0:0:0:
256,192,22586,5,0,0:0:0:0:
256,192,22986,5,8,0:0:0:0:
256,192,23586,5,0,0:0:0:0:
256,192,23786,5,8,0:0:0:0:
256,192,24186,5,0,0:0:0:0:
256,192,24586,5,8,0:0:0:0:
256,192,24786,5,8,0:0:0:0:
256,192,24886,5,0,0:0:0:0:
256,192,24986,5,8,0:0:0:0:
256,192,25086,5,8,0:0:0:0:
256,192,25186,5,0,0:0:0:0:
256,192,25386,5,8,0:0:0:0:
256,192,25586,5,8,0:0:0:0:
256,192,25786,5,4,0:0:0:0:
256,192,26186,5,8,0:0:0:0:
256,192,26386,5,0,0:0:0:0:
256,192,26486,5,0,0:0:0:0:
256,192,26586,5,0,0:0:0:0:
256,192,26786,5,0,0:0:0:0:
256,192,26986,5,8,0:0:0:0:
256,192,27186,5,8,0:0:0:0:
256,192,27386,5,0,0:0:0:0:
256,192,27786,5,8,0:0:0:0:
256,192,27986,5,0,0:0:0:0:
256,192,28086,5,8,0:0:0:0:
256,192,28286,5,8,0:0:0:0:
256,192,28386,5,0,0:0:0:0:
256,192,28586,5,8,0:0:0:0:
256,192,28786,5,0,0:0:0:0:
256,192,28986,5,0,0:0:0:0:
256,192,29386,5,8,0:0:0:0:
256,192,29586,5,0,0:0:0:0:
256,192,29686,5,0,0:0:0:0:
256,192,29786,5,0,0:0:0:0:
256,192,29986,5,0,0:0:0:0:
256,192,30186,5,8,0:0:0:0:
256,192,30386,5,8,0:0:0:0:
256,192,30586,5,0,0:0:0:0:
256,192,30786,5,0,0:0:0:0:
256,192,30986,5,8,0:0:0:0:
256,192,31186,5,0,0:0:0:0:
256,192,31286,5,8,0:0:0:0:
256,192,31486,5,8,0:0:0:0:
256,192,31586,5,0,0:0:0:0:
256,192,31686,5,0,0:0:0:0:
256,192,31786,5,8,0:0:0:0:
256,192,31986,5,8,0:0:0:0:
256,192,32086,5,8,0:0:0:0:
256,192,32186,5,0,0:0:0:0:
256,192,32586,5,8,0:0:0:0:
256,192,32786,5,0,0:0:0:0:
256,192,32886,5,0,0:0:0:0:
256,192,32986,5,0,0:0:0:0:
256,192,33186,5,0,0:0:0:0:
256,192,33386,5,8,0:0:0:0:
256,192,33586,5,8,0:0:0:0:
256,192,33786,5,0,0:0:0:0:
256,192,34186,5,8,0:0:0:0:
256,192,34386,5,0,0:0:0:0:
256,192,34486,5,0,0:0:0:0:
256,192,34686,5,8,0:0:0:0:
256,192,34786,5,0,0:0:0:0:
256,192,34986,5,8,0:0:0:0:
256,192,35186,5,0,0:0:0:0:
256,192,35386,5,0,0:0:0:0:
256,192,35786,5,8,0:0:0:0:
256,192,35986,5,0,0:0:0:0:
256,192,36086,5,0,0:0:0:0:
256,192,36186,5,0,0:0:0:0:
256,192,36386,5,0,0:0:0:0:
256,192,36586,5,8,0:0:0:0:
256,192,36786,5,8,0:0:0:0:
256,192,36986,5,0,0:0:0:0:
256,192,37186,5,0,0:0:0:0:
256,192,37386,5,8,0:0:0:0:
256,192,37586,5,0,0:0:0:0:
256,192,37686,5,8,0:0:0:0:
256,192,37886,5,8,0:0:0:0:
256,192,37986,5,0,0:0:0:0:
256,192,38186,5,8,0:0:0:0:
256,192,38286,5,8,0:0:0:0:
256,192,38386,5,8,0:0:0:0:
256,192,38486,5,8,0:0:0:0:
256,192,38586,5,4,0:0:0:0:
256,192,40986,5,8,0:0:0:0:
256,192,41786,5,0,0:0:0:0:
256,192,44186,5,0,0:0:0:0:
256,192,44986,5,12,0:0:0:0:
256,192,45386,5,8,0:0:0:0:
256,192,45586,5,0,0:0:0:0:
256,192,45986,5,0,0:0:0:0:
256,192,46586,5,8,0:0:0:0:
256,192,46986,5,0,0:0:0:0:
256,192,47186,5,8,0:0:0:0:
256,192,47586,5,8,0:0:0:0:
256,192,48186,5,0,0:0:0:0:
256,192,48586,5,0,0:0:0:0:
256,192,49786,5,8,0:0:0:0:
256,192,50186,5,8,0:0:0:0:
256,192,50586,5,8,0:0:0:0:
256,192,50986,5,8,0:0:0:0:
256,192,51386,5,4,0:0:0:0:
256,192,51786,5,0,0:0:0:0:
256,192,51986,5,8,0:0:0:0:
256,192,52386,5,8,0:0:0:0:
256,192,52986,5,8,0:0:0:0:
256,192,53386,5,8,0:0:0:0:
256,192,53586,5,0,0:0:0:0:
256,192,53986,5,0,0:0:0:0:
256,192,54586,5,8,0:0:0:0:
256,192,54986,5,8,0:0:0:0:
256,192,56186,5,8,0:0:0:0:
256,192,56586,5,0,0:0:0:0:
256,192,56986,5,8,0:0:0:0:
256,192,57386,5,8,0:0:0:0:
256,192,57786,5,4,0:0:0:0:
256,192,58186,5,0,0:0:0:0:
256,192,58386,5,8,0:0:0:0:
256,192,58786,5,8,0:0:0:0:
256,192,59386,5,8,0:0:0:0:
256,192,59786,5,8,0:0:0:0:
256,192,59986,5,0,0:0:0:0:
256,192,60386,5,0,0:0:0:0:
256,192,60986,5,8,0:0:0:0:
256,192,61386,5,8,0:0:0:0:
256,192,62586,5,8,0:0:0:0:
256,192,62986,5,8,0:0:0:0:
256,192,63386,5,0,0:0:0:0:
256,192,63786,5,8,0:0:0:0:
256,192,64186,5,4,0:0:0:0:
256,192,64386,5,8,0:0:0:0:
256,192,64486,5,8,0:0:0:0:
256,192,64586,5,0,0:0:0:0:
256,192,64786,5,0,0:0:0:0:
256,192,64986,5,8,0:0:0:0:
256,192,65186,5,8,0:0:0:0:
256,192,65386,5,0,0:0:0:0:
256,192,65786,5,0,0:0:0:0:
256,192,65986,5,8,0:0:0:0:
256,192,66186,5,0,0:0:0:0:
256,192,66386,5,0,0:0:0:0:
256,192,66586,5,8,0:0:0:0:
256,192,66986,5,8,0:0:0:0:
256,192,67386,5,0,0:0:0:0:
256,192,67586,5,8,0:0:0:0:
256,192,67686,5,8,0:0:0:0:
256,192,67786,5,0,0:0:0:0:
256,192,67986,5,0,0:0:0:0:
256,192,68186,5,8,0:0:0:0:
256,192,68386,5,8,0:0:0:0:
256,192,68586,5,0,0:0:0:0:
256,192,68986,5,0,0:0:0:0:
256,192,69386,5,8,0:0:0:0:
256,192,69586,5,0,0:0:0:0:
256,192,69786,5,8,0:0:0:0:
256,192,69886,5,8,0:0:0:0:
256,192,69986,5,0,0:0:0:0:
256,192,70086,5,0,0:0:0:0:
256,192,70186,5,8,0:0:0:0:
256,192,70386,5,8,0:0:0:0:
256,192,70586,5,0,0:0:0:0:
256,192,70786,5,8,0:0:0:0:
256,192,70886,5,8,0:0:0:0:
256,192,70986,5,0,0:0:0:0:
256,192,71186,5,0,0:0:0:0:
256,192,71386,5,8,0:0:0:0:
256,192,71586,5,8,0:0:0:0:
256,192,71786,5,0,0:0:0:0:
256,192,72186,5,0,0:0:0:0:
256,192,72386,5,8,0:0:0:0:
256,192,72586,5,0,0:0:0:0:
256,192,72786,5,0,0:0:0:0:
256,192,72986,5,8,0:0:0:0:
256,192,73186,5,8,0:0:0:0:
256,192,73386,5,0,0:0:0:0:
256,192,73786,5,0,0:0:0:0:
256,192,73986,5,8,0:0:0:0:
256,192,74086,5,8,0:0:0:0:
256,192,74186,5,0,0:0:0:0:
256,192,74386,5,0,0:0:0:0:
256,192,74586,5,8,0:0:0:0:
256,192,74786,5,8,0:0:0:0:
256,192,74986,5,0,0:0:0:0:
256,192,75386,5,0,0:0:0:0:
256,192,75786,5,8,0:0:0:0:
256,192,75986,5,0,0:0:0:0:
256,192,76186,5,8,0:0:0:0:
256,192,76286,5,8,0:0:0:0:
256,192,76386,5,0,0:0:0:0:
256,192,76486,5,0,0:0:0:0:
256,192,76586,5,8,0:0:0:0:
256,192,76786,5,8,0:0:0:0:
256,192,76986,5,4,0:0:0:0:
256,192,77786,5,0,0:0:0:0:
256,192,78586,5,0,0:0:0:0:
256,192,79386,5,0,0:0:0:0:
256,192,79786,5,8,0:0:0:0:
256,192,79986,5,8,0:0:0:0:
256,192,80186,5,0,0:0:0:0:
256,192,80586,5,8,0:0:0:0:
256,192,80986,5,0,0:0:0:0:
256,192,81386,5,8,0:0:0:0:
256,192,81786,5,0,0:0:0:0:
256,192,82186,5,8,0:0:0:0:
256,192,82386,5,0,0:0:0:0:
256,192,82486,5,0,0:0:0:0:
256,192,82586,5,0,0:0:0:0:
256,192,82786,5,0,0:0:0:0:
256,192,82986,5,8,0:0:0:0:
256,192,83386,5,0,0:0:0:0:
256,192,83786,5,8,0:0:0:0:
256,192,84186,5,0,0:0:0:0:
256,192,84586,5,8,0:0:0:0:
256,192,84986,5,0,0:0:0:0:
256,192,85386,5,8,0:0:0:0:
256,192,85586,5,0,0:0:0:0:
256,192,85786,5,0,0:0:0:0:
256,192,85986,5,0,0:0:0:0:
256,192,86086,5,0,0:0:0:0:
256,192,86186,5,8,0:0:0:0:
256,192,86286,5,0,0:0:0:0:
256,192,86386,5,8,0:0:0:0:
256,192,86586,5,0,0:0:0:0:
256,192,86786,5,0,0:0:0:0:
256,192,86986,5,8,0:0:0:0:
256,192,87186,5,0,0:0:0:0:
256,192,87386,5,0,0:0:0:0:
256,192,87586,5,0,0:0:0:0:
256,192,87786,5,8,0:0:0:0:
256,192,87986,5,0,0:0:0:0:
256,192,88186,5,0,0:0:0:0:
256,192,88286,5,0,0:0:0:0:
256,192,88386,5,0,0:0:0:0:
256,192,88486,5,0,0:0:0:0:
256,192,88586,5,8,0:0:0:0:
256,192,88786,5,8,0:0:0:0:
256,192,88986,5,0,0:0:0:0:
256,192,89186,5,8,0:0:0:0:
256,192,89286,5,0,0:0:0:0:
256,192,89386,5,8,0:0:0:0:
256,192,89586,5,8,0:0:0:0:
256,192,89686,5,8,0:0:0:0:
256,192,89786,5,0,0:0:0:0:
256,192,91386,5,4,0:0:0:0:
256,192,91786,5,8,0:0:0:0:
256,192,91986,5,0,0:0:0:0:
256,192,92286,5,8,0:0:0:0:
256,192,92386,5,0,0:0:0:0:
256,192,92586,5,8,0:0:0:0:
256,192,92786,5,0,0:0:0:0:
256,192,92886,5,0,0:0:0:0:
256,192,92986,5,0,0:0:0:0:
256,192,93186,5,0,0:0:0:0:
256,192,93386,5,8,0:0:0:0:
256,192,93586,5,0,0:0:0:0:
256,192,93686,5,0,0:0:0:0:
256,192,93786,5,8,0:0:0:0:
256,192,93886,5,8,0:0:0:0:
256,192,93986,5,0,0:0:0:0:
256,192,94186,5,8,0:0:0:0:
256,192,94386,5,8,0:0:0:0:
256,192,94486,5,8,0:0:0:0:
256,192,94586,5,0,0:0:0:0:
256,192,94786,5,0,0:0:0:0:
256,192,94886,5,0,0:0:0:0:
256,192,94986,5,8,0:0:0:0:
256,192,95186,5,0,0:0:0:0:
256,192,95486,5,8,0:0:0:0:
256,192,95586,5,0,0:0:0:0:
256,192,95786,5,8,0:0:0:0:
256,192,95986,5,0,0:0:0:0:
256,192,96086,5,0,0:0:0:0:
256,192,96186,5,0,0:0:0:0:
256,192,96386,5,0,0:0:0:0:
256,192,96586,5,8,0:0:0:0:
256,192,96786,5,0,0:0:0:0:
256,192,96886,5,0,0:0:0:0:
256,192,97086,5,8,0:0:0:0:
256,192,97186,5,0,0:0:0:0:
256,192,97286,5,0,0:0:0:0:
256,192,97386,5,8,0:0:0:0:
256,192,97586,5,8,0:0:0:0:
256,192,97786,5,0,0:0:0:0:
256,192,98186,5,8,0:0:0:0:
256,192,98386,5,0,0:0:0:0:
256,192,98686,5,8,0:0:0:0:
256,192,98786,5,0,0:0:0:0:
256,192,98986,5,8,0:0:0:0:
256,192,99186,5,0,0:0:0:0:
256,192,99286,5,0,0:0:0:0:
256,192,99386,5,0,0:0:0:0:
256,192,99586,5,0,0:0:0:0:
256,192,99786,5,8,0:0:0:0:
256,192,99986,5,0,0:0:0:0:
256,192,100086,5,0,0:0:0:0:
256,192,100186,5,8,0:0:0:0:
256,192,100286,5,8,0:0:0:0:
256,192,100386,5,0,0:0:0:0:
256,192,100586,5,8,0:0:0:0:
256,192,100786,5,8,0:0:0:0:
256,192,100886,5,8,0:0:0:0:
256,192,100986,5,0,0:0:0:0:
256,192,101186,5,0,0:0:0:0:
256,192,101286,5,0,0:0:0:0:
256,192,101386,5,8,0:0:0:0:
256,192,101586,5,0,0:0:0:0:
256,192,101886,5,8,0:0:0:0:
256,192,101986,5,0,0:0:0:0:
256,192,102186,5,8,0:0:0:0:
256,192,102386,5,0,0:0:0:0:
256,192,102486,5,0,0:0:0:0:
256,192,102586,5,0,0:0:0:0:
256,192,102786,5,0,0:0:0:0:
256,192,102986,5,8,0:0:0:0:
256,192,103186,5,8,0:0:0:0:
256,192,103286,5,8,0:0:0:0:
256,192,103386,5,0,0:0:0:0:
256,192,103486,5,8,0:0:0:0:
256,192,103586,5,0,0:0:0:0:
256,192,103786,5,8,0:0:0:0:
256,192,103886,5,8,0:0:0:0:
256,192,103986,5,8,0:0:0:0:
256,192,104186,5,4,0:0:0:0:
256,192,104586,5,8,0:0:0:0:
256,192,104786,5,0,0:0:0:0:
256,192,105086,5,0,0:0:0:0:
256,192,105186,5,0,0:0:0:0:
256,192,105386,5,8,0:0:0:0:
256,192,105586,5,0,0:0:0:0:
256,192,105686,5,0,0:0:0:0:
256,192,105786,5,0,0:0:0:0:
256,192,105986,5,0,0:0:0:0:
256,192,106186,5,8,0:0:0:0:
256,192,106386,5,0,0:0:0:0:
256,192,106486,5,8,0:0:0:0:
256,192,106686,5,8,0:0:0:0:
256,192,106786,5,0,0:0:0:0:
256,192,106986,5,8,0:0:0:0:
256,192,107186,5,8,0:0:0:0:
256,192,107386,5,0,0:0:0:0:
256,192,107786,5,8,0:0:0:0:
256,192,107986,5,0,0:0:0:0:
256,192,108286,5,0,0:0:0:0:
256,192,108386,5,0,0:0:0:0:
256,192,108586,5,8,0:0:0:0:
256,192,108786,5,0,0:0:0:0:
256,192,108886,5,0,0:0:0:0:
256,192,108986,5,0,0:0:0:0:
256,192,109186,5,0,0:0:0:0:
256,192,109386,5,8,0:0:0:0:
256,192,109586,5,0,0:0:0:0:
256,192,109686,5,0,0:0:0:0:
256,192,109886,5,8,0:0:0:0:
256,192,109986,5,0,0:0:0:0:
256,192,110186,5,8,0:0:0:0:
256,192,110386,5,8,0:0:0:0:
256,192,110486,5,8,0:0:0:0:
256,192,110586,5,0,0:0:0:0:
256,192,110986,5,8,0:0:0:0:
256,192,111186,5,0,0:0:0:0:
256,192,111486,5,0,0:0:0:0:
256,192,111586,5,0,0:0:0:0:
256,192,111786,5,8,0:0:0:0:
256,192,111986,5,0,0:0:0:0:
256,192,112086,5,0,0:0:0:0:
256,192,112186,5,0,0:0:0:0:
256,192,112386,5,0,0:0:0:0:
256,192,112586,5,8,0:0:0:0:
256,192,112786,5,0,0:0:0:0:
256,192,112886,5,8,0:0:0:0:
256,192,113086,5,8,0:0:0:0:
256,192,113186,5,0,0:0:0:0:
256,192,113386,5,8,0:0:0:0:
256,192,113586,5,8,0:0:0:0:
256,192,113786,5,0,0:0:0:0:
256,192,114186,5,8,0:0:0:0:
256,192,114386,5,0,0:0:0:0:
256,192,114686,5,0,0:0:0:0:
256,192,114786,5,0,0:0:0:0:
256,192,114986,5,8,0:0:0:0:
256,192,115186,5,0,0:0:0:0:
256,192,115286,5,0,0:0:0:0:
256,192,115386,5,8,0:0:0:0:
256,192,115586,5,0,0:0:0:0:
256,192,115786,5,8,0:0:0:0:
256,192,115986,5,0,0:0:0:0:
256,192,116086,5,8,0:0:0:0:
256,192,116286,5,0,0:0:0:0:
256,192,116386,5,0,0:0:0:0:
256,192,116586,5,8,0:0:0:0:
256,192,116686,5,8,0:0:0:0:
256,192,116786,5,8,0:0:0:0:
256,192,116986,5,4,0:0:0:0:
256,192,117386,5,8,0:0:0:0:
256,192,117586,5,0,0:0:0:0:
256,192,117986,5,0,0:0:0:0:
256,192,118186,5,8,0:0:0:0:
256,192,118586,5,0,0:0:0:0:
256,192,118786,5,0,0:0:0:0:
256,192,118986,5,8,0:0:0:0:
256,192,119186,5,0,0:0:0:0:
256,192,119286,5,0,0:0:0:0:
256,192,119386,5,0,0:0:0:0:
256,192,119586,5,0,0:0:0:0:
256,192,119786,5,8,0:0:0:0:
256,192,119986,5,0,0:0:0:0:
256,192,120186,5,0,0:0:0:0:
256,192,120586,5,8,0:0:0:0:
256,192,120786,5,0,0:0:0:0:
256,192,121186,5,0,0:0:0:0:
256,192,121386,5,8,0:0:0:0:
256,192,121786,5,0,0:0:0:0:
256,192,121986,5,0,0:0:0:0:
256,192,122186,5,8,0:0:0:0:
256,192,122386,5,0,0:0:0:0:
256,192,122486,5,8,0:0:0:0:
256,192,122686,5,8,0:0:0:0:
256,192,122786,5,0,0:0:0:0:
256,192,122886,5,0,0:0:0:0:
256,192,122986,5,8,0:0:0:0:
256,192,123186,5,8,0:0:0:0:
256,192,123286,5,8,0:0:0:0:
256,192,123386,5,0,0:0:0:0:
256,192,123786,5,8,0:0:0:0:
256,192,123986,5,0,0:0:0:0:
256,192,124386,5,0,0:0:0:0:
256,192,124586,5,8,0:0:0:0:
256,192,124986,5,0,0:0:0:0:
256,192,125386,5,8,0:0:0:0:
256,192,125586,5,0,0:0:0:0:
256,192,125686,5,0,0:0:0:0:
256,192,125786,5,0,0:0:0:0:
256,192,125986,5,0,0:0:0:0:
256,192,126186,5,8,0:0:0:0:
256,192,126386,5,0,0:0:0:0:
256,192,126586,5,0,0:0:0:0:
256,192,126986,5,8,0:0:0:0:
256,192,127186,5,0,0:0:0:0:
256,192,127586,5,0,0:0:0:0:
256,192,127786,5,8,0:0:0:0:
256,192,128186,5,0,0:0:0:0:
256,192,128386,5,0,0:0:0:0:
256,192,128586,5,8,0:0:0:0:
256,192,128786,5,0,0:0:0:0:
256,192,128886,5,8,0:0:0:0:
256,192,129086,5,8,0:0:0:0:
256,192,129186,5,0,0:0:0:0:
256,192,129386,5,8,0:0:0:0:
256,192,129486,5,8,0:0:0:0:
256,192,129586,5,8,0:0:0:0:
256,192,129786,5,4,0:0:0:0:
256,192,131386,5,0,0:0:0:0:
256,192,132986,5,0,0:0:0:0:
256,192,134586,5,8,0:0:0:0:
256,192,136186,5,4,0:0:0:0:
256,192,136786,5,0,0:0:0:0:
256,192,137786,5,0,0:0:0:0:
256,192,138386,5,8,0:0:0:0:
256,192,139386,5,0,0:0:0:0:
256,192,140986,5,8,0:0:0:0:
256,192,142586,5,4,0:0:0:0:
256,192,142986,5,8,0:0:0:0:
256,192,143086,5,8,0:0:0:0:
256,192,143186,5,0,0:0:0:0:
256,192,143386,5,8,0:0:0:0:
256,192,143786,5,0,0:0:0:0:
256,192,143886,5,0,0:0:0:0:
256,192,143986,5,8,0:0:0:0:
256,192,144186,5,0,0:0:0:0:
256,192,144586,5,8,0:0:0:0:
256,192,144786,5,0,0:0:0:0:
256,192,144886,5,0,0:0:0:0:
256,192,144986,5,8,0:0:0:0:
256,192,145086,5,0,0:0:0:0:
256,192,145186,5,8,0:0:0:0:
256,192,145386,5,0,0:0:0:0:
256,192,145586,5,8,0:0:0:0:
256,192,145786,5,0,0:0:0:0:
256,192,146186,5,8,0:0:0:0:
256,192,146286,5,8,0:0:0:0:
256,192,146386,5,0,0:0:0:0:
256,192,146586,5,8,0:0:0:0:
256,192,146986,5,0,0:0:0:0:
256,192,147086,5,0,0:0:0:0:
256,192,147186,5,8,0:0:0:0:
256,192,147386,5,0,0:0:0:0:
256,192,147586,5,8,0:0:0:0:
256,192,147686,5,8,0:0:0:0:
256,192,147786,5,0,0:0:0:0:
256,192,147886,5,0,0:0:0:0:
256,192,147986,5,0,0:0:0:0:
256,192,148186,5,8,0:0:0:0:
256,192,148286,5,0,0:0:0:0:
256,192,148386,5,8,0:0:0:0:
256,192,148586,5,0,0:0:0:0:
256,192,148786,5,8,0:0:0:0:
256,192,148986,5,4,0:0:0:0:
256,192,149386,5,0,0:0:0:0:
256,192,149486,5,0,0:0:0:0:
256,192,149586,5,0,0:0:0:0:
256,192,149786,5,8,0:0:0:0:
256,192,149986,5,8,0:0:0:0:
256,192,150086,5,8,0:0:0:0:
256,192,150186,5,0,0:0:0:0:
256,192,150286,5,0,0:0:0:0:
256,192,150386,5,8,0:0:0:0:
256,192,150586,5,0,0:0:0:0:
256,192,150686,5,8,0:0:0:0:
256,192,150886,5,8,0:0:0:0:
256,192,151086,5,8,0:0:0:0:
256,192,151186,5,0,0:0:0:0:
256,192,151386,5,8,0:0:0:0:
256,192,151586,5,8,0:0:0:0:
256,192,151786,5,0,0:0:0:0:
256,192,152186,5,0,0:0:0:0:
256,192,152586,5,8,0:0:0:0:
256,192,152686,5,8,0:0:0:0:
256,192,152786,5,0,0:0:0:0:
256,192,152986,5,8,0:0:0:0:
256,192,153186,5,0,0:0:0:0:
256,192,153386,5,0,0:0:0:0:
256,192,153486,5,0,0:0:0:0:
256,192,153586,5,8,0:0:0:0:
256,192,153786,5,0,0:0:0:0:
256,192,154186,5,8,0:0:0:0:
256,192,154286,5,8,0:0:0:0:
256,192,154386,5,0,0:0:0:0:
256,192,154586,5,8,0:0:0:0:
256,192,154786,5,0,0:0:0:0:
256,192,154986,5,8,0:0:0:0:
256,192,155086,5,0,0:0:0:0:
256,192,155186,5,8,0:0:0:0:
256,192,155386,5,4,0:0:0:0:
256,192,155586,5,8,0:0:0:0:
256,192,155786,5,0,0:0:0:0:
256,192,155886,5,0,0:0:0:0:
256,192,155986,5,8,0:0:0:0:
256,192,156186,5,0,0:0:0:0:
256,192,156386,5,8,0:0:0:0:
256,192,156786,5,8,0:0:0:0:
256,192,156986,5,0,0:0:0:0:
256,192,157386,5,8,0:0:0:0:
256,192,157586,5,0,0:0:0:0:
256,192,157786,5,8,0:0:0:0:
256,192,157986,5,8,0:0:0:0:
256,192,158086,5,8,0:0:0:0:
256,192,158186,5,0,0:0:0:0:
256,192,158386,5,8,0:0:0:0:
256,192,158586,5,0,0:0:0:0:
256,192,158786,5,8,0:0:0:0:
256,192,158986,5,0,0:0:0:0:
256,192,159086,5,0,0:0:0:0:
256,192,159186,5,8,0:0:0:0:
256,192,159386,5,0,0:0:0:0:
256,192,159586,5,8,0:0:0:0:
256,192,159986,5,8,0:0:0:0:
256,192,160186,5,0,0:0:0:0:
256,192,160586,5,0,0:0:0:0:
256,192,160786,5,0,0:0:0:0:
256,192,160886,5,0,0:0:0:0:
256,192,160986,5,8,0:0:0:0:
256,192,161086,5,8,0:0:0:0:
256,192,161186,5,0,0:0:0:0:
256,192,161386,5,8,0:0:0:0:
256,192,161586,5,8,0:0:0:0:
256,192,161786,5,4,0:0:0:0:
256,192,162186,5,8,0:0:0:0:
256,192,162286,5,0,0:0:0:0:
256,192,162386,5,0,0:0:0:0:
256,192,162586,5,8,0:0:0:0:
256,192,162786,5,0,0:0:0:0:
256,192,162886,5,0,0:0:0:0:
256,192,162986,5,0,0:0:0:0:
256,192,163086,5,0,0:0:0:0:
256,192,163186,5,8,0:0:0:0:
256,192,163386,5,0,0:0:0:0:
256,192,163486,5,8,0:0:0:0:
256,192,163686,5,8,0:0:0:0:
256,192,163886,5,8,0:0:0:0:
256,192,163986,5,0,0:0:0:0:
256,192,164186,5,8,0:0:0:0:
256,192,164386,5,8,0:0:0:0:
256,192,164486,5,8,0:0:0:0:
256,192,164586,5,0,0:0:0:0:
256,192,164786,5,8,0:0:0:0:
256,192,164986,5,0,0:0:0:0:
256,192,165386,5,8,0:0:0:0:
256,192,165486,5,0,0:0:0:0:
256,192,165586,5,0,0:0:0:0:
256,192,165786,5,8,0:0:0:0:
256,192,165986,5,0,0:0:0:0:
256,192,166186,5,0,0:0:0:0:
256,192,166286,5,0,0:0:0:0:
256,192,166386,5,8,0:0:0:0:
256,192,166586,5,0,0:0:0:0:
256,192,166786,5,0,0:0:0:0:
256,192,167186,5,8,0:0:0:0:
256,192,167586,5,8,0:0:0:0:
256,192,167686,5,0,0:0:0:0:
256,192,167786,5,8,0:0:0:0:
256,192,167886,5,8,0:0:0:0:
256,192,167986,5,0,0:0:0:0:
256,192,168186,5,4,0:0:0:0:
256,192,168586,5,8,0:0:0:0:
256,192,168786,5,0,0:0:0:0:
256,192,169086,5,0,0:0:0:0:
256,192,169186,5,8,0:0:0:0:
256,192,169386,5,0,0:0:0:0:
256,192,169486,5,0,0:0:0:0:
256,192,169586,5,8,0:0:0:0:
256,192,169786,5,0,0:0:0:0:
256,192,169986,5,0,0:0:0:0:
256,192,170186,5,8,0:0:0:0:
256,192,170386,5,0,0:0:0:0:
256,192,170686,5,0,0:0:0:0:
256,192,170786,5,8,0:0:0:0:
256,192,170986,5,8,0:0:0:0:
256,192,171086,5,0,0:0:0:0:
256,192,171186,5,8,0:0:0:0:
256,192,171386,5,0,0:0:0:0:
256,192,171586,5,0,0:0:0:0:
256,192,171786,5,8,0:0:0:0:
256,192,171986,5,0,0:0:0:0:
256,192,172286,5,0,0:0:0:0:
256,192,172386,5,8,0:0:0:0:
256,192,172586,5,0,0:0:0:0:
256,192,172686,5,0,0:0:0:0:
256,192,172786,5,8,0:0:0:0:
256,192,172986,5,0,0:0:0:0:
256,192,173186,5,0,0:0:0:0:
256,192,173386,5,8,0:0:0:0:
256,192,173586,5,0,0:0:0:0:
256,192,173786,5,8,0:0:0:0:
256,192,173886,5,0,0:0:0:0:
256,192,173986,5,8,0:0:0:0:
256,192,174086,5,8,0:0:0:0:
256,192,174186,5,0,0:0:0:0:
256,192,174286,5,0,0:0:0:0:
256,192,174386,5,8,0:0:0:0:
256,192,174586,5,4,0:0:0:0:
256,192,174986,5,8,0:0:0:0:
256,192,175186,5,0,0:0:0:0:
256,192,175486,5,0,0:0:0:0:
256,192,175586,5,8,0:0:0:0:
256,192,175786,5,0,0:0:0:0:
256,192,175886,5,0,0:0:0:0:
256,192,175986,5,8,0:0:0:0:
256,192,176186,5,0,0:0:0:0:
256,192,176386,5,0,0:0:0:0:
256,192,176586,5,8,0:0:0:0:
256,192,176786,5,0,0:0:0:0:
256,192,177086,5,0,0:0:0:0:
256,192,177186,5,8,0:0:0:0:
256,192,177386,5,8,0:0:0:0:
256,192,177486,5,0,0:0:0:0:
256,192,177586,5,8,0:0:0:0:
256,192,177786,5,0,0:0:0:0:
256,192,177986,5,0,0:0:0:0:
256,192,178186,5,8,0:0:0:0:
256,192,178386,5,0,0:0:0:0:
256,192,178686,5,0,0:0:0:0:
256,192,178786,5,8,0:0:0:0:
256,192,178986,5,0,0:0:0:0:
256,192,179086,5,0,0:0:0:0:
256,192,179186,5,8,0:0:0:0:
256,192,179386,5,0,0:0:0:0:
256,192,179586,5,0,0:0:0:0:
256,192,179786,5,8,0:0:0:0:
256,192,179986,5,0,0:0:0:0:
256,192,180186,5,0,0:0:0:0:
256,192,180286,5,0,0:0:0:0:
256,192,180386,5,8,0:0:0:0:
256,192,180486,5,8,0:0:0:0:
256,192,180586,5,0,0:0:0:0:
256,192,180686,5,0,0:0:0:0:
256,192,180786,5,8,0:0:0:0:
256,192,180986,5,4,0:0:0:0:
256,192,183386,5,0,0:0:0:0:
256,192,184186,5,0,0:0:0:0:
256,192,186586,5,0,0:0:0:0:
256,192,187386,5,8,0:0:0:0:
256,192,187986,5,0,0:0:0:0:
256,192,188386,5,0,0:0:0:0:
256,192,188986,5,0,0:0:0:0:
256,192,189586,5,8,0:0:0:0:
256,192,189986,5,8,0:0:0:0:
256,192,190586,5,0,0:0:0:0:
256,192,190986,5,0,0:0:0:0:
256,192,192186,5,8,0:0:0:0:
256,192,192586,5,0,0:0:0:0:
256,192,192986,5,8,0:0:0:0:
256,192,193386,5,8,0:0:0:0:
256,192,193786,5,4,0:0:0:0:
256,192,194186,5,0,0:0:0:0:
256,192,194386,5,8,0:0:0:0:
256,192,194786,5,8,0:0:0:0:
256,192,195386,5,8,0:0:0:0:
256,192,195786,5,8,0:0:0:0:
256,192,195986,5,0,0:0:0:0:
256,192,196386,5,0,0:0:0:0:
256,192,196986,5,8,0:0:0:0:
256,192,197386,5,8,0:0:0:0:
256,192,198586,5,8,0:0:0:0:
256,192,198986,5,0,0:0:0:0:
256,192,199386,5,8,0:0:0:0:
256,192,199786,5,8,0:0:0:0:
256,192,200186,5,4,0:0:0:0:
256,192,200586,5,0,0:0:0:0:
256,192,200786,5,8,0:0:0:0:
256,192,201186,5,8,0:0:0:0:
256,192,201786,5,8,0:0:0:0:
256,192,202186,5,8,0:0:0:0:
256,192,202386,5,0,0:0:0:0:
256,192,202786,5,0,0:0:0:0:
256,192,203386,5,8,0:0:0:0:
256,192,203786,5,8,0:0:0:0:
256,192,204986,5,8,0:0:0:0:
256,192,205386,5,8,0:0:0:0:
256,192,205786,5,0,0:0:0:0:
256,192,206186,5,8,0:0:0:0:
256,192,206586,5,4,0:0:0:0:
256,192,206786,5,8,0:0:0:0:
256,192,206886,5,8,0:0:0:0:
256,192,206986,5,0,0:0:0:0:
256,192,207186,5,0,0:0:0:0:
256,192,207386,5,8,0:0:0:0:
256,192,207586,5,8,0:0:0:0:
256,192,207786,5,0,0:0:0:0:
256,192,208186,5,0,0:0:0:0:
256,192,208386,5,8,0:0:0:0:
256,192,208586,5,0,0:0:0:0:
256,192,208786,5,0,0:0:0:0:
256,192,208986,5,8,0:0:0:0:
256,192,209386,5,8,0:0:0:0:
256,192,209786,5,0,0:0:0:0:
256,192,209986,5,8,0:0:0:0:
256,192,210086,5,8,0:0:0:0:
256,192,210186,5,0,0:0:0:0:
256,192,210386,5,0,0:0:0:0:
256,192,210586,5,8,0:0:0:0:
256,192,210786,5,8,0:0:0:0:
256,192,210986,5,0,0:0:0:0:
256,192,211386,5,0,0:0:0:0:
256,192,211786,5,8,0:0:0:0:
256,192,211986,5,0,0:0:0:0:
256,192,212186,5,8,0:0:0:0:
256,192,212286,5,8,0:0:0:0:
256,192,212386,5,0,0:0:0:0:
256,192,212486,5,0,0:0:0:0:
256,192,212586,5,8,0:0:0:0:
256,192,212786,5,8,0:0:0:0:
256,192,212986,5,0,0:0:0:0:
256,192,213186,5,8,0:0:0:0:
256,192,213286,5,8,0:0:0:0:
256,192,213386,5,0,0:0:0:0:
256,192,213586,5,0,0:0:0:0:
256,192,213786,5,8,0:0:0:0:
256,192,213986,5,8,0:0:0:0:
256,192,214186,5,0,0:0:0:0:
256,192,214586,5,0,0:0:0:0:
256,192,214786,5,8,0:0:0:0:
256,192,214986,5,0,0:0:0:0:
256,192,215186,5,0,0:0:0:0:
256,192,215386,5,8,0:0:0:0:
256,192,215586,5,8,0:0:0:0:
256,192,215786,5,0,0:0:0:0:
256,192,216186,5,0,0:0:0:0:
256,192,216386,5,8,0:0:0:0:
256,192,216486,5,8,0:0:0:0:
256,192,216586,5,0,0:0:0:0:
256,192,216786,5,0,0:0:0:0:
256,192,216986,5,8,0:0:0:0:
256,192,217186,5,8,0:0:0:0:
256,192,217386,5,0,0:0:0:0:
256,192,217786,5,0,0:0:0:0:
256,192,218186,5,8,0:0:0:0:
256,192,218386,5,0,0:0:0:0:
256,192,218586,5,8,0:0:0:0:
256,192,218686,5,8,0:0:0:0:
256,192,218786,5,0,0:0:0:0:
256,192,218886,5,0,0:0:0:0:
256,192,218986,5,8,0:0:0:0:
256,192,219186,5,8,0:0:0:0:
256,192,219386,5,4,0:0:0:0:
256,192,220186,5,0,0:0:0:0:
256,192,220986,5,0,0:0:0:0:
256,192,221786,5,0,0:0:0:0:
256,192,222186,5,8,0:0:0:0:
256,192,222386,5,8,0:0:0:0:
256,192,222586,5,0,0:0:0:0:
256,192,222986,5,8,0:0:0:0:
256,192,223386,5,0,0:0:0:0:
256,192,223786,5,8,0:0:0:0:
256,192,224186,5,0,0:0:0:0:
256,192,224586,5,8,0:0:0:0:
256,192,224786,5,0,0:0:0:0:
256,192,224886,5,0,0:0:0:0:
256,192,224986,5,0,0:0:0:0:
256,192,225186,5,0,0:0:0:0:
256,192,225386,5,8,0:0:0:0:
256,192,225786,5,0,0:0:0:0:
256,192,226186,5,8,0:0:0:0:
256,192,226586,5,0,0:0:0:0:
256,192,226986,5,8,0:0:0:0:
256,192,227386,5,0,0:0:0:0:
256,192,227786,5,8,0:0:0:0:
256,192,227986,5,0,0:0:0:0:
256,192,228186,5,0,0:0:0:0:
256,192,228386,5,0,0:0:0:0:
256,192,228486,5,0,0:0:0:0:
256,192,228586,5,8,0:0:0:0:
256,192,228686,5,0,0:0:0:0:
256,192,228786,5,8,0:0:0:0:
256,192,228986,5,0,0:0:0:0:
256,192,229186,5,0,0:0:0:0:
256,192,229386,5,8,0:0:0:0:
256,192,229586,5,0,0:0:0:0:
256,192,229786,5,0,0:0:0:0:
256,192,229986,5,0,0:0:0:0:
256,192,230186,5,8,0:0:0:0:
256,192,230386,5,0,0:0:0:0:
256,192,230586,5,0,0:0:0:0:
256,192,230686,5,0,0:0:0:0:
256,192,230786,5,0,0:0:0:0:
256,192,230886,5,0,0:0:0:0:
256,192,230986,5,8,0:0:0:0:
256,192,231186,5,8,0:0:0:0:
256,192,231386,5,0,0:0:0:0:
256,192,231586,5,8,0:0:0:0:
256,192,231686,5,0,0:0:0:0:
256,192,231786,5,8,0:0:0:0:
256,192,231986,5,8,0:0:0:0:
256,192,232086,5,0,0:0:0:0:
256,192,232186,5,0,0:0:0:0:
256,192,233786,5,4,0:0:0:0:
256,192,234186,5,8,0:0:0:0:
256,192,234386,5,0,0:0:0:0:
256,192,234686,5,8,0:0:0:0:
256,192,234786,5,0,0:0:0:0:
256,192,234986,5,8,0:0:0:0:
256,192,235186,5,0,0:0:0:0:
256,192,235286,5,0,0:0:0:0:
256,192,235386,5,0,0:0:0:0:
256,192,235586,5,0,0:0:0:0:
256,192,235786,5,8,0:0:0:0:
256,192,235986,5,0,0:0:0:0:
256,192,236086,5,0,0:0:0:0:
256,192,236186,5,8,0:0:0:0:
256,192,236286,5,8,0:0:0:0:
256,192,236386,5,0,0:0:0:0:
256,192,236586,5,8,0:0:0:0:
256,192,236786,5,8,0:0:0:0:
256,192,236886,5,8,0:0:0:0:
256,192,236986,5,0,0:0:0:0:
256,192,237186,5,0,0:0:0:0:
256,192,237286,5,0,0:0:0:0:
256,192,237386,5,8,0:0:0:0:
256,192,237586,5,0,0:0:0:0:
256,192,237886,5,8,0:0:0:0:
256,192,237986,5,0,0:0:0:0:
256,192,238186,5,8,0:0:0:0:
256,192,238386,5,0,0:0:0:0:
256,192,238486,5,0,0:0:0:0:
256,192,238586,5,0,0:0:0:0:
256,192,238786,5,0,0:0:0:0:
256,192,238986,5,8,0:0:0:0:
256,192,239186,5,0,0:0:0:0:
256,192,239286,5,0,0:0:0:0:
256,192,239486,5,8,0:0:0:0:
256,192,239586,5,0,0:0:0:0:
256,192,239686,5,0,0:0:0:0:
256,192,239786,5,8,0:0:0:0:
256,192,239986,5,8,0:0:0:0:
256,192,240186,5,0,0:0:0:0:
256,192,240586,5,8,0:0:0:0:
256,192,240786,5,0,0:0:0:0:
256,192,241086,5,8,0:0:0:0:
256,192,241186,5,0,0:0:0:0:
256,192,241386,5,8,0:0:0:0:
256,192,241586,5,0,0:0:0:0:
256,192,241686,5,0,0:0:0:0:
256,192,241786,5,0,0:0:0:0:
256,192,241986,5,0,0:0:0:0:
256,192,242186,5,8,0:0:0:0:
256,192,242386,5,0,0:0:0:0:
256,192,242486,5,0,0:0:0:0:
256,192,242586,5,8,0:0:0:0:
256,192,242686,5,8,0:0:0:0:
256,192,242786,5,0,0:0:0:0:
256,192,242986,5,8,0:0:0:0:
256,192,243186,5,8,0:0:0:0:
256,192,243286,5,8,0:0:0:0:
256,192,243386,5,0,0:0:0:0:
256,192,243586,5,0,0:0:0:0:
256,192,243686,5,0,0:0:0:0:
256,192,243786,5,8,0:0:0:0:
256,192,243986,5,0,0:0:0:0:
256,192,244286,5,8,0:0:0:0:
256,192,244386,5,0,0:0:0:0:
256,192,244586,5,8,0:0:0:0:
256,192,244786,5,0,0:0:0:0:
256,192,244886,5,0,0:0:0:0:
256,192,244986,5,0,0:0:0:0:
256,192,245186,5,0,0:0:0:0:
256,192,245386,5,8,0:0:0:0:
256,192,245586,5,8,0:0:0:0:
256,192,245686,5,8,0:0:0:0:
256,192,245786,5,0,0:0:0:0:
256,192,245886,5,8,0:0:0:0:
256,192,245986,5,0,0:0:0:0:
256,192,246186,5,8,0:0:0:0:
256,192,246286,5,8,0:0:0:0:
256,192,246386,5,8,0:0:0:0:
256,192,246586,5,4,0:0:0:0:
256,192,246986,5,8,0:0:0:0:
256,192,247186,5,0,0:0:0:0:
256,192,247486,5,0,0:0:0:0:
256,192,247586,5,0,0:0:0:0:
256,192,247786,5,8,0:0:0:0:
256,192,247986,5,0,0:0:0:0:
256,192,248086,5,0,0:0:0:0:
256,192,248186,5,0,0:0:0:0:
256,192,248386,5,0,0:0:0:0:
256,192,248586,5,8,0:0:0:0:
256,192,248786,5,0,0:0:0:0:
256,192,248886,5,8,0:0:0:0:
256,192,249086,5,8,0:0:0:0:
256,192,249186,5,0,0:0:0:0:
256,192,249386,5,8,0:0:0:0:
256,192,249586,5,8,0:0:0:0:
256,192,249786,5,0,0:0:0:0:
256,192,250186,5,8,0:0:0:0:
256,192,250386,5,0,0:0:0:0:
256,192,250686,5,0,0:0:0:0:
256,192,250786,5,0,0:0:0:0:
256,192,250986,5,8,0:0:0:0:
256,192,251186,5,0,0:0:0:0:
256,192,251286,5,0,0:0:0:0:
256,192,251386,5,0,0:0:0:0:
256,192,251586,5,0,0:0:0:0:
256,192,251786,5,8,0:0:0:0:
256,192,251986,5,0,0:0:0:0:
256,192,252086,5,0,0:0:0:0:
256,192,252286,5,8,0:0:0:0:
256,192,252386,5,0,0:0:0:0:
256,192,252586,5,8,0:0:0:0:
256,192,252786,5,8,0:0:0:0:
256,192,252886,5,8,0:0:0:0:
256,192,252986,5,0,0:0:0:0:
256,192,253386,5,8,0:0:0:0:
256,192,253586,5,0,0:0:0:0:
256,192,253886,5,0,0:0:0:0:
256,192,253986,5,0,0:0:0:0:
256,192,254186,5,8,0:0:0:0:
256,192,254386,5,0,0:0:0:0:
256,192,254486,5,0,0:0:0:0:
256,192,254586,5,0,0:0:0:0:
256,192,254786,5,0,0:0:0:0:
256,192,254986,5,8,0:0:0:0:
256,192,255186,5,0,0:0:0:0:
256,192,255286,5,8,0:0:0:0:
256,192,255486,5,8,0:0:0:0:
256,192,255586,5,0,0:0:0:0:
256,192,255786,5,8,0:0:0:0:
256,192,255986,5,8,0:0:0:0:
256,192,256186,5,0,0:0:0:0:
256,192,256586,5,8,0:0:0:0:
256,192,256786,5,0,0:0:0:0:
256,192,257086,5,0,0:0:0:0:
256,192,257186,5,0,0:0:0:0:
256,192,257386,5,8,0:0:0:0:
256,192,257586,5,0,0:0:0:0:
256,192,257686,5,0,0:0:0:0:
256,192,257786,5,8,0:0:0:0:
256,192,257986,5,0,0:0:0:0:
256,192,258186,5,8,0:0:0:0:
256,192,258386,5,0,0:0:0:0:
256,192,258486,5,8,0:0:0:0:
256,192,258686,5,0,0:0:0:0:
256,192,258786,5,0,0:0:0:0:
256,192,258986,5,8,0:0:0:0:
256,192,259086,5,8,0:0:0:0:
256,192,259186,5,8,0:0:0:0:
256,192,259386,5,4,0:0:0:0:
256,192,259786,5,8,0:0:0:0:
256,192,259986,5,0,0:0:0:0:
256,192,260386,5,0,0:0:0:0:
256,192,260586,5,8,0:0:0:0:
256,192,260986,5,0,0:0:0:0:
256,192,261186,5,0,0:0:0:0:
256,192,261386,5,8,0:0:0:0:
256,192,261586,5,0,0:0:0:0:
256,192,261686,5,0,0:0:0:0:
256,192,261786,5,0,0:0:0:0:
256,192,261986,5,0,0:0:0:0:
256,192,262186,5,8,0:0:0:0:
256,192,262386,5,0,0:0:0:0:
256,192,262586,5,0,0:0:0:0:
256,192,262986,5,8,0:0:0:0:
256,192,263186,5,0,0:0:0:0:
256,192,263586,5,0,0:0:0:0:
256,192,263786,5,8,0:0:0:0:
256,192,264186,5,0,0:0:0:0:
256,192,264386,5,0,0:0:0:0:
256,192,264586,5,8,0:0:0:0:
256,192,264786,5,0,0:0:0:0:
256,192,264886,5,8,0:0:0:0:
256,192,265086,5,8,0:0:0:0:
256,192,265186,5,0,0:0:0:0:
256,192,265286,5,0,0:0:0:0:
256,192,265386,5,8,0:0:0:0:
256,192,265586,5,8,0:0:0:0:
256,192,265686,5,8,0:0:0:0:
256,192,265786,5,0,0:0:0:0:
256,192,266186,5,8,0:0:0:0:
256,192,266386,5,0,0:0:0:0:
256,192,266786,5,0,0:0:0:0:
256,192,266986,5,8,0:0:0:0:
256,192,267386,5,0,0:0:0:0:
256,192,267786,5,8,0:0:0:0:
256,192,267986,5,0,0:0:0:0:
256,192,268086,5,0,0:0:0:0:
256,192,268186,5,0,0:0:0:0:
256,192,268386,5,0,0:0:0:0:
256,192,268586,5,8,0:0:0:0:
256,192,268786,5,0,0:0:0:0:
256,192,268986,5,0,0:0:0:0:
256,192,269386,5,8,0:0:0:0:
256,192,269586,5,0,0:0:0:0:
256,192,269986,5,0,0:0:0:0:
256,192,270186,5,8,0:0:0:0:
256,192,270586,5,0,0:0:0:0:
256,192,270786,5,0,0:0:0:0:
256,192,270986,5,8,0:0:0:0:
256,192,271186,5,0,0:0:0:0:
256,192,271286,5,8,0:0:0:0:
256,192,271486,5,8,0:0:0:0:
256,192,271586,5,0,0:0:0:0:
256,192,271786,5,8,0:0:0:0:
256,192,271886,5,8,0:0:0:0:
256,192,271986,5,8,0:0:0:0:
256,192,272186,5,4,0:0:0:0:
256,192,273786,5,0,0:0:0:0:
256,192,275386,5,0,0:0:0:0:
256,192,276986,5,8,0:0:0:0:
256,192,278586,5,4,0:0:0:0:
256,192,279186,5,0,0:0:0:0:
256,192,280186,5,0,0:0:0:0:
256,192,280786,5,8,0:0:0:0:
256,192,281786,5,0,0:0:0:0:
256,192,283386,5,8,0:0:0:0:
256,192,284986,5,4,0:0:0:0:
256,192,285386,5,8,0:0:0:0:
256,192,285486,5,8,0:0:0:0:
256,192,285586,5,0,0:0:0:0:
256,192,285786,5,8,0:0:0:0:
256,192,286186,5,0,0:0:0:0:
256,192,286286,5,0,0:0:0:0:
256,192,286386,5,8,0:0:0:0:
256,192,286586,5,0,0:0:0:0:
256,192,286986,5,8,0:0:0:0:
256,192,287186,5,0,0:0:0:0:
256,192,287286,5,0,0:0:0:0:
256,192,287386,5,8,0:0:0:0:
256,192,287486,5,0,0:0:0:0:
256,192,287586,5,8,0:0:0:0:
256,192,287786,5,0,0:0:0:0:
256,192,287986,5,8,0:0:0:0:
256,192,288186,5,0,0:0:0:0:
256,192,288586,5,8,0:0:0:0:
256,192,288686,5,8,0:0:0:0:
256,192,288786,5,0,0:0:0:0:
256,192,288986,5,8,0:0:0:0:
256,192,289386,5,0,0:0:0:0:
256,192,289486,5,0,0:0:0:0:
256,192,289586,5,8,0:0:0:0:
256,192,289786,5,0,0:0:0:0:
256,192,289986,5,8,0:0:0:0:
256,192,290086,5,8,0:0:0:0:
256,192,290186,5,0,0:0:0:0:
256,192,290286,5,0,0:0:0:0:
256,192,290386,5,0,0:0:0:0:
256,192,290586,5,8,0:0:0:0:
256,192,290686,5,0,0:0:0:0:
256,192,290786,5,8,0:0:0:0:
256,192,290986,5,0,0:0:0:0:
256,192,291186,5,8,0:0:0:0:
256,192,291386,5,4,0:0:0:0:
256,192,291786,5,0,0:0:0:0:
256,192,291886,5,0,0:0:0:0:
256,192,291986,5,0,0:0:0:0:
256,192,292186,5,8,0:0:0:0:
256,192,292386,5,8,0:0:0:0:
256,192,292486,5,8,0:0:0:0:
256,192,292586,5,0,0:0:0:0:
256,192,292686,5,0,0:0:0:0:
256,192,292786,5,8,0:0:0:0:
256,192,292986,5,0,0:0:0:0:
256,192,293086,5,8,0:0:0:0:
256,192,293286,5,8,0:0:0:0:
256,192,293486,5,8,0:0:0:0:
256,192,293586,5,0,0:0:0:0:
256,192,293786,5,8,0:0:0:0:
256,192,293986,5,8,0:0:0:0:
256,192,294186,5,0,0:0:0:0:
256,192,294586,5,0,0:0:0:0:
256,192,294986,5,8,0:0:0:0:
256,192,295086,5,8,0:0:0:0:
256,192,295186,5,0,0:0:0:0:
256,192,295386,5,8,0:0:0:0:
256,192,295586,5,0,0:0:0:0:
256,192,295786,5,0,0:0:0:0:
256,192,295886,5,0,0:0:0:0:
256,192,295986,5,8,0:0:0:0:
256,192,296186,5,0,0:0:0:0:
256,192,296586,5,8,0:0:0:0:
256,192,296686,5,8,0:0:0:0:
256,192,296786,5,0,0:0:0:0:
256,192,296986,5,8,0:0:0:0:
256,192,297186,5,0,0:0:0:0:
256,192,297386,5,8,0:0:0:0:
256,192,297486,5,0,0:0:0:0:
256,192,297586,5,8,0:0:0:0:
256,192,297786,5,4,0:0:0:0:
256,192,297986,5,8,0:0:0:0:
256,192,298186,5,0,0:0:0:0:
256,192,298286,5,0,0:0:0:0:
256,192,298386,5,8,0:0:0:0:
256,192,298586,5,0,0:0:0:0:
256,192,298786,5,8,0:0:0:0:
256,192,299186,5,8,0:0:0:0:
256,192,299386,5,0,0:0:0:0:
256,192,299786,5,8,0:0:0:0:
256,192,299986,5,0,0:0:0:0:
256,192,300186,5,8,0:0:0:0:
256,192,300386,5,8,0:0:0:0:
256,192,300486,5,8,0:0:0:0:
256,192,300586,5,0,0:0:0:0:
256,192,300786,5,8,0:0:0:0:
256,192,300986,5,0,0:0:0:0:
256,192,301186,5,8,0:0:0:0:
256,192,301386,5,0,0:0:0:0:
256,192,301486,5,0,0:0:0:0:
256,192,301586,5,8,0:0:0:0:
256,192,301786,5,0,0:0:0:0:
256,192,301986,5,8,0:0:0:0:
256,192,302386,5,8,0:0:0:0:
256,192,302586,5,0,0:0:0:0:
256,192,302986,5,0,0:0:0:0:
256,192,303186,5,0,0:0:0:0:
256,192,303286,5,0,0:0:0:0:
256,192,303386,5,8,0:0:0:0:
256,192,303486,5,8,0:0:0:0:
256,192,303586,5,0,0:0:0:0:
256,192,303786,5,8,0:0:0:0:
256,192,303986,5,8,0:0:0:0:
256,192,304186,5,4,0:0:0:0:
256,192,304586,5,8,0:0:0:0:
256,192,304686,5,0,0:0:0:0:
256,192,304786,5,0,0:0:0:0:
256,192,304986,5,8,0:0:0:0:
256,192,305186,5,0,0:0:0:0:
256,192,305286,5,0,0:0:0:0:
256,192,305386,5,0,0:0:0:0:
256,192,305486,5,0,0:0:0:0:
256,192,305586,5,8,0:0:0:0:
256,192,305786,5,0,0:0:0:0:
256,192,305886,5,8,0:0:0:0:
256,192,306086,5,8,0:0:0:0:
256,192,306286,5,8,0:0:0:0:
256,192,306386,5,0,0:0:0:0:
256,192,306586,5,8,0:0:0:0:
256,192,306786,5,8,0:0:0:0:
256,192,306886,5,8,0:0:0:0:
256,192,306986,5,0,0:0:0:0:
256,192,307186,5,8,0:0:0:0:
256,192,307386,5,0,0:0:0:0:
256,192,307786,5,8,0:0:0:0:
256,192,307886,5,0,0:0:0:0:
256,192,307986,5,0,0:0:0:0:
256,192,308186,5,8,0:0:0:0:
256,192,308386,5,0,0:0:0:0:
256,192,308586,5,0,0:0:0:0:
256,192,308686,5,0,0:0:0:0:
256,192,308786,5,8,0:0:0:0:
256,192,308986,5,0,0:0:0:0:
256,192,309186,5,0,0:0:0:0:
256,192,309586,5,8,0:0:0:0:
256,192,309986,5,8,0:0:0:0:
256,192,310086,5,0,0:0:0:0:
256,192,310186,5,8,0:0:0:0:
256,192,310286,5,8,0:0:0:0:
256,192,310386,5,0,0:0:0:0:
256,192,310586,5,4,0:0:0:0:
256,192,310986,5,8,0:0:0:0:
256,192,311186,5,0,0:0:0:0:
256,192,311486,5,0,0:0:0:0:
256,192,311586,5,8,0:0:0:0:
256,192,311786,5,0,0:0:0:0:
256,192,311886,5,0,0:0:0:0:
256,192,311986,5,8,0:0:0:0:
256,192,312186,5,0,0:0:0:0:
256,192,312386,5,0,0:0:0:0:
256,192,312586,5,8,0:0:0:0:
256,192,312786,5,0,0:0:0:0:
256,192,313086,5,0,0:0:0:0:
256,192,313186,5,8,0:0:0:0:
256,192,313386,5,8,0:0:0:0:
256,192,313486,5,0,0:0:0:0:
256,192,313586,5,8,0:0:0:0:
256,192,313786,5,0,0:0:0:0:
256,192,313986,5,0,0:0:0:0:
256,192,314186,5,8,0:0:0:0:
256,192,314386,5,0,0:0:0:0:
256,192,314686,5,0,0:0:0:0:
256,192,314786,5,8,0:0:0:0:
256,192,314986,5,0,0:0:0:0:
256,192,315086,5,0,0:0:0:0:
256,192,315186,5,8,0:0:0:0:
256,192,315386,5,0,0:0:0:0:
256,192,315586,5,0,0:0:0:0:
256,192,315786,5,8,0:0:0:0:
256,192,315986,5,0,0:0:0:0:
256,192,316186,5,8,0:0:0:0:
256,192,316286,5,0,0:0:0:0:
256,192,316386,5,8,0:0:0:0:
256,192,316486,5,8,0:0:0:0:
256,192,316586,5,0,0:0:0:0:
256,192,316686,5,0,0:0:0:0:
256,192,316786,5,8,0:0:0:0:
256,192,316986,5,4,0:0:0:0:
256,192,317386,5,8,0:0:0:0:
256,192,317586,5,0,0:0:0:0:
256,192,317886,5,0,0:0:0:0:
256,192,317986,5,8,0:0:0:0:
256,192,318186,5,0,0:0:0:0:
256,192,318286,5,0,0:0:0:0:
256,192,318386,5,8,0:0:0:0:
256,192,318586,5,0,0:0:0:0:
256,192,318786,5,0,0:0:0:0:
256,192,318986,5,8,0:0:0:0:
256,192,319186,5,0,0:0:0:0:
256,192,319486,5,0,0:0:0:0:
256,192,319586,5,8,0:0:0:0:
256,192,319786,5,8,0:0:0:0:
256,192,319886,5,0,0:0:0:0:
256,192,319986,5,8,0:0:0:0:
256,192,320186,5,0,0:0:0:0:
256,192,320386,5,0,0:0:0:0:
256,192,320586,5,8,0:0:0:0:
256,192,320786,5,0,0:0:0:0:
256,192,321086,5,0,0:0:0:0:
256,192,321186,5,8,0:0:0:0:
256,192,321386,5,0,0:0:0:0:
256,192,321486,5,0,0:0:0:0:
256,192,321586,5,8,0:0:0:0:
256,192,321786,5,0,0:0:0:0:
256,192,321986,5,0,0:0:0:0:
256,192,322186,5,8,0:0:0:0:
256,192,322386,5,0,0:0:0:0:
256,192,322586,5,0,0:0:0:0:
256,192,322686,5,0,0:0:0:0:
256,192,322786,5,8,0:0:0:0:
256,192,322886,5,8,0:0:0:0:
256,192,322986,5,0,0:0:0:0:
256,192,323086,5,0,0:0:0:0:
256,192,323186,5,8,0:0:0:0:
256,192,323386,5,4,0:0:0:0:
