osu file format v14

[General]
AudioFilename: audio.mp3
AudioLeadIn: 0
PreviewTime: 91186
Countdown: 0
SampleSet: Normal
StackLeniency: 0.7
Mode: 1
LetterboxInBreaks: 0
WidescreenStoryboard: 0

[Editor]
Bookmarks: 104186,155386,168186,246586,297786,310586
DistanceSpacing: 0.8
BeatDivisor: 4
GridSize: 32
TimelineZoom: 0.9

[Metadata]
Title:Shaolin Warrior
TitleUnicode:Shaolin Warrior
Artist:F-777
ArtistUnicode:F-777
Creator:Nardoxyribonucleic
Version:Inner Oni
Source:osu!
Tags:Taiko Featured Artist FA Mappers' Guild MG F777 Jesse Valentine Chinese Dance Machine Electronic Instrumental trance Vulkin
BeatmapID:2301596
BeatmapSetID:1101722

[Difficulty]
HPDrainRate:5.5
CircleSize:5
OverallDifficulty:6
ApproachRate:7
SliderMultiplier:1.4
SliderTickRate:1

[Events]
//Background and Video events
0,0,"bg.jpg",0,0
//Break Periods
2,181186,186486
//Storyboard Layer 0 (Background)
//Storyboard Layer 1 (Fail)
//Storyboard Layer 2 (Pass)
//Storyboard Layer 3 (Foreground)
//Storyboard Layer 4 (Overlay)
//Storyboard Sound Samples

[TimingPoints]
186,400,4,1,0,50,1,0
186,-142.857142857143,4,1,0,50,0,0
5786,-138.888888888889,4,1,0,50,0,0
5986,-135.135135135135,4,1,0,50,0,0
6186,-131.578947368421,4,1,0,50,0,0
6386,-128.205128205128,4,1,0,50,0,0
6586,-125,4,1,0,60,0,0
12186,-121.951219512195,4,1,0,60,0,0
12386,-119.047619047619,4,1,0,60,0,0
12486,-117.647058823529,4,1,0,60,0,0
12586,-116.279069767442,4,1,0,60,0,0
12786,-113.636363636364,4,1,0,60,0,0
12986,-111.111111111111,4,1,0,70,0,0
24886,-109.89010989011,4,1,0,70,0,0
24986,-108.695652173913,4,1,0,70,0,0
25086,-107.52688172043,4,1,0,70,0,0
25186,-106.382978723404,4,1,0,70,0,0
25286,-105.263157894737,4,1,0,70,0,0
25386,-104.166666666667,4,1,0,70,0,0
25486,-103.092783505155,4,1,0,70,0,0
25586,-102.040816326531,4,1,0,70,0,0
25786,-100,4,1,0,80,0,0
37686,-101.010101010101,4,1,0,80,0,0
37786,-102.040816326531,4,1,0,80,0,0
37886,-103.092783505155,4,1,0,80,0,0
37986,-104.166666666667,4,1,0,80,0,0
38086,-105.263157894737,4,1,0,80,0,0
38186,-106.382978723404,4,1,0,80,0,0
38286,-107.52688172043,4,1,0,80,0,0
38386,-108.695652173913,4,1,0,80,0,0
38486,-109.89010989011,4,1,0,80,0,0
38586,-111.111111111111,4,1,0,50,0,0
40186,-166.666666666667,4,1,0,50,0,0
44986,-142.857142857143,4,1,0,50,0,0
50586,-133.333333333333,4,1,0,50,0,0
50986,-129.032258064516,4,1,0,50,0,0
51386,-125,4,1,0,60,0,0
62986,-121.212121212121,4,1,0,60,0,0
63186,-119.402985074627,4,1,0,60,0,0
63386,-117.647058823529,4,1,0,60,0,0
63786,-114.285714285714,4,1,0,60,0,0
64186,-111.111111111111,4,1,0,70,0,0
76986,-100,4,1,0,80,0,0
77786,-99.009900990099,4,1,0,80,0,0
78586,-98.0392156862745,4,1,0,80,0,0
79386,-97.0873786407767,4,1,0,80,0,0
80186,-96.1538461538461,4,1,0,80,0,0
80586,-95.6937799043062,4,1,0,80,0,0
80986,-95.2380952380952,4,1,0,80,0,0
81386,-94.7867298578199,4,1,0,80,0,0
81786,-94.3396226415094,4,1,0,80,0,0
82186,-93.8967136150235,4,1,0,80,0,0
82386,-93.6768149882904,4,1,0,80,0,0
82586,-93.4579439252336,4,1,0,80,0,0
82986,-93.0232558139535,4,1,0,80,0,0
83386,-92.5925925925926,4,1,0,80,0,0
83786,-92.1658986175115,4,1,0,80,0,0
84186,-91.743119266055,4,1,0,80,0,0
84586,-91.324200913242,4,1,0,80,0,0
84986,-90.9090909090909,4,1,0,80,0,0
85386,-90.4977375565611,4,1,0,80,0,0
85586,-90.293453724605,4,1,0,80,0,0
85786,-90.0900900900901,4,1,0,80,0,0
85986,-89.8876404494382,4,1,0,80,0,0
86086,-89.7867564534231,4,1,0,80,0,0
86186,-89.6860986547085,4,1,0,80,0,0
86286,-89.5856662933931,4,1,0,80,0,0
86386,-89.4854586129754,4,1,0,80,0,0
86586,-89.2857142857143,4,1,0,80,0,0
86786,-88.4955752212389,4,1,0,80,0,0
86986,-87.719298245614,4,1,0,80,0,0
87186,-86.9565217391304,4,1,0,80,0,0
87286,-86.5800865800866,4,1,0,80,0,0
87386,-86.2068965517241,4,1,0,80,0,0
87586,-85.4700854700855,4,1,0,80,0,0
87786,-84.7457627118644,4,1,0,80,0,0
87986,-84.0336134453781,4,1,0,80,0,0
88186,-83.3333333333333,4,1,0,80,0,0
88286,-82.6446280991736,4,1,0,80,0,0
88386,-81.9672131147541,4,1,0,80,0,0
88486,-81.3008130081301,4,1,0,80,0,0
88586,-80.6451612903226,4,1,0,80,0,0
88686,-80,4,1,0,80,0,0
88786,-79.3650793650794,4,1,0,80,0,0
88886,-78.7401574803149,4,1,0,80,0,0
88986,-78.125,4,1,0,80,0,0
89086,-77.5193798449612,4,1,0,80,0,0
89186,-76.9230769230769,4,1,0,80,0,0
89286,-76.3358778625954,4,1,0,80,0,0
89386,-75.7575757575758,4,1,0,80,0,0
89486,-75.187969924812,4,1,0,80,0,0
89586,-74.6268656716418,4,1,0,80,0,0
89686,-74.0740740740741,4,1,0,80,0,0
89786,-73.5294117647059,4,1,0,80,0,0
89886,-66.6666666666667,4,1,0,20,0,0
91286,-66.6666666666667,4,1,0,80,0,0
91386,-90.9090909090909,4,1,0,90,0,1
116086,-91.743119266055,4,1,0,90,0,1
116186,-92.5925925925926,4,1,0,90,0,1
116286,-93.4579439252336,4,1,0,90,0,1
116386,-94.3396226415094,4,1,0,90,0,1
116486,-95.2380952380952,4,1,0,90,0,1
116586,-96.1538461538461,4,1,0,90,0,1
116686,-97.0873786407767,4,1,0,90,0,1
116786,-98.0392156862745,4,1,0,90,0,1
116886,-99.009900990099,4,1,0,90,0,1
116986,-100,4,1,0,80,0,0
128886,-101.010101010101,4,1,0,80,0,0
128986,-102.040816326531,4,1,0,80,0,0
129086,-103.092783505155,4,1,0,80,0,0
129186,-104.166666666667,4,1,0,80,0,0
129286,-105.263157894737,4,1,0,80,0,0
129386,-106.382978723404,4,1,0,80,0,0
129486,-107.52688172043,4,1,0,80,0,0
129586,-108.695652173913,4,1,0,80,0,0
129786,-111.111111111111,4,1,0,70,0,0
142586,-90.9090909090909,4,1,0,90,0,1
180186,-92.5925925925926,4,1,0,90,0,1
180286,-93.4579439252336,4,1,0,90,0,1
180386,-94.3396226415094,4,1,0,90,0,1
180486,-95.2380952380952,4,1,0,90,0,1
180586,-96.1538461538461,4,1,0,90,0,1
180686,-97.0873786407767,4,1,0,90,0,1
180786,-98.0392156862745,4,1,0,90,0,1
180986,-100,4,1,0,70,0,0
182586,-166.666666666667,4,1,0,50,0,0
187386,-142.857142857143,4,1,0,50,0,0
192986,-133.333333333333,4,1,0,50,0,0
193386,-129.032258064516,4,1,0,50,0,0
193786,-125,4,1,0,60,0,0
205386,-121.212121212121,4,1,0,60,0,0
205586,-119.402985074627,4,1,0,60,0,0
205786,-117.647058823529,4,1,0,60,0,0
205986,-115.942028985507,4,1,0,60,0,0
206186,-114.285714285714,4,1,0,60,0,0
206586,-111.111111111111,4,1,0,70,0,0
219386,-100,4,1,0,80,0,0
220186,-99.009900990099,4,1,0,80,0,0
220986,-98.0392156862745,4,1,0,80,0,0
221786,-97.0873786407767,4,1,0,80,0,0
222586,-96.1538461538461,4,1,0,80,0,0
222986,-95.6937799043062,4,1,0,80,0,0
223386,-95.2380952380952,4,1,0,80,0,0
223786,-94.7867298578199,4,1,0,80,0,0
224186,-94.3396226415094,4,1,0,80,0,0
224586,-93.8967136150235,4,1,0,80,0,0
224786,-93.6768149882904,4,1,0,80,0,0
224986,-93.4579439252336,4,1,0,80,0,0
225386,-93.0232558139535,4,1,0,80,0,0
225786,-92.5925925925926,4,1,0,80,0,0
226186,-92.1658986175115,4,1,0,80,0,0
226586,-91.743119266055,4,1,0,80,0,0
226986,-91.324200913242,4,1,0,80,0,0
227386,-90.9090909090909,4,1,0,80,0,0
227786,-90.4977375565611,4,1,0,80,0,0
227986,-90.293453724605,4,1,0,80,0,0
228186,-90.0900900900901,4,1,0,80,0,0
228386,-89.8876404494382,4,1,0,80,0,0
228486,-89.7867564534231,4,1,0,80,0,0
228586,-89.6860986547085,4,1,0,80,0,0
228686,-89.5856662933931,4,1,0,80,0,0
228786,-89.4854586129754,4,1,0,80,0,0
228986,-89.2857142857143,4,1,0,80,0,0
229186,-88.4955752212389,4,1,0,80,0,0
229386,-87.719298245614,4,1,0,80,0,0
229586,-86.9565217391304,4,1,0,80,0,0
229686,-86.5800865800866,4,1,0,80,0,0
229786,-86.2068965517241,4,1,0,80,0,0
229986,-85.4700854700855,4,1,0,80,0,0
230186,-84.7457627118644,4,1,0,80,0,0
230386,-84.0336134453781,4,1,0,80,0,0
230586,-83.3333333333333,4,1,0,80,0,0
230686,-82.6446280991736,4,1,0,80,0,0
230786,-81.9672131147541,4,1,0,80,0,0
230886,-81.3008130081301,4,1,0,80,0,0
230986,-80.6451612903226,4,1,0,80,0,0
231086,-80,4,1,0,80,0,0
231186,-79.3650793650794,4,1,0,80,0,0
231286,-78.7401574803149,4,1,0,80,0,0
231386,-78.125,4,1,0,80,0,0
231486,-77.5193798449612,4,1,0,80,0,0
231586,-76.9230769230769,4,1,0,80,0,0
231686,-76.3358778625954,4,1,0,80,0,0
231786,-75.7575757575758,4,1,0,80,0,0
231886,-75.187969924812,4,1,0,80,0,0
231986,-74.6268656716418,4,1,0,80,0,0
232086,-74.0740740740741,4,1,0,80,0,0
232186,-73.5294117647059,4,1,0,80,0,0
232286,-66.6666666666667,4,1,0,20,0,0
233686,-66.6666666666667,4,1,0,80,0,0
233786,-90.9090909090909,4,1,0,90,0,1
258486,-91.743119266055,4,1,0,90,0,1
258586,-92.5925925925926,4,1,0,90,0,1
258686,-93.4579439252336,4,1,0,90,0,1
258786,-94.3396226415094,4,1,0,90,0,1
258886,-95.2380952380952,4,1,0,90,0,1
258986,-96.1538461538461,4,1,0,90,0,1
259086,-97.0873786407767,4,1,0,90,0,1
259186,-98.0392156862745,4,1,0,90,0,1
259286,-99.009900990099,4,1,0,90,0,1
259386,-100,4,1,0,80,0,0
271286,-101.010101010101,4,1,0,80,0,0
271386,-102.040816326531,4,1,0,80,0,0
271486,-103.092783505155,4,1,0,80,0,0
271586,-104.166666666667,4,1,0,80,0,0
271686,-105.263157894737,4,1,0,80,0,0
271786,-106.382978723404,4,1,0,80,0,0
271886,-107.52688172043,4,1,0,80,0,0
271986,-108.695652173913,4,1,0,80,0,0
272186,-111.111111111111,4,1,0,70,0,0
284986,-90.9090909090909,4,1,0,90,0,1
322586,-92.5925925925926,4,1,0,90,0,1
322686,-93.4579439252336,4,1,0,90,0,1
322786,-94.3396226415094,4,1,0,90,0,1
322886,-95.2380952380952,4,1,0,90,0,1
322986,-96.1538461538461,4,1,0,90,0,1
323086,-97.0873786407767,4,1,0,90,0,1
323186,-98.0392156862745,4,1,0,90,0,1
323386,-100,4,1,0,70,0,0
324186,-100,4,1,0,65,0,0
324986,-100,4,1,0,60,0,0
325786,-100,4,1,0,55,0,0
326586,-100,4,1,0,50,0,0
327386,-100,4,1,0,45,0,0
328186,-100,4,1,0,40,0,0
328986,-100,4,1,0,35,0,0
329786,-100,4,1,0,30,0,0
330586,-100,4,1,0,25,0,0
331386,-100,4,1,0,20,0,0

[HitObjects]
256,192,186,5,4,0:0:0:0:
256,192,986,1,8,0:0:0:0:
256,192,1386,1,0,0:0:0:0:
256,192,1586,1,8,0:0:0:0:
256,192,1786,1,0,0:0:0:0:
256,192,2186,1,0,0:0:0:0:
256,192,2586,1,8,0:0:0:0:
256,192,3386,1,0,0:0:0:0:
256,192,4186,1,8,0:0:0:0:
256,192,4586,1,0,0:0:0:0:
256,192,4786,1,8,0:0:0:0:
256,192,4986,1,0,0:0:0:0:
256,192,5386,1,0,0:0:0:0:
256,192,5786,1,8,0:0:0:0:
256,192,5986,1,8,0:0:0:0:
256,192,6186,1,0,0:0:0:0:
256,192,6386,1,8,0:0:0:0:
256,192,6586,1,4,0:0:0:0:
256,192,6986,1,8,0:0:0:0:
256,192,7386,1,8,0:0:0:0:
256,192,7586,1,0,0:0:0:0:
256,192,7786,1,8,0:0:0:0:
256,192,8186,1,0,0:0:0:0:
256,192,8586,1,8,0:0:0:0:
256,192,8986,1,8,0:0:0:0:
256,192,9186,1,0,0:0:0:0:
256,192,9286,1,0,0:0:0:0:
256,192,9386,1,8,0:0:0:0:
256,192,9586,1,8,0:0:0:0:
256,192,9786,1,0,0:0:0:0:
256,192,10186,1,8,0:0:0:0:
256,192,10586,1,8,0:0:0:0:
256,192,10786,1,0,0:0:0:0:
256,192,10986,1,8,0:0:0:0:
256,192,11386,1,0,0:0:0:0:
256,192,11786,1,8,0:0:0:0:
256,192,11986,1,0,0:0:0:0:
256,192,12186,1,8,0:0:0:0:
256,192,12386,1,8,0:0:0:0:
256,192,12486,1,8,0:0:0:0:
256,192,12586,1,0,0:0:0:0:
256,192,12786,1,8,0:0:0:0:
256,192,12986,1,4,0:0:0:0:
256,192,13386,1,8,0:0:0:0:
256,192,13586,1,0,0:0:0:0:
256,192,13786,1,8,0:0:0:0:
256,192,14186,1,0,0:0:0:0:
256,192,14386,1,8,0:0:0:0:
256,192,14586,1,0,0:0:0:0:
256,192,14786,1,8,0:0:0:0:
256,192,14986,1,0,0:0:0:0:
256,192,15186,1,0,0:0:0:0:
256,192,15286,1,0,0:0:0:0:
256,192,15386,1,8,0:0:0:0:
256,192,15786,1,8,0:0:0:0:
256,192,15986,1,0,0:0:0:0:
256,192,16186,1,0,0:0:0:0:
256,192,16586,1,8,0:0:0:0:
256,192,16786,1,0,0:0:0:0:
256,192,16986,1,8,0:0:0:0:
256,192,17386,1,0,0:0:0:0:
256,192,17586,1,8,0:0:0:0:
256,192,17786,1,0,0:0:0:0:
256,192,17986,1,8,0:0:0:0:
256,192,18086,1,8,0:0:0:0:
256,192,18186,1,0,0:0:0:0:
256,192,18386,1,0,0:0:0:0:
256,192,18586,1,8,0:0:0:0:
256,192,18786,1,0,0:0:0:0:
256,192,18886,1,0,0:0:0:0:
256,192,18986,1,8,0:0:0:0:
256,192,19086,1,0,0:0:0:0:
256,192,19186,1,8,0:0:0:0:
256,192,19286,1,8,0:0:0:0:
256,192,19386,1,0,0:0:0:0:
256,192,19586,1,8,0:0:0:0:
256,192,19686,1,0,0:0:0:0:
256,192,19786,1,8,0:0:0:0:
256,192,19986,1,0,0:0:0:0:
256,192,20186,1,8,0:0:0:0:
256,192,20586,1,0,0:0:0:0:
256,192,20786,1,8,0:0:0:0:
256,192,20886,1,0,0:0:0:0:
256,192,20986,1,0,0:0:0:0:
256,192,21186,1,8,0:0:0:0:
256,192,21386,1,0,0:0:0:0:
256,192,21586,1,0,0:0:0:0:
256,192,21686,1,0,0:0:0:0:
256,192,21786,1,8,0:0:0:0:
256,192,21986,1,0,0:0:0:0:
256,192,22186,1,8,0:0:0:0:
256,192,22386,1,0,0:0:0:0:
256,192,22486,1,8,0:0:0:0:
256,192,22586,1,0,0:0:0:0:
256,192,22786,1,8,0:0:0:0:
256,192,22886,1,0,0:0:0:0:
256,192,22986,1,8,0:0:0:0:
256,192,23186,1,0,0:0:0:0:
256,192,23386,1,8,0:0:0:0:
256,192,23786,1,0,0:0:0:0:
256,192,23986,1,8,0:0:0:0:
256,192,24186,1,0,0:0:0:0:
256,192,24386,1,8,0:0:0:0:
256,192,24486,1,8,0:0:0:0:
256,192,24586,1,0,0:0:0:0:
256,192,24786,1,8,0:0:0:0:
256,192,24886,1,8,0:0:0:0:
256,192,24986,1,0,0:0:0:0:
256,192,25086,1,8,0:0:0:0:
256,192,25186,1,0,0:0:0:0:
256,192,25286,1,0,0:0:0:0:
256,192,25386,1,8,0:0:0:0:
256,192,25486,1,8,0:0:0:0:
256,192,25586,1,8,0:0:0:0:
256,192,25786,1,4,0:0:0:0:
256,192,25986,1,8,0:0:0:0:
256,192,26186,1,0,0:0:0:0:
256,192,26386,1,0,0:0:0:0:
256,192,26486,1,0,0:0:0:0:
256,192,26586,1,8,0:0:0:0:
256,192,26786,1,8,0:0:0:0:
256,192,26986,1,0,0:0:0:0:
256,192,27186,1,8,0:0:0:0:
256,192,27286,1,8,0:0:0:0:
256,192,27386,1,0,0:0:0:0:
256,192,27486,1,0,0:0:0:0:
256,192,27586,1,8,0:0:0:0:
256,192,27786,1,0,0:0:0:0:
256,192,27986,1,8,0:0:0:0:
256,192,28186,1,8,0:0:0:0:
256,192,28586,1,8,0:0:0:0:
256,192,28786,1,0,0:0:0:0:
256,192,28886,1,8,0:0:0:0:
256,192,28986,1,0,0:0:0:0:
256,192,29186,1,8,0:0:0:0:
256,192,29286,1,8,0:0:0:0:
256,192,29386,1,0,0:0:0:0:
256,192,29586,1,0,0:0:0:0:
256,192,29786,1,8,0:0:0:0:
256,192,29986,1,8,0:0:0:0:
256,192,30186,1,0,0:0:0:0:
256,192,30286,1,0,0:0:0:0:
256,192,30386,1,8,0:0:0:0:
256,192,30486,1,8,0:0:0:0:
256,192,30586,1,0,0:0:0:0:
256,192,30786,1,8,0:0:0:0:
256,192,30986,1,0,0:0:0:0:
256,192,31186,1,8,0:0:0:0:
256,192,31286,1,0,0:0:0:0:
256,192,31386,1,8,0:0:0:0:
256,192,31586,1,0,0:0:0:0:
256,192,31686,1,0,0:0:0:0:
256,192,31786,1,8,0:0:0:0:
256,192,31886,1,0,0:0:0:0:
256,192,31986,1,8,0:0:0:0:
256,192,32086,1,8,0:0:0:0:
256,192,32186,1,0,0:0:0:0:
256,192,32386,1,8,0:0:0:0:
256,192,32586,1,0,0:0:0:0:
256,192,32786,1,0,0:0:0:0:
256,192,32886,1,0,0:0:0:0:
256,192,32986,1,8,0:0:0:0:
256,192,33186,1,8,0:0:0:0:
256,192,33386,1,0,0:0:0:0:
256,192,33586,1,8,0:0:0:0:
256,192,33686,1,8,0:0:0:0:
256,192,33786,1,0,0:0:0:0:
256,192,33886,1,0,0:0:0:0:
256,192,33986,1,8,0:0:0:0:
256,192,34186,1,0,0:0:0:0:
256,192,34386,1,8,0:0:0:0:
256,192,34586,1,8,0:0:0:0:
256,192,34986,1,8,0:0:0:0:
256,192,35186,1,0,0:0:0:0:
256,192,35286,1,8,0:0:0:0:
256,192,35386,1,0,0:0:0:0:
256,192,35586,1,8,0:0:0:0:
256,192,35686,1,8,0:0:0:0:
256,192,35786,1,0,0:0:0:0:
256,192,35986,1,0,0:0:0:0:
256,192,36186,1,8,0:0:0:0:
256,192,36386,1,8,0:0:0:0:
256,192,36586,1,0,0:0:0:0:
256,192,36686,1,0,0:0:0:0:
256,192,36786,1,8,0:0:0:0:
256,192,36886,1,8,0:0:0:0:
256,192,36986,1,0,0:0:0:0:
256,192,37186,1,8,0:0:0:0:
256,192,37386,1,0,0:0:0:0:
256,192,37586,1,8,0:0:0:0:
256,192,37686,1,8,0:0:0:0:
256,192,37786,1,0,0:0:0:0:
256,192,37886,1,8,0:0:0:0:
256,192,37986,1,0,0:0:0:0:
256,192,38086,1,0,0:0:0:0:
256,192,38186,1,8,0:0:0:0:
256,192,38286,1,8,0:0:0:0:
256,192,38386,1,8,0:0:0:0:
256,192,38486,1,8,0:0:0:0:
256,192,38586,1,0,0:0:0:0:
256,192,40986,1,8,0:0:0:0:
256,192,41786,1,0,0:0:0:0:
256,192,44186,1,8,0:0:0:0:
256,192,44986,1,4,0:0:0:0:
256,192,45386,1,8,0:0:0:0:
256,192,45586,1,8,0:0:0:0:
256,192,45986,1,0,0:0:0:0:
256,192,46386,1,8,0:0:0:0:
256,192,46586,1,0,0:0:0:0:
256,192,46986,1,0,0:0:0:0:
256,192,47186,1,8,0:0:0:0:
256,192,47586,1,8,0:0:0:0:
256,192,47986,1,0,0:0:0:0:
256,192,48186,1,0,0:0:0:0:
256,192,48586,1,0,0:0:0:0:
256,192,49786,1,8,0:0:0:0:
256,192,50586,1,8,0:0:0:0:
256,192,50986,1,8,0:0:0:0:
256,192,51386,1,4,0:0:0:0:
256,192,51586,1,8,0:0:0:0:
256,192,51786,1,0,0:0:0:0:
256,192,51986,1,0,0:0:0:0:
256,192,52186,1,8,0:0:0:0:
256,192,52386,1,8,0:0:0:0:
256,192,52586,1,0,0:0:0:0:
256,192,52986,1,8,0:0:0:0:
256,192,53386,1,0,0:0:0:0:
256,192,53586,1,8,0:0:0:0:
256,192,53986,1,8,0:0:0:0:
256,192,54186,1,0,0:0:0:0:
256,192,54586,1,0,0:0:0:0:
256,192,54786,1,8,0:0:0:0:
256,192,54986,1,0,0:0:0:0:
256,192,55186,1,8,0:0:0:0:
256,192,55386,1,0,0:0:0:0:
256,192,55586,1,8,0:0:0:0:
256,192,55686,1,0,0:0:0:0:
256,192,55786,1,8,0:0:0:0:
256,192,56186,1,8,0:0:0:0:
256,192,56586,1,8,0:0:0:0:
256,192,56786,1,0,0:0:0:0:
256,192,56986,1,8,0:0:0:0:
256,192,57386,1,0,0:0:0:0:
256,192,57786,1,4,0:0:0:0:
256,192,57986,1,8,0:0:0:0:
256,192,58186,1,0,0:0:0:0:
256,192,58386,1,0,0:0:0:0:
256,192,58586,1,8,0:0:0:0:
256,192,58786,1,8,0:0:0:0:
256,192,58986,1,0,0:0:0:0:
256,192,59386,1,8,0:0:0:0:
256,192,59786,1,0,0:0:0:0:
256,192,59986,1,8,0:0:0:0:
256,192,60386,1,8,0:0:0:0:
256,192,60586,1,8,0:0:0:0:
256,192,60786,1,0,0:0:0:0:
256,192,60986,1,0,0:0:0:0:
256,192,61186,1,8,0:0:0:0:
256,192,61386,1,0,0:0:0:0:
256,192,61586,1,8,0:0:0:0:
256,192,61786,1,8,0:0:0:0:
256,192,61986,1,0,0:0:0:0:
256,192,62186,1,8,0:0:0:0:
256,192,62386,1,8,0:0:0:0:
256,192,62586,1,8,0:0:0:0:
256,192,62986,1,8,0:0:0:0:
256,192,63186,1,0,0:0:0:0:
256,192,63386,1,8,0:0:0:0:
256,192,63786,1,0,0:0:0:0:
256,192,64186,1,4,0:0:0:0:
256,192,64386,1,8,0:0:0:0:
256,192,64486,1,8,0:0:0:0:
256,192,64586,1,0,0:0:0:0:
256,192,64786,1,8,0:0:0:0:
256,192,65186,1,8,0:0:0:0:
256,192,65386,1,0,0:0:0:0:
256,192,65486,1,0,0:0:0:0:
256,192,65586,1,8,0:0:0:0:
256,192,65786,1,0,0:0:0:0:
256,192,65986,1,8,0:0:0:0:
256,192,66086,1,8,0:0:0:0:
256,192,66186,1,0,0:0:0:0:
256,192,66386,1,8,0:0:0:0:
256,192,66586,1,0,0:0:0:0:
256,192,66986,1,0,0:0:0:0:
256,192,67386,1,0,0:0:0:0:
256,192,67586,1,8,0:0:0:0:
256,192,67686,1,8,0:0:0:0:
256,192,67786,1,0,0:0:0:0:
256,192,67986,1,8,0:0:0:0:
256,192,68386,1,8,0:0:0:0:
256,192,68586,1,0,0:0:0:0:
256,192,68686,1,0,0:0:0:0:
256,192,68786,1,8,0:0:0:0:
256,192,68986,1,0,0:0:0:0:
256,192,69186,1,8,0:0:0:0:
256,192,69286,1,8,0:0:0:0:
256,192,69386,1,0,0:0:0:0:
256,192,69586,1,8,0:0:0:0:
256,192,69686,1,0,0:0:0:0:
256,192,69786,1,8,0:0:0:0:
256,192,69986,1,8,0:0:0:0:
256,192,70086,1,8,0:0:0:0:
256,192,70186,1,0,0:0:0:0:
256,192,70286,1,0,0:0:0:0:
256,192,70386,1,8,0:0:0:0:
256,192,70586,1,0,0:0:0:0:
256,192,70786,1,8,0:0:0:0:
256,192,70886,1,8,0:0:0:0:
256,192,70986,1,0,0:0:0:0:
256,192,71186,1,8,0:0:0:0:
256,192,71586,1,8,0:0:0:0:
256,192,71786,1,0,0:0:0:0:
256,192,71886,1,0,0:0:0:0:
256,192,71986,1,8,0:0:0:0:
256,192,72186,1,0,0:0:0:0:
256,192,72386,1,8,0:0:0:0:
256,192,72486,1,8,0:0:0:0:
256,192,72586,1,0,0:0:0:0:
256,192,72786,1,8,0:0:0:0:
256,192,72986,1,0,0:0:0:0:
256,192,73386,1,0,0:0:0:0:
256,192,73786,1,0,0:0:0:0:
256,192,73986,1,8,0:0:0:0:
256,192,74086,1,8,0:0:0:0:
256,192,74186,1,0,0:0:0:0:
256,192,74386,1,8,0:0:0:0:
256,192,74786,1,8,0:0:0:0:
256,192,74986,1,0,0:0:0:0:
256,192,75086,1,0,0:0:0:0:
256,192,75186,1,8,0:0:0:0:
256,192,75386,1,0,0:0:0:0:
256,192,75586,1,8,0:0:0:0:
256,192,75686,1,8,0:0:0:0:
256,192,75786,1,0,0:0:0:0:
256,192,75886,1,0,0:0:0:0:
256,192,75986,1,8,0:0:0:0:
256,192,76086,1,0,0:0:0:0:
256,192,76186,1,8,0:0:0:0:
256,192,76386,1,8,0:0:0:0:
256,192,76486,1,8,0:0:0:0:
256,192,76586,1,0,0:0:0:0:
256,192,76686,1,0,0:0:0:0:
256,192,76786,1,8,0:0:0:0:
256,192,76986,1,4,0:0:0:0:
256,192,77786,1,0,0:0:0:0:
256,192,78586,1,0,0:0:0:0:
256,192,79386,1,0,0:0:0:0:
256,192,80186,1,0,0:0:0:0:
256,192,80586,1,8,0:0:0:0:
256,192,80986,1,0,0:0:0:0:
256,192,81386,1,8,0:0:0:0:
256,192,81786,1,0,0:0:0:0:
256,192,82186,1,8,0:0:0:0:
256,192,82386,1,0,0:0:0:0:
256,192,82586,1,0,0:0:0:0:
256,192,82986,1,8,0:0:0:0:
256,192,83386,1,0,0:0:0:0:
256,192,83786,1,8,0:0:0:0:
256,192,84186,1,0,0:0:0:0:
256,192,84586,1,8,0:0:0:0:
256,192,84986,1,0,0:0:0:0:
256,192,85386,1,8,0:0:0:0:
256,192,85586,1,0,0:0:0:0:
256,192,85786,1,0,0:0:0:0:
256,192,85986,1,0,0:0:0:0:
256,192,86086,1,0,0:0:0:0:
256,192,86186,1,8,0:0:0:0:
256,192,86286,1,0,0:0:0:0:
256,192,86386,1,8,0:0:0:0:
256,192,86586,1,0,0:0:0:0:
256,192,86786,1,0,0:0:0:0:
256,192,86986,1,8,0:0:0:0:
256,192,87186,1,0,0:0:0:0:
256,192,87286,1,0,0:0:0:0:
256,192,87386,1,0,0:0:0:0:
256,192,87586,1,0,0:0:0:0:
256,192,87786,1,8,0:0:0:0:
256,192,87986,1,0,0:0:0:0:
256,192,88186,1,0,0:0:0:0:
256,192,88286,1,0,0:0:0:0:
256,192,88386,1,0,0:0:0:0:
256,192,88486,1,0,0:0:0:0:
256,192,88586,1,8,0:0:0:0:
256,192,88686,1,0,0:0:0:0:
256,192,88786,1,8,0:0:0:0:
256,192,88886,1,8,0:0:0:0:
256,192,88986,1,0,0:0:0:0:
256,192,89086,1,0,0:0:0:0:
256,192,89186,1,8,0:0:0:0:
256,192,89286,1,0,0:0:0:0:
256,192,89386,1,8,0:0:0:0:
256,192,89486,1,0,0:0:0:0:
256,192,89586,1,8,0:0:0:0:
256,192,89686,1,8,0:0:0:0:
256,192,89786,1,0,0:0:0:0:
256,192,89986,12,0,91186,0:0:0:0:
256,192,91386,5,4,0:0:0:0:
256,192,91586,1,8,0:0:0:0:
256,192,91786,1,0,0:0:0:0:
256,192,91986,1,0,0:0:0:0:
256,192,92086,1,0,0:0:0:0:
256,192,92186,1,8,0:0:0:0:
256,192,92386,1,8,0:0:0:0:
256,192,92586,1,0,0:0:0:0:
256,192,92786,1,8,0:0:0:0:
256,192,92886,1,8,0:0:0:0:
256,192,92986,1,0,0:0:0:0:
256,192,93086,1,0,0:0:0:0:
256,192,93186,1,8,0:0:0:0:
256,192,93386,1,0,0:0:0:0:
256,192,93586,1,8,0:0:0:0:
256,192,93686,1,0,0:0:0:0:
256,192,93786,1,8,0:0:0:0:
256,192,93986,1,0,0:0:0:0:
256,192,94186,1,8,0:0:0:0:
256,192,94386,1,0,0:0:0:0:
256,192,94486,1,8,0:0:0:0:
256,192,94586,1,0,0:0:0:0:
256,192,94786,1,8,0:0:0:0:
256,192,94886,1,8,0:0:0:0:
256,192,94986,1,0,0:0:0:0:
256,192,95186,1,0,0:0:0:0:
256,192,95386,1,8,0:0:0:0:
256,192,95586,1,8,0:0:0:0:
256,192,95786,1,0,0:0:0:0:
256,192,95886,1,0,0:0:0:0:
256,192,95986,1,8,0:0:0:0:
256,192,96086,1,8,0:0:0:0:
256,192,96186,1,0,0:0:0:0:
256,192,96386,1,8,0:0:0:0:
256,192,96586,1,0,0:0:0:0:
256,192,96786,1,8,0:0:0:0:
256,192,96886,1,0,0:0:0:0:
256,192,96986,1,8,0:0:0:0:
256,192,97186,1,0,0:0:0:0:
256,192,97286,1,0,0:0:0:0:
256,192,97386,1,8,0:0:0:0:
256,192,97486,1,0,0:0:0:0:
256,192,97586,1,8,0:0:0:0:
256,192,97686,1,8,0:0:0:0:
256,192,97786,1,0,0:0:0:0:
256,192,97986,1,8,0:0:0:0:
256,192,98186,1,0,0:0:0:0:
256,192,98386,1,0,0:0:0:0:
256,192,98486,1,0,0:0:0:0:
256,192,98586,1,8,0:0:0:0:
256,192,98786,1,8,0:0:0:0:
256,192,98986,1,0,0:0:0:0:
256,192,99186,1,8,0:0:0:0:
256,192,99286,1,8,0:0:0:0:
256,192,99386,1,0,0:0:0:0:
256,192,99486,1,0,0:0:0:0:
256,192,99586,1,8,0:0:0:0:
256,192,99786,1,0,0:0:0:0:
256,192,99986,1,8,0:0:0:0:
256,192,100086,1,0,0:0:0:0:
256,192,100186,1,8,0:0:0:0:
256,192,100386,1,0,0:0:0:0:
256,192,100586,1,8,0:0:0:0:
256,192,100786,1,0,0:0:0:0:
256,192,100886,1,8,0:0:0:0:
256,192,100986,1,0,0:0:0:0:
256,192,101186,1,8,0:0:0:0:
256,192,101286,1,8,0:0:0:0:
256,192,101386,1,0,0:0:0:0:
256,192,101586,1,0,0:0:0:0:
256,192,101786,1,8,0:0:0:0:
256,192,101986,1,8,0:0:0:0:
256,192,102186,1,0,0:0:0:0:
256,192,102286,1,0,0:0:0:0:
256,192,102386,1,8,0:0:0:0:
256,192,102486,1,8,0:0:0:0:
256,192,102586,1,0,0:0:0:0:
256,192,102786,1,8,0:0:0:0:
256,192,102986,1,0,0:0:0:0:
256,192,103186,1,8,0:0:0:0:
256,192,103286,1,8,0:0:0:0:
256,192,103386,1,0,0:0:0:0:
256,192,103486,1,8,0:0:0:0:
256,192,103586,1,0,0:0:0:0:
256,192,103686,1,0,0:0:0:0:
256,192,103786,1,8,0:0:0:0:
256,192,103886,1,8,0:0:0:0:
256,192,103986,1,8,0:0:0:0:
256,192,104086,1,8,0:0:0:0:
256,192,104186,1,0,0:0:0:0:
256,192,104386,1,8,0:0:0:0:
256,192,104586,1,0,0:0:0:0:
256,192,104786,1,0,0:0:0:0:
256,192,104886,1,0,0:0:0:0:
256,192,104986,1,8,0:0:0:0:
256,192,105086,1,8,0:0:0:0:
256,192,105186,1,0,0:0:0:0:
256,192,105386,1,8,0:0:0:0:
256,192,105586,1,8,0:0:0:0:
256,192,105686,1,8,0:0:0:0:
256,192,105786,1,0,0:0:0:0:
256,192,105986,1,8,0:0:0:0:
256,192,106186,1,0,0:0:0:0:
256,192,106286,1,8,0:0:0:0:
256,192,106386,1,0,0:0:0:0:
256,192,106486,1,0,0:0:0:0:
256,192,106586,1,8,0:0:0:0:
256,192,106786,1,0,0:0:0:0:
256,192,106986,1,8,0:0:0:0:
256,192,107186,1,0,0:0:0:0:
256,192,107286,1,0,0:0:0:0:
256,192,107386,1,0,0:0:0:0:
256,192,107586,1,8,0:0:0:0:
256,192,107786,1,0,0:0:0:0:
256,192,107986,1,8,0:0:0:0:
256,192,108086,1,8,0:0:0:0:
256,192,108186,1,8,0:0:0:0:
256,192,108386,1,0,0:0:0:0:
256,192,108586,1,8,0:0:0:0:
256,192,108786,1,8,0:0:0:0:
256,192,108886,1,0,0:0:0:0:
256,192,108986,1,8,0:0:0:0:
256,192,109086,1,8,0:0:0:0:
256,192,109186,1,0,0:0:0:0:
256,192,109386,1,8,0:0:0:0:
256,192,109586,1,0,0:0:0:0:
256,192,109686,1,0,0:0:0:0:
256,192,109786,1,8,0:0:0:0:
256,192,109986,1,0,0:0:0:0:
256,192,110086,1,0,0:0:0:0:
256,192,110186,1,8,0:0:0:0:
256,192,110286,1,0,0:0:0:0:
256,192,110386,1,8,0:0:0:0:
256,192,110486,1,8,0:0:0:0:
256,192,110586,1,0,0:0:0:0:
256,192,110786,1,8,0:0:0:0:
256,192,110986,1,0,0:0:0:0:
256,192,111186,1,0,0:0:0:0:
256,192,111286,1,0,0:0:0:0:
256,192,111386,1,8,0:0:0:0:
256,192,111486,1,8,0:0:0:0:
256,192,111586,1,0,0:0:0:0:
256,192,111786,1,8,0:0:0:0:
256,192,111986,1,8,0:0:0:0:
256,192,112086,1,8,0:0:0:0:
256,192,112186,1,0,0:0:0:0:
256,192,112386,1,8,0:0:0:0:
256,192,112586,1,0,0:0:0:0:
256,192,112686,1,8,0:0:0:0:
256,192,112786,1,0,0:0:0:0:
256,192,112886,1,0,0:0:0:0:
256,192,112986,1,8,0:0:0:0:
256,192,113186,1,0,0:0:0:0:
256,192,113386,1,8,0:0:0:0:
256,192,113586,1,0,0:0:0:0:
256,192,113686,1,0,0:0:0:0:
256,192,113786,1,0,0:0:0:0:
256,192,113986,1,8,0:0:0:0:
256,192,114186,1,0,0:0:0:0:
256,192,114386,1,8,0:0:0:0:
256,192,114486,1,8,0:0:0:0:
256,192,114586,1,8,0:0:0:0:
256,192,114786,1,0,0:0:0:0:
256,192,114986,1,8,0:0:0:0:
256,192,115086,1,8,0:0:0:0:
256,192,115186,1,0,0:0:0:0:
256,192,115286,1,0,0:0:0:0:
256,192,115386,1,8,0:0:0:0:
256,192,115586,1,0,0:0:0:0:
256,192,115786,1,8,0:0:0:0:
256,192,115986,1,8,0:0:0:0:
256,192,116086,1,8,0:0:0:0:
256,192,116186,1,0,0:0:0:0:
256,192,116286,1,8,0:0:0:0:
256,192,116386,1,0,0:0:0:0:
256,192,116486,1,0,0:0:0:0:
256,192,116586,1,8,0:0:0:0:
256,192,116686,1,8,0:0:0:0:
256,192,116786,1,8,0:0:0:0:
256,192,116886,1,8,0:0:0:0:
256,192,116986,1,0,0:0:0:0:
256,192,117386,1,8,0:0:0:0:
256,192,117586,1,0,0:0:0:0:
256,192,117686,1,0,0:0:0:0:
256,192,117786,1,8,0:0:0:0:
256,192,117986,1,8,0:0:0:0:
256,192,118186,1,0,0:0:0:0:
256,192,118386,1,8,0:0:0:0:
256,192,118486,1,8,0:0:0:0:
256,192,118586,1,0,0:0:0:0:
256,192,118786,1,8,0:0:0:0:
256,192,118986,1,0,0:0:0:0:
256,192,119186,1,0,0:0:0:0:
256,192,119286,1,0,0:0:0:0:
256,192,119386,1,8,0:0:0:0:
256,192,119486,1,8,0:0:0:0:
256,192,119586,1,0,0:0:0:0:
256,192,119786,1,8,0:0:0:0:
256,192,119986,1,0,0:0:0:0:
256,192,120186,1,0,0:0:0:0:
256,192,120586,1,8,0:0:0:0:
256,192,120786,1,0,0:0:0:0:
256,192,120986,1,8,0:0:0:0:
256,192,121186,1,8,0:0:0:0:
256,192,121286,1,8,0:0:0:0:
256,192,121386,1,0,0:0:0:0:
256,192,121586,1,8,0:0:0:0:
256,192,121786,1,0,0:0:0:0:
256,192,121986,1,8,0:0:0:0:
256,192,122086,1,8,0:0:0:0:
256,192,122186,1,0,0:0:0:0:
256,192,122286,1,8,0:0:0:0:
256,192,122386,1,0,0:0:0:0:
256,192,122586,1,8,0:0:0:0:
256,192,122786,1,0,0:0:0:0:
256,192,122886,1,0,0:0:0:0:
256,192,122986,1,8,0:0:0:0:
256,192,123086,1,0,0:0:0:0:
256,192,123186,1,8,0:0:0:0:
256,192,123286,1,8,0:0:0:0:
256,192,123386,1,0,0:0:0:0:
256,192,123786,1,8,0:0:0:0:
256,192,123986,1,0,0:0:0:0:
256,192,124086,1,0,0:0:0:0:
256,192,124186,1,8,0:0:0:0:
256,192,124386,1,8,0:0:0:0:
256,192,124586,1,0,0:0:0:0:
256,192,124786,1,8,0:0:0:0:
256,192,124886,1,8,0:0:0:0:
256,192,124986,1,0,0:0:0:0:
256,192,125186,1,8,0:0:0:0:
256,192,125386,1,0,0:0:0:0:
256,192,125586,1,0,0:0:0:0:
256,192,125686,1,0,0:0:0:0:
256,192,125786,1,8,0:0:0:0:
256,192,125886,1,8,0:0:0:0:
256,192,125986,1,0,0:0:0:0:
256,192,126186,1,8,0:0:0:0:
256,192,126386,1,0,0:0:0:0:
256,192,126586,1,0,0:0:0:0:
256,192,126986,1,8,0:0:0:0:
256,192,127186,1,0,0:0:0:0:
256,192,127386,1,8,0:0:0:0:
256,192,127586,1,8,0:0:0:0:
256,192,127686,1,8,0:0:0:0:
256,192,127786,1,0,0:0:0:0:
256,192,127886,1,0,0:0:0:0:
256,192,127986,1,8,0:0:0:0:
256,192,128186,1,0,0:0:0:0:
256,192,128386,1,8,0:0:0:0:
256,192,128486,1,8,0:0:0:0:
256,192,128586,1,0,0:0:0:0:
256,192,128786,1,8,0:0:0:0:
256,192,128886,1,8,0:0:0:0:
256,192,128986,1,0,0:0:0:0:
256,192,129086,1,8,0:0:0:0:
256,192,129186,1,0,0:0:0:0:
256,192,129286,1,0,0:0:0:0:
256,192,129386,1,8,0:0:0:0:
256,192,129486,1,8,0:0:0:0:
256,192,129586,1,8,0:0:0:0:
256,192,129786,1,4,0:0:0:0:
256,192,130386,1,0,0:0:0:0:
256,192,130986,1,8,0:0:0:0:
256,192,131386,1,0,0:0:0:0:
256,192,131986,1,0,0:0:0:0:
256,192,132586,1,8,0:0:0:0:
256,192,132986,1,0,0:0:0:0:
256,192,133586,1,8,0:0:0:0:
256,192,134186,1,0,0:0:0:0:
256,192,134386,1,8,0:0:0:0:
256,192,134486,1,0,0:0:0:0:
256,192,134586,1,8,0:0:0:0:
256,192,135186,1,0,0:0:0:0:
256,192,136186,1,4,0:0:0:0:
256,192,136786,1,0,0:0:0:0:
256,192,137386,1,8,0:0:0:0:
256,192,137786,1,0,0:0:0:0:
256,192,138386,1,0,0:0:0:0:
256,192,138986,1,8,0:0:0:0:
256,192,139386,1,0,0:0:0:0:
256,192,139986,1,8,0:0:0:0:
256,192,140586,1,0,0:0:0:0:
256,192,140986,1,8,0:0:0:0:
256,192,141586,1,8,0:0:0:0:
256,192,142586,1,4,0:0:0:0:
256,192,142986,1,8,0:0:0:0:
256,192,143036,1,8,0:0:0:0:
256,192,143186,1,0,0:0:0:0:
256,192,143386,1,0,0:0:0:0:
256,192,143436,1,8,0:0:0:0:
256,192,143786,1,8,0:0:0:0:
256,192,143886,1,0,0:0:0:0:
256,192,143986,1,8,0:0:0:0:
256,192,144036,1,0,0:0:0:0:
256,192,144186,1,8,0:0:0:0:
256,192,144586,1,0,0:0:0:0:
256,192,144636,1,0,0:0:0:0:
256,192,144786,1,0,0:0:0:0:
256,192,144986,1,8,0:0:0:0:
256,192,145186,1,8,0:0:0:0:
256,192,145386,1,0,0:0:0:0:
256,192,145436,1,0,0:0:0:0:
256,192,145586,1,8,0:0:0:0:
256,192,145786,1,0,0:0:0:0:
256,192,146186,1,8,0:0:0:0:
256,192,146236,1,8,0:0:0:0:
256,192,146386,1,0,0:0:0:0:
256,192,146586,1,0,0:0:0:0:
256,192,146636,1,8,0:0:0:0:
256,192,146986,1,8,0:0:0:0:
256,192,147086,1,0,0:0:0:0:
256,192,147186,1,8,0:0:0:0:
256,192,147236,1,0,0:0:0:0:
256,192,147386,1,8,0:0:0:0:
256,192,147786,1,0,0:0:0:0:
256,192,147836,1,0,0:0:0:0:
256,192,147986,1,0,0:0:0:0:
256,192,148186,1,8,0:0:0:0:
256,192,148386,1,0,0:0:0:0:
256,192,148586,1,8,0:0:0:0:
256,192,148786,1,0,0:0:0:0:
256,192,148836,1,0,0:0:0:0:
256,192,148986,1,4,0:0:0:0:
256,192,149186,1,0,0:0:0:0:
256,192,149286,1,8,0:0:0:0:
256,192,149386,1,0,0:0:0:0:
256,192,149436,1,0,0:0:0:0:
256,192,149586,1,8,0:0:0:0:
256,192,149686,1,0,0:0:0:0:
256,192,149786,1,8,0:0:0:0:
256,192,149836,1,8,0:0:0:0:
256,192,149986,1,0,0:0:0:0:
256,192,150186,1,8,0:0:0:0:
256,192,150286,1,0,0:0:0:0:
256,192,150386,1,8,0:0:0:0:
256,192,150436,1,8,0:0:0:0:
256,192,150586,1,0,0:0:0:0:
256,192,150686,1,8,0:0:0:0:
256,192,150786,1,0,0:0:0:0:
256,192,150886,1,8,0:0:0:0:
256,192,150986,1,0,0:0:0:0:
256,192,151036,1,0,0:0:0:0:
256,192,151086,1,0,0:0:0:0:
256,192,151186,1,0,0:0:0:0:
256,192,151386,1,8,0:0:0:0:
256,192,151586,1,0,0:0:0:0:
256,192,151686,1,0,0:0:0:0:
256,192,151786,1,8,0:0:0:0:
256,192,151886,1,8,0:0:0:0:
256,192,151986,1,8,0:0:0:0:
256,192,152036,1,8,0:0:0:0:
256,192,152086,1,8,0:0:0:0:
256,192,152186,1,0,0:0:0:0:
256,192,152586,1,8,0:0:0:0:
256,192,152636,1,8,0:0:0:0:
256,192,152786,1,0,0:0:0:0:
256,192,152986,1,0,0:0:0:0:
256,192,153036,1,8,0:0:0:0:
256,192,153386,1,8,0:0:0:0:
256,192,153486,1,0,0:0:0:0:
256,192,153586,1,8,0:0:0:0:
256,192,153636,1,0,0:0:0:0:
256,192,153786,1,8,0:0:0:0:
256,192,154186,1,0,0:0:0:0:
256,192,154236,1,0,0:0:0:0:
256,192,154386,1,0,0:0:0:0:
256,192,154586,1,0,0:0:0:0:
256,192,154686,1,8,0:0:0:0:
256,192,154786,1,8,0:0:0:0:
256,192,154886,1,0,0:0:0:0:
256,192,154986,1,8,0:0:0:0:
256,192,155086,1,0,0:0:0:0:
256,192,155186,1,8,0:0:0:0:
256,192,155286,1,8,0:0:0:0:
256,192,155386,1,0,0:0:0:0:
256,192,155586,1,8,0:0:0:0:
256,192,155686,1,0,0:0:0:0:
256,192,155786,1,8,0:0:0:0:
256,192,155836,1,8,0:0:0:0:
256,192,155986,1,0,0:0:0:0:
256,192,156086,1,8,0:0:0:0:
256,192,156186,1,0,0:0:0:0:
256,192,156236,1,8,0:0:0:0:
256,192,156386,1,0,0:0:0:0:
256,192,156486,1,0,0:0:0:0:
256,192,156586,1,8,0:0:0:0:
256,192,156686,1,0,0:0:0:0:
256,192,156786,1,8,0:0:0:0:
256,192,156836,1,0,0:0:0:0:
256,192,156986,1,8,0:0:0:0:
256,192,157386,1,0,0:0:0:0:
256,192,157436,1,0,0:0:0:0:
256,192,157586,1,0,0:0:0:0:
256,192,157786,1,8,0:0:0:0:
256,192,157986,1,8,0:0:0:0:
256,192,158186,1,0,0:0:0:0:
256,192,158236,1,0,0:0:0:0:
256,192,158386,1,8,0:0:0:0:
256,192,158586,1,0,0:0:0:0:
256,192,158786,1,8,0:0:0:0:
256,192,158886,1,0,0:0:0:0:
256,192,158986,1,8,0:0:0:0:
256,192,159036,1,8,0:0:0:0:
256,192,159186,1,0,0:0:0:0:
256,192,159286,1,8,0:0:0:0:
256,192,159386,1,0,0:0:0:0:
256,192,159436,1,8,0:0:0:0:
256,192,159586,1,0,0:0:0:0:
256,192,159686,1,0,0:0:0:0:
256,192,159786,1,8,0:0:0:0:
256,192,159886,1,0,0:0:0:0:
256,192,159986,1,8,0:0:0:0:
256,192,160036,1,0,0:0:0:0:
256,192,160186,1,8,0:0:0:0:
256,192,160586,1,0,0:0:0:0:
256,192,160636,1,0,0:0:0:0:
256,192,160786,1,8,0:0:0:0:
256,192,160986,1,8,0:0:0:0:
256,192,161186,1,0,0:0:0:0:
256,192,161386,1,8,0:0:0:0:
256,192,161586,1,0,0:0:0:0:
256,192,161636,1,0,0:0:0:0:
256,192,161786,1,4,0:0:0:0:
256,192,161986,1,0,0:0:0:0:
256,192,162086,1,8,0:0:0:0:
256,192,162186,1,0,0:0:0:0:
256,192,162236,1,0,0:0:0:0:
256,192,162386,1,8,0:0:0:0:
256,192,162486,1,0,0:0:0:0:
256,192,162586,1,8,0:0:0:0:
256,192,162636,1,8,0:0:0:0:
256,192,162786,1,0,0:0:0:0:
256,192,162986,1,8,0:0:0:0:
256,192,163086,1,0,0:0:0:0:
256,192,163186,1,8,0:0:0:0:
256,192,163236,1,8,0:0:0:0:
256,192,163386,1,0,0:0:0:0:
256,192,163486,1,8,0:0:0:0:
256,192,163586,1,0,0:0:0:0:
256,192,163686,1,8,0:0:0:0:
256,192,163786,1,0,0:0:0:0:
256,192,163836,1,0,0:0:0:0:
256,192,163886,1,0,0:0:0:0:
256,192,163986,1,0,0:0:0:0:
256,192,164186,1,8,0:0:0:0:
256,192,164386,1,0,0:0:0:0:
256,192,164486,1,0,0:0:0:0:
256,192,164586,1,8,0:0:0:0:
256,192,164686,1,8,0:0:0:0:
256,192,164786,1,8,0:0:0:0:
256,192,164836,1,8,0:0:0:0:
256,192,164886,1,8,0:0:0:0:
256,192,164986,1,0,0:0:0:0:
256,192,165186,1,8,0:0:0:0:
256,192,165286,1,0,0:0:0:0:
256,192,165386,1,8,0:0:0:0:
256,192,165436,1,8,0:0:0:0:
256,192,165586,1,0,0:0:0:0:
256,192,165686,1,8,0:0:0:0:
256,192,165786,1,0,0:0:0:0:
256,192,165836,1,8,0:0:0:0:
256,192,165986,1,0,0:0:0:0:
256,192,166086,1,0,0:0:0:0:
256,192,166186,1,8,0:0:0:0:
256,192,166286,1,0,0:0:0:0:
256,192,166386,1,8,0:0:0:0:
256,192,166436,1,0,0:0:0:0:
256,192,166586,1,8,0:0:0:0:
256,192,166986,1,0,0:0:0:0:
256,192,167036,1,0,0:0:0:0:
256,192,167186,1,8,0:0:0:0:
256,192,167386,1,0,0:0:0:0:
256,192,167486,1,8,0:0:0:0:
256,192,167586,1,8,0:0:0:0:
256,192,167686,1,0,0:0:0:0:
256,192,167786,1,8,0:0:0:0:
256,192,167886,1,0,0:0:0:0:
256,192,167986,1,8,0:0:0:0:
256,192,168086,1,8,0:0:0:0:
256,192,168186,1,0,0:0:0:0:
256,192,168386,1,0,0:0:0:0:
256,192,168486,1,0,0:0:0:0:
256,192,168586,1,8,0:0:0:0:
256,192,168636,1,8,0:0:0:0:
256,192,168786,1,8,0:0:0:0:
256,192,168886,1,8,0:0:0:0:
256,192,168986,1,0,0:0:0:0:
256,192,169186,1,8,0:0:0:0:
256,192,169236,1,8,0:0:0:0:
256,192,169386,1,8,0:0:0:0:
256,192,169436,1,8,0:0:0:0:
256,192,169586,1,0,0:0:0:0:
256,192,169686,1,8,0:0:0:0:
256,192,169786,1,0,0:0:0:0:
256,192,169986,1,8,0:0:0:0:
256,192,170086,1,0,0:0:0:0:
256,192,170186,1,8,0:0:0:0:
256,192,170236,1,8,0:0:0:0:
256,192,170386,1,0,0:0:0:0:
256,192,170486,1,8,0:0:0:0:
256,192,170586,1,0,0:0:0:0:
256,192,170786,1,8,0:0:0:0:
256,192,170836,1,8,0:0:0:0:
256,192,170986,1,8,0:0:0:0:
256,192,171036,1,8,0:0:0:0:
256,192,171186,1,8,0:0:0:0:
256,192,171286,1,8,0:0:0:0:
256,192,171386,1,0,0:0:0:0:
256,192,171586,1,8,0:0:0:0:
256,192,171686,1,0,0:0:0:0:
256,192,171786,1,8,0:0:0:0:
256,192,171836,1,8,0:0:0:0:
256,192,171986,1,8,0:0:0:0:
256,192,172086,1,8,0:0:0:0:
256,192,172186,1,0,0:0:0:0:
256,192,172386,1,8,0:0:0:0:
256,192,172436,1,8,0:0:0:0:
256,192,172586,1,8,0:0:0:0:
256,192,172636,1,8,0:0:0:0:
256,192,172786,1,0,0:0:0:0:
256,192,172886,1,8,0:0:0:0:
256,192,172986,1,0,0:0:0:0:
256,192,173186,1,8,0:0:0:0:
256,192,173286,1,0,0:0:0:0:
256,192,173386,1,8,0:0:0:0:
256,192,173436,1,8,0:0:0:0:
256,192,173586,1,0,0:0:0:0:
256,192,173786,1,0,0:0:0:0:
256,192,173886,1,8,0:0:0:0:
256,192,173986,1,8,0:0:0:0:
256,192,174086,1,0,0:0:0:0:
256,192,174186,1,8,0:0:0:0:
256,192,174286,1,0,0:0:0:0:
256,192,174386,1,8,0:0:0:0:
256,192,174486,1,8,0:0:0:0:
256,192,174586,1,0,0:0:0:0:
256,192,174786,1,0,0:0:0:0:
256,192,174886,1,0,0:0:0:0:
256,192,174986,1,8,0:0:0:0:
256,192,175036,1,8,0:0:0:0:
256,192,175186,1,8,0:0:0:0:
256,192,175286,1,8,0:0:0:0:
256,192,175386,1,0,0:0:0:0:
256,192,175586,1,8,0:0:0:0:
256,192,175636,1,8,0:0:0:0:
256,192,175786,1,8,0:0:0:0:
256,192,175836,1,8,0:0:0:0:
256,192,175986,1,0,0:0:0:0:
256,192,176086,1,8,0:0:0:0:
256,192,176186,1,0,0:0:0:0:
256,192,176386,1,8,0:0:0:0:
256,192,176486,1,0,0:0:0:0:
256,192,176586,1,8,0:0:0:0:
256,192,176636,1,8,0:0:0:0:
256,192,176786,1,0,0:0:0:0:
256,192,176886,1,8,0:0:0:0:
256,192,176986,1,0,0:0:0:0:
256,192,177186,1,8,0:0:0:0:
256,192,177236,1,8,0:0:0:0:
256,192,177386,1,8,0:0:0:0:
256,192,177436,1,8,0:0:0:0:
256,192,177586,1,8,0:0:0:0:
256,192,177686,1,8,0:0:0:0:
256,192,177786,1,0,0:0:0:0:
256,192,177986,1,8,0:0:0:0:
256,192,178086,1,0,0:0:0:0:
256,192,178186,1,8,0:0:0:0:
256,192,178236,1,8,0:0:0:0:
256,192,178386,1,8,0:0:0:0:
256,192,178486,1,8,0:0:0:0:
256,192,178586,1,0,0:0:0:0:
256,192,178786,1,8,0:0:0:0:
256,192,178836,1,8,0:0:0:0:
256,192,178986,1,8,0:0:0:0:
256,192,179036,1,8,0:0:0:0:
256,192,179186,1,0,0:0:0:0:
256,192,179286,1,8,0:0:0:0:
256,192,179386,1,0,0:0:0:0:
256,192,179586,1,8,0:0:0:0:
256,192,179686,1,0,0:0:0:0:
256,192,179786,1,8,0:0:0:0:
256,192,179836,1,8,0:0:0:0:
256,192,179986,1,0,0:0:0:0:
256,192,180186,1,0,0:0:0:0:
256,192,180286,1,8,0:0:0:0:
256,192,180386,1,8,0:0:0:0:
256,192,180486,1,0,0:0:0:0:
256,192,180586,1,8,0:0:0:0:
256,192,180686,1,0,0:0:0:0:
256,192,180786,1,8,0:0:0:0:
256,192,180986,1,4,0:0:0:0:
256,192,187386,5,4,0:0:0:0:
256,192,187786,1,8,0:0:0:0:
256,192,187986,1,8,0:0:0:0:
256,192,188386,1,0,0:0:0:0:
256,192,188786,1,8,0:0:0:0:
256,192,188986,1,0,0:0:0:0:
256,192,189386,1,0,0:0:0:0:
256,192,189586,1,8,0:0:0:0:
256,192,189986,1,8,0:0:0:0:
256,192,190386,1,0,0:0:0:0:
256,192,190586,1,0,0:0:0:0:
256,192,190986,1,0,0:0:0:0:
256,192,192186,1,8,0:0:0:0:
256,192,192986,1,8,0:0:0:0:
256,192,193386,1,8,0:0:0:0:
256,192,193786,1,4,0:0:0:0:
256,192,193986,1,8,0:0:0:0:
256,192,194186,1,0,0:0:0:0:
256,192,194386,1,0,0:0:0:0:
256,192,194586,1,8,0:0:0:0:
256,192,194786,1,8,0:0:0:0:
256,192,194986,1,0,0:0:0:0:
256,192,195386,1,8,0:0:0:0:
256,192,195786,1,0,0:0:0:0:
256,192,195986,1,8,0:0:0:0:
256,192,196386,1,8,0:0:0:0:
256,192,196586,1,0,0:0:0:0:
256,192,196986,1,0,0:0:0:0:
256,192,197186,1,8,0:0:0:0:
256,192,197386,1,0,0:0:0:0:
256,192,197586,1,8,0:0:0:0:
256,192,197786,1,0,0:0:0:0:
256,192,197986,1,8,0:0:0:0:
256,192,198086,1,0,0:0:0:0:
256,192,198186,1,8,0:0:0:0:
256,192,198586,1,8,0:0:0:0:
256,192,198986,1,8,0:0:0:0:
256,192,199186,1,0,0:0:0:0:
256,192,199386,1,8,0:0:0:0:
256,192,199586,1,8,0:0:0:0:
256,192,199786,1,0,0:0:0:0:
256,192,200186,1,4,0:0:0:0:
256,192,200386,1,8,0:0:0:0:
256,192,200586,1,0,0:0:0:0:
256,192,200786,1,0,0:0:0:0:
256,192,200986,1,8,0:0:0:0:
256,192,201186,1,8,0:0:0:0:
256,192,201386,1,0,0:0:0:0:
256,192,201786,1,8,0:0:0:0:
256,192,202186,1,0,0:0:0:0:
256,192,202386,1,8,0:0:0:0:
256,192,202786,1,8,0:0:0:0:
256,192,202986,1,8,0:0:0:0:
256,192,203186,1,0,0:0:0:0:
256,192,203386,1,0,0:0:0:0:
256,192,203586,1,8,0:0:0:0:
256,192,203786,1,0,0:0:0:0:
256,192,203986,1,8,0:0:0:0:
256,192,204186,1,8,0:0:0:0:
256,192,204386,1,0,0:0:0:0:
256,192,204586,1,8,0:0:0:0:
256,192,204786,1,8,0:0:0:0:
256,192,204986,1,8,0:0:0:0:
256,192,205386,1,8,0:0:0:0:
256,192,205586,1,0,0:0:0:0:
256,192,205786,1,8,0:0:0:0:
256,192,205986,1,8,0:0:0:0:
256,192,206186,1,0,0:0:0:0:
256,192,206586,1,4,0:0:0:0:
256,192,206786,1,8,0:0:0:0:
256,192,206886,1,8,0:0:0:0:
256,192,206986,1,0,0:0:0:0:
256,192,207186,1,8,0:0:0:0:
256,192,207586,1,8,0:0:0:0:
256,192,207786,1,0,0:0:0:0:
256,192,207886,1,0,0:0:0:0:
256,192,207986,1,8,0:0:0:0:
256,192,208186,1,0,0:0:0:0:
256,192,208386,1,8,0:0:0:0:
256,192,208486,1,8,0:0:0:0:
256,192,208586,1,0,0:0:0:0:
256,192,208786,1,8,0:0:0:0:
256,192,208986,1,0,0:0:0:0:
256,192,209386,1,0,0:0:0:0:
256,192,209786,1,0,0:0:0:0:
256,192,209986,1,8,0:0:0:0:
256,192,210086,1,8,0:0:0:0:
256,192,210186,1,0,0:0:0:0:
256,192,210386,1,8,0:0:0:0:
256,192,210786,1,8,0:0:0:0:
256,192,210986,1,0,0:0:0:0:
256,192,211086,1,0,0:0:0:0:
256,192,211186,1,8,0:0:0:0:
256,192,211386,1,0,0:0:0:0:
256,192,211586,1,8,0:0:0:0:
256,192,211686,1,8,0:0:0:0:
256,192,211786,1,0,0:0:0:0:
256,192,211986,1,8,0:0:0:0:
256,192,212086,1,0,0:0:0:0:
256,192,212186,1,8,0:0:0:0:
256,192,212386,1,8,0:0:0:0:
256,192,212486,1,8,0:0:0:0:
256,192,212586,1,0,0:0:0:0:
256,192,212686,1,0,0:0:0:0:
256,192,212786,1,8,0:0:0:0:
256,192,212986,1,0,0:0:0:0:
256,192,213186,1,8,0:0:0:0:
256,192,213286,1,8,0:0:0:0:
256,192,213386,1,0,0:0:0:0:
256,192,213586,1,8,0:0:0:0:
256,192,213986,1,8,0:0:0:0:
256,192,214186,1,0,0:0:0:0:
256,192,214286,1,0,0:0:0:0:
256,192,214386,1,8,0:0:0:0:
256,192,214586,1,0,0:0:0:0:
256,192,214786,1,8,0:0:0:0:
256,192,214886,1,8,0:0:0:0:
256,192,214986,1,0,0:0:0:0:
256,192,215186,1,8,0:0:0:0:
256,192,215386,1,0,0:0:0:0:
256,192,215786,1,0,0:0:0:0:
256,192,216186,1,0,0:0:0:0:
256,192,216386,1,8,0:0:0:0:
256,192,216486,1,8,0:0:0:0:
256,192,216586,1,0,0:0:0:0:
256,192,216786,1,8,0:0:0:0:
256,192,217186,1,8,0:0:0:0:
256,192,217386,1,0,0:0:0:0:
256,192,217486,1,0,0:0:0:0:
256,192,217586,1,8,0:0:0:0:
256,192,217786,1,0,0:0:0:0:
256,192,217986,1,8,0:0:0:0:
256,192,218086,1,8,0:0:0:0:
256,192,218186,1,0,0:0:0:0:
256,192,218286,1,0,0:0:0:0:
256,192,218386,1,8,0:0:0:0:
256,192,218486,1,0,0:0:0:0:
256,192,218586,1,8,0:0:0:0:
256,192,218786,1,8,0:0:0:0:
256,192,218886,1,8,0:0:0:0:
256,192,218986,1,0,0:0:0:0:
256,192,219086,1,0,0:0:0:0:
256,192,219186,1,8,0:0:0:0:
256,192,219386,1,4,0:0:0:0:
256,192,220186,1,0,0:0:0:0:
256,192,220986,1,0,0:0:0:0:
256,192,221786,1,0,0:0:0:0:
256,192,222586,1,0,0:0:0:0:
256,192,222986,1,8,0:0:0:0:
256,192,223386,1,0,0:0:0:0:
256,192,223786,1,8,0:0:0:0:
256,192,224186,1,0,0:0:0:0:
256,192,224586,1,8,0:0:0:0:
256,192,224786,1,0,0:0:0:0:
256,192,224986,1,0,0:0:0:0:
256,192,225386,1,8,0:0:0:0:
256,192,225786,1,0,0:0:0:0:
256,192,226186,1,8,0:0:0:0:
256,192,226586,1,0,0:0:0:0:
256,192,226986,1,8,0:0:0:0:
256,192,227386,1,0,0:0:0:0:
256,192,227786,1,8,0:0:0:0:
256,192,227986,1,0,0:0:0:0:
256,192,228186,1,0,0:0:0:0:
256,192,228386,1,0,0:0:0:0:
256,192,228486,1,0,0:0:0:0:
256,192,228586,1,8,0:0:0:0:
256,192,228686,1,0,0:0:0:0:
256,192,228786,1,8,0:0:0:0:
256,192,228986,1,0,0:0:0:0:
256,192,229186,1,0,0:0:0:0:
256,192,229386,1,8,0:0:0:0:
256,192,229586,1,0,0:0:0:0:
256,192,229686,1,0,0:0:0:0:
256,192,229786,1,0,0:0:0:0:
256,192,229986,1,0,0:0:0:0:
256,192,230186,1,8,0:0:0:0:
256,192,230386,1,0,0:0:0:0:
256,192,230586,1,0,0:0:0:0:
256,192,230686,1,0,0:0:0:0:
256,192,230786,1,0,0:0:0:0:
256,192,230886,1,0,0:0:0:0:
256,192,230986,1,8,0:0:0:0:
256,192,231086,1,0,0:0:0:0:
256,192,231186,1,8,0:0:0:0:
256,192,231286,1,8,0:0:0:0:
256,192,231386,1,0,0:0:0:0:
256,192,231486,1,0,0:0:0:0:
256,192,231586,1,8,0:0:0:0:
256,192,231686,1,0,0:0:0:0:
256,192,231786,1,8,0:0:0:0:
256,192,231886,1,0,0:0:0:0:
256,192,231986,1,8,0:0:0:0:
256,192,232086,1,8,0:0:0:0:
256,192,232186,1,0,0:0:0:0:
256,192,232386,12,0,233586,0:0:0:0:
256,192,233786,5,4,0:0:0:0:
256,192,233986,1,8,0:0:0:0:
256,192,234186,1,0,0:0:0:0:
256,192,234386,1,0,0:0:0:0:
256,192,234486,1,0,0:0:0:0:
256,192,234586,1,8,0:0:0:0:
256,192,234786,1,8,0:0:0:0:
256,192,234986,1,0,0:0:0:0:
256,192,235186,1,8,0:0:0:0:
256,192,235286,1,8,0:0:0:0:
256,192,235386,1,0,0:0:0:0:
256,192,235486,1,0,0:0:0:0:
256,192,235586,1,8,0:0:0:0:
256,192,235786,1,0,0:0:0:0:
256,192,235986,1,8,0:0:0:0:
256,192,236086,1,0,0:0:0:0:
256,192,236186,1,8,0:0:0:0:
256,192,236386,1,0,0:0:0:0:
256,192,236586,1,8,0:0:0:0:
256,192,236786,1,0,0:0:0:0:
256,192,236886,1,8,0:0:0:0:
256,192,236986,1,0,0:0:0:0:
256,192,237186,1,8,0:0:0:0:
256,192,237286,1,8,0:0:0:0:
256,192,237386,1,0,0:0:0:0:
256,192,237586,1,0,0:0:0:0:
256,192,237786,1,8,0:0:0:0:
256,192,237986,1,0,0:0:0:0:
256,192,238086,1,0,0:0:0:0:
256,192,238186,1,8,0:0:0:0:
256,192,238286,1,0,0:0:0:0:
256,192,238386,1,8,0:0:0:0:
256,192,238486,1,8,0:0:0:0:
256,192,238586,1,0,0:0:0:0:
256,192,238786,1,8,0:0:0:0:
256,192,238986,1,0,0:0:0:0:
256,192,239186,1,8,0:0:0:0:
256,192,239286,1,0,0:0:0:0:
256,192,239386,1,8,0:0:0:0:
256,192,239486,1,8,0:0:0:0:
256,192,239586,1,0,0:0:0:0:
256,192,239686,1,0,0:0:0:0:
256,192,239786,1,8,0:0:0:0:
256,192,239886,1,0,0:0:0:0:
256,192,239986,1,8,0:0:0:0:
256,192,240086,1,8,0:0:0:0:
256,192,240186,1,0,0:0:0:0:
256,192,240386,1,8,0:0:0:0:
256,192,240586,1,0,0:0:0:0:
256,192,240786,1,0,0:0:0:0:
256,192,240886,1,0,0:0:0:0:
256,192,240986,1,8,0:0:0:0:
256,192,241186,1,8,0:0:0:0:
256,192,241386,1,0,0:0:0:0:
256,192,241586,1,8,0:0:0:0:
256,192,241686,1,8,0:0:0:0:
256,192,241786,1,0,0:0:0:0:
256,192,241886,1,0,0:0:0:0:
256,192,241986,1,8,0:0:0:0:
256,192,242186,1,0,0:0:0:0:
256,192,242386,1,8,0:0:0:0:
256,192,242486,1,0,0:0:0:0:
256,192,242586,1,8,0:0:0:0:
256,192,242786,1,0,0:0:0:0:
256,192,242986,1,8,0:0:0:0:
256,192,243186,1,0,0:0:0:0:
256,192,243286,1,8,0:0:0:0:
256,192,243386,1,0,0:0:0:0:
256,192,243586,1,8,0:0:0:0:
256,192,243686,1,8,0:0:0:0:
256,192,243786,1,0,0:0:0:0:
256,192,243986,1,0,0:0:0:0:
256,192,244186,1,8,0:0:0:0:
256,192,244386,1,0,0:0:0:0:
256,192,244486,1,0,0:0:0:0:
256,192,244586,1,8,0:0:0:0:
256,192,244686,1,0,0:0:0:0:
256,192,244786,1,8,0:0:0:0:
256,192,244886,1,8,0:0:0:0:
256,192,244986,1,0,0:0:0:0:
256,192,245186,1,8,0:0:0:0:
256,192,245386,1,0,0:0:0:0:
256,192,245586,1,8,0:0:0:0:
256,192,245686,1,8,0:0:0:0:
256,192,245786,1,0,0:0:0:0:
256,192,245886,1,8,0:0:0:0:
256,192,245986,1,0,0:0:0:0:
256,192,246086,1,0,0:0:0:0:
256,192,246186,1,8,0:0:0:0:
256,192,246286,1,8,0:0:0:0:
256,192,246386,1,8,0:0:0:0:
256,192,246486,1,8,0:0:0:0:
256,192,246586,1,0,0:0:0:0:
256,192,246786,1,8,0:0:0:0:
256,192,246986,1,0,0:0:0:0:
256,192,247186,1,0,0:0:0:0:
256,192,247286,1,0,0:0:0:0:
256,192,247386,1,8,0:0:0:0:
256,192,247486,1,8,0:0:0:0:
256,192,247586,1,0,0:0:0:0:
256,192,247786,1,8,0:0:0:0:
256,192,247986,1,8,0:0:0:0:
256,192,248086,1,8,0:0:0:0:
256,192,248186,1,0,0:0:0:0:
256,192,248386,1,8,0:0:0:0:
256,192,248586,1,0,0:0:0:0:
256,192,248686,1,8,0:0:0:0:
256,192,248786,1,0,0:0:0:0:
256,192,248886,1,0,0:0:0:0:
256,192,248986,1,8,0:0:0:0:
256,192,249186,1,0,0:0:0:0:
256,192,249386,1,8,0:0:0:0:
256,192,249586,1,0,0:0:0:0:
256,192,249686,1,0,0:0:0:0:
256,192,249786,1,0,0:0:0:0:
256,192,249986,1,8,0:0:0:0:
256,192,250186,1,0,0:0:0:0:
256,192,250386,1,8,0:0:0:0:
256,192,250486,1,8,0:0:0:0:
256,192,250586,1,8,0:0:0:0:
256,192,250786,1,0,0:0:0:0:
256,192,250986,1,8,0:0:0:0:
256,192,251186,1,8,0:0:0:0:
256,192,251286,1,0,0:0:0:0:
256,192,251386,1,8,0:0:0:0:
256,192,251486,1,8,0:0:0:0:
256,192,251586,1,0,0:0:0:0:
256,192,251786,1,8,0:0:0:0:
256,192,251986,1,0,0:0:0:0:
256,192,252086,1,0,0:0:0:0:
256,192,252186,1,8,0:0:0:0:
256,192,252286,1,8,0:0:0:0:
256,192,252386,1,0,0:0:0:0:
256,192,252486,1,0,0:0:0:0:
256,192,252586,1,8,0:0:0:0:
256,192,252686,1,0,0:0:0:0:
256,192,252786,1,8,0:0:0:0:
256,192,252886,1,8,0:0:0:0:
256,192,252986,1,0,0:0:0:0:
256,192,253186,1,8,0:0:0:0:
256,192,253386,1,0,0:0:0:0:
256,192,253586,1,0,0:0:0:0:
256,192,253686,1,0,0:0:0:0:
256,192,253786,1,8,0:0:0:0:
256,192,253886,1,8,0:0:0:0:
256,192,253986,1,0,0:0:0:0:
256,192,254186,1,8,0:0:0:0:
256,192,254386,1,8,0:0:0:0:
256,192,254486,1,8,0:0:0:0:
256,192,254586,1,0,0:0:0:0:
256,192,254786,1,8,0:0:0:0:
256,192,254986,1,0,0:0:0:0:
256,192,255086,1,8,0:0:0:0:
256,192,255186,1,0,0:0:0:0:
256,192,255286,1,0,0:0:0:0:
256,192,255386,1,8,0:0:0:0:
256,192,255586,1,0,0:0:0:0:
256,192,255786,1,8,0:0:0:0:
256,192,255986,1,0,0:0:0:0:
256,192,256086,1,0,0:0:0:0:
256,192,256186,1,0,0:0:0:0:
256,192,256386,1,8,0:0:0:0:
256,192,256586,1,0,0:0:0:0:
256,192,256786,1,8,0:0:0:0:
256,192,256886,1,8,0:0:0:0:
256,192,256986,1,8,0:0:0:0:
256,192,257186,1,0,0:0:0:0:
256,192,257386,1,8,0:0:0:0:
256,192,257486,1,8,0:0:0:0:
256,192,257586,1,0,0:0:0:0:
256,192,257686,1,0,0:0:0:0:
256,192,257786,1,8,0:0:0:0:
256,192,257986,1,0,0:0:0:0:
256,192,258186,1,8,0:0:0:0:
256,192,258386,1,8,0:0:0:0:
256,192,258486,1,8,0:0:0:0:
256,192,258586,1,0,0:0:0:0:
256,192,258686,1,8,0:0:0:0:
256,192,258786,1,0,0:0:0:0:
256,192,258886,1,0,0:0:0:0:
256,192,258986,1,8,0:0:0:0:
256,192,259086,1,8,0:0:0:0:
256,192,259186,1,8,0:0:0:0:
256,192,259286,1,8,0:0:0:0:
256,192,259386,1,0,0:0:0:0:
256,192,259786,1,8,0:0:0:0:
256,192,259986,1,0,0:0:0:0:
256,192,260086,1,0,0:0:0:0:
256,192,260186,1,8,0:0:0:0:
256,192,260386,1,8,0:0:0:0:
256,192,260586,1,0,0:0:0:0:
256,192,260786,1,8,0:0:0:0:
256,192,260886,1,8,0:0:0:0:
256,192,260986,1,0,0:0:0:0:
256,192,261186,1,8,0:0:0:0:
256,192,261386,1,0,0:0:0:0:
256,192,261586,1,0,0:0:0:0:
256,192,261686,1,0,0:0:0:0:
256,192,261786,1,8,0:0:0:0:
256,192,261886,1,8,0:0:0:0:
256,192,261986,1,0,0:0:0:0:
256,192,262186,1,8,0:0:0:0:
256,192,262386,1,0,0:0:0:0:
256,192,262586,1,0,0:0:0:0:
256,192,262986,1,8,0:0:0:0:
256,192,263186,1,0,0:0:0:0:
256,192,263386,1,8,0:0:0:0:
256,192,263586,1,8,0:0:0:0:
256,192,263686,1,8,0:0:0:0:
256,192,263786,1,0,0:0:0:0:
256,192,263986,1,8,0:0:0:0:
256,192,264186,1,0,0:0:0:0:
256,192,264386,1,8,0:0:0:0:
256,192,264486,1,8,0:0:0:0:
256,192,264586,1,0,0:0:0:0:
256,192,264686,1,8,0:0:0:0:
256,192,264786,1,0,0:0:0:0:
256,192,264986,1,8,0:0:0:0:
256,192,265186,1,0,0:0:0:0:
256,192,265286,1,0,0:0:0:0:
256,192,265386,1,8,0:0:0:0:
256,192,265486,1,0,0:0:0:0:
256,192,265586,1,8,0:0:0:0:
256,192,265686,1,8,0:0:0:0:
256,192,265786,1,0,0:0:0:0:
256,192,266186,1,8,0:0:0:0:
256,192,266386,1,0,0:0:0:0:
256,192,266486,1,0,0:0:0:0:
256,192,266586,1,8,0:0:0:0:
256,192,266786,1,8,0:0:0:0:
256,192,266986,1,0,0:0:0:0:
256,192,267186,1,8,0:0:0:0:
256,192,267286,1,8,0:0:0:0:
256,192,267386,1,0,0:0:0:0:
256,192,267586,1,8,0:0:0:0:
256,192,267786,1,0,0:0:0:0:
256,192,267986,1,0,0:0:0:0:
256,192,268086,1,0,0:0:0:0:
256,192,268186,1,8,0:0:0:0:
256,192,268286,1,8,0:0:0:0:
256,192,268386,1,0,0:0:0:0:
256,192,268586,1,8,0:0:0:0:
256,192,268786,1,0,0:0:0:0:
256,192,268986,1,0,0:0:0:0:
256,192,269386,1,8,0:0:0:0:
256,192,269586,1,0,0:0:0:0:
256,192,269786,1,8,0:0:0:0:
256,192,269986,1,8,0:0:0:0:
256,192,270086,1,8,0:0:0:0:
256,192,270186,1,0,0:0:0:0:
256,192,270286,1,0,0:0:0:0:
256,192,270386,1,8,0:0:0:0:
256,192,270586,1,0,0:0:0:0:
256,192,270786,1,8,0:0:0:0:
256,192,270886,1,8,0:0:0:0:
256,192,270986,1,0,0:0:0:0:
256,192,271186,1,8,0:0:0:0:
256,192,271286,1,8,0:0:0:0:
256,192,271386,1,0,0:0:0:0:
256,192,271486,1,8,0:0:0:0:
256,192,271586,1,0,0:0:0:0:
256,192,271686,1,0,0:0:0:0:
256,192,271786,1,8,0:0:0:0:
256,192,271886,1,8,0:0:0:0:
256,192,271986,1,8,0:0:0:0:
256,192,272186,1,4,0:0:0:0:
256,192,272786,1,0,0:0:0:0:
256,192,273386,1,8,0:0:0:0:
256,192,273786,1,0,0:0:0:0:
256,192,274386,1,0,0:0:0:0:
256,192,274986,1,8,0:0:0:0:
256,192,275386,1,0,0:0:0:0:
256,192,275986,1,8,0:0:0:0:
256,192,276586,1,0,0:0:0:0:
256,192,276786,1,8,0:0:0:0:
256,192,276886,1,0,0:0:0:0:
256,192,276986,1,8,0:0:0:0:
256,192,277586,1,0,0:0:0:0:
256,192,278586,1,4,0:0:0:0:
256,192,279186,1,0,0:0:0:0:
256,192,279786,1,8,0:0:0:0:
256,192,280186,1,0,0:0:0:0:
256,192,280786,1,0,0:0:0:0:
256,192,281386,1,8,0:0:0:0:
256,192,281786,1,0,0:0:0:0:
256,192,282386,1,8,0:0:0:0:
256,192,282986,1,0,0:0:0:0:
256,192,283386,1,8,0:0:0:0:
256,192,283986,1,8,0:0:0:0:
256,192,284986,1,4,0:0:0:0:
256,192,285386,1,8,0:0:0:0:
256,192,285436,1,8,0:0:0:0:
256,192,285586,1,0,0:0:0:0:
256,192,285786,1,0,0:0:0:0:
256,192,285836,1,8,0:0:0:0:
256,192,286186,1,8,0:0:0:0:
256,192,286286,1,0,0:0:0:0:
256,192,286386,1,8,0:0:0:0:
256,192,286436,1,0,0:0:0:0:
256,192,286586,1,8,0:0:0:0:
256,192,286986,1,0,0:0:0:0:
256,192,287036,1,0,0:0:0:0:
256,192,287186,1,0,0:0:0:0:
256,192,287386,1,8,0:0:0:0:
256,192,287586,1,8,0:0:0:0:
256,192,287786,1,0,0:0:0:0:
256,192,287836,1,0,0:0:0:0:
256,192,287986,1,8,0:0:0:0:
256,192,288086,1,0,0:0:0:0:
256,192,288186,1,0,0:0:0:0:
256,192,288586,1,8,0:0:0:0:
256,192,288636,1,8,0:0:0:0:
256,192,288786,1,0,0:0:0:0:
256,192,288986,1,0,0:0:0:0:
256,192,289036,1,8,0:0:0:0:
256,192,289386,1,8,0:0:0:0:
256,192,289486,1,0,0:0:0:0:
256,192,289586,1,8,0:0:0:0:
256,192,289636,1,0,0:0:0:0:
256,192,289786,1,8,0:0:0:0:
256,192,290186,1,0,0:0:0:0:
256,192,290236,1,0,0:0:0:0:
256,192,290386,1,0,0:0:0:0:
256,192,290586,1,8,0:0:0:0:
256,192,290786,1,0,0:0:0:0:
256,192,290986,1,8,0:0:0:0:
256,192,291186,1,0,0:0:0:0:
256,192,291236,1,0,0:0:0:0:
256,192,291386,1,4,0:0:0:0:
256,192,291586,1,0,0:0:0:0:
256,192,291686,1,8,0:0:0:0:
256,192,291786,1,0,0:0:0:0:
256,192,291836,1,0,0:0:0:0:
256,192,291986,1,8,0:0:0:0:
256,192,292086,1,0,0:0:0:0:
256,192,292186,1,8,0:0:0:0:
256,192,292236,1,8,0:0:0:0:
256,192,292386,1,0,0:0:0:0:
256,192,292486,1,0,0:0:0:0:
256,192,292586,1,8,0:0:0:0:
256,192,292686,1,0,0:0:0:0:
256,192,292786,1,8,0:0:0:0:
256,192,292836,1,8,0:0:0:0:
256,192,292986,1,0,0:0:0:0:
256,192,293086,1,8,0:0:0:0:
256,192,293186,1,0,0:0:0:0:
256,192,293286,1,8,0:0:0:0:
256,192,293386,1,0,0:0:0:0:
256,192,293436,1,0,0:0:0:0:
256,192,293486,1,0,0:0:0:0:
256,192,293586,1,0,0:0:0:0:
256,192,293786,1,8,0:0:0:0:
256,192,293986,1,0,0:0:0:0:
256,192,294086,1,0,0:0:0:0:
256,192,294186,1,8,0:0:0:0:
256,192,294286,1,8,0:0:0:0:
256,192,294386,1,8,0:0:0:0:
256,192,294436,1,8,0:0:0:0:
256,192,294486,1,8,0:0:0:0:
256,192,294586,1,0,0:0:0:0:
256,192,294986,1,8,0:0:0:0:
256,192,295036,1,8,0:0:0:0:
256,192,295186,1,0,0:0:0:0:
256,192,295386,1,0,0:0:0:0:
256,192,295436,1,8,0:0:0:0:
256,192,295786,1,8,0:0:0:0:
256,192,295886,1,0,0:0:0:0:
256,192,295986,1,8,0:0:0:0:
256,192,296036,1,0,0:0:0:0:
256,192,296186,1,8,0:0:0:0:
256,192,296586,1,0,0:0:0:0:
256,192,296636,1,0,0:0:0:0:
256,192,296786,1,0,0:0:0:0:
256,192,296986,1,0,0:0:0:0:
256,192,297086,1,8,0:0:0:0:
256,192,297186,1,8,0:0:0:0:
256,192,297286,1,0,0:0:0:0:
256,192,297386,1,8,0:0:0:0:
256,192,297486,1,0,0:0:0:0:
256,192,297586,1,8,0:0:0:0:
256,192,297686,1,8,0:0:0:0:
256,192,297786,1,0,0:0:0:0:
256,192,297986,1,8,0:0:0:0:
256,192,298086,1,0,0:0:0:0:
256,192,298186,1,8,0:0:0:0:
256,192,298236,1,8,0:0:0:0:
256,192,298386,1,0,0:0:0:0:
256,192,298486,1,8,0:0:0:0:
256,192,298586,1,0,0:0:0:0:
256,192,298636,1,8,0:0:0:0:
256,192,298786,1,0,0:0:0:0:
256,192,298886,1,0,0:0:0:0:
256,192,298986,1,8,0:0:0:0:
256,192,299086,1,0,0:0:0:0:
256,192,299186,1,8,0:0:0:0:
256,192,299236,1,0,0:0:0:0:
256,192,299386,1,8,0:0:0:0:
256,192,299586,1,0,0:0:0:0:
256,192,299686,1,8,0:0:0:0:
256,192,299786,1,0,0:0:0:0:
256,192,299836,1,0,0:0:0:0:
256,192,299986,1,0,0:0:0:0:
256,192,300086,1,0,0:0:0:0:
256,192,300186,1,8,0:0:0:0:
256,192,300386,1,8,0:0:0:0:
256,192,300586,1,0,0:0:0:0:
256,192,300636,1,0,0:0:0:0:
256,192,300786,1,8,0:0:0:0:
256,192,300886,1,0,0:0:0:0:
256,192,300986,1,0,0:0:0:0:
256,192,301186,1,8,0:0:0:0:
256,192,301286,1,0,0:0:0:0:
256,192,301386,1,8,0:0:0:0:
256,192,301436,1,8,0:0:0:0:
256,192,301586,1,0,0:0:0:0:
256,192,301686,1,8,0:0:0:0:
256,192,301786,1,0,0:0:0:0:
256,192,301836,1,8,0:0:0:0:
256,192,301986,1,0,0:0:0:0:
256,192,302086,1,0,0:0:0:0:
256,192,302186,1,8,0:0:0:0:
256,192,302286,1,0,0:0:0:0:
256,192,302386,1,8,0:0:0:0:
256,192,302436,1,0,0:0:0:0:
256,192,302586,1,8,0:0:0:0:
256,192,302786,1,0,0:0:0:0:
256,192,302886,1,8,0:0:0:0:
256,192,302986,1,0,0:0:0:0:
256,192,303036,1,0,0:0:0:0:
256,192,303186,1,8,0:0:0:0:
256,192,303286,1,0,0:0:0:0:
256,192,303386,1,8,0:0:0:0:
256,192,303586,1,0,0:0:0:0:
256,192,303786,1,8,0:0:0:0:
256,192,303986,1,0,0:0:0:0:
256,192,304036,1,0,0:0:0:0:
256,192,304186,1,4,0:0:0:0:
256,192,304386,1,0,0:0:0:0:
256,192,304486,1,8,0:0:0:0:
256,192,304586,1,0,0:0:0:0:
256,192,304636,1,0,0:0:0:0:
256,192,304786,1,8,0:0:0:0:
256,192,304886,1,0,0:0:0:0:
256,192,304986,1,8,0:0:0:0:
256,192,305036,1,8,0:0:0:0:
256,192,305186,1,0,0:0:0:0:
256,192,305286,1,0,0:0:0:0:
256,192,305386,1,8,0:0:0:0:
256,192,305486,1,0,0:0:0:0:
256,192,305586,1,8,0:0:0:0:
256,192,305636,1,8,0:0:0:0:
256,192,305786,1,0,0:0:0:0:
256,192,305886,1,8,0:0:0:0:
256,192,305986,1,0,0:0:0:0:
256,192,306086,1,8,0:0:0:0:
256,192,306186,1,0,0:0:0:0:
256,192,306236,1,0,0:0:0:0:
256,192,306286,1,0,0:0:0:0:
256,192,306386,1,0,0:0:0:0:
256,192,306586,1,8,0:0:0:0:
256,192,306786,1,0,0:0:0:0:
256,192,306886,1,0,0:0:0:0:
256,192,306986,1,8,0:0:0:0:
256,192,307086,1,8,0:0:0:0:
256,192,307186,1,8,0:0:0:0:
256,192,307236,1,8,0:0:0:0:
256,192,307286,1,8,0:0:0:0:
256,192,307386,1,0,0:0:0:0:
256,192,307586,1,8,0:0:0:0:
256,192,307686,1,0,0:0:0:0:
256,192,307786,1,8,0:0:0:0:
256,192,307836,1,8,0:0:0:0:
256,192,307986,1,0,0:0:0:0:
256,192,308086,1,8,0:0:0:0:
256,192,308186,1,0,0:0:0:0:
256,192,308236,1,8,0:0:0:0:
256,192,308386,1,0,0:0:0:0:
256,192,308486,1,0,0:0:0:0:
256,192,308586,1,8,0:0:0:0:
256,192,308686,1,0,0:0:0:0:
256,192,308786,1,8,0:0:0:0:
256,192,308836,1,0,0:0:0:0:
256,192,308986,1,8,0:0:0:0:
256,192,309186,1,0,0:0:0:0:
256,192,309286,1,8,0:0:0:0:
256,192,309386,1,0,0:0:0:0:
256,192,309436,1,0,0:0:0:0:
256,192,309586,1,8,0:0:0:0:
256,192,309686,1,8,0:0:0:0:
256,192,309786,1,0,0:0:0:0:
256,192,309886,1,8,0:0:0:0:
256,192,309986,1,8,0:0:0:0:
256,192,310086,1,0,0:0:0:0:
256,192,310186,1,8,0:0:0:0:
256,192,310286,1,0,0:0:0:0:
256,192,310386,1,8,0:0:0:0:
256,192,310486,1,8,0:0:0:0:
256,192,310586,1,0,0:0:0:0:
256,192,310786,1,0,0:0:0:0:
256,192,310886,1,0,0:0:0:0:
256,192,310986,1,8,0:0:0:0:
256,192,311036,1,8,0:0:0:0:
256,192,311186,1,8,0:0:0:0:
256,192,311286,1,8,0:0:0:0:
256,192,311386,1,0,0:0:0:0:
256,192,311486,1,0,0:0:0:0:
256,192,311586,1,8,0:0:0:0:
256,192,311636,1,8,0:0:0:0:
256,192,311786,1,8,0:0:0:0:
256,192,311836,1,8,0:0:0:0:
256,192,311986,1,0,0:0:0:0:
256,192,312086,1,8,0:0:0:0:
256,192,312186,1,0,0:0:0:0:
256,192,312386,1,8,0:0:0:0:
256,192,312486,1,0,0:0:0:0:
256,192,312586,1,8,0:0:0:0:
256,192,312636,1,8,0:0:0:0:
256,192,312786,1,0,0:0:0:0:
256,192,312886,1,8,0:0:0:0:
256,192,312986,1,0,0:0:0:0:
256,192,313086,1,0,0:0:0:0:
256,192,313186,1,8,0:0:0:0:
256,192,313236,1,8,0:0:0:0:
256,192,313386,1,8,0:0:0:0:
256,192,313436,1,8,0:0:0:0:
256,192,313586,1,8,0:0:0:0:
256,192,313686,1,8,0:0:0:0:
256,192,313786,1,0,0:0:0:0:
256,192,313986,1,8,0:0:0:0:
256,192,314086,1,0,0:0:0:0:
256,192,314186,1,8,0:0:0:0:
256,192,314236,1,8,0:0:0:0:
256,192,314386,1,8,0:0:0:0:
256,192,314486,1,8,0:0:0:0:
256,192,314586,1,0,0:0:0:0:
256,192,314686,1,0,0:0:0:0:
256,192,314786,1,8,0:0:0:0:
256,192,314836,1,8,0:0:0:0:
256,192,314986,1,8,0:0:0:0:
256,192,315036,1,8,0:0:0:0:
256,192,315186,1,0,0:0:0:0:
256,192,315286,1,8,0:0:0:0:
256,192,315386,1,0,0:0:0:0:
256,192,315586,1,8,0:0:0:0:
256,192,315686,1,0,0:0:0:0:
256,192,315786,1,8,0:0:0:0:
256,192,315836,1,8,0:0:0:0:
256,192,315986,1,0,0:0:0:0:
256,192,316186,1,0,0:0:0:0:
256,192,316286,1,8,0:0:0:0:
256,192,316386,1,8,0:0:0:0:
256,192,316486,1,0,0:0:0:0:
256,192,316586,1,8,0:0:0:0:
256,192,316686,1,0,0:0:0:0:
256,192,316786,1,8,0:0:0:0:
256,192,316886,1,8,0:0:0:0:
256,192,316986,1,0,0:0:0:0:
256,192,317186,1,0,0:0:0:0:
256,192,317286,1,0,0:0:0:0:
256,192,317386,1,8,0:0:0:0:
256,192,317436,1,8,0:0:0:0:
256,192,317586,1,8,0:0:0:0:
256,192,317686,1,8,0:0:0:0:
256,192,317786,1,0,0:0:0:0:
256,192,317886,1,0,0:0:0:0:
256,192,317986,1,8,0:0:0:0:
256,192,318036,1,8,0:0:0:0:
256,192,318186,1,8,0:0:0:0:
256,192,318236,1,8,0:0:0:0:
256,192,318386,1,0,0:0:0:0:
256,192,318486,1,8,0:0:0:0:
256,192,318586,1,0,0:0:0:0:
256,192,318786,1,8,0:0:0:0:
256,192,318886,1,0,0:0:0:0:
256,192,318986,1,8,0:0:0:0:
256,192,319036,1,8,0:0:0:0:
256,192,319186,1,0,0:0:0:0:
256,192,319286,1,8,0:0:0:0:
256,192,319386,1,0,0:0:0:0:
256,192,319486,1,0,0:0:0:0:
256,192,319586,1,8,0:0:0:0:
256,192,319636,1,8,0:0:0:0:
256,192,319786,1,8,0:0:0:0:
256,192,319836,1,8,0:0:0:0:
256,192,319986,1,8,0:0:0:0:
256,192,320086,1,8,0:0:0:0:
256,192,320186,1,0,0:0:0:0:
256,192,320386,1,8,0:0:0:0:
256,192,320486,1,0,0:0:0:0:
256,192,320586,1,8,0:0:0:0:
256,192,320636,1,8,0:0:0:0:
256,192,320786,1,8,0:0:0:0:
256,192,320886,1,8,0:0:0:0:
256,192,320986,1,0,0:0:0:0:
256,192,321086,1,0,0:0:0:0:
256,192,321186,1,8,0:0:0:0:
256,192,321236,1,8,0:0:0:0:
256,192,321386,1,8,0:0:0:0:
256,192,321436,1,8,0:0:0:0:
256,192,321586,1,0,0:0:0:0:
256,192,321686,1,8,0:0:0:0:
256,192,321786,1,0,0:0:0:0:
256,192,321986,1,8,0:0:0:0:
256,192,322086,1,0,0:0:0:0:
256,192,322186,1,8,0:0:0:0:
256,192,322236,1,8,0:0:0:0:
256,192,322386,1,0,0:0:0:0:
256,192,322586,1,0,0:0:0:0:
256,192,322686,1,8,0:0:0:0:
256,192,322786,1,8,0:0:0:0:
256,192,322886,1,0,0:0:0:0:
256,192,322986,1,8,0:0:0:0:
256,192,323086,1,0,0:0:0:0:
256,192,323186,1,8,0:0:0:0:
256,192,323386,1,4,0:0:0:0:
256,192,323586,12,0,331386,0:0:0:0:
