osu file format v14

[General]
AudioFilename: audio.mp3
AudioLeadIn: 0
PreviewTime: 147469
Countdown: 0
SampleSet: None
StackLeniency: 0.7
Mode: 0
LetterboxInBreaks: 0
WidescreenStoryboard: 0

[Editor]
DistanceSpacing: 3
BeatDivisor: 4
GridSize: 16
TimelineZoom: 2.1

[Metadata]
Title:Ludicrous Speed - F-777
TitleUnicode:Ludicrous Speed - F-777
Artist:F-777
ArtistUnicode:F-777
Creator:Arospity
Version:Ludicrous
Source:Geometry Dash
Tags:
BeatmapID:1543934
BeatmapSetID:731637

[Difficulty]
HPDrainRate:4
CircleSize:4.2
OverallDifficulty:8.3
ApproachRate:9.7
SliderMultiplier:1.4
SliderTickRate:1

[Events]
//Background and Video events
0,0,"black-background-1468370534d5s.jpg",0,0
//Break Periods
2,105741,110771
2,117218,122337
//Storyboard Layer 0 (Background)
//Storyboard Layer 1 (Fail)
//Storyboard Layer 2 (Pass)
//Storyboard Layer 3 (Foreground)
//Storyboard Sound Samples

[TimingPoints]
0,361.44578313253,4,1,0,30,1,0
11656,-100,4,1,0,40,0,1
23222,-100,4,1,0,45,0,1
34698,-133.333333333333,4,1,0,20,0,0
36144,-125,4,1,0,25,0,0
37590,-117.647058823529,4,1,0,30,0,0
39036,-111.111111111111,4,1,0,35,0,0
44819,-100,4,1,0,40,0,0
46445,-100,4,1,0,45,0,0
63614,-111.111111111111,4,1,0,35,0,0
68493,-111.111111111111,4,1,0,40,0,0
68674,-111.111111111111,4,1,0,45,0,0
69216,-100,4,1,0,50,0,0
82409,-66.6666666666667,4,1,0,55,0,1
105542,-100,4,1,0,30,0,0
122891,-100,4,1,0,25,0,0
132650,-100,4,1,0,5,0,0
133012,-100,4,1,0,30,0,0
134457,-100,4,1,0,45,0,0
140240,-100,4,1,0,50,0,0
143132,-100,4,1,0,55,0,0
146024,-100,4,1,0,40,0,0
147469,-100,4,1,0,50,0,1
152891,-50,4,1,0,50,0,1
153253,-100,4,1,0,50,0,1
158674,-50,4,1,0,50,0,1
159036,-100,4,1,0,50,0,1
163373,-50,4,1,0,50,0,1
164728,-100,4,1,0,50,0,1
170602,-200,4,1,0,20,0,0

[HitObjects]
96,224,0,5,0,0:0:0:0:
116,210,90,1,0,0:0:0:0:
138,201,180,1,0,0:0:0:0:
160,191,271,1,0,0:0:0:0:
183,183,361,1,0,0:0:0:0:
205,172,451,1,0,0:0:0:0:
222,154,542,1,0,0:0:0:0:
239,136,632,1,0,0:0:0:0:
256,128,722,5,0,0:0:0:0:
280,132,813,1,0,0:0:0:0:
297,149,903,1,0,0:0:0:0:
308,170,993,1,0,0:0:0:0:
313,194,1084,1,0,0:0:0:0:
313,218,1174,1,0,0:0:0:0:
307,242,1265,1,0,0:0:0:0:
301,265,1355,1,0,0:0:0:0:
256,352,1445,5,0,0:0:0:0:
234,340,1536,1,0,0:0:0:0:
224,320,1626,1,0,0:0:0:0:
215,297,1716,1,0,0:0:0:0:
215,272,1807,1,0,0:0:0:0:
208,248,1897,1,0,0:0:0:0:
194,227,1987,1,0,0:0:0:0:
173,213,2078,1,0,0:0:0:0:
149,206,2168,5,0,0:0:0:0:
126,195,2259,1,0,0:0:0:0:
108,177,2349,1,0,0:0:0:0:
98,154,2439,1,0,0:0:0:0:
93,129,2530,1,0,0:0:0:0:
98,105,2620,1,0,0:0:0:0:
115,87,2710,1,0,0:0:0:0:
135,73,2801,1,0,0:0:0:0:
234,44,2891,5,0,0:0:0:0:
224,64,2981,1,0,0:0:0:0:
224,88,3072,1,0,0:0:0:0:
228,111,3162,1,0,0:0:0:0:
237,133,3253,1,0,0:0:0:0:
245,155,3343,1,0,0:0:0:0:
251,178,3433,1,0,0:0:0:0:
251,202,3524,1,0,0:0:0:0:
245,225,3614,5,0,0:0:0:0:
236,247,3704,1,0,0:0:0:0:
223,268,3795,1,0,0:0:0:0:
205,285,3885,1,0,0:0:0:0:
183,296,3975,1,0,0:0:0:0:
165,313,4066,1,0,0:0:0:0:
165,337,4156,1,0,0:0:0:0:
182,354,4246,1,0,0:0:0:0:
288,336,4337,5,0,0:0:0:0:
278,313,4427,1,0,0:0:0:0:
270,289,4518,1,0,0:0:0:0:
264,265,4608,1,0,0:0:0:0:
259,241,4698,1,0,0:0:0:0:
259,216,4789,1,0,0:0:0:0:
268,193,4879,1,0,0:0:0:0:
274,169,4969,1,0,0:0:0:0:
267,145,5060,5,0,0:0:0:0:
249,127,5150,1,0,0:0:0:0:
227,115,5240,1,0,0:0:0:0:
202,109,5331,1,0,0:0:0:0:
96,124,5421,2,0,P|112:153|122:166,4,35
64,32,5873,5,0,0:0:0:0:
50,52,5963,1,0,0:0:0:0:
44,76,6054,1,0,0:0:0:0:
49,99,6144,1,0,0:0:0:0:
55,122,6234,1,0,0:0:0:0:
60,146,6325,1,0,0:0:0:0:
65,169,6415,1,0,0:0:0:0:
73,192,6506,5,0,0:0:0:0:
85,212,6596,1,0,0:0:0:0:
102,229,6686,1,0,0:0:0:0:
122,242,6777,1,0,0:0:0:0:
144,250,6867,1,0,0:0:0:0:
167,254,6957,1,0,0:0:0:0:
191,254,7048,1,0,0:0:0:0:
214,246,7138,1,0,0:0:0:0:
313,208,7228,5,0,0:0:0:0:
300,186,7319,1,0,0:0:0:0:
282,168,7409,1,0,0:0:0:0:
260,156,7499,1,0,0:0:0:0:
236,150,7590,1,0,0:0:0:0:
218,132,7680,1,0,0:0:0:0:
211,108,7771,1,0,0:0:0:0:
215,84,7861,1,0,0:0:0:0:
232,66,7951,5,0,0:0:0:0:
255,59,8042,1,0,0:0:0:0:
278,66,8132,1,0,0:0:0:0:
295,83,8222,1,0,0:0:0:0:
305,105,8313,1,0,0:0:0:0:
313,127,8403,1,0,0:0:0:0:
319,150,8493,1,0,0:0:0:0:
319,174,8584,1,0,0:0:0:0:
312,268,8674,5,0,0:0:0:0:
288,256,8765,1,0,0:0:0:0:
270,238,8855,1,0,0:0:0:0:
252,220,8945,1,0,0:0:0:0:
234,202,9036,1,0,0:0:0:0:
216,184,9126,1,0,0:0:0:0:
193,173,9216,1,0,0:0:0:0:
168,173,9307,1,0,0:0:0:0:
160,196,9397,5,0,0:0:0:0:
138,184,9487,1,0,0:0:0:0:
127,161,9578,1,0,0:0:0:0:
127,136,9668,1,0,0:0:0:0:
134,112,9759,1,0,0:0:0:0:
151,94,9849,1,0,0:0:0:0:
173,84,9939,1,0,0:0:0:0:
197,84,10030,1,0,0:0:0:0:
304,55,10120,5,0,0:0:0:0:
315,76,10210,1,0,0:0:0:0:
323,99,10301,1,0,0:0:0:0:
323,123,10391,1,0,0:0:0:0:
316,146,10481,1,0,0:0:0:0:
316,170,10572,1,0,0:0:0:0:
329,190,10662,1,0,0:0:0:0:
346,207,10753,1,0,0:0:0:0:
368,217,10843,5,0,0:0:0:0:
391,211,10933,1,0,0:0:0:0:
413,201,11024,1,0,0:0:0:0:
430,183,11114,1,0,0:0:0:0:
386,110,11204,2,0,L|421:74,4,35
303,94,11656,5,0,0:0:0:0:
295,128,11746,1,0,0:0:0:0:
295,163,11837,1,0,0:0:0:0:
306,196,11927,1,0,0:0:0:0:
319,228,12018,1,0,0:0:0:0:
319,262,12108,1,0,0:0:0:0:
301,292,12198,1,0,0:0:0:0:
269,307,12289,5,0,0:0:0:0:
235,297,12379,1,0,0:0:0:0:
210,272,12469,1,0,0:0:0:0:
196,239,12560,1,0,0:0:0:0:
196,204,12650,1,0,0:0:0:0:
214,174,12740,1,0,0:0:0:0:
244,156,12831,1,0,0:0:0:0:
268,131,12921,1,0,0:0:0:0:
285,100,13012,5,0,0:0:0:0:
276,66,13102,1,0,0:0:0:0:
251,41,13192,1,0,0:0:0:0:
217,29,13283,1,0,0:0:0:0:
192,53,13373,1,0,0:0:0:0:
201,86,13463,1,0,0:0:0:0:
225,110,13554,1,0,0:0:0:0:
253,129,13644,1,0,0:0:0:0:
281,148,13734,5,0,0:0:0:0:
305,172,13825,1,0,0:0:0:0:
329,196,13915,1,0,0:0:0:0:
347,226,14006,1,0,0:0:0:0:
357,259,14096,1,0,0:0:0:0:
349,293,14186,1,0,0:0:0:0:
328,322,14277,1,0,0:0:0:0:
297,339,14367,1,0,0:0:0:0:
262,331,14457,5,0,0:0:0:0:
237,306,14548,1,0,0:0:0:0:
222,274,14638,1,0,0:0:0:0:
211,240,14728,1,0,0:0:0:0:
217,205,14819,1,0,0:0:0:0:
228,172,14909,1,0,0:0:0:0:
228,137,14999,1,0,0:0:0:0:
203,112,15090,1,0,0:0:0:0:
168,112,15180,5,0,0:0:0:0:
151,143,15271,1,0,0:0:0:0:
157,177,15361,1,0,0:0:0:0:
181,201,15451,1,0,0:0:0:0:
211,218,15542,1,0,0:0:0:0:
243,230,15632,1,0,0:0:0:0:
275,241,15722,1,0,0:0:0:0:
294,270,15813,1,0,0:0:0:0:
287,304,15903,5,0,0:0:0:0:
262,328,15993,1,0,0:0:0:0:
227,336,16084,1,0,0:0:0:0:
193,326,16174,1,0,0:0:0:0:
175,295,16265,1,0,0:0:0:0:
187,262,16355,1,0,0:0:0:0:
174,229,16445,1,0,0:0:0:0:
143,211,16536,1,0,0:0:0:0:
108,211,16626,5,0,0:0:0:0:
83,235,16716,1,0,0:0:0:0:
68,267,16807,1,0,0:0:0:0:
75,301,16897,1,0,0:0:0:0:
192,288,16987,2,0,L|220:254,4,35
78,330,17439,5,0,0:0:0:0:
65,296,17530,1,0,0:0:0:0:
65,261,17620,1,0,0:0:0:0:
78,229,17710,1,0,0:0:0:0:
102,204,17801,1,0,0:0:0:0:
126,179,17891,1,0,0:0:0:0:
135,145,17981,1,0,0:0:0:0:
135,109,18072,5,0,0:0:0:0:
120,77,18162,1,0,0:0:0:0:
89,60,18253,1,0,0:0:0:0:
55,69,18343,1,0,0:0:0:0:
35,97,18433,1,0,0:0:0:0:
42,131,18524,1,0,0:0:0:0:
61,160,18614,1,0,0:0:0:0:
92,174,18704,1,0,0:0:0:0:
126,181,18795,5,0,0:0:0:0:
159,189,18885,1,0,0:0:0:0:
192,199,18975,1,0,0:0:0:0:
224,213,19066,1,0,0:0:0:0:
252,232,19156,1,0,0:0:0:0:
266,263,19246,1,0,0:0:0:0:
266,298,19337,1,0,0:0:0:0:
254,331,19427,1,0,0:0:0:0:
287,321,19518,5,0,0:0:0:0:
311,296,19608,1,0,0:0:0:0:
329,266,19698,1,0,0:0:0:0:
345,235,19789,1,0,0:0:0:0:
359,203,19879,1,0,0:0:0:0:
388,185,19969,1,0,0:0:0:0:
422,191,20060,1,0,0:0:0:0:
446,215,20150,1,0,0:0:0:0:
453,249,20240,5,0,0:0:0:0:
442,282,20331,1,0,0:0:0:0:
417,306,20421,1,0,0:0:0:0:
386,323,20512,1,0,0:0:0:0:
352,314,20602,1,0,0:0:0:0:
327,289,20692,1,0,0:0:0:0:
302,264,20783,1,0,0:0:0:0:
302,229,20873,1,0,0:0:0:0:
312,195,20963,5,0,0:0:0:0:
321,161,21054,1,0,0:0:0:0:
321,126,21144,1,0,0:0:0:0:
301,97,21234,1,0,0:0:0:0:
276,72,21325,1,0,0:0:0:0:
242,61,21415,1,0,0:0:0:0:
206,61,21506,1,0,0:0:0:0:
174,76,21596,1,0,0:0:0:0:
162,108,21686,5,0,0:0:0:0:
162,143,21777,1,0,0:0:0:0:
173,176,21867,1,0,0:0:0:0:
192,205,21957,1,0,0:0:0:0:
216,229,22048,1,0,0:0:0:0:
249,237,22138,1,0,0:0:0:0:
280,252,22228,1,0,0:0:0:0:
304,276,22319,1,0,0:0:0:0:
304,310,22409,5,0,0:0:0:0:
279,334,22499,1,0,0:0:0:0:
245,343,22590,1,0,0:0:0:0:
211,335,22680,1,0,0:0:0:0:
195,214,22771,2,0,L|227:233,4,35
158,106,23222,5,0,0:0:0:0:
190,91,23313,1,0,0:0:0:0:
224,83,23403,1,0,0:0:0:0:
258,83,23493,1,0,0:0:0:0:
291,95,23584,1,0,0:0:0:0:
315,119,23674,1,0,0:0:0:0:
332,149,23765,1,0,0:0:0:0:
332,183,23855,1,0,0:0:0:0:
349,213,23945,5,0,0:0:0:0:
382,222,24036,1,0,0:0:0:0:
415,212,24126,1,0,0:0:0:0:
439,187,24216,1,0,0:0:0:0:
456,156,24307,1,0,0:0:0:0:
462,121,24397,1,0,0:0:0:0:
452,87,24487,1,0,0:0:0:0:
427,62,24578,5,0,0:0:0:0:
392,62,24668,1,0,0:0:0:0:
360,77,24759,1,0,0:0:0:0:
341,106,24849,1,0,0:0:0:0:
328,138,24939,1,0,0:0:0:0:
303,162,25030,1,0,0:0:0:0:
270,173,25120,1,0,0:0:0:0:
235,173,25210,1,0,0:0:0:0:
210,148,25301,5,0,0:0:0:0:
185,123,25391,1,0,0:0:0:0:
151,113,25481,1,0,0:0:0:0:
126,137,25572,1,0,0:0:0:0:
133,171,25662,1,0,0:0:0:0:
157,195,25753,1,0,0:0:0:0:
190,186,25843,1,0,0:0:0:0:
214,161,25933,1,0,0:0:0:0:
205,126,26024,5,0,0:0:0:0:
180,101,26114,1,0,0:0:0:0:
145,101,26204,1,0,0:0:0:0:
120,125,26295,1,0,0:0:0:0:
107,157,26385,1,0,0:0:0:0:
107,191,26475,1,0,0:0:0:0:
116,224,26566,1,0,0:0:0:0:
124,257,26656,1,0,0:0:0:0:
117,291,26746,5,0,0:0:0:0:
92,315,26837,1,0,0:0:0:0:
57,315,26927,1,0,0:0:0:0:
32,290,27018,1,0,0:0:0:0:
39,255,27108,1,0,0:0:0:0:
67,235,27198,1,0,0:0:0:0:
100,247,27289,1,0,0:0:0:0:
129,265,27379,1,0,0:0:0:0:
209,335,27469,6,0,P|252:313|288:276,3,70
160,128,28192,2,0,L|214:144,1,35
308,245,28373,2,0,L|325:201,1,35
286,65,28554,2,0,L|220:79,1,35
188,179,28734,2,0,L|228:226,2,35
172,146,29006,5,0,0:0:0:0:
172,111,29096,1,0,0:0:0:0:
191,81,29186,1,0,0:0:0:0:
223,66,29277,1,0,0:0:0:0:
257,73,29367,1,0,0:0:0:0:
281,97,29457,1,0,0:0:0:0:
296,128,29548,1,0,0:0:0:0:
312,158,29638,5,0,0:0:0:0:
336,182,29728,1,0,0:0:0:0:
370,189,29819,1,0,0:0:0:0:
403,180,29909,1,0,0:0:0:0:
422,151,29999,1,0,0:0:0:0:
428,116,30090,1,0,0:0:0:0:
419,82,30180,1,0,0:0:0:0:
399,52,30271,1,0,0:0:0:0:
367,37,30361,5,0,0:0:0:0:
332,44,30451,1,0,0:0:0:0:
307,68,30542,1,0,0:0:0:0:
276,84,30632,1,0,0:0:0:0:
242,93,30722,1,0,0:0:0:0:
217,117,30813,1,0,0:0:0:0:
199,147,30903,1,0,0:0:0:0:
199,181,30993,1,0,0:0:0:0:
217,211,31084,5,0,0:0:0:0:
241,235,31174,1,0,0:0:0:0:
255,266,31265,1,0,0:0:0:0:
248,300,31355,1,0,0:0:0:0:
223,324,31445,1,0,0:0:0:0:
190,338,31536,1,0,0:0:0:0:
156,328,31626,1,0,0:0:0:0:
131,303,31716,1,0,0:0:0:0:
121,268,31807,5,0,0:0:0:0:
121,233,31897,1,0,0:0:0:0:
140,203,31987,1,0,0:0:0:0:
164,178,32078,1,0,0:0:0:0:
195,162,32168,1,0,0:0:0:0:
229,168,32259,1,0,0:0:0:0:
253,192,32349,1,0,0:0:0:0:
282,209,32439,1,0,0:0:0:0:
315,197,32530,5,0,0:0:0:0:
339,172,32620,1,0,0:0:0:0:
352,139,32710,1,0,0:0:0:0:
352,103,32801,1,0,0:0:0:0:
327,78,32891,1,0,0:0:0:0:
294,64,32981,1,0,0:0:0:0:
258,64,33072,1,0,0:0:0:0:
226,79,33162,1,0,0:0:0:0:
214,112,33253,5,0,0:0:0:0:
221,146,33343,1,0,0:0:0:0:
234,178,33433,1,0,0:0:0:0:
245,211,33524,1,0,0:0:0:0:
252,245,33614,1,0,0:0:0:0:
243,278,33704,1,0,0:0:0:0:
218,302,33795,1,0,0:0:0:0:
186,315,33885,1,0,0:0:0:0:
151,315,33975,5,0,0:0:0:0:
120,297,34066,1,0,0:0:0:0:
104,265,34156,1,0,0:0:0:0:
104,230,34246,1,0,0:0:0:0:
177,137,34337,2,0,P|228:175|228:175,4,35
111,77,34879,5,0,0:0:0:0:
226,53,35060,2,0,P|263:56|290:66,1,52.5000020027161
368,124,35421,1,0,0:0:0:0:
300,203,35602,1,0,0:0:0:0:
423,217,35783,1,0,0:0:0:0:
359,104,35963,1,0,0:0:0:0:
231,112,36144,6,0,B|198:151|194:173|194:173|196:169,1,52.5000020027161
163,244,36506,1,0,0:0:0:0:
314,204,36686,1,0,0:0:0:0:
200,117,36867,2,0,P|169:151|157:173,2,56
305,78,37409,1,0,0:0:0:0:
203,169,37590,6,0,P|170:126|160:96,2,59.5000011348725
302,206,38132,1,0,0:0:0:0:
421,240,38313,2,0,P|468:267|484:292,2,59.5000011348725
302,206,38855,1,0,0:0:0:0:
170,175,39036,6,0,P|203:134|266:98,1,125.999996154785
379,73,39578,1,0,0:0:0:0:
274,126,39759,2,0,P|232:188|205:246,1,125.999996154785
188,330,40301,1,0,0:0:0:0:
256,192,40481,12,0,44819,0:0:0:0:
239,115,44909,5,0,0:0:0:0:
288,96,44999,1,0,0:0:0:0:
335,91,45090,1,0,0:0:0:0:
378,108,45180,1,0,0:0:0:0:
411,141,45271,1,0,0:0:0:0:
424,186,45361,1,0,0:0:0:0:
411,231,45451,1,0,0:0:0:0:
377,264,45542,1,0,0:0:0:0:
336,288,45632,5,0,0:0:0:0:
292,270,45722,1,0,0:0:0:0:
248,249,45813,1,0,0:0:0:0:
154,180,45903,2,0,L|192:160,4,35
64,224,46445,5,0,0:0:0:0:
192,96,46626,1,0,1:0:0:0:
238,72,46716,1,0,1:0:0:0:
289,60,46807,1,0,1:0:0:0:
352,224,46987,1,0,1:0:0:0:
320,320,47168,1,0,1:0:0:0:
96,224,47349,1,0,1:0:0:0:
160,128,47530,1,0,1:0:0:0:
352,96,47710,5,0,0:0:0:0:
128,192,47891,1,0,0:0:0:0:
352,288,48072,1,0,0:0:0:0:
378,243,48162,1,0,0:0:0:0:
395,193,48253,1,0,0:0:0:0:
320,64,48433,1,0,0:0:0:0:
160,96,48614,1,0,0:0:0:0:
320,256,48795,1,0,0:0:0:0:
192,64,48975,1,0,0:0:0:0:
103,287,49156,6,0,P|157:317|191:321,1,70
384,288,49518,1,0,0:0:0:0:
358,242,49608,1,0,0:0:0:0:
321,205,49698,1,0,0:0:0:0:
160,160,49879,1,0,0:0:0:0:
320,64,50060,1,0,0:0:0:0:
224,288,50240,1,0,0:0:0:0:
160,64,50421,1,0,0:0:0:0:
320,224,50602,6,0,P|352:192|372:153,2,70
273,248,51054,1,0,0:0:0:0:
222,261,51144,1,0,0:0:0:0:
128,128,51325,1,0,0:0:0:0:
224,64,51506,1,0,0:0:0:0:
320,256,51686,1,0,0:0:0:0:
192,224,51867,1,0,0:0:0:0:
224,64,52048,5,0,0:0:0:0:
352,96,52228,1,0,0:0:0:0:
192,224,52409,1,0,0:0:0:0:
228,260,52499,1,0,0:0:0:0:
251,307,52590,1,0,0:0:0:0:
416,160,52771,1,0,0:0:0:0:
224,256,52951,1,0,0:0:0:0:
288,64,53132,1,0,0:0:0:0:
352,288,53313,1,0,0:0:0:0:
96,160,53493,6,0,P|128:128|177:108,1,70
384,64,53855,1,0,0:0:0:0:
420,100,53945,1,0,0:0:0:0:
433,151,54036,1,0,0:0:0:0:
320,320,54216,1,0,0:0:0:0:
224,224,54397,1,0,0:0:0:0:
160,352,54578,1,0,0:0:0:0:
320,192,54759,1,0,0:0:0:0:
160,64,54939,5,0,0:0:0:0:
128,224,55120,2,0,P|160:256|205:277,1,70
231,284,55391,1,0,0:0:0:0:
281,272,55481,1,0,0:0:0:0:
352,128,55662,1,0,0:0:0:0:
224,192,55843,1,0,0:0:0:0:
416,224,56024,1,0,0:0:0:0:
160,96,56204,1,0,0:0:0:0:
288,256,56385,5,0,0:0:0:0:
217,153,56566,1,0,0:0:0:0:
73,91,56746,1,0,0:0:0:0:
120,67,56837,1,0,0:0:0:0:
171,57,56927,1,0,0:0:0:0:
320,128,57108,1,0,1:0:0:0:
160,256,57289,1,0,1:0:0:0:
320,32,57469,1,0,1:0:0:0:
128,320,57650,1,0,1:0:0:0:
99,120,57831,6,0,P|150:86|179:82,1,70
350,78,58192,1,0,1:0:0:0:
336,129,58283,1,0,1:0:0:0:
336,181,58373,1,0,1:0:0:0:
288,320,58554,1,0,1:0:0:0:
160,224,58734,1,0,1:0:0:0:
320,64,58915,1,0,1:0:0:0:
128,224,59096,1,0,1:0:0:0:
320,64,59277,5,0,1:0:0:0:
416,256,59457,1,0,1:0:0:0:
128,128,59638,1,0,1:0:0:0:
172,100,59728,1,0,1:0:0:0:
223,86,59819,1,0,1:0:0:0:
288,192,59999,1,0,1:0:0:0:
384,96,60180,1,0,0:0:0:0:
416,224,60361,1,0,0:0:0:0:
256,64,60542,1,0,0:0:0:0:
96,160,60722,6,0,P|66:210|55:249,1,70
263,242,61084,1,0,0:0:0:0:
312,224,61174,1,0,0:0:0:0:
363,211,61265,1,0,0:0:0:0:
288,96,61445,1,0,0:0:0:0:
160,160,61626,1,0,0:0:0:0:
320,224,61807,1,0,0:0:0:0:
192,64,61987,1,0,0:0:0:0:
96,224,62168,6,0,B|128:256|170:268|170:268,1,70
320,160,62530,1,0,0:0:0:0:
308,210,62620,1,0,0:0:0:0:
281,255,62710,1,0,0:0:0:0:
160,320,62891,1,0,0:0:0:0:
224,192,63072,1,0,0:0:0:0:
256,288,63253,1,0,0:0:0:0:
96,224,63433,1,0,0:0:0:0:
224,96,63614,5,0,0:0:0:0:
320,160,63795,1,0,0:0:0:0:
192,192,63975,1,0,0:0:0:0:
288,96,64156,1,0,0:0:0:0:
352,192,64337,2,0,P|315:235|293:249,2,62.9999980773926
384,96,64879,1,0,0:0:0:0:
272,64,65060,6,0,P|224:48|192:48,1,62.9999980773926
80,64,65421,1,0,0:0:0:0:
144,160,65602,1,0,0:0:0:0:
96,16,65783,1,0,0:0:0:0:
224,112,65963,1,0,0:0:0:0:
80,176,66144,1,0,0:0:0:0:
176,48,66325,1,0,0:0:0:0:
288,80,66506,6,0,P|320:96|352:128,1,62.9999980773926
384,208,66867,1,0,0:0:0:0:
256,112,67048,1,0,0:0:0:0:
384,80,67228,1,0,0:0:0:0:
288,208,67409,1,0,0:0:0:0:
224,80,67590,1,0,0:0:0:0:
144,192,67771,1,0,0:0:0:0:
240,112,67951,6,0,P|288:96|320:96,2,62.9999980773926
176,192,68493,1,0,0:0:0:0:
320,112,68674,1,0,0:0:0:0:
320,288,68855,1,0,0:0:0:0:
160,96,69036,1,0,0:0:0:0:
384,192,69216,1,0,0:0:0:0:
176,96,69397,5,0,0:0:0:0:
161,131,69487,1,0,0:0:0:0:
161,169,69578,1,0,0:0:0:0:
182,201,69668,1,0,0:0:0:0:
203,232,69759,1,0,0:0:0:0:
214,268,69849,1,0,0:0:0:0:
199,303,69939,1,0,0:0:0:0:
167,324,70030,1,0,0:0:0:0:
130,313,70120,5,0,0:0:0:0:
102,285,70210,1,0,0:0:0:0:
91,247,70301,1,0,0:0:0:0:
100,209,70391,1,0,0:0:0:0:
121,177,70481,1,0,0:0:0:0:
157,163,70572,1,0,0:0:0:0:
192,149,70662,1,0,0:0:0:0:
219,121,70753,1,0,0:0:0:0:
336,48,70843,5,0,0:0:0:0:
353,81,70933,1,0,0:0:0:0:
366,117,71024,1,0,0:0:0:0:
374,154,71114,1,0,0:0:0:0:
374,192,71204,1,0,0:0:0:0:
364,229,71295,1,0,0:0:0:0:
347,263,71385,1,0,0:0:0:0:
319,290,71475,1,0,0:0:0:0:
282,303,71566,5,0,0:0:0:0:
244,294,71656,1,0,0:0:0:0:
216,266,71746,1,0,0:0:0:0:
208,228,71837,1,0,0:0:0:0:
226,194,71927,1,0,0:0:0:0:
237,157,72018,1,0,0:0:0:0:
237,118,72108,1,0,0:0:0:0:
209,90,72198,1,0,0:0:0:0:
80,64,72289,5,0,0:0:0:0:
68,100,72379,1,0,0:0:0:0:
68,138,72469,1,0,0:0:0:0:
80,174,72560,1,0,0:0:0:0:
107,201,72650,1,0,0:0:0:0:
127,233,72740,1,0,0:0:0:0:
142,268,72831,1,0,0:0:0:0:
142,306,72921,1,0,0:0:0:0:
125,340,73012,5,0,0:0:0:0:
86,340,73102,1,0,0:0:0:0:
58,312,73192,1,0,0:0:0:0:
48,274,73283,1,0,0:0:0:0:
75,246,73373,1,0,0:0:0:0:
112,255,73463,1,0,0:0:0:0:
124,291,73554,1,0,0:0:0:0:
109,326,73644,1,0,0:0:0:0:
80,224,73734,5,0,0:0:0:0:
116,210,73825,1,0,0:0:0:0:
153,203,73915,1,0,0:0:0:0:
189,215,74006,1,0,0:0:0:0:
220,236,74096,1,0,0:0:0:0:
256,246,74186,1,0,0:0:0:0:
291,231,74277,1,0,0:0:0:0:
318,203,74367,1,0,0:0:0:0:
336,169,74457,5,0,0:0:0:0:
336,130,74548,1,0,0:0:0:0:
320,94,74638,1,0,0:0:0:0:
285,77,74728,1,0,0:0:0:0:
248,88,74819,1,0,0:0:0:0:
230,122,74909,1,0,0:0:0:0:
222,159,74999,1,0,0:0:0:0:
229,197,75090,1,0,0:0:0:0:
320,272,75180,5,0,0:0:0:0:
352,240,75271,1,0,0:0:0:0:
368,197,75361,1,0,0:0:0:0:
355,153,75451,1,0,0:0:0:0:
310,140,75542,1,0,0:0:0:0:
277,107,75632,1,0,0:0:0:0:
277,61,75722,1,0,0:0:0:0:
319,43,75813,1,0,0:0:0:0:
339,83,75903,5,0,0:0:0:0:
306,115,75993,1,0,0:0:0:0:
263,131,76084,1,0,0:0:0:0:
220,146,76174,1,0,0:0:0:0:
198,186,76265,1,0,0:0:0:0:
187,230,76355,1,0,0:0:0:0:
194,274,76445,1,0,0:0:0:0:
218,312,76536,1,0,0:0:0:0:
368,288,76626,5,0,0:0:0:0:
335,255,76716,1,0,0:0:0:0:
294,234,76807,1,0,0:0:0:0:
269,196,76897,1,0,0:0:0:0:
276,151,76987,1,0,0:0:0:0:
317,131,77078,1,0,0:0:0:0:
349,163,77168,1,0,0:0:0:0:
362,206,77259,1,0,0:0:0:0:
339,245,77349,5,0,0:0:0:0:
306,277,77439,1,0,0:0:0:0:
266,299,77530,1,0,0:0:0:0:
220,299,77620,1,0,0:0:0:0:
177,283,77710,1,0,0:0:0:0:
144,250,77801,1,0,0:0:0:0:
111,217,77891,1,0,0:0:0:0:
99,173,77981,1,0,0:0:0:0:
176,64,78072,5,0,0:0:0:0:
148,108,78162,1,0,0:0:0:0:
125,155,78253,1,0,0:0:0:0:
125,207,78343,1,0,0:0:0:0:
150,252,78433,1,0,0:0:0:0:
187,289,78524,1,0,0:0:0:0:
237,277,78614,1,0,0:0:0:0:
288,266,78704,1,0,0:0:0:0:
325,303,78795,5,0,0:0:0:0:
304,350,78885,1,0,0:0:0:0:
252,360,78975,1,0,0:0:0:0:
207,331,79066,1,0,0:0:0:0:
196,279,79156,1,0,0:0:0:0:
211,229,79246,1,0,0:0:0:0:
248,191,79337,1,0,0:0:0:0:
277,147,79427,1,0,0:0:0:0:
277,94,79518,5,0,0:0:0:0:
240,57,79608,1,0,0:0:0:0:
187,57,79698,1,0,0:0:0:0:
160,102,79789,1,0,0:0:0:0:
172,152,79879,1,0,0:0:0:0:
208,188,79969,1,0,0:0:0:0:
245,225,80060,1,0,0:0:0:0:
271,270,80150,1,0,0:0:0:0:
259,321,80240,5,0,0:0:0:0:
215,350,80331,1,0,0:0:0:0:
163,338,80421,1,0,0:0:0:0:
125,300,80512,1,0,0:0:0:0:
115,248,80602,1,0,0:0:0:0:
138,201,80692,1,0,0:0:0:0:
167,157,80783,1,0,0:0:0:0:
167,104,80873,1,0,0:0:0:0:
256,192,80963,12,0,82228,0:0:0:0:
256,80,82409,5,0,0:0:0:0:
303,102,82499,1,0,0:0:0:0:
340,139,82590,1,0,0:0:0:0:
376,175,82680,1,0,0:0:0:0:
428,175,82771,1,0,0:0:0:0:
464,138,82861,1,0,0:0:0:0:
473,189,82951,1,0,0:0:0:0:
435,226,83042,1,0,0:0:0:0:
382,226,83132,5,0,0:0:0:0:
354,181,83222,1,0,0:0:0:0:
382,136,83313,1,0,0:0:0:0:
429,158,83403,1,0,0:0:0:0:
417,209,83493,1,0,0:0:0:0:
366,226,83584,1,0,0:0:0:0:
318,247,83674,1,0,0:0:0:0:
280,284,83765,1,0,0:0:0:0:
232,305,83855,5,0,0:0:0:0:
181,293,83945,1,0,0:0:0:0:
143,255,84036,1,0,0:0:0:0:
123,206,84126,1,0,0:0:0:0:
123,153,84216,1,0,0:0:0:0:
150,108,84307,1,0,0:0:0:0:
195,82,84397,1,0,0:0:0:0:
246,72,84487,1,0,0:0:0:0:
297,82,84578,5,0,0:0:0:0:
341,108,84668,1,0,0:0:0:0:
378,145,84759,1,0,0:0:0:0:
405,189,84849,1,0,0:0:0:0:
417,239,84939,1,0,0:0:0:0:
401,289,85030,1,0,0:0:0:0:
364,325,85120,1,0,0:0:0:0:
313,312,85210,5,0,0:0:0:0:
275,274,85301,1,0,0:0:0:0:
229,247,85391,1,0,0:0:0:0:
177,256,85481,1,0,0:0:0:0:
165,307,85572,1,0,0:0:0:0:
190,352,85662,1,0,0:0:0:0:
238,331,85753,1,0,0:0:0:0:
201,294,85843,1,0,0:0:0:0:
171,250,85933,1,0,0:0:0:0:
161,198,86024,5,0,0:0:0:0:
173,147,86114,1,0,0:0:0:0:
209,110,86204,1,0,0:0:0:0:
260,98,86295,1,0,0:0:0:0:
310,109,86385,1,0,0:0:0:0:
346,145,86475,1,0,0:0:0:0:
361,195,86566,1,0,0:0:0:0:
361,247,86656,1,0,0:0:0:0:
405,220,86746,5,0,0:0:0:0:
417,168,86837,1,0,0:0:0:0:
402,117,86927,1,0,0:0:0:0:
364,79,87018,1,0,0:0:0:0:
314,62,87108,1,0,0:0:0:0:
262,52,87198,1,0,0:0:0:0:
210,65,87289,1,0,0:0:0:0:
173,101,87379,1,0,0:0:0:0:
189,150,87469,5,0,0:0:0:0:
210,198,87560,1,0,0:0:0:0:
226,247,87650,1,0,0:0:0:0:
214,298,87740,1,0,0:0:0:0:
128,208,87831,2,0,L|80:256,4,52.5000020027161
208,128,88283,5,0,0:0:0:0:
174,94,88373,1,0,0:0:0:0:
128,80,88463,1,0,0:0:0:0:
80,96,88554,1,0,0:0:0:0:
65,140,88644,1,0,0:0:0:0:
82,183,88734,1,0,0:0:0:0:
122,208,88825,1,0,0:0:0:0:
144,249,88915,1,0,0:0:0:0:
130,293,89006,5,0,0:0:0:0:
85,277,89096,1,0,0:0:0:0:
102,233,89186,1,0,0:0:0:0:
143,210,89277,1,0,0:0:0:0:
189,201,89367,1,0,0:0:0:0:
231,180,89457,1,0,0:0:0:0:
264,146,89548,1,0,0:0:0:0:
297,112,89638,5,0,0:0:0:0:
282,156,89728,1,0,0:0:0:0:
282,203,89819,1,0,0:0:0:0:
303,244,89909,1,0,0:0:0:0:
343,267,89999,1,0,0:0:0:0:
388,252,90090,1,0,0:0:0:0:
421,218,90180,1,0,0:0:0:0:
436,173,90271,1,0,0:0:0:0:
402,206,90361,5,0,0:0:0:0:
358,223,90451,1,0,0:0:0:0:
310,223,90542,1,0,0:0:0:0:
276,189,90632,1,0,0:0:0:0:
276,141,90722,1,0,0:0:0:0:
309,107,90813,1,0,0:0:0:0:
351,87,90903,1,0,0:0:0:0:
395,101,90993,1,0,0:0:0:0:
428,134,91084,5,0,0:0:0:0:
418,180,91174,1,0,0:0:0:0:
392,220,91265,1,0,0:0:0:0:
358,253,91355,1,0,0:0:0:0:
312,240,91445,1,0,0:0:0:0:
269,219,91536,1,0,0:0:0:0:
223,230,91626,1,0,0:0:0:0:
189,263,91716,1,0,0:0:0:0:
96,192,91807,6,0,L|128:144,1,52.5000020027161
160,112,91987,1,0,0:0:0:0:
208,96,92078,2,0,L|272:112,1,52.5000020027161
288,128,92259,1,0,0:0:0:0:
309,169,92349,1,0,0:0:0:0:
309,216,92439,1,0,0:0:0:0:
275,249,92530,1,0,0:0:0:0:
228,239,92620,5,0,0:0:0:0:
194,205,92710,1,0,0:0:0:0:
153,180,92801,1,0,0:0:0:0:
105,180,92891,1,0,0:0:0:0:
86,223,92981,1,0,0:0:0:0:
100,268,93072,1,0,0:0:0:0:
133,301,93162,1,0,0:0:0:0:
174,324,93253,5,0,0:0:0:0:
221,324,93343,1,0,0:0:0:0:
265,308,93433,1,0,0:0:0:0:
307,286,93524,1,0,0:0:0:0:
416,192,93614,2,0,L|352:176,4,52.5000020027161
272,224,94066,5,0,0:0:0:0:
238,257,94156,1,0,0:0:0:0:
191,247,94246,1,0,0:0:0:0:
173,202,94337,1,0,0:0:0:0:
196,161,94427,1,0,0:0:0:0:
196,113,94518,1,0,0:0:0:0:
162,79,94608,1,0,0:0:0:0:
116,90,94698,5,0,0:0:0:0:
96,133,94789,1,0,0:0:0:0:
106,178,94879,1,0,0:0:0:0:
139,211,94969,1,0,0:0:0:0:
172,244,95060,1,0,0:0:0:0:
181,290,95150,1,0,0:0:0:0:
154,328,95240,1,0,0:0:0:0:
112,304,95331,1,0,0:0:0:0:
132,261,95421,5,0,0:0:0:0:
176,243,95512,1,0,0:0:0:0:
218,223,95602,1,0,0:0:0:0:
258,198,95692,1,0,0:0:0:0:
291,164,95783,1,0,0:0:0:0:
306,119,95873,1,0,0:0:0:0:
280,79,95963,1,0,0:0:0:0:
233,68,96054,1,0,0:0:0:0:
199,101,96144,5,0,0:0:0:0:
212,146,96234,1,0,0:0:0:0:
234,187,96325,1,0,0:0:0:0:
267,220,96415,1,0,0:0:0:0:
288,262,96506,1,0,0:0:0:0:
266,304,96596,1,0,0:0:0:0:
224,282,96686,1,0,0:0:0:0:
238,236,96777,1,0,0:0:0:0:
261,195,96867,5,0,0:0:0:0:
261,147,96957,1,0,0:0:0:0:
227,113,97048,1,0,0:0:0:0:
182,98,97138,1,0,0:0:0:0:
141,122,97228,1,0,0:0:0:0:
130,168,97319,1,0,0:0:0:0:
138,214,97409,1,0,0:0:0:0:
176,240,97499,1,0,0:0:0:0:
209,273,97590,5,0,0:0:0:0:
223,317,97680,1,0,0:0:0:0:
189,350,97771,1,0,0:0:0:0:
162,311,97861,1,0,0:0:0:0:
187,271,97951,1,0,0:0:0:0:
214,231,98042,1,0,0:0:0:0:
226,185,98132,1,0,0:0:0:0:
216,138,98222,1,0,0:0:0:0:
304,48,98313,6,0,P|368:96|400:128,3,105.000004005432
112,96,99036,2,0,L|80:160,1,52.5000020027161
208,256,99216,2,0,L|144:240,1,52.5000020027161
192,64,99397,2,0,L|160:128,1,52.5000020027161
272,304,99578,2,0,L|208:288,1,52.5000020027161
112,192,99759,5,0,0:0:0:0:
138,153,99849,1,0,0:0:0:0:
177,127,99939,1,0,0:0:0:0:
222,113,100030,1,0,0:0:0:0:
269,113,100120,1,0,0:0:0:0:
243,152,100210,1,0,0:0:0:0:
260,196,100301,1,0,0:0:0:0:
299,221,100391,1,0,0:0:0:0:
343,205,100481,5,0,0:0:0:0:
332,251,100572,1,0,0:0:0:0:
298,284,100662,1,0,0:0:0:0:
254,302,100753,1,0,0:0:0:0:
207,292,100843,1,0,0:0:0:0:
181,252,100933,1,0,0:0:0:0:
190,205,101024,1,0,0:0:0:0:
166,164,101114,1,0,0:0:0:0:
125,140,101204,5,0,0:0:0:0:
82,160,101295,1,0,0:0:0:0:
91,206,101385,1,0,0:0:0:0:
136,195,101475,1,0,0:0:0:0:
181,182,101566,1,0,0:0:0:0:
228,182,101656,1,0,0:0:0:0:
267,208,101746,1,0,0:0:0:0:
300,241,101837,1,0,0:0:0:0:
311,286,101927,5,0,0:0:0:0:
292,330,102018,1,0,0:0:0:0:
246,343,102108,1,0,0:0:0:0:
202,324,102198,1,0,0:0:0:0:
176,283,102289,1,0,0:0:0:0:
185,236,102379,1,0,0:0:0:0:
218,202,102469,1,0,0:0:0:0:
241,160,102560,1,0,0:0:0:0:
228,114,102650,5,0,0:0:0:0:
194,80,102740,1,0,0:0:0:0:
147,91,102831,1,0,0:0:0:0:
138,137,102921,1,0,0:0:0:0:
152,182,103012,1,0,0:0:0:0:
178,220,103102,1,0,0:0:0:0:
199,262,103192,1,0,0:0:0:0:
190,308,103283,1,0,0:0:0:0:
144,297,103373,5,0,0:0:0:0:
110,263,103463,1,0,0:0:0:0:
110,215,103554,1,0,0:0:0:0:
143,181,103644,1,0,0:0:0:0:
176,147,103734,1,0,0:0:0:0:
176,99,103825,1,0,0:0:0:0:
142,65,103915,1,0,0:0:0:0:
108,98,104006,1,0,0:0:0:0:
123,142,104096,5,0,0:0:0:0:
156,175,104186,1,0,0:0:0:0:
189,208,104277,1,0,0:0:0:0:
210,249,104367,1,0,0:0:0:0:
198,294,104457,1,0,0:0:0:0:
242,276,104548,1,0,0:0:0:0:
281,249,104638,1,0,0:0:0:0:
297,204,104728,1,0,0:0:0:0:
284,158,104819,5,0,0:0:0:0:
250,124,104909,1,0,0:0:0:0:
203,114,104999,1,0,0:0:0:0:
157,128,105090,1,0,0:0:0:0:
224,256,105180,2,0,L|288:224,4,52.5000020027161
256,192,111325,12,0,115481,0:0:0:0:
176,144,115662,5,0,0:0:0:0:
202,134,115753,1,0,0:0:0:0:
228,125,115843,1,0,0:0:0:0:
255,119,115933,1,0,0:0:0:0:
283,119,116024,1,0,0:0:0:0:
309,127,116114,1,0,0:0:0:0:
328,146,116204,1,0,0:0:0:0:
343,169,116295,1,0,0:0:0:0:
349,196,116385,5,0,0:0:0:0:
349,223,116475,1,0,0:0:0:0:
339,249,116566,1,0,0:0:0:0:
326,273,116656,1,0,0:0:0:0:
319,300,116746,1,0,0:0:0:0:
326,327,116837,1,0,0:0:0:0:
345,346,116927,1,0,0:0:0:0:
372,350,117018,1,0,0:0:0:0:
135,113,122891,6,0,B|208:80|224:112|119:124|192:256,1,210
240,336,123614,1,0,0:0:0:0:
208,128,123975,1,0,0:0:0:0:
235,61,124156,2,0,P|272:96|276:131,1,70
204,124,124518,2,0,P|188:156|188:204,1,70
240,272,124879,1,0,0:0:0:0:
304,192,125060,1,0,0:0:0:0:
176,96,125602,1,0,0:0:0:0:
112,192,125783,5,0,0:0:0:0:
304,112,126325,2,0,P|320:160|320:192,1,70
208,160,127048,1,0,0:0:0:0:
320,80,127228,2,0,P|336:128|336:160,2,70
208,160,127771,1,0,0:0:0:0:
128,256,127951,2,0,P|176:288|208:288,1,70
288,272,128313,1,0,0:0:0:0:
384,224,128493,1,0,0:0:0:0:
256,192,128674,12,0,132650,0:0:0:0:
144,144,133012,5,0,0:0:0:0:
173,124,133102,1,0,0:0:0:0:
206,113,133192,1,0,0:0:0:0:
241,113,133283,1,0,0:0:0:0:
270,132,133373,1,0,0:0:0:0:
287,162,133463,1,0,0:0:0:0:
287,197,133554,1,0,0:0:0:0:
276,230,133644,1,0,0:0:0:0:
258,259,133734,5,0,0:0:0:0:
265,293,133825,1,0,0:0:0:0:
289,317,133915,1,0,0:0:0:0:
322,326,134006,1,0,0:0:0:0:
354,312,134096,1,0,0:0:0:0:
372,282,134186,1,0,0:0:0:0:
381,248,134277,1,0,0:0:0:0:
373,213,134367,1,0,0:0:0:0:
320,112,134457,5,0,0:0:0:0:
272,136,134548,1,0,0:0:0:0:
235,172,134638,1,0,0:0:0:0:
208,217,134728,1,0,0:0:0:0:
158,234,134819,1,0,0:0:0:0:
111,209,134909,1,0,0:0:0:0:
98,158,134999,1,0,0:0:0:0:
121,110,135090,1,0,0:0:0:0:
171,94,135180,5,0,0:0:0:0:
217,118,135271,1,0,0:0:0:0:
264,140,135361,1,0,0:0:0:0:
315,130,135451,1,0,0:0:0:0:
365,145,135542,1,0,0:0:0:0:
401,181,135632,1,0,0:0:0:0:
426,226,135722,1,0,0:0:0:0:
416,277,135813,1,0,0:0:0:0:
379,313,135903,5,0,0:0:0:0:
329,330,135993,1,0,0:0:0:0:
277,319,136084,1,0,0:0:0:0:
240,282,136174,1,0,0:0:0:0:
196,252,136265,1,0,0:0:0:0:
145,265,136355,1,0,0:0:0:0:
99,239,136445,1,0,0:0:0:0:
88,187,136536,1,0,0:0:0:0:
112,140,136626,5,0,0:0:0:0:
148,103,136716,1,0,0:0:0:0:
199,90,136807,1,0,0:0:0:0:
249,102,136897,1,0,0:0:0:0:
285,138,136987,1,0,0:0:0:0:
333,117,137078,1,0,0:0:0:0:
314,67,137168,1,0,0:0:0:0:
270,97,137259,1,0,0:0:0:0:
199,195,137349,5,0,0:0:0:0:
240,240,137439,1,0,0:0:0:0:
304,256,137530,1,0,0:0:0:0:
368,240,137620,1,0,0:0:0:0:
432,256,137710,1,0,0:0:0:0:
416,320,137801,1,0,0:0:0:0:
352,304,137891,1,0,0:0:0:0:
320,240,137981,1,0,0:0:0:0:
288,176,138072,5,0,0:0:0:0:
224,144,138162,1,0,0:0:0:0:
160,160,138253,1,0,0:0:0:0:
128,224,138343,1,0,0:0:0:0:
80,176,138433,1,0,0:0:0:0:
112,112,138524,1,0,0:0:0:0:
160,64,138614,1,0,0:0:0:0:
224,48,138704,1,0,0:0:0:0:
208,112,138795,5,0,0:0:0:0:
240,176,138885,1,0,0:0:0:0:
304,160,138975,1,0,0:0:0:0:
288,96,139066,1,0,0:0:0:0:
224,80,139156,1,0,0:0:0:0:
192,144,139246,1,0,0:0:0:0:
176,208,139337,1,0,0:0:0:0:
192,272,139427,1,0,0:0:0:0:
176,336,139518,5,0,0:0:0:0:
113,307,139608,1,0,0:0:0:0:
80,240,139698,1,0,0:0:0:0:
96,176,139789,1,0,0:0:0:0:
160,144,139879,1,0,0:0:0:0:
208,96,139969,1,0,0:0:0:0:
192,160,140060,1,0,0:0:0:0:
208,224,140150,1,0,0:0:0:0:
320,288,140240,5,0,0:0:0:0:
352,224,140331,1,0,0:0:0:0:
368,160,140421,1,0,0:0:0:0:
352,96,140512,1,0,0:0:0:0:
288,64,140602,1,0,0:0:0:0:
227,89,140692,1,0,0:0:0:0:
171,126,140783,1,0,0:0:0:0:
108,104,140873,1,0,0:0:0:0:
119,169,140963,5,0,0:0:0:0:
175,205,141054,1,0,0:0:0:0:
221,251,141144,1,0,0:0:0:0:
249,310,141234,1,0,0:0:0:0:
194,348,141325,1,0,0:0:0:0:
181,282,141415,1,0,0:0:0:0:
228,234,141506,1,0,0:0:0:0:
263,177,141596,1,0,0:0:0:0:
263,110,141686,5,0,0:0:0:0:
215,62,141777,1,0,0:0:0:0:
150,76,141867,1,0,0:0:0:0:
119,134,141957,1,0,0:0:0:0:
143,196,142048,1,0,0:0:0:0:
174,254,142138,1,0,0:0:0:0:
159,318,142228,1,0,0:0:0:0:
93,303,142319,1,0,0:0:0:0:
114,240,142409,5,0,0:0:0:0:
171,207,142499,1,0,0:0:0:0:
218,159,142590,1,0,0:0:0:0:
189,99,142680,1,0,0:0:0:0:
123,113,142771,1,0,0:0:0:0:
151,172,142861,1,0,0:0:0:0:
207,207,142951,1,0,0:0:0:0:
236,266,143042,1,0,0:0:0:0:
352,176,143132,5,0,0:0:0:0:
290,114,143222,1,0,0:0:0:0:
214,159,143313,1,0,0:0:0:0:
214,246,143403,1,0,0:0:0:0:
165,318,143493,1,0,0:0:0:0:
78,301,143584,1,0,0:0:0:0:
58,215,143674,1,0,0:0:0:0:
103,139,143765,1,0,0:0:0:0:
187,116,143855,5,0,0:0:0:0:
270,142,143945,1,0,0:0:0:0:
332,204,144036,1,0,0:0:0:0:
311,288,144126,1,0,0:0:0:0:
390,251,144216,1,0,0:0:0:0:
428,171,144307,1,0,0:0:0:0:
384,95,144397,1,0,0:0:0:0:
300,70,144487,1,0,0:0:0:0:
217,102,144578,5,0,0:0:0:0:
155,163,144668,1,0,0:0:0:0:
128,246,144759,1,0,0:0:0:0:
167,323,144849,1,0,0:0:0:0:
250,347,144939,1,0,0:0:0:0:
327,305,145030,1,0,0:0:0:0:
373,231,145120,1,0,0:0:0:0:
350,146,145210,1,0,0:0:0:0:
266,118,145301,5,0,0:0:0:0:
191,163,145391,1,0,0:0:0:0:
234,238,145481,1,0,0:0:0:0:
215,324,145572,1,0,0:0:0:0:
130,302,145662,1,0,0:0:0:0:
104,217,145753,1,0,0:0:0:0:
132,134,145843,1,0,0:0:0:0:
193,72,145933,1,0,0:0:0:0:
256,192,146024,12,0,147289,0:0:0:0:
192,96,147469,5,0,0:0:0:0:
258,73,147560,1,0,0:0:0:0:
325,90,147650,1,0,0:0:0:0:
356,152,147740,1,0,0:0:0:0:
319,212,147831,1,0,0:0:0:0:
342,277,147921,1,0,0:0:0:0:
411,262,148012,1,0,0:0:0:0:
371,204,148102,1,0,0:0:0:0:
304,224,148192,5,0,0:0:0:0:
236,245,148283,1,0,0:0:0:0:
169,222,148373,1,0,0:0:0:0:
156,153,148463,1,0,0:0:0:0:
192,92,148554,1,0,0:0:0:0:
261,92,148644,1,0,0:0:0:0:
297,151,148734,1,0,0:0:0:0:
274,217,148825,1,0,0:0:0:0:
290,284,148915,5,0,0:0:0:0:
357,302,149006,1,0,0:0:0:0:
406,252,149096,1,0,0:0:0:0:
380,187,149186,1,0,0:0:0:0:
318,152,149277,1,0,0:0:0:0:
254,180,149367,1,0,0:0:0:0:
192,146,149457,1,0,0:0:0:0:
142,96,149548,5,0,0:0:0:0:
173,33,149638,1,0,0:0:0:0:
241,46,149728,1,0,0:0:0:0:
223,114,149819,1,0,0:0:0:0:
191,176,149909,1,0,0:0:0:0:
208,243,149999,1,0,0:0:0:0:
274,266,150090,1,0,0:0:0:0:
334,231,150180,1,0,0:0:0:0:
321,161,150271,1,0,0:0:0:0:
262,123,150361,5,0,0:0:0:0:
203,161,150451,1,0,0:0:0:0:
143,123,150542,1,0,0:0:0:0:
176,62,150632,1,0,0:0:0:0:
244,76,150722,1,0,0:0:0:0:
280,136,150813,1,0,0:0:0:0:
262,203,150903,1,0,0:0:0:0:
284,269,150993,1,0,0:0:0:0:
348,297,151084,5,0,0:0:0:0:
397,247,151174,1,0,0:0:0:0:
382,177,151265,1,0,0:0:0:0:
322,140,151355,1,0,0:0:0:0:
341,72,151445,1,0,0:0:0:0:
409,56,151536,1,0,0:0:0:0:
445,115,151626,1,0,0:0:0:0:
395,164,151716,1,0,0:0:0:0:
361,225,151807,5,0,0:0:0:0:
295,202,151897,1,0,0:0:0:0:
245,251,151987,1,0,0:0:0:0:
175,238,152078,1,0,0:0:0:0:
175,168,152168,1,0,0:0:0:0:
224,118,152259,1,0,0:0:0:0:
195,54,152349,1,0,0:0:0:0:
127,69,152439,1,0,0:0:0:0:
109,137,152530,5,0,0:0:0:0:
147,195,152620,1,0,0:0:0:0:
163,262,152710,1,0,0:0:0:0:
125,321,152801,1,0,0:0:0:0:
80,192,152891,2,0,L|128:128,4,70
144,320,153343,5,0,0:0:0:0:
205,287,153433,1,0,0:0:0:0:
254,237,153524,1,0,0:0:0:0:
280,172,153614,1,0,0:0:0:0:
242,113,153704,1,0,0:0:0:0:
279,53,153795,1,0,0:0:0:0:
344,76,153885,1,0,0:0:0:0:
356,144,153975,5,0,0:0:0:0:
316,202,154066,1,0,0:0:0:0:
284,264,154156,1,0,0:0:0:0:
315,326,154246,1,0,0:0:0:0:
380,299,154337,1,0,0:0:0:0:
380,229,154427,1,0,0:0:0:0:
330,179,154518,1,0,0:0:0:0:
265,204,154608,1,0,0:0:0:0:
200,178,154698,5,0,0:0:0:0:
218,110,154789,1,0,0:0:0:0:
284,129,154879,1,0,0:0:0:0:
269,197,154969,1,0,0:0:0:0:
201,175,155060,1,0,0:0:0:0:
142,212,155150,1,0,0:0:0:0:
173,274,155240,1,0,0:0:0:0:
233,237,155331,1,0,0:0:0:0:
197,176,155421,5,0,0:0:0:0:
226,111,155512,1,0,0:0:0:0:
292,90,155602,1,0,0:0:0:0:
341,139,155692,1,0,0:0:0:0:
325,207,155783,1,0,0:0:0:0:
290,267,155873,1,0,0:0:0:0:
326,326,155963,1,0,0:0:0:0:
363,266,156054,1,0,0:0:0:0:
339,200,156144,5,0,0:0:0:0:
279,163,156234,1,0,0:0:0:0:
315,102,156325,1,0,0:0:0:0:
380,125,156415,1,0,0:0:0:0:
363,193,156506,1,0,0:0:0:0:
313,242,156596,1,0,0:0:0:0:
333,308,156686,1,0,0:0:0:0:
398,280,156777,1,0,0:0:0:0:
378,213,156867,5,0,0:0:0:0:
317,177,156957,1,0,0:0:0:0:
249,196,157048,1,0,0:0:0:0:
199,146,157138,1,0,0:0:0:0:
162,86,157228,1,0,0:0:0:0:
93,104,157319,1,0,0:0:0:0:
114,170,157409,1,0,0:0:0:0:
163,219,157499,1,0,0:0:0:0:
189,284,157590,5,0,0:0:0:0:
139,333,157680,1,0,0:0:0:0:
89,283,157771,1,0,0:0:0:0:
116,219,157861,1,0,0:0:0:0:
173,180,157951,1,0,0:0:0:0:
222,229,158042,1,0,0:0:0:0:
279,189,158132,1,0,0:0:0:0:
309,126,158222,1,0,0:0:0:0:
273,65,158313,5,0,0:0:0:0:
207,90,158403,1,0,0:0:0:0:
188,157,158493,1,0,0:0:0:0:
224,224,158584,1,0,0:0:0:0:
352,144,158674,2,0,L|384:224,4,70
224,64,159126,5,0,0:0:0:0:
176,112,159216,1,0,0:0:0:0:
162,181,159307,1,0,0:0:0:0:
186,246,159397,1,0,0:0:0:0:
161,311,159487,1,0,0:0:0:0:
92,296,159578,1,0,0:0:0:0:
108,228,159668,1,0,0:0:0:0:
175,208,159759,1,0,0:0:0:0:
224,257,159849,5,0,0:0:0:0:
289,232,159939,1,0,0:0:0:0:
338,182,160030,1,0,0:0:0:0:
312,117,160120,1,0,0:0:0:0:
244,98,160210,1,0,0:0:0:0:
215,162,160301,1,0,0:0:0:0:
254,219,160391,1,0,0:0:0:0:
231,285,160481,1,0,0:0:0:0:
168,252,160572,5,0,0:0:0:0:
153,183,160662,1,0,0:0:0:0:
202,133,160753,1,0,0:0:0:0:
270,118,160843,1,0,0:0:0:0:
319,167,160933,1,0,0:0:0:0:
296,233,161024,1,0,0:0:0:0:
345,282,161114,1,0,0:0:0:0:
406,248,161204,1,0,0:0:0:0:
423,179,161295,5,0,0:0:0:0:
392,116,161385,1,0,0:0:0:0:
326,93,161475,1,0,0:0:0:0:
261,120,161566,1,0,0:0:0:0:
228,181,161656,1,0,0:0:0:0:
160,164,161746,1,0,0:0:0:0:
99,200,161837,1,0,0:0:0:0:
128,256,161927,5,0,0:0:0:0:
193,281,162018,1,0,0:0:0:0:
253,246,162108,1,0,0:0:0:0:
310,284,162198,1,0,0:0:0:0:
278,346,162289,1,0,0:0:0:0:
212,323,162379,1,0,0:0:0:0:
230,255,162469,1,0,0:0:0:0:
243,185,162560,1,0,0:0:0:0:
206,125,162650,5,0,0:0:0:0:
139,147,162740,1,0,0:0:0:0:
108,210,162831,1,0,0:0:0:0:
145,268,162921,1,0,0:0:0:0:
212,289,163012,1,0,0:0:0:0:
271,252,163102,1,0,0:0:0:0:
320,301,163192,1,0,0:0:0:0:
369,251,163283,1,0,0:0:0:0:
288,112,163373,6,0,P|192:144|160:176,3,140
128,288,164096,2,0,L|208:336,1,70
256,48,164277,2,0,P|336:80|336:80,1,70
224,288,164457,2,0,L|320:304,1,70
416,48,164638,2,0,L|480:112,1,70
208,96,164819,5,0,0:0:0:0:
272,160,164909,1,0,0:0:0:0:
304,240,164999,1,0,0:0:0:0:
288,320,165090,1,0,0:0:0:0:
202,302,165180,1,0,0:0:0:0:
155,227,165271,1,0,0:0:0:0:
216,165,165361,1,0,0:0:0:0:
277,103,165451,1,0,0:0:0:0:
228,29,165542,5,0,0:0:0:0:
166,90,165632,1,0,0:0:0:0:
182,175,165722,1,0,0:0:0:0:
244,237,165813,1,0,0:0:0:0:
286,313,165903,1,0,0:0:0:0:
224,374,165993,1,0,0:0:0:0:
175,300,166084,1,0,0:0:0:0:
222,226,166174,1,0,0:0:0:0:
294,175,166265,5,0,0:0:0:0:
325,93,166355,1,0,0:0:0:0:
263,31,166445,1,0,0:0:0:0:
189,78,166536,1,0,0:0:0:0:
212,162,166626,1,0,0:0:0:0:
253,238,166716,1,0,0:0:0:0:
234,324,166807,1,0,0:0:0:0:
154,359,166897,1,0,0:0:0:0:
92,297,166987,5,0,0:0:0:0:
134,219,167078,1,0,0:0:0:0:
207,172,167168,1,0,0:0:0:0:
279,122,167259,1,0,0:0:0:0:
325,48,167349,1,0,0:0:0:0:
246,86,167439,1,0,0:0:0:0:
218,169,167530,1,0,0:0:0:0:
247,250,167620,1,0,0:0:0:0:
291,324,167710,5,0,0:0:0:0:
208,353,167801,1,0,0:0:0:0:
125,324,167891,1,0,0:0:0:0:
101,239,167981,1,0,0:0:0:0:
144,160,168072,1,0,0:0:0:0:
224,128,168162,1,0,0:0:0:0:
304,144,168253,1,0,0:0:0:0:
368,192,168343,1,0,0:0:0:0:
448,176,168433,5,0,0:0:0:0:
448,96,168524,1,0,0:0:0:0:
368,64,168614,1,0,0:0:0:0:
288,112,168704,1,0,0:0:0:0:
240,176,168795,1,0,0:0:0:0:
178,237,168885,1,0,0:0:0:0:
92,218,168975,1,0,0:0:0:0:
110,131,169066,1,0,0:0:0:0:
176,80,169156,5,0,0:0:0:0:
272,48,169246,1,0,0:0:0:0:
368,64,169337,1,0,0:0:0:0:
448,128,169427,1,0,0:0:0:0:
480,224,169518,1,0,0:0:0:0:
379,194,169608,1,0,0:0:0:0:
280,229,169698,1,0,0:0:0:0:
205,154,169789,1,0,0:0:0:0:
295,101,169879,5,0,0:0:0:0:
322,201,169969,1,0,0:0:0:0:
262,288,170060,1,0,0:0:0:0:
160,262,170150,1,0,0:0:0:0:
86,188,170240,1,0,0:0:0:0:
127,90,170331,1,0,0:0:0:0:
227,62,170421,1,0,0:0:0:0:
321,109,170512,1,0,0:0:0:0:
352,256,170602,6,0,P|304:272|272:272,1,70
192,240,171144,1,0,0:0:0:0:
192,240,171234,1,0,0:0:0:0:
192,240,171325,1,0,0:0:0:0:
272,176,171506,2,0,L|240:144,2,35
