osu file format v14

[General]
AudioFilename: audio.mp3
AudioLeadIn: 0
PreviewTime: 11566
Countdown: 1
SampleSet: None
StackLeniency: 0.7
Mode: 3
LetterboxInBreaks: 0
SpecialStyle: 1
WidescreenStoryboard: 0

[Editor]
Bookmarks: 5783,11566,17349,23132,28915,34698,46265,63614,69397,82409,88192,93975,99759,105542,134457,147469,153253,159036,164819,170602
DistanceSpacing: 2
BeatDivisor: 4
GridSize: 16
TimelineZoom: 1.8

[Metadata]
Title:Ludicrous Speed
TitleUnicode:Ludicrous Speed
Artist:F-777
ArtistUnicode:F-777
Creator:ColdCR
Version:SuperSonic
Source:
Tags:Handstream stream stamina trills jumpstream speed practice
BeatmapID:1963697
BeatmapSetID:879737

[Difficulty]
HPDrainRate:9
CircleSize:4
OverallDifficulty:8
ApproachRate:9
SliderMultiplier:3
SliderTickRate:1

[Events]
//Background and Video events
0,0,"thumb-1920-596769.jpg",0,0
//Break Periods
//Storyboard Layer 0 (Background)
//Storyboard Layer 1 (Fail)
//Storyboard Layer 2 (Pass)
//Storyboard Layer 3 (Foreground)
//Storyboard Sound Samples

[TimingPoints]
0,361.44578313253,4,1,0,10,1,0

[HitObjects]
64,192,0,5,0,0:0:0:0:
192,192,90,1,0,0:0:0:0:
320,192,180,1,0,0:0:0:0:
448,192,271,1,0,0:0:0:0:
320,192,361,1,0,0:0:0:0:
192,192,451,1,0,0:0:0:0:
64,192,542,1,0,0:0:0:0:
320,192,632,1,0,0:0:0:0:
192,192,722,1,0,0:0:0:0:
448,192,813,1,0,0:0:0:0:
64,192,903,1,0,0:0:0:0:
320,192,993,1,0,0:0:0:0:
192,192,1084,1,0,0:0:0:0:
448,192,1174,1,0,0:0:0:0:
192,192,1265,1,0,0:0:0:0:
64,192,1355,1,0,0:0:0:0:
320,192,1445,1,0,0:0:0:0:
192,192,1536,1,0,0:0:0:0:
64,192,1626,1,0,0:0:0:0:
192,192,1716,1,0,0:0:0:0:
320,192,1807,1,0,0:0:0:0:
448,192,1897,1,0,0:0:0:0:
64,192,1987,1,0,0:0:0:0:
192,192,2078,1,0,0:0:0:0:
320,192,2168,1,0,0:0:0:0:
448,192,2259,1,0,0:0:0:0:
192,192,2349,1,0,0:0:0:0:
64,192,2439,1,0,0:0:0:0:
320,192,2530,1,0,0:0:0:0:
192,192,2620,1,0,0:0:0:0:
64,192,2710,1,0,0:0:0:0:
320,192,2801,1,0,0:0:0:0:
64,192,2891,1,0,0:0:0:0:
320,192,2981,1,0,0:0:0:0:
448,192,3072,1,0,0:0:0:0:
192,192,3162,1,0,0:0:0:0:
64,192,3253,1,0,0:0:0:0:
192,192,3343,1,0,0:0:0:0:
320,192,3433,1,0,0:0:0:0:
64,192,3524,1,0,0:0:0:0:
448,192,3614,1,0,0:0:0:0:
192,192,3704,1,0,0:0:0:0:
448,192,3795,1,0,0:0:0:0:
64,192,3885,1,0,0:0:0:0:
320,192,3975,1,0,0:0:0:0:
192,192,4066,1,0,0:0:0:0:
448,192,4156,1,0,0:0:0:0:
64,192,4246,1,0,0:0:0:0:
320,192,4337,1,0,0:0:0:0:
448,192,4427,1,0,0:0:0:0:
320,192,4518,1,0,0:0:0:0:
192,192,4608,1,0,0:0:0:0:
64,192,4698,1,0,0:0:0:0:
320,192,4789,1,0,0:0:0:0:
448,192,4879,1,0,0:0:0:0:
320,192,4969,1,0,0:0:0:0:
192,192,5060,1,0,0:0:0:0:
64,192,5150,1,0,0:0:0:0:
448,192,5240,1,0,0:0:0:0:
192,192,5331,1,0,0:0:0:0:
64,192,5421,1,0,0:0:0:0:
448,192,5481,1,0,0:0:0:0:
320,192,5542,1,0,0:0:0:0:
192,192,5602,1,0,0:0:0:0:
64,192,5662,1,0,0:0:0:0:
448,192,5662,1,0,0:0:0:0:
320,192,5722,1,0,0:0:0:0:
192,192,5783,1,0,0:0:0:0:
448,192,5783,1,0,0:0:0:0:
64,192,5873,1,0,0:0:0:0:
192,192,5963,1,0,0:0:0:0:
320,192,6054,1,0,0:0:0:0:
448,192,6144,1,0,0:0:0:0:
192,192,6234,1,0,0:0:0:0:
320,192,6325,1,0,0:0:0:0:
64,192,6325,1,0,0:0:0:0:
448,192,6415,1,0,0:0:0:0:
64,192,6506,1,0,0:0:0:0:
192,192,6596,1,0,0:0:0:0:
320,192,6686,1,0,0:0:0:0:
448,192,6686,1,0,0:0:0:0:
192,192,6777,1,0,0:0:0:0:
320,192,6867,1,0,0:0:0:0:
448,192,6957,1,0,0:0:0:0:
320,192,7048,1,0,0:0:0:0:
64,192,7048,1,0,0:0:0:0:
192,192,7138,1,0,0:0:0:0:
320,192,7228,1,0,0:0:0:0:
448,192,7319,1,0,0:0:0:0:
64,192,7409,1,0,0:0:0:0:
192,192,7409,1,0,0:0:0:0:
320,192,7499,1,0,0:0:0:0:
448,192,7590,1,0,0:0:0:0:
320,192,7680,1,0,0:0:0:0:
64,192,7771,1,0,0:0:0:0:
448,192,7771,1,0,0:0:0:0:
192,192,7861,1,0,0:0:0:0:
320,192,7951,1,0,0:0:0:0:
192,192,8042,1,0,0:0:0:0:
320,192,8132,1,0,0:0:0:0:
448,192,8132,1,0,0:0:0:0:
192,192,8222,1,0,0:0:0:0:
64,192,8313,1,0,0:0:0:0:
448,192,8403,1,0,0:0:0:0:
320,192,8493,1,0,0:0:0:0:
192,192,8493,1,0,0:0:0:0:
64,192,8584,1,0,0:0:0:0:
192,192,8674,1,0,0:0:0:0:
320,192,8765,1,0,0:0:0:0:
192,192,8855,1,0,0:0:0:0:
448,192,8855,1,0,0:0:0:0:
64,192,8945,1,0,0:0:0:0:
320,192,9036,1,0,0:0:0:0:
192,192,9126,1,0,0:0:0:0:
64,192,9216,1,0,0:0:0:0:
448,192,9216,1,0,0:0:0:0:
192,192,9307,1,0,0:0:0:0:
320,192,9397,1,0,0:0:0:0:
192,192,9487,1,0,0:0:0:0:
320,192,9578,1,0,0:0:0:0:
448,192,9578,1,0,0:0:0:0:
192,192,9668,1,0,0:0:0:0:
64,192,9759,1,0,0:0:0:0:
448,192,9849,1,0,0:0:0:0:
320,192,9939,1,0,0:0:0:0:
192,192,9939,1,0,0:0:0:0:
64,192,10030,1,0,0:0:0:0:
448,192,10120,1,0,0:0:0:0:
320,192,10210,1,0,0:0:0:0:
64,192,10301,1,0,0:0:0:0:
192,192,10301,1,0,0:0:0:0:
320,192,10391,1,0,0:0:0:0:
448,192,10481,1,0,0:0:0:0:
64,192,10572,1,0,0:0:0:0:
192,192,10662,1,0,0:0:0:0:
448,192,10662,1,0,0:0:0:0:
320,192,10753,1,0,0:0:0:0:
64,192,10843,128,0,11204:0:0:0:0:
448,192,11204,1,0,0:0:0:0:
320,192,11265,1,0,0:0:0:0:
192,192,11325,1,0,0:0:0:0:
64,192,11385,1,0,0:0:0:0:
448,192,11385,1,0,0:0:0:0:
320,192,11445,1,0,0:0:0:0:
192,192,11506,1,0,0:0:0:0:
64,192,11566,1,0,0:0:0:0:
448,192,11566,1,0,0:0:0:0:
320,192,11656,1,0,0:0:0:0:
448,192,11746,1,0,0:0:0:0:
320,192,11837,1,0,0:0:0:0:
192,192,11927,1,0,0:0:0:0:
448,192,11927,1,0,0:0:0:0:
64,192,12018,1,0,0:0:0:0:
192,192,12108,1,0,0:0:0:0:
320,192,12198,1,0,0:0:0:0:
192,192,12289,1,0,0:0:0:0:
64,192,12289,1,0,0:0:0:0:
448,192,12379,1,0,0:0:0:0:
64,192,12469,1,0,0:0:0:0:
320,192,12560,1,0,0:0:0:0:
192,192,12650,1,0,0:0:0:0:
448,192,12650,1,0,0:0:0:0:
64,192,12740,1,0,0:0:0:0:
448,192,12831,1,0,0:0:0:0:
192,192,12921,1,0,0:0:0:0:
448,192,13012,1,0,0:0:0:0:
320,192,13012,1,0,0:0:0:0:
64,192,13102,1,0,0:0:0:0:
192,192,13192,1,0,0:0:0:0:
448,192,13283,1,0,0:0:0:0:
320,192,13373,1,0,0:0:0:0:
192,192,13373,1,0,0:0:0:0:
64,192,13463,1,0,0:0:0:0:
192,192,13554,1,0,0:0:0:0:
320,192,13644,1,0,0:0:0:0:
192,192,13734,1,0,0:0:0:0:
448,192,13734,1,0,0:0:0:0:
64,192,13825,1,0,0:0:0:0:
192,192,13915,1,0,0:0:0:0:
448,192,14006,1,0,0:0:0:0:
192,192,14096,1,0,0:0:0:0:
320,192,14096,1,0,0:0:0:0:
64,192,14186,1,0,0:0:0:0:
448,192,14277,1,0,0:0:0:0:
192,192,14367,1,0,0:0:0:0:
448,192,14457,1,0,0:0:0:0:
320,192,14457,1,0,0:0:0:0:
192,192,14548,1,0,0:0:0:0:
64,192,14638,1,0,0:0:0:0:
448,192,14728,1,0,0:0:0:0:
320,192,14819,1,0,0:0:0:0:
192,192,14819,1,0,0:0:0:0:
64,192,14909,1,0,0:0:0:0:
192,192,14999,1,0,0:0:0:0:
320,192,15090,1,0,0:0:0:0:
192,192,15180,1,0,0:0:0:0:
448,192,15180,1,0,0:0:0:0:
64,192,15271,1,0,0:0:0:0:
192,192,15361,1,0,0:0:0:0:
448,192,15451,1,0,0:0:0:0:
64,192,15542,1,0,0:0:0:0:
192,192,15542,1,0,0:0:0:0:
320,192,15632,1,0,0:0:0:0:
64,192,15722,1,0,0:0:0:0:
448,192,15813,1,0,0:0:0:0:
320,192,15903,1,0,0:0:0:0:
192,192,15903,1,0,0:0:0:0:
64,192,15993,1,0,0:0:0:0:
320,192,16084,1,0,0:0:0:0:
192,192,16174,1,0,0:0:0:0:
64,192,16265,1,0,0:0:0:0:
448,192,16265,1,0,0:0:0:0:
192,192,16355,1,0,0:0:0:0:
320,192,16445,1,0,0:0:0:0:
448,192,16536,1,0,0:0:0:0:
320,192,16626,1,0,0:0:0:0:
192,192,16626,1,0,0:0:0:0:
64,192,16716,1,0,0:0:0:0:
448,192,16807,1,0,0:0:0:0:
320,192,16897,1,0,0:0:0:0:
64,192,16927,1,0,0:0:0:0:
192,192,16987,1,0,0:0:0:0:
320,192,17048,1,0,0:0:0:0:
448,192,17108,1,0,0:0:0:0:
64,192,17168,1,0,0:0:0:0:
192,192,17228,1,0,0:0:0:0:
320,192,17289,1,0,0:0:0:0:
448,192,17349,1,0,0:0:0:0:
64,192,17349,1,0,0:0:0:0:
192,192,17439,1,0,0:0:0:0:
320,192,17530,1,0,0:0:0:0:
192,192,17620,1,0,0:0:0:0:
448,192,17710,1,0,0:0:0:0:
64,192,17710,1,0,0:0:0:0:
320,192,17801,1,0,0:0:0:0:
192,192,17891,1,0,0:0:0:0:
320,192,17981,1,0,0:0:0:0:
192,192,18072,1,0,0:0:0:0:
64,192,18072,1,0,0:0:0:0:
320,192,18162,1,0,0:0:0:0:
448,192,18162,1,0,0:0:0:0:
192,192,18253,1,0,0:0:0:0:
64,192,18253,1,0,0:0:0:0:
320,192,18343,1,0,0:0:0:0:
448,192,18343,1,0,0:0:0:0:
192,192,18433,1,0,0:0:0:0:
64,192,18433,1,0,0:0:0:0:
320,192,18524,1,0,0:0:0:0:
448,192,18524,1,0,0:0:0:0:
192,192,18614,1,0,0:0:0:0:
64,192,18614,1,0,0:0:0:0:
320,192,18704,1,0,0:0:0:0:
448,192,18704,1,0,0:0:0:0:
192,192,18795,1,0,0:0:0:0:
64,192,18795,1,0,0:0:0:0:
320,192,18885,1,0,0:0:0:0:
448,192,18975,1,0,0:0:0:0:
320,192,19066,1,0,0:0:0:0:
192,192,19156,1,0,0:0:0:0:
448,192,19156,1,0,0:0:0:0:
64,192,19246,1,0,0:0:0:0:
320,192,19337,1,0,0:0:0:0:
192,192,19427,1,0,0:0:0:0:
64,192,19518,1,0,0:0:0:0:
448,192,19518,1,0,0:0:0:0:
320,192,19608,1,0,0:0:0:0:
192,192,19698,1,0,0:0:0:0:
64,192,19789,1,0,0:0:0:0:
192,192,19879,1,0,0:0:0:0:
448,192,19879,1,0,0:0:0:0:
320,192,19969,1,0,0:0:0:0:
64,192,19969,1,0,0:0:0:0:
192,192,20060,1,0,0:0:0:0:
448,192,20060,1,0,0:0:0:0:
320,192,20150,1,0,0:0:0:0:
64,192,20150,1,0,0:0:0:0:
192,192,20240,1,0,0:0:0:0:
448,192,20240,1,0,0:0:0:0:
320,192,20331,1,0,0:0:0:0:
448,192,20421,1,0,0:0:0:0:
320,192,20512,1,0,0:0:0:0:
192,192,20602,1,0,0:0:0:0:
64,192,20602,1,0,0:0:0:0:
320,192,20692,1,0,0:0:0:0:
448,192,20783,1,0,0:0:0:0:
64,192,20873,1,0,0:0:0:0:
192,192,20963,1,0,0:0:0:0:
320,192,20963,1,0,0:0:0:0:
448,192,21054,1,0,0:0:0:0:
64,192,21054,1,0,0:0:0:0:
192,192,21144,1,0,0:0:0:0:
320,192,21144,1,0,0:0:0:0:
64,192,21234,1,0,0:0:0:0:
448,192,21234,1,0,0:0:0:0:
320,192,21325,1,0,0:0:0:0:
192,192,21325,1,0,0:0:0:0:
64,192,21415,1,0,0:0:0:0:
448,192,21415,1,0,0:0:0:0:
320,192,21506,1,0,0:0:0:0:
192,192,21506,1,0,0:0:0:0:
64,192,21596,1,0,0:0:0:0:
448,192,21596,1,0,0:0:0:0:
320,192,21686,1,0,0:0:0:0:
192,192,21686,1,0,0:0:0:0:
448,192,21777,1,0,0:0:0:0:
320,192,21867,1,0,0:0:0:0:
192,192,21957,1,0,0:0:0:0:
64,192,22048,1,0,0:0:0:0:
320,192,22048,1,0,0:0:0:0:
448,192,22138,1,0,0:0:0:0:
320,192,22228,1,0,0:0:0:0:
192,192,22319,1,0,0:0:0:0:
320,192,22409,128,0,22771:0:0:0:0:
64,192,22771,1,0,0:0:0:0:
192,192,22831,1,0,0:0:0:0:
448,192,22891,1,0,0:0:0:0:
320,192,22951,1,0,0:0:0:0:
64,192,23012,1,0,0:0:0:0:
192,192,23072,1,0,0:0:0:0:
320,192,23132,1,0,0:0:0:0:
448,192,23132,1,0,0:0:0:0:
192,192,23222,1,0,0:0:0:0:
64,192,23313,1,0,0:0:0:0:
320,192,23313,1,0,0:0:0:0:
448,192,23403,1,0,0:0:0:0:
320,192,23493,1,0,0:0:0:0:
192,192,23493,1,0,0:0:0:0:
64,192,23584,1,0,0:0:0:0:
448,192,23674,1,0,0:0:0:0:
320,192,23674,1,0,0:0:0:0:
192,192,23765,1,0,0:0:0:0:
64,192,23855,1,0,0:0:0:0:
320,192,23855,1,0,0:0:0:0:
448,192,23945,1,0,0:0:0:0:
192,192,24036,1,0,0:0:0:0:
64,192,24036,1,0,0:0:0:0:
320,192,24126,1,0,0:0:0:0:
64,192,24216,1,0,0:0:0:0:
448,192,24216,1,0,0:0:0:0:
320,192,24307,1,0,0:0:0:0:
448,192,24397,1,0,0:0:0:0:
192,192,24397,1,0,0:0:0:0:
64,192,24487,1,0,0:0:0:0:
192,192,24578,1,0,0:0:0:0:
320,192,24578,1,0,0:0:0:0:
448,192,24668,1,0,0:0:0:0:
64,192,24759,1,0,0:0:0:0:
320,192,24759,1,0,0:0:0:0:
192,192,24849,1,0,0:0:0:0:
320,192,24939,1,0,0:0:0:0:
448,192,24939,1,0,0:0:0:0:
192,192,25030,1,0,0:0:0:0:
64,192,25120,1,0,0:0:0:0:
448,192,25120,1,0,0:0:0:0:
320,192,25210,1,0,0:0:0:0:
192,192,25301,1,0,0:0:0:0:
448,192,25301,1,0,0:0:0:0:
64,192,25391,1,0,0:0:0:0:
448,192,25481,1,0,0:0:0:0:
320,192,25481,1,0,0:0:0:0:
192,192,25572,1,0,0:0:0:0:
64,192,25662,1,0,0:0:0:0:
320,192,25662,1,0,0:0:0:0:
448,192,25753,1,0,0:0:0:0:
192,192,25843,1,0,0:0:0:0:
320,192,25843,1,0,0:0:0:0:
64,192,25933,1,0,0:0:0:0:
448,192,26024,1,0,0:0:0:0:
192,192,26024,1,0,0:0:0:0:
320,192,26114,1,0,0:0:0:0:
192,192,26204,1,0,0:0:0:0:
64,192,26204,1,0,0:0:0:0:
320,192,26295,1,0,0:0:0:0:
448,192,26385,1,0,0:0:0:0:
64,192,26385,1,0,0:0:0:0:
192,192,26475,1,0,0:0:0:0:
320,192,26566,1,0,0:0:0:0:
64,192,26566,1,0,0:0:0:0:
448,192,26656,1,0,0:0:0:0:
320,192,26746,1,0,0:0:0:0:
192,192,26746,1,0,0:0:0:0:
64,192,26837,1,0,0:0:0:0:
448,192,26927,1,0,0:0:0:0:
320,192,26927,1,0,0:0:0:0:
192,192,27018,1,0,0:0:0:0:
64,192,27108,1,0,0:0:0:0:
448,192,27108,1,0,0:0:0:0:
320,192,27198,1,0,0:0:0:0:
192,192,27289,1,0,0:0:0:0:
64,192,27289,1,0,0:0:0:0:
320,192,27379,1,0,0:0:0:0:
448,192,27469,128,0,27650:0:0:0:0:
192,192,27650,128,0,27831:0:0:0:0:
320,192,27831,128,0,28192:0:0:0:0:
64,192,28192,128,0,28283:0:0:0:0:
192,192,28192,128,0,28283:0:0:0:0:
448,192,28283,128,0,28373:0:0:0:0:
320,192,28283,128,0,28373:0:0:0:0:
192,192,28373,128,0,28463:0:0:0:0:
64,192,28373,128,0,28463:0:0:0:0:
320,192,28463,128,0,28554:0:0:0:0:
448,192,28463,128,0,28554:0:0:0:0:
192,192,28554,1,0,0:0:0:0:
64,192,28614,1,0,0:0:0:0:
448,192,28674,1,0,0:0:0:0:
320,192,28734,1,0,0:0:0:0:
192,192,28795,1,0,0:0:0:0:
64,192,28855,1,0,0:0:0:0:
448,192,28915,1,0,0:0:0:0:
320,192,29006,1,0,0:0:0:0:
192,192,29096,1,0,0:0:0:0:
448,192,29096,1,0,0:0:0:0:
64,192,29186,1,0,0:0:0:0:
192,192,29277,1,0,0:0:0:0:
320,192,29277,1,0,0:0:0:0:
448,192,29367,1,0,0:0:0:0:
320,192,29457,1,0,0:0:0:0:
64,192,29457,1,0,0:0:0:0:
192,192,29548,1,0,0:0:0:0:
64,192,29638,1,0,0:0:0:0:
448,192,29638,1,0,0:0:0:0:
320,192,29728,1,0,0:0:0:0:
192,192,29728,1,0,0:0:0:0:
64,192,29819,1,0,0:0:0:0:
448,192,29819,1,0,0:0:0:0:
320,192,29909,1,0,0:0:0:0:
192,192,29909,1,0,0:0:0:0:
64,192,29999,1,0,0:0:0:0:
448,192,29999,1,0,0:0:0:0:
320,192,30090,1,0,0:0:0:0:
192,192,30090,1,0,0:0:0:0:
64,192,30180,1,0,0:0:0:0:
448,192,30180,1,0,0:0:0:0:
320,192,30271,1,0,0:0:0:0:
192,192,30271,1,0,0:0:0:0:
64,192,30361,1,0,0:0:0:0:
448,192,30361,1,0,0:0:0:0:
320,192,30451,1,0,0:0:0:0:
192,192,30542,1,0,0:0:0:0:
64,192,30542,1,0,0:0:0:0:
320,192,30632,1,0,0:0:0:0:
192,192,30722,1,0,0:0:0:0:
448,192,30722,1,0,0:0:0:0:
64,192,30813,1,0,0:0:0:0:
192,192,30903,1,0,0:0:0:0:
320,192,30903,1,0,0:0:0:0:
448,192,30993,1,0,0:0:0:0:
192,192,31084,1,0,0:0:0:0:
320,192,31084,1,0,0:0:0:0:
64,192,31174,1,0,0:0:0:0:
448,192,31265,1,0,0:0:0:0:
320,192,31265,1,0,0:0:0:0:
192,192,31355,1,0,0:0:0:0:
64,192,31445,1,0,0:0:0:0:
320,192,31445,1,0,0:0:0:0:
448,192,31536,1,0,0:0:0:0:
192,192,31536,1,0,0:0:0:0:
320,192,31626,1,0,0:0:0:0:
64,192,31626,1,0,0:0:0:0:
192,192,31716,1,0,0:0:0:0:
448,192,31716,1,0,0:0:0:0:
320,192,31807,1,0,0:0:0:0:
64,192,31807,1,0,0:0:0:0:
448,192,31897,1,0,0:0:0:0:
320,192,31987,1,0,0:0:0:0:
192,192,31987,1,0,0:0:0:0:
64,192,32078,1,0,0:0:0:0:
448,192,32168,1,0,0:0:0:0:
192,192,32168,1,0,0:0:0:0:
320,192,32259,1,0,0:0:0:0:
192,192,32349,1,0,0:0:0:0:
448,192,32349,1,0,0:0:0:0:
64,192,32439,1,0,0:0:0:0:
448,192,32530,1,0,0:0:0:0:
320,192,32530,1,0,0:0:0:0:
192,192,32620,1,0,0:0:0:0:
64,192,32620,1,0,0:0:0:0:
320,192,32710,1,0,0:0:0:0:
448,192,32710,1,0,0:0:0:0:
192,192,32801,1,0,0:0:0:0:
64,192,32801,1,0,0:0:0:0:
320,192,32891,1,0,0:0:0:0:
448,192,32891,1,0,0:0:0:0:
192,192,32981,1,0,0:0:0:0:
64,192,32981,1,0,0:0:0:0:
320,192,33072,1,0,0:0:0:0:
448,192,33072,1,0,0:0:0:0:
192,192,33162,1,0,0:0:0:0:
64,192,33162,1,0,0:0:0:0:
320,192,33253,1,0,0:0:0:0:
448,192,33253,1,0,0:0:0:0:
192,192,33343,1,0,0:0:0:0:
64,192,33433,1,0,0:0:0:0:
320,192,33433,1,0,0:0:0:0:
448,192,33524,1,0,0:0:0:0:
320,192,33614,1,0,0:0:0:0:
192,192,33614,1,0,0:0:0:0:
64,192,33704,1,0,0:0:0:0:
448,192,33795,1,0,0:0:0:0:
320,192,33795,1,0,0:0:0:0:
192,192,33885,1,0,0:0:0:0:
64,192,33975,128,0,34337:0:0:0:0:
448,192,34337,1,0,0:0:0:0:
320,192,34397,1,0,0:0:0:0:
192,192,34457,1,0,0:0:0:0:
64,192,34518,1,0,0:0:0:0:
448,192,34578,1,0,0:0:0:0:
320,192,34638,1,0,0:0:0:0:
192,192,34698,1,0,0:0:0:0:
64,192,34698,1,0,0:0:0:0:
320,192,34879,1,0,0:0:0:0:
448,192,34879,1,0,0:0:0:0:
192,192,35060,1,0,0:0:0:0:
448,192,35240,1,0,0:0:0:0:
64,192,35240,1,0,0:0:0:0:
64,192,35602,1,0,0:0:0:0:
448,192,35602,1,0,0:0:0:0:
192,192,35783,1,0,0:0:0:0:
320,192,35963,1,0,0:0:0:0:
192,192,35963,1,0,0:0:0:0:
448,192,36325,1,0,0:0:0:0:
320,192,36325,1,0,0:0:0:0:
192,192,36506,1,0,0:0:0:0:
320,192,36686,1,0,0:0:0:0:
64,192,36686,1,0,0:0:0:0:
192,192,37048,1,0,0:0:0:0:
320,192,37048,1,0,0:0:0:0:
448,192,37228,1,0,0:0:0:0:
320,192,37409,1,0,0:0:0:0:
64,192,37409,1,0,0:0:0:0:
192,192,37771,1,0,0:0:0:0:
320,192,37771,1,0,0:0:0:0:
448,192,37951,1,0,0:0:0:0:
64,192,38132,1,0,0:0:0:0:
192,192,38132,1,0,0:0:0:0:
448,192,38493,1,0,0:0:0:0:
320,192,38493,1,0,0:0:0:0:
192,192,38674,1,0,0:0:0:0:
192,192,38855,1,0,0:0:0:0:
64,192,38855,1,0,0:0:0:0:
448,192,39216,1,0,0:0:0:0:
192,192,39216,1,0,0:0:0:0:
192,192,39397,1,0,0:0:0:0:
64,192,39578,1,0,0:0:0:0:
448,192,39578,1,0,0:0:0:0:
320,192,39939,1,0,0:0:0:0:
64,192,39939,1,0,0:0:0:0:
448,192,40120,1,0,0:0:0:0:
320,192,40301,1,0,0:0:0:0:
448,192,40301,1,0,0:0:0:0:
64,192,40481,128,0,44819:0:0:0:0:
192,192,40662,1,0,0:0:0:0:
320,192,40662,1,0,0:0:0:0:
320,192,40843,1,0,0:0:0:0:
448,192,41024,1,0,0:0:0:0:
192,192,41024,1,0,0:0:0:0:
448,192,41385,1,0,0:0:0:0:
320,192,41385,1,0,0:0:0:0:
192,192,41566,1,0,0:0:0:0:
192,192,41746,1,0,0:0:0:0:
448,192,41746,1,0,0:0:0:0:
448,192,42108,1,0,0:0:0:0:
320,192,42108,1,0,0:0:0:0:
192,192,42289,1,0,0:0:0:0:
320,192,42469,1,0,0:0:0:0:
192,192,42469,1,0,0:0:0:0:
448,192,42831,1,0,0:0:0:0:
192,192,42831,1,0,0:0:0:0:
320,192,43012,1,0,0:0:0:0:
192,192,43192,1,0,0:0:0:0:
320,192,43192,1,0,0:0:0:0:
448,192,43554,1,0,0:0:0:0:
320,192,43554,1,0,0:0:0:0:
448,192,43734,1,0,0:0:0:0:
192,192,43915,1,0,0:0:0:0:
320,192,43915,1,0,0:0:0:0:
448,192,44277,1,0,0:0:0:0:
192,192,44277,1,0,0:0:0:0:
320,192,44457,1,0,0:0:0:0:
192,192,44638,1,0,0:0:0:0:
320,192,44638,1,0,0:0:0:0:
448,192,44819,1,0,0:0:0:0:
320,192,44909,1,0,0:0:0:0:
192,192,44999,128,0,45180:0:0:0:0:
64,192,45180,128,0,45361:0:0:0:0:
320,192,45361,128,0,45542:0:0:0:0:
448,192,45542,128,0,45903:0:0:0:0:
64,192,45903,1,0,0:0:0:0:
192,192,45963,1,0,0:0:0:0:
320,192,46024,1,0,0:0:0:0:
448,192,46084,1,0,0:0:0:0:
64,192,46144,1,0,0:0:0:0:
192,192,46204,1,0,0:0:0:0:
320,192,46265,1,0,0:0:0:0:
448,192,46265,1,0,0:0:0:0:
192,192,46355,1,0,0:0:0:0:
64,192,46445,1,0,0:0:0:0:
192,192,46536,1,0,0:0:0:0:
320,192,46626,1,0,0:0:0:0:
448,192,46626,1,0,0:0:0:0:
64,192,46626,1,0,0:0:0:0:
192,192,46716,1,0,0:0:0:0:
320,192,46807,1,0,0:0:0:0:
448,192,46897,1,0,0:0:0:0:
320,192,46987,1,0,0:0:0:0:
192,192,46987,1,0,0:0:0:0:
64,192,46987,1,0,0:0:0:0:
448,192,47078,1,0,0:0:0:0:
320,192,47168,1,0,0:0:0:0:
192,192,47259,1,0,0:0:0:0:
64,192,47349,1,0,0:0:0:0:
320,192,47349,1,0,0:0:0:0:
448,192,47349,1,0,0:0:0:0:
192,192,47439,1,0,0:0:0:0:
320,192,47530,1,0,0:0:0:0:
448,192,47620,1,0,0:0:0:0:
320,192,47710,1,0,0:0:0:0:
192,192,47710,1,0,0:0:0:0:
64,192,47710,1,0,0:0:0:0:
448,192,47801,1,0,0:0:0:0:
320,192,47891,1,0,0:0:0:0:
192,192,47981,1,0,0:0:0:0:
64,192,48072,1,0,0:0:0:0:
320,192,48072,1,0,0:0:0:0:
448,192,48072,1,0,0:0:0:0:
192,192,48162,1,0,0:0:0:0:
320,192,48253,1,0,0:0:0:0:
192,192,48343,1,0,0:0:0:0:
320,192,48433,1,0,0:0:0:0:
64,192,48433,1,0,0:0:0:0:
448,192,48433,1,0,0:0:0:0:
192,192,48524,1,0,0:0:0:0:
64,192,48614,1,0,0:0:0:0:
448,192,48704,1,0,0:0:0:0:
320,192,48795,1,0,0:0:0:0:
192,192,48795,1,0,0:0:0:0:
64,192,48795,1,0,0:0:0:0:
448,192,48885,1,0,0:0:0:0:
64,192,48975,1,0,0:0:0:0:
192,192,49066,1,0,0:0:0:0:
320,192,49156,1,0,0:0:0:0:
448,192,49156,1,0,0:0:0:0:
64,192,49156,1,0,0:0:0:0:
192,192,49246,1,0,0:0:0:0:
320,192,49337,1,0,0:0:0:0:
192,192,49427,1,0,0:0:0:0:
320,192,49518,1,0,0:0:0:0:
448,192,49518,1,0,0:0:0:0:
64,192,49518,1,0,0:0:0:0:
192,192,49608,1,0,0:0:0:0:
320,192,49698,1,0,0:0:0:0:
448,192,49789,1,0,0:0:0:0:
320,192,49879,1,0,0:0:0:0:
192,192,49879,1,0,0:0:0:0:
64,192,49879,1,0,0:0:0:0:
448,192,49969,1,0,0:0:0:0:
192,192,50060,1,0,0:0:0:0:
320,192,50150,1,0,0:0:0:0:
448,192,50240,1,0,0:0:0:0:
192,192,50240,1,0,0:0:0:0:
64,192,50240,1,0,0:0:0:0:
320,192,50331,1,0,0:0:0:0:
192,192,50421,1,0,0:0:0:0:
448,192,50512,1,0,0:0:0:0:
320,192,50602,1,0,0:0:0:0:
192,192,50602,1,0,0:0:0:0:
64,192,50602,1,0,0:0:0:0:
448,192,50692,1,0,0:0:0:0:
320,192,50783,1,0,0:0:0:0:
192,192,50873,1,0,0:0:0:0:
64,192,50963,1,0,0:0:0:0:
320,192,50963,1,0,0:0:0:0:
448,192,50963,1,0,0:0:0:0:
192,192,51054,1,0,0:0:0:0:
448,192,51144,1,0,0:0:0:0:
320,192,51234,1,0,0:0:0:0:
192,192,51325,1,0,0:0:0:0:
64,192,51325,1,0,0:0:0:0:
448,192,51325,1,0,0:0:0:0:
320,192,51415,1,0,0:0:0:0:
192,192,51506,1,0,0:0:0:0:
448,192,51596,1,0,0:0:0:0:
320,192,51686,1,0,0:0:0:0:
192,192,51686,1,0,0:0:0:0:
64,192,51686,1,0,0:0:0:0:
448,192,51777,1,0,0:0:0:0:
64,192,51867,1,0,0:0:0:0:
192,192,51957,1,0,0:0:0:0:
320,192,52048,1,0,0:0:0:0:
448,192,52048,1,0,0:0:0:0:
64,192,52048,1,0,0:0:0:0:
192,192,52138,1,0,0:0:0:0:
320,192,52228,1,0,0:0:0:0:
448,192,52319,1,0,0:0:0:0:
64,192,52409,1,0,0:0:0:0:
192,192,52409,1,0,0:0:0:0:
320,192,52409,1,0,0:0:0:0:
448,192,52499,1,0,0:0:0:0:
320,192,52590,1,0,0:0:0:0:
64,192,52680,1,0,0:0:0:0:
192,192,52771,1,0,0:0:0:0:
320,192,52771,1,0,0:0:0:0:
448,192,52771,1,0,0:0:0:0:
64,192,52861,1,0,0:0:0:0:
192,192,52951,1,0,0:0:0:0:
320,192,53042,1,0,0:0:0:0:
192,192,53132,1,0,0:0:0:0:
64,192,53132,1,0,0:0:0:0:
448,192,53132,1,0,0:0:0:0:
320,192,53222,1,0,0:0:0:0:
64,192,53313,1,0,0:0:0:0:
192,192,53403,1,0,0:0:0:0:
320,192,53493,1,0,0:0:0:0:
448,192,53493,1,0,0:0:0:0:
64,192,53493,1,0,0:0:0:0:
192,192,53584,1,0,0:0:0:0:
448,192,53674,1,0,0:0:0:0:
320,192,53765,1,0,0:0:0:0:
192,192,53855,1,0,0:0:0:0:
448,192,53855,1,0,0:0:0:0:
64,192,53855,1,0,0:0:0:0:
320,192,53945,1,0,0:0:0:0:
192,192,54036,1,0,0:0:0:0:
64,192,54126,1,0,0:0:0:0:
192,192,54216,1,0,0:0:0:0:
320,192,54216,1,0,0:0:0:0:
448,192,54216,1,0,0:0:0:0:
64,192,54307,1,0,0:0:0:0:
320,192,54397,1,0,0:0:0:0:
448,192,54487,1,0,0:0:0:0:
320,192,54578,1,0,0:0:0:0:
192,192,54578,1,0,0:0:0:0:
64,192,54578,1,0,0:0:0:0:
448,192,54668,1,0,0:0:0:0:
320,192,54759,1,0,0:0:0:0:
64,192,54849,1,0,0:0:0:0:
192,192,54939,1,0,0:0:0:0:
448,192,54939,1,0,0:0:0:0:
320,192,54939,1,0,0:0:0:0:
64,192,55030,1,0,0:0:0:0:
192,192,55120,1,0,0:0:0:0:
320,192,55210,1,0,0:0:0:0:
192,192,55301,1,0,0:0:0:0:
64,192,55301,1,0,0:0:0:0:
448,192,55301,1,0,0:0:0:0:
320,192,55391,1,0,0:0:0:0:
192,192,55481,1,0,0:0:0:0:
64,192,55572,1,0,0:0:0:0:
320,192,55662,1,0,0:0:0:0:
192,192,55662,1,0,0:0:0:0:
448,192,55662,1,0,0:0:0:0:
64,192,55753,1,0,0:0:0:0:
192,192,55843,1,0,0:0:0:0:
320,192,55933,1,0,0:0:0:0:
192,192,56024,1,0,0:0:0:0:
64,192,56024,1,0,0:0:0:0:
448,192,56024,1,0,0:0:0:0:
320,192,56114,1,0,0:0:0:0:
192,192,56204,1,0,0:0:0:0:
320,192,56295,1,0,0:0:0:0:
448,192,56385,1,0,0:0:0:0:
192,192,56385,1,0,0:0:0:0:
64,192,56385,1,0,0:0:0:0:
320,192,56475,1,0,0:0:0:0:
192,192,56566,1,0,0:0:0:0:
64,192,56656,1,0,0:0:0:0:
192,192,56746,1,0,0:0:0:0:
320,192,56746,1,0,0:0:0:0:
448,192,56746,1,0,0:0:0:0:
64,192,56837,1,0,0:0:0:0:
192,192,56927,1,0,0:0:0:0:
448,192,57018,1,0,0:0:0:0:
320,192,57108,1,0,0:0:0:0:
192,192,57108,1,0,0:0:0:0:
64,192,57108,1,0,0:0:0:0:
448,192,57198,1,0,0:0:0:0:
320,192,57289,1,0,0:0:0:0:
192,192,57379,1,0,0:0:0:0:
320,192,57469,1,0,0:0:0:0:
448,192,57469,1,0,0:0:0:0:
64,192,57469,1,0,0:0:0:0:
192,192,57560,1,0,0:0:0:0:
320,192,57650,1,0,0:0:0:0:
64,192,57740,1,0,0:0:0:0:
192,192,57831,1,0,0:0:0:0:
320,192,57831,1,0,0:0:0:0:
448,192,57831,1,0,0:0:0:0:
64,192,57921,1,0,0:0:0:0:
192,192,58012,1,0,0:0:0:0:
320,192,58102,1,0,0:0:0:0:
192,192,58192,1,0,0:0:0:0:
64,192,58192,1,0,0:0:0:0:
448,192,58192,1,0,0:0:0:0:
320,192,58283,1,0,0:0:0:0:
192,192,58373,1,0,0:0:0:0:
320,192,58463,1,0,0:0:0:0:
64,192,58554,1,0,0:0:0:0:
192,192,58554,1,0,0:0:0:0:
448,192,58554,1,0,0:0:0:0:
320,192,58644,1,0,0:0:0:0:
192,192,58734,1,0,0:0:0:0:
448,192,58825,1,0,0:0:0:0:
320,192,58915,1,0,0:0:0:0:
192,192,58915,1,0,0:0:0:0:
64,192,58915,1,0,0:0:0:0:
448,192,59006,1,0,0:0:0:0:
320,192,59096,1,0,0:0:0:0:
192,192,59186,1,0,0:0:0:0:
64,192,59277,1,0,0:0:0:0:
320,192,59277,1,0,0:0:0:0:
448,192,59277,1,0,0:0:0:0:
192,192,59367,1,0,0:0:0:0:
64,192,59457,1,0,0:0:0:0:
448,192,59548,1,0,0:0:0:0:
320,192,59638,1,0,0:0:0:0:
192,192,59638,1,0,0:0:0:0:
64,192,59638,1,0,0:0:0:0:
448,192,59728,1,0,0:0:0:0:
320,192,59819,1,0,0:0:0:0:
192,192,59909,1,0,0:0:0:0:
64,192,59999,1,0,0:0:0:0:
320,192,59999,1,0,0:0:0:0:
448,192,59999,1,0,0:0:0:0:
192,192,60090,1,0,0:0:0:0:
320,192,60180,1,0,0:0:0:0:
192,192,60271,1,0,0:0:0:0:
320,192,60361,1,0,0:0:0:0:
448,192,60361,1,0,0:0:0:0:
64,192,60361,1,0,0:0:0:0:
192,192,60451,1,0,0:0:0:0:
320,192,60542,1,0,0:0:0:0:
448,192,60632,1,0,0:0:0:0:
320,192,60722,1,0,0:0:0:0:
192,192,60722,1,0,0:0:0:0:
64,192,60722,1,0,0:0:0:0:
448,192,60813,1,0,0:0:0:0:
320,192,60903,1,0,0:0:0:0:
64,192,60993,1,0,0:0:0:0:
192,192,61084,1,0,0:0:0:0:
320,192,61084,1,0,0:0:0:0:
448,192,61084,1,0,0:0:0:0:
64,192,61174,1,0,0:0:0:0:
192,192,61265,1,0,0:0:0:0:
320,192,61355,1,0,0:0:0:0:
192,192,61445,1,0,0:0:0:0:
64,192,61445,1,0,0:0:0:0:
448,192,61445,1,0,0:0:0:0:
320,192,61536,1,0,0:0:0:0:
192,192,61626,1,0,0:0:0:0:
64,192,61716,1,0,0:0:0:0:
192,192,61807,1,0,0:0:0:0:
448,192,61807,1,0,0:0:0:0:
320,192,61807,1,0,0:0:0:0:
64,192,61897,1,0,0:0:0:0:
192,192,61987,1,0,0:0:0:0:
320,192,62078,1,0,0:0:0:0:
192,192,62168,1,0,0:0:0:0:
64,192,62168,1,0,0:0:0:0:
448,192,62168,1,0,0:0:0:0:
320,192,62259,1,0,0:0:0:0:
192,192,62349,1,0,0:0:0:0:
448,192,62439,1,0,0:0:0:0:
320,192,62530,1,0,0:0:0:0:
192,192,62530,1,0,0:0:0:0:
64,192,62530,1,0,0:0:0:0:
448,192,62620,1,0,0:0:0:0:
64,192,62710,1,0,0:0:0:0:
192,192,62801,1,0,0:0:0:0:
320,192,62891,1,0,0:0:0:0:
448,192,62891,1,0,0:0:0:0:
64,192,62891,1,0,0:0:0:0:
192,192,62981,1,0,0:0:0:0:
320,192,63072,1,0,0:0:0:0:
192,192,63162,1,0,0:0:0:0:
448,192,63253,1,0,0:0:0:0:
64,192,63253,1,0,0:0:0:0:
320,192,63253,1,0,0:0:0:0:
192,192,63343,1,0,0:0:0:0:
64,192,63433,1,0,0:0:0:0:
320,192,63524,1,0,0:0:0:0:
64,192,63614,1,0,0:0:0:0:
192,192,63614,1,0,0:0:0:0:
448,192,63614,128,0,63795:0:0:0:0:
320,192,63795,128,0,63975:0:0:0:0:
64,192,63975,128,0,64156:0:0:0:0:
192,192,63975,1,0,0:0:0:0:
320,192,64156,128,0,64337:0:0:0:0:
192,192,64337,128,0,64518:0:0:0:0:
448,192,64337,1,0,0:0:0:0:
448,192,64518,128,0,64698:0:0:0:0:
64,192,64698,128,0,64879:0:0:0:0:
320,192,64698,1,0,0:0:0:0:
192,192,64879,128,0,65060:0:0:0:0:
448,192,65060,1,0,0:0:0:0:
448,192,65240,128,0,65421:0:0:0:0:
192,192,65421,128,0,65602:0:0:0:0:
320,192,65421,1,0,0:0:0:0:
64,192,65602,128,0,65783:0:0:0:0:
320,192,65783,128,0,65963:0:0:0:0:
448,192,65783,1,0,0:0:0:0:
192,192,65963,128,0,66144:0:0:0:0:
448,192,66144,128,0,66325:0:0:0:0:
64,192,66144,1,0,0:0:0:0:
320,192,66325,128,0,66506:0:0:0:0:
192,192,66506,1,0,0:0:0:0:
448,192,66686,128,0,66867:0:0:0:0:
192,192,66867,128,0,67048:0:0:0:0:
320,192,66867,1,0,0:0:0:0:
320,192,67048,128,0,67228:0:0:0:0:
64,192,67228,128,0,67409:0:0:0:0:
192,192,67228,1,0,0:0:0:0:
320,192,67409,128,0,67590:0:0:0:0:
448,192,67590,128,0,67771:0:0:0:0:
64,192,67590,1,0,0:0:0:0:
320,192,67771,128,0,67951:0:0:0:0:
448,192,67951,1,0,0:0:0:0:
64,192,67951,1,0,0:0:0:0:
320,192,68313,1,0,0:0:0:0:
192,192,68674,1,0,0:0:0:0:
448,192,69036,1,0,0:0:0:0:
64,192,69397,1,0,0:0:0:0:
192,192,69487,1,0,0:0:0:0:
448,192,69578,1,0,0:0:0:0:
320,192,69668,1,0,0:0:0:0:
192,192,69759,1,0,0:0:0:0:
64,192,69849,1,0,0:0:0:0:
448,192,69939,1,0,0:0:0:0:
320,192,70030,1,0,0:0:0:0:
192,192,70120,1,0,0:0:0:0:
64,192,70210,1,0,0:0:0:0:
192,192,70301,1,0,0:0:0:0:
320,192,70391,1,0,0:0:0:0:
448,192,70481,1,0,0:0:0:0:
64,192,70572,1,0,0:0:0:0:
192,192,70662,1,0,0:0:0:0:
320,192,70753,1,0,0:0:0:0:
192,192,70843,1,0,0:0:0:0:
64,192,70933,1,0,0:0:0:0:
448,192,71024,1,0,0:0:0:0:
320,192,71114,1,0,0:0:0:0:
192,192,71204,1,0,0:0:0:0:
64,192,71295,1,0,0:0:0:0:
320,192,71385,1,0,0:0:0:0:
192,192,71475,1,0,0:0:0:0:
320,192,71566,1,0,0:0:0:0:
448,192,71656,1,0,0:0:0:0:
320,192,71746,1,0,0:0:0:0:
192,192,71837,1,0,0:0:0:0:
64,192,71927,1,0,0:0:0:0:
448,192,72018,1,0,0:0:0:0:
320,192,72108,1,0,0:0:0:0:
192,192,72198,1,0,0:0:0:0:
64,192,72289,1,0,0:0:0:0:
320,192,72289,1,0,0:0:0:0:
448,192,72379,1,0,0:0:0:0:
320,192,72469,1,0,0:0:0:0:
192,192,72469,1,0,0:0:0:0:
64,192,72560,1,0,0:0:0:0:
448,192,72650,1,0,0:0:0:0:
320,192,72650,1,0,0:0:0:0:
192,192,72740,1,0,0:0:0:0:
64,192,72831,1,0,0:0:0:0:
320,192,72831,1,0,0:0:0:0:
448,192,72921,1,0,0:0:0:0:
64,192,73012,1,0,0:0:0:0:
192,192,73012,1,0,0:0:0:0:
320,192,73102,1,0,0:0:0:0:
448,192,73192,1,0,0:0:0:0:
192,192,73192,1,0,0:0:0:0:
64,192,73283,1,0,0:0:0:0:
320,192,73373,1,0,0:0:0:0:
448,192,73373,1,0,0:0:0:0:
192,192,73463,1,0,0:0:0:0:
64,192,73554,1,0,0:0:0:0:
448,192,73554,1,0,0:0:0:0:
320,192,73644,1,0,0:0:0:0:
192,192,73734,1,0,0:0:0:0:
448,192,73734,1,0,0:0:0:0:
64,192,73825,1,0,0:0:0:0:
192,192,73915,1,0,0:0:0:0:
320,192,73915,1,0,0:0:0:0:
448,192,74006,1,0,0:0:0:0:
64,192,74096,1,0,0:0:0:0:
192,192,74096,1,0,0:0:0:0:
320,192,74186,1,0,0:0:0:0:
448,192,74277,1,0,0:0:0:0:
192,192,74277,1,0,0:0:0:0:
64,192,74367,1,0,0:0:0:0:
448,192,74457,1,0,0:0:0:0:
320,192,74457,1,0,0:0:0:0:
192,192,74548,1,0,0:0:0:0:
64,192,74638,1,0,0:0:0:0:
320,192,74638,1,0,0:0:0:0:
448,192,74728,1,0,0:0:0:0:
64,192,74819,1,0,0:0:0:0:
192,192,74819,1,0,0:0:0:0:
320,192,74909,1,0,0:0:0:0:
192,192,74999,1,0,0:0:0:0:
448,192,74999,1,0,0:0:0:0:
64,192,75090,1,0,0:0:0:0:
320,192,75180,1,0,0:0:0:0:
192,192,75180,1,0,0:0:0:0:
448,192,75180,1,0,0:0:0:0:
64,192,75271,1,0,0:0:0:0:
192,192,75361,1,0,0:0:0:0:
320,192,75361,1,0,0:0:0:0:
448,192,75451,1,0,0:0:0:0:
320,192,75542,1,0,0:0:0:0:
192,192,75542,1,0,0:0:0:0:
64,192,75542,1,0,0:0:0:0:
448,192,75632,1,0,0:0:0:0:
320,192,75722,1,0,0:0:0:0:
64,192,75722,1,0,0:0:0:0:
192,192,75813,1,0,0:0:0:0:
320,192,75903,1,0,0:0:0:0:
448,192,75903,1,0,0:0:0:0:
64,192,75903,1,0,0:0:0:0:
192,192,75993,1,0,0:0:0:0:
320,192,76084,1,0,0:0:0:0:
448,192,76084,1,0,0:0:0:0:
192,192,76174,1,0,0:0:0:0:
64,192,76265,1,0,0:0:0:0:
320,192,76265,1,0,0:0:0:0:
448,192,76265,1,0,0:0:0:0:
192,192,76355,1,0,0:0:0:0:
448,192,76445,1,0,0:0:0:0:
64,192,76445,1,0,0:0:0:0:
320,192,76536,1,0,0:0:0:0:
64,192,76626,1,0,0:0:0:0:
448,192,76626,1,0,0:0:0:0:
192,192,76626,1,0,0:0:0:0:
320,192,76716,1,0,0:0:0:0:
192,192,76807,1,0,0:0:0:0:
64,192,76807,1,0,0:0:0:0:
320,192,76897,1,0,0:0:0:0:
192,192,76987,1,0,0:0:0:0:
448,192,76987,1,0,0:0:0:0:
64,192,76987,1,0,0:0:0:0:
320,192,77078,1,0,0:0:0:0:
192,192,77168,1,0,0:0:0:0:
448,192,77168,1,0,0:0:0:0:
64,192,77259,1,0,0:0:0:0:
192,192,77349,1,0,0:0:0:0:
320,192,77349,1,0,0:0:0:0:
448,192,77349,1,0,0:0:0:0:
64,192,77439,1,0,0:0:0:0:
448,192,77530,5,0,0:0:0:0:
320,192,77530,1,0,0:0:0:0:
192,192,77620,1,0,0:0:0:0:
64,192,77710,1,0,0:0:0:0:
320,192,77710,1,0,0:0:0:0:
448,192,77710,1,0,0:0:0:0:
192,192,77801,1,0,0:0:0:0:
64,192,77891,1,0,0:0:0:0:
448,192,77891,1,0,0:0:0:0:
320,192,77981,1,0,0:0:0:0:
448,192,78072,5,0,0:0:0:0:
320,192,78132,1,0,0:0:0:0:
192,192,78192,1,0,0:0:0:0:
64,192,78253,1,0,0:0:0:0:
448,192,78313,1,0,0:0:0:0:
320,192,78373,1,0,0:0:0:0:
192,192,78433,1,0,0:0:0:0:
64,192,78493,1,0,0:0:0:0:
192,192,78554,1,0,0:0:0:0:
320,192,78614,1,0,0:0:0:0:
448,192,78674,1,0,0:0:0:0:
320,192,78734,1,0,0:0:0:0:
192,192,78795,1,0,0:0:0:0:
64,192,78855,1,0,0:0:0:0:
448,192,78915,1,0,0:0:0:0:
320,192,78975,1,0,0:0:0:0:
64,192,79036,1,0,0:0:0:0:
192,192,79096,1,0,0:0:0:0:
320,192,79156,1,0,0:0:0:0:
448,192,79216,1,0,0:0:0:0:
192,192,79277,1,0,0:0:0:0:
320,192,79337,1,0,0:0:0:0:
448,192,79397,1,0,0:0:0:0:
320,192,79457,1,0,0:0:0:0:
192,192,79518,1,0,0:0:0:0:
64,192,79578,1,0,0:0:0:0:
192,192,79638,1,0,0:0:0:0:
448,192,79698,1,0,0:0:0:0:
320,192,79759,1,0,0:0:0:0:
64,192,79819,1,0,0:0:0:0:
192,192,79879,1,0,0:0:0:0:
448,192,79939,1,0,0:0:0:0:
320,192,79999,1,0,0:0:0:0:
192,192,80060,1,0,0:0:0:0:
64,192,80120,1,0,0:0:0:0:
448,192,80180,1,0,0:0:0:0:
320,192,80240,1,0,0:0:0:0:
192,192,80301,1,0,0:0:0:0:
64,192,80361,1,0,0:0:0:0:
320,192,80421,1,0,0:0:0:0:
448,192,80481,1,0,0:0:0:0:
64,192,80542,1,0,0:0:0:0:
192,192,80602,1,0,0:0:0:0:
320,192,80662,1,0,0:0:0:0:
448,192,80722,1,0,0:0:0:0:
64,192,80783,1,0,0:0:0:0:
192,192,80843,1,0,0:0:0:0:
320,192,80903,1,0,0:0:0:0:
448,192,80963,1,0,0:0:0:0:
64,192,80963,1,0,0:0:0:0:
320,192,81054,1,0,0:0:0:0:
192,192,81144,1,0,0:0:0:0:
64,192,81234,1,0,0:0:0:0:
448,192,81325,128,0,81686:0:0:0:0:
192,192,81686,128,0,82048:0:0:0:0:
448,192,82048,1,0,0:0:0:0:
320,192,82108,1,0,0:0:0:0:
64,192,82168,1,0,0:0:0:0:
192,192,82228,1,0,0:0:0:0:
448,192,82289,1,0,0:0:0:0:
320,192,82349,1,0,0:0:0:0:
192,192,82409,1,0,0:0:0:0:
64,192,82409,1,0,0:0:0:0:
320,192,82499,1,0,0:0:0:0:
192,192,82590,1,0,0:0:0:0:
64,192,82680,1,0,0:0:0:0:
192,192,82771,1,0,0:0:0:0:
448,192,82771,1,0,0:0:0:0:
320,192,82861,1,0,0:0:0:0:
192,192,82951,1,0,0:0:0:0:
448,192,83042,1,0,0:0:0:0:
320,192,83132,1,0,0:0:0:0:
192,192,83132,1,0,0:0:0:0:
64,192,83222,1,0,0:0:0:0:
448,192,83313,1,0,0:0:0:0:
192,192,83403,1,0,0:0:0:0:
448,192,83493,1,0,0:0:0:0:
64,192,83493,1,0,0:0:0:0:
320,192,83584,1,0,0:0:0:0:
64,192,83674,1,0,0:0:0:0:
320,192,83765,1,0,0:0:0:0:
448,192,83855,1,0,0:0:0:0:
192,192,83855,1,0,0:0:0:0:
64,192,83945,1,0,0:0:0:0:
448,192,84036,1,0,0:0:0:0:
320,192,84126,1,0,0:0:0:0:
192,192,84216,1,0,0:0:0:0:
64,192,84216,1,0,0:0:0:0:
320,192,84307,1,0,0:0:0:0:
448,192,84397,1,0,0:0:0:0:
192,192,84487,1,0,0:0:0:0:
64,192,84578,1,0,0:0:0:0:
448,192,84578,1,0,0:0:0:0:
320,192,84668,1,0,0:0:0:0:
192,192,84759,1,0,0:0:0:0:
64,192,84849,1,0,0:0:0:0:
192,192,84939,1,0,0:0:0:0:
320,192,84939,1,0,0:0:0:0:
448,192,85030,1,0,0:0:0:0:
320,192,85120,1,0,0:0:0:0:
64,192,85210,1,0,0:0:0:0:
448,192,85301,1,0,0:0:0:0:
320,192,85301,1,0,0:0:0:0:
192,192,85391,1,0,0:0:0:0:
64,192,85481,1,0,0:0:0:0:
192,192,85572,1,0,0:0:0:0:
320,192,85662,1,0,0:0:0:0:
64,192,85662,1,0,0:0:0:0:
448,192,85753,1,0,0:0:0:0:
64,192,85843,1,0,0:0:0:0:
192,192,85933,1,0,0:0:0:0:
320,192,86024,1,0,0:0:0:0:
448,192,86024,1,0,0:0:0:0:
192,192,86114,1,0,0:0:0:0:
320,192,86204,1,0,0:0:0:0:
64,192,86295,1,0,0:0:0:0:
320,192,86385,1,0,0:0:0:0:
448,192,86385,1,0,0:0:0:0:
192,192,86475,1,0,0:0:0:0:
448,192,86566,1,0,0:0:0:0:
192,192,86656,1,0,0:0:0:0:
64,192,86746,1,0,0:0:0:0:
320,192,86746,1,0,0:0:0:0:
448,192,86837,1,0,0:0:0:0:
320,192,86927,1,0,0:0:0:0:
192,192,87018,1,0,0:0:0:0:
320,192,87108,1,0,0:0:0:0:
448,192,87108,1,0,0:0:0:0:
192,192,87198,1,0,0:0:0:0:
64,192,87289,1,0,0:0:0:0:
192,192,87379,1,0,0:0:0:0:
320,192,87469,1,0,0:0:0:0:
64,192,87469,1,0,0:0:0:0:
448,192,87560,1,0,0:0:0:0:
320,192,87650,1,0,0:0:0:0:
192,192,87740,1,0,0:0:0:0:
64,192,87831,1,0,0:0:0:0:
192,192,87891,1,0,0:0:0:0:
320,192,87951,1,0,0:0:0:0:
448,192,88012,1,0,0:0:0:0:
64,192,88072,1,0,0:0:0:0:
192,192,88132,1,0,0:0:0:0:
320,192,88192,1,0,0:0:0:0:
448,192,88192,1,0,0:0:0:0:
192,192,88283,1,0,0:0:0:0:
64,192,88373,1,0,0:0:0:0:
192,192,88463,1,0,0:0:0:0:
320,192,88554,1,0,0:0:0:0:
448,192,88554,1,0,0:0:0:0:
192,192,88644,1,0,0:0:0:0:
448,192,88734,1,0,0:0:0:0:
320,192,88825,1,0,0:0:0:0:
192,192,88915,1,0,0:0:0:0:
64,192,88915,1,0,0:0:0:0:
320,192,89006,1,0,0:0:0:0:
448,192,89006,1,0,0:0:0:0:
192,192,89096,1,0,0:0:0:0:
64,192,89096,1,0,0:0:0:0:
320,192,89186,1,0,0:0:0:0:
448,192,89186,1,0,0:0:0:0:
64,192,89277,1,0,0:0:0:0:
192,192,89277,1,0,0:0:0:0:
320,192,89367,1,0,0:0:0:0:
448,192,89367,1,0,0:0:0:0:
192,192,89457,1,0,0:0:0:0:
64,192,89457,1,0,0:0:0:0:
320,192,89548,1,0,0:0:0:0:
448,192,89548,1,0,0:0:0:0:
192,192,89638,1,0,0:0:0:0:
64,192,89638,1,0,0:0:0:0:
320,192,89728,1,0,0:0:0:0:
448,192,89819,1,0,0:0:0:0:
320,192,89909,1,0,0:0:0:0:
192,192,89999,1,0,0:0:0:0:
448,192,89999,1,0,0:0:0:0:
64,192,90090,1,0,0:0:0:0:
192,192,90180,1,0,0:0:0:0:
320,192,90271,1,0,0:0:0:0:
64,192,90361,1,0,0:0:0:0:
448,192,90361,1,0,0:0:0:0:
320,192,90451,1,0,0:0:0:0:
192,192,90542,1,0,0:0:0:0:
64,192,90632,1,0,0:0:0:0:
192,192,90722,1,0,0:0:0:0:
448,192,90722,1,0,0:0:0:0:
320,192,90813,1,0,0:0:0:0:
64,192,90813,1,0,0:0:0:0:
192,192,90903,1,0,0:0:0:0:
448,192,90903,1,0,0:0:0:0:
320,192,90993,1,0,0:0:0:0:
64,192,90993,1,0,0:0:0:0:
192,192,91084,1,0,0:0:0:0:
448,192,91084,1,0,0:0:0:0:
64,192,91174,1,0,0:0:0:0:
192,192,91265,1,0,0:0:0:0:
320,192,91355,1,0,0:0:0:0:
192,192,91445,1,0,0:0:0:0:
448,192,91445,1,0,0:0:0:0:
64,192,91536,1,0,0:0:0:0:
192,192,91626,1,0,0:0:0:0:
320,192,91716,1,0,0:0:0:0:
448,192,91807,1,0,0:0:0:0:
64,192,91807,1,0,0:0:0:0:
192,192,91897,1,0,0:0:0:0:
320,192,91897,1,0,0:0:0:0:
448,192,91987,1,0,0:0:0:0:
64,192,91987,1,0,0:0:0:0:
192,192,92078,1,0,0:0:0:0:
320,192,92078,1,0,0:0:0:0:
64,192,92168,1,0,0:0:0:0:
448,192,92168,1,0,0:0:0:0:
320,192,92259,1,0,0:0:0:0:
192,192,92259,1,0,0:0:0:0:
64,192,92349,1,0,0:0:0:0:
448,192,92349,1,0,0:0:0:0:
320,192,92439,1,0,0:0:0:0:
192,192,92439,1,0,0:0:0:0:
64,192,92530,1,0,0:0:0:0:
448,192,92530,1,0,0:0:0:0:
192,192,92620,1,0,0:0:0:0:
320,192,92710,1,0,0:0:0:0:
448,192,92801,1,0,0:0:0:0:
320,192,92891,1,0,0:0:0:0:
192,192,92891,1,0,0:0:0:0:
64,192,92981,1,0,0:0:0:0:
320,192,93072,1,0,0:0:0:0:
192,192,93162,1,0,0:0:0:0:
64,192,93253,1,0,0:0:0:0:
448,192,93253,128,0,93614:0:0:0:0:
64,192,93614,1,0,0:0:0:0:
192,192,93674,1,0,0:0:0:0:
448,192,93734,1,0,0:0:0:0:
320,192,93795,1,0,0:0:0:0:
64,192,93855,1,0,0:0:0:0:
192,192,93915,1,0,0:0:0:0:
320,192,93975,1,0,0:0:0:0:
448,192,93975,1,0,0:0:0:0:
64,192,93975,1,0,0:0:0:0:
192,192,94066,1,0,0:0:0:0:
320,192,94156,1,0,0:0:0:0:
64,192,94156,1,0,0:0:0:0:
448,192,94246,1,0,0:0:0:0:
192,192,94337,1,0,0:0:0:0:
64,192,94337,1,0,0:0:0:0:
320,192,94337,1,0,0:0:0:0:
448,192,94427,1,0,0:0:0:0:
320,192,94518,1,0,0:0:0:0:
192,192,94518,1,0,0:0:0:0:
64,192,94608,1,0,0:0:0:0:
320,192,94698,1,0,0:0:0:0:
192,192,94698,1,0,0:0:0:0:
448,192,94698,1,0,0:0:0:0:
64,192,94789,1,0,0:0:0:0:
448,192,94879,1,0,0:0:0:0:
192,192,94879,1,0,0:0:0:0:
320,192,94969,1,0,0:0:0:0:
192,192,95060,1,0,0:0:0:0:
64,192,95060,1,0,0:0:0:0:
448,192,95060,1,0,0:0:0:0:
320,192,95150,1,0,0:0:0:0:
64,192,95240,1,0,0:0:0:0:
192,192,95240,1,0,0:0:0:0:
320,192,95331,1,0,0:0:0:0:
192,192,95421,1,0,0:0:0:0:
64,192,95421,1,0,0:0:0:0:
448,192,95421,1,0,0:0:0:0:
320,192,95512,1,0,0:0:0:0:
448,192,95602,1,0,0:0:0:0:
192,192,95602,1,0,0:0:0:0:
64,192,95692,1,0,0:0:0:0:
192,192,95783,1,0,0:0:0:0:
320,192,95783,1,0,0:0:0:0:
448,192,95783,1,0,0:0:0:0:
64,192,95873,1,0,0:0:0:0:
320,192,95963,1,0,0:0:0:0:
192,192,95963,1,0,0:0:0:0:
448,192,96054,1,0,0:0:0:0:
320,192,96144,1,0,0:0:0:0:
64,192,96144,1,0,0:0:0:0:
192,192,96144,1,0,0:0:0:0:
448,192,96234,1,0,0:0:0:0:
320,192,96325,1,0,0:0:0:0:
64,192,96325,1,0,0:0:0:0:
192,192,96415,1,0,0:0:0:0:
320,192,96506,1,0,0:0:0:0:
64,192,96506,1,0,0:0:0:0:
448,192,96506,1,0,0:0:0:0:
192,192,96596,1,0,0:0:0:0:
448,192,96686,1,0,0:0:0:0:
64,192,96686,1,0,0:0:0:0:
320,192,96777,1,0,0:0:0:0:
64,192,96867,1,0,0:0:0:0:
448,192,96867,1,0,0:0:0:0:
192,192,96867,1,0,0:0:0:0:
320,192,96957,1,0,0:0:0:0:
192,192,97048,1,0,0:0:0:0:
448,192,97048,1,0,0:0:0:0:
64,192,97138,1,0,0:0:0:0:
192,192,97228,1,0,0:0:0:0:
320,192,97228,1,0,0:0:0:0:
448,192,97228,1,0,0:0:0:0:
64,192,97319,1,0,0:0:0:0:
192,192,97409,1,0,0:0:0:0:
320,192,97409,1,0,0:0:0:0:
448,192,97499,1,0,0:0:0:0:
320,192,97590,1,0,0:0:0:0:
192,192,97590,1,0,0:0:0:0:
64,192,97590,1,0,0:0:0:0:
448,192,97680,1,0,0:0:0:0:
64,192,97771,1,0,0:0:0:0:
320,192,97771,1,0,0:0:0:0:
192,192,97861,1,0,0:0:0:0:
320,192,97951,1,0,0:0:0:0:
448,192,97951,1,0,0:0:0:0:
64,192,97951,1,0,0:0:0:0:
192,192,98042,1,0,0:0:0:0:
448,192,98132,1,0,0:0:0:0:
64,192,98132,1,0,0:0:0:0:
320,192,98222,1,0,0:0:0:0:
64,192,98313,1,0,0:0:0:0:
192,192,98313,1,0,0:0:0:0:
448,192,98313,128,0,98493:0:0:0:0:
320,192,98493,128,0,98674:0:0:0:0:
64,192,98674,128,0,99036:0:0:0:0:
192,192,99036,128,0,99126:0:0:0:0:
448,192,99036,128,0,99126:0:0:0:0:
320,192,99126,128,0,99216:0:0:0:0:
64,192,99126,128,0,99216:0:0:0:0:
192,192,99216,128,0,99307:0:0:0:0:
448,192,99216,128,0,99307:0:0:0:0:
64,192,99307,128,0,99397:0:0:0:0:
320,192,99307,128,0,99397:0:0:0:0:
448,192,99397,1,0,0:0:0:0:
320,192,99457,1,0,0:0:0:0:
192,192,99518,1,0,0:0:0:0:
64,192,99578,1,0,0:0:0:0:
448,192,99638,1,0,0:0:0:0:
320,192,99698,1,0,0:0:0:0:
192,192,99759,1,0,0:0:0:0:
64,192,99759,1,0,0:0:0:0:
448,192,99759,1,0,0:0:0:0:
320,192,99849,1,0,0:0:0:0:
192,192,99939,1,0,0:0:0:0:
448,192,99939,1,0,0:0:0:0:
64,192,100030,1,0,0:0:0:0:
192,192,100120,1,0,0:0:0:0:
320,192,100120,1,0,0:0:0:0:
448,192,100120,1,0,0:0:0:0:
64,192,100210,1,0,0:0:0:0:
192,192,100301,1,0,0:0:0:0:
320,192,100301,1,0,0:0:0:0:
448,192,100391,1,0,0:0:0:0:
64,192,100481,1,0,0:0:0:0:
192,192,100481,1,0,0:0:0:0:
320,192,100572,1,0,0:0:0:0:
448,192,100572,1,0,0:0:0:0:
192,192,100662,1,0,0:0:0:0:
64,192,100662,1,0,0:0:0:0:
448,192,100753,1,0,0:0:0:0:
320,192,100753,1,0,0:0:0:0:
192,192,100843,1,0,0:0:0:0:
64,192,100843,1,0,0:0:0:0:
320,192,100933,1,0,0:0:0:0:
448,192,100933,1,0,0:0:0:0:
192,192,101024,1,0,0:0:0:0:
64,192,101024,1,0,0:0:0:0:
320,192,101114,1,0,0:0:0:0:
448,192,101114,1,0,0:0:0:0:
192,192,101204,1,0,0:0:0:0:
64,192,101204,1,0,0:0:0:0:
320,192,101295,1,0,0:0:0:0:
448,192,101385,1,0,0:0:0:0:
192,192,101385,1,0,0:0:0:0:
64,192,101475,1,0,0:0:0:0:
192,192,101566,1,0,0:0:0:0:
320,192,101566,1,0,0:0:0:0:
448,192,101566,1,0,0:0:0:0:
64,192,101656,1,0,0:0:0:0:
192,192,101746,1,0,0:0:0:0:
448,192,101746,1,0,0:0:0:0:
320,192,101837,1,0,0:0:0:0:
192,192,101927,1,0,0:0:0:0:
64,192,101927,1,0,0:0:0:0:
448,192,101927,1,0,0:0:0:0:
320,192,102018,1,0,0:0:0:0:
192,192,102108,1,0,0:0:0:0:
64,192,102108,1,0,0:0:0:0:
320,192,102198,1,0,0:0:0:0:
192,192,102289,1,0,0:0:0:0:
448,192,102289,1,0,0:0:0:0:
320,192,102379,1,0,0:0:0:0:
64,192,102379,1,0,0:0:0:0:
192,192,102469,1,0,0:0:0:0:
448,192,102469,1,0,0:0:0:0:
320,192,102560,1,0,0:0:0:0:
64,192,102560,1,0,0:0:0:0:
192,192,102650,1,0,0:0:0:0:
448,192,102650,1,0,0:0:0:0:
64,192,102740,1,0,0:0:0:0:
192,192,102831,1,0,0:0:0:0:
320,192,102831,1,0,0:0:0:0:
448,192,102921,1,0,0:0:0:0:
320,192,103012,1,0,0:0:0:0:
64,192,103012,1,0,0:0:0:0:
192,192,103012,1,0,0:0:0:0:
448,192,103102,1,0,0:0:0:0:
320,192,103192,1,0,0:0:0:0:
192,192,103192,1,0,0:0:0:0:
64,192,103283,1,0,0:0:0:0:
192,192,103373,1,0,0:0:0:0:
320,192,103373,1,0,0:0:0:0:
448,192,103463,1,0,0:0:0:0:
64,192,103463,1,0,0:0:0:0:
192,192,103554,1,0,0:0:0:0:
320,192,103554,1,0,0:0:0:0:
64,192,103644,1,0,0:0:0:0:
448,192,103644,1,0,0:0:0:0:
320,192,103734,1,0,0:0:0:0:
192,192,103734,1,0,0:0:0:0:
64,192,103825,1,0,0:0:0:0:
448,192,103825,1,0,0:0:0:0:
320,192,103915,1,0,0:0:0:0:
192,192,103915,1,0,0:0:0:0:
64,192,104006,1,0,0:0:0:0:
448,192,104006,1,0,0:0:0:0:
320,192,104096,1,0,0:0:0:0:
192,192,104096,1,0,0:0:0:0:
448,192,104186,1,0,0:0:0:0:
64,192,104277,1,0,0:0:0:0:
320,192,104277,1,0,0:0:0:0:
192,192,104367,1,0,0:0:0:0:
320,192,104457,1,0,0:0:0:0:
64,192,104457,1,0,0:0:0:0:
448,192,104457,1,0,0:0:0:0:
192,192,104548,1,0,0:0:0:0:
320,192,104638,1,0,0:0:0:0:
448,192,104638,1,0,0:0:0:0:
192,192,104728,1,0,0:0:0:0:
64,192,104819,1,0,0:0:0:0:
320,192,104819,1,0,0:0:0:0:
448,192,104819,128,0,105180:0:0:0:0:
64,192,105180,1,0,0:0:0:0:
192,192,105240,1,0,0:0:0:0:
320,192,105301,1,0,0:0:0:0:
448,192,105361,1,0,0:0:0:0:
64,192,105421,1,0,0:0:0:0:
192,192,105481,1,0,0:0:0:0:
320,192,105542,1,0,0:0:0:0:
448,192,105542,1,0,0:0:0:0:
192,192,105632,1,0,0:0:0:0:
64,192,105722,1,0,0:0:0:0:
192,192,105813,1,0,0:0:0:0:
320,192,105903,1,0,0:0:0:0:
448,192,105993,1,0,0:0:0:0:
64,192,106084,1,0,0:0:0:0:
192,192,106174,1,0,0:0:0:0:
320,192,106265,1,0,0:0:0:0:
192,192,106355,1,0,0:0:0:0:
448,192,106445,1,0,0:0:0:0:
192,192,106536,1,0,0:0:0:0:
64,192,106626,1,0,0:0:0:0:
320,192,106716,1,0,0:0:0:0:
192,192,106807,1,0,0:0:0:0:
448,192,106897,1,0,0:0:0:0:
320,192,106987,1,0,0:0:0:0:
192,192,107078,1,0,0:0:0:0:
64,192,107168,1,0,0:0:0:0:
192,192,107259,1,0,0:0:0:0:
320,192,107349,1,0,0:0:0:0:
448,192,107439,1,0,0:0:0:0:
320,192,107530,1,0,0:0:0:0:
192,192,107620,1,0,0:0:0:0:
320,192,107710,1,0,0:0:0:0:
448,192,107801,1,0,0:0:0:0:
64,192,107891,1,0,0:0:0:0:
192,192,107981,1,0,0:0:0:0:
320,192,108072,1,0,0:0:0:0:
192,192,108162,1,0,0:0:0:0:
448,192,108253,1,0,0:0:0:0:
64,192,108343,1,0,0:0:0:0:
192,192,108433,1,0,0:0:0:0:
320,192,108524,1,0,0:0:0:0:
192,192,108614,1,0,0:0:0:0:
64,192,108704,1,0,0:0:0:0:
448,192,108795,1,0,0:0:0:0:
320,192,108885,1,0,0:0:0:0:
192,192,108975,1,0,0:0:0:0:
64,192,109066,1,0,0:0:0:0:
448,192,109156,1,0,0:0:0:0:
192,192,109246,1,0,0:0:0:0:
320,192,109337,1,0,0:0:0:0:
64,192,109427,1,0,0:0:0:0:
320,192,109518,1,0,0:0:0:0:
64,192,109608,1,0,0:0:0:0:
448,192,109698,1,0,0:0:0:0:
192,192,109789,1,0,0:0:0:0:
320,192,109879,1,0,0:0:0:0:
448,192,109969,1,0,0:0:0:0:
320,192,110060,1,0,0:0:0:0:
192,192,110150,1,0,0:0:0:0:
64,192,110240,1,0,0:0:0:0:
448,192,110331,1,0,0:0:0:0:
320,192,110421,1,0,0:0:0:0:
192,192,110512,1,0,0:0:0:0:
64,192,110602,1,0,0:0:0:0:
448,192,110692,1,0,0:0:0:0:
320,192,110783,1,0,0:0:0:0:
192,192,110873,1,0,0:0:0:0:
320,192,110963,1,0,0:0:0:0:
192,192,111024,1,0,0:0:0:0:
64,192,111084,1,0,0:0:0:0:
448,192,111144,1,0,0:0:0:0:
320,192,111204,1,0,0:0:0:0:
192,192,111265,1,0,0:0:0:0:
64,192,111325,1,0,0:0:0:0:
448,192,111325,128,0,115662:0:0:0:0:
192,192,111415,1,0,0:0:0:0:
320,192,111506,1,0,0:0:0:0:
192,192,111596,1,0,0:0:0:0:
64,192,111686,1,0,0:0:0:0:
320,192,111777,1,0,0:0:0:0:
192,192,111867,1,0,0:0:0:0:
64,192,111957,1,0,0:0:0:0:
192,192,112048,1,0,0:0:0:0:
320,192,112138,1,0,0:0:0:0:
192,192,112228,1,0,0:0:0:0:
64,192,112319,1,0,0:0:0:0:
320,192,112409,1,0,0:0:0:0:
192,192,112499,1,0,0:0:0:0:
320,192,112590,1,0,0:0:0:0:
192,192,112680,1,0,0:0:0:0:
64,192,112771,1,0,0:0:0:0:
192,192,112861,1,0,0:0:0:0:
320,192,112951,1,0,0:0:0:0:
64,192,113042,1,0,0:0:0:0:
192,192,113132,1,0,0:0:0:0:
320,192,113222,1,0,0:0:0:0:
64,192,113313,1,0,0:0:0:0:
192,192,113403,1,0,0:0:0:0:
320,192,113493,1,0,0:0:0:0:
192,192,113584,1,0,0:0:0:0:
64,192,113674,1,0,0:0:0:0:
192,192,113765,1,0,0:0:0:0:
320,192,113855,1,0,0:0:0:0:
192,192,113945,1,0,0:0:0:0:
320,192,114036,1,0,0:0:0:0:
192,192,114126,1,0,0:0:0:0:
320,192,114216,1,0,0:0:0:0:
192,192,114307,1,0,0:0:0:0:
64,192,114397,1,0,0:0:0:0:
192,192,114487,1,0,0:0:0:0:
320,192,114578,1,0,0:0:0:0:
192,192,114668,1,0,0:0:0:0:
320,192,114759,1,0,0:0:0:0:
192,192,114849,1,0,0:0:0:0:
64,192,114939,1,0,0:0:0:0:
192,192,115030,1,0,0:0:0:0:
320,192,115120,1,0,0:0:0:0:
192,192,115210,1,0,0:0:0:0:
64,192,115301,1,0,0:0:0:0:
320,192,115391,1,0,0:0:0:0:
192,192,115481,1,0,0:0:0:0:
64,192,115572,1,0,0:0:0:0:
320,192,115662,128,0,115753:0:0:0:0:
192,192,115753,128,0,115843:0:0:0:0:
64,192,115843,128,0,115933:0:0:0:0:
448,192,115933,128,0,116024:0:0:0:0:
192,192,116024,128,0,116114:0:0:0:0:
320,192,116114,128,0,116204:0:0:0:0:
64,192,116204,128,0,116295:0:0:0:0:
448,192,116295,128,0,116385:0:0:0:0:
320,192,116385,128,0,116746:0:0:0:0:
64,192,116746,1,0,0:0:0:0:
192,192,116807,1,0,0:0:0:0:
320,192,116867,1,0,0:0:0:0:
448,192,116927,1,0,0:0:0:0:
64,192,116987,1,0,0:0:0:0:
192,192,117048,1,0,0:0:0:0:
320,192,117108,1,0,0:0:0:0:
448,192,117108,1,0,0:0:0:0:
192,192,117198,1,0,0:0:0:0:
64,192,117289,1,0,0:0:0:0:
192,192,117379,1,0,0:0:0:0:
320,192,117469,1,0,0:0:0:0:
448,192,117560,1,0,0:0:0:0:
320,192,117650,1,0,0:0:0:0:
192,192,117740,1,0,0:0:0:0:
320,192,117831,1,0,0:0:0:0:
448,192,117921,1,0,0:0:0:0:
64,192,118012,1,0,0:0:0:0:
320,192,118102,1,0,0:0:0:0:
192,192,118192,1,0,0:0:0:0:
448,192,118283,1,0,0:0:0:0:
192,192,118373,1,0,0:0:0:0:
64,192,118463,1,0,0:0:0:0:
320,192,118554,1,0,0:0:0:0:
448,192,118644,1,0,0:0:0:0:
320,192,118734,1,0,0:0:0:0:
192,192,118825,1,0,0:0:0:0:
64,192,118915,1,0,0:0:0:0:
448,192,119006,1,0,0:0:0:0:
320,192,119096,1,0,0:0:0:0:
192,192,119186,1,0,0:0:0:0:
64,192,119277,1,0,0:0:0:0:
192,192,119367,1,0,0:0:0:0:
320,192,119457,1,0,0:0:0:0:
192,192,119548,1,0,0:0:0:0:
320,192,119638,1,0,0:0:0:0:
192,192,119728,1,0,0:0:0:0:
448,192,119819,1,0,0:0:0:0:
192,192,119909,1,0,0:0:0:0:
64,192,119999,1,0,0:0:0:0:
192,192,120090,1,0,0:0:0:0:
320,192,120180,1,0,0:0:0:0:
448,192,120271,1,0,0:0:0:0:
320,192,120361,1,0,0:0:0:0:
192,192,120451,1,0,0:0:0:0:
320,192,120542,1,0,0:0:0:0:
448,192,120632,1,0,0:0:0:0:
64,192,120722,1,0,0:0:0:0:
320,192,120813,1,0,0:0:0:0:
192,192,120903,1,0,0:0:0:0:
448,192,120993,1,0,0:0:0:0:
64,192,121084,1,0,0:0:0:0:
320,192,121174,1,0,0:0:0:0:
192,192,121265,1,0,0:0:0:0:
448,192,121355,1,0,0:0:0:0:
320,192,121445,1,0,0:0:0:0:
192,192,121536,1,0,0:0:0:0:
64,192,121626,1,0,0:0:0:0:
192,192,121716,1,0,0:0:0:0:
320,192,121807,1,0,0:0:0:0:
448,192,121897,1,0,0:0:0:0:
64,192,121987,1,0,0:0:0:0:
192,192,122078,1,0,0:0:0:0:
320,192,122168,1,0,0:0:0:0:
448,192,122259,1,0,0:0:0:0:
320,192,122349,1,0,0:0:0:0:
192,192,122439,1,0,0:0:0:0:
320,192,122530,1,0,0:0:0:0:
448,192,122590,1,0,0:0:0:0:
192,192,122650,1,0,0:0:0:0:
64,192,122710,1,0,0:0:0:0:
320,192,122771,1,0,0:0:0:0:
448,192,122831,1,0,0:0:0:0:
192,192,122891,1,0,0:0:0:0:
320,192,122891,1,0,0:0:0:0:
64,192,122981,1,0,0:0:0:0:
192,192,123072,1,0,0:0:0:0:
320,192,123162,1,0,0:0:0:0:
448,192,123253,1,0,0:0:0:0:
320,192,123343,1,0,0:0:0:0:
192,192,123433,1,0,0:0:0:0:
448,192,123433,1,0,0:0:0:0:
64,192,123524,1,0,0:0:0:0:
448,192,123614,1,0,0:0:0:0:
320,192,123614,1,0,0:0:0:0:
192,192,123704,1,0,0:0:0:0:
64,192,123795,1,0,0:0:0:0:
192,192,123885,1,0,0:0:0:0:
320,192,123975,1,0,0:0:0:0:
448,192,124066,1,0,0:0:0:0:
320,192,124156,1,0,0:0:0:0:
192,192,124156,1,0,0:0:0:0:
64,192,124246,1,0,0:0:0:0:
192,192,124337,1,0,0:0:0:0:
320,192,124337,1,0,0:0:0:0:
448,192,124337,1,0,0:0:0:0:
64,192,124427,1,0,0:0:0:0:
192,192,124518,1,0,0:0:0:0:
320,192,124608,1,0,0:0:0:0:
192,192,124698,1,0,0:0:0:0:
64,192,124698,1,0,0:0:0:0:
448,192,124698,1,0,0:0:0:0:
320,192,124789,1,0,0:0:0:0:
448,192,124879,1,0,0:0:0:0:
64,192,124879,1,0,0:0:0:0:
192,192,124969,1,0,0:0:0:0:
320,192,125060,1,0,0:0:0:0:
448,192,125060,1,0,0:0:0:0:
192,192,125150,1,0,0:0:0:0:
64,192,125240,1,0,0:0:0:0:
192,192,125331,1,0,0:0:0:0:
320,192,125421,1,0,0:0:0:0:
448,192,125512,1,0,0:0:0:0:
64,192,125602,1,0,0:0:0:0:
192,192,125602,1,0,0:0:0:0:
320,192,125692,1,0,0:0:0:0:
192,192,125783,1,0,0:0:0:0:
448,192,125783,1,0,0:0:0:0:
64,192,125783,1,0,0:0:0:0:
320,192,125873,1,0,0:0:0:0:
192,192,125963,1,0,0:0:0:0:
320,192,126054,1,0,0:0:0:0:
448,192,126144,1,0,0:0:0:0:
64,192,126234,1,0,0:0:0:0:
192,192,126325,1,0,0:0:0:0:
448,192,126325,1,0,0:0:0:0:
320,192,126415,1,0,0:0:0:0:
192,192,126506,1,0,0:0:0:0:
64,192,126506,1,0,0:0:0:0:
320,192,126596,1,0,0:0:0:0:
448,192,126686,1,0,0:0:0:0:
64,192,126777,1,0,0:0:0:0:
192,192,126867,1,0,0:0:0:0:
320,192,126957,1,0,0:0:0:0:
448,192,127048,1,0,0:0:0:0:
64,192,127048,1,0,0:0:0:0:
192,192,127138,1,0,0:0:0:0:
320,192,127228,1,0,0:0:0:0:
448,192,127228,1,0,0:0:0:0:
64,192,127228,1,0,0:0:0:0:
192,192,127319,1,0,0:0:0:0:
64,192,127409,1,0,0:0:0:0:
448,192,127499,1,0,0:0:0:0:
320,192,127590,1,0,0:0:0:0:
64,192,127590,1,0,0:0:0:0:
192,192,127590,1,0,0:0:0:0:
448,192,127680,1,0,0:0:0:0:
320,192,127771,1,0,0:0:0:0:
192,192,127771,1,0,0:0:0:0:
64,192,127861,1,0,0:0:0:0:
192,192,127951,1,0,0:0:0:0:
320,192,127951,1,0,0:0:0:0:
448,192,128042,1,0,0:0:0:0:
64,192,128132,1,0,0:0:0:0:
192,192,128222,1,0,0:0:0:0:
320,192,128313,1,0,0:0:0:0:
448,192,128313,1,0,0:0:0:0:
64,192,128313,1,0,0:0:0:0:
192,192,128403,1,0,0:0:0:0:
320,192,128493,1,0,0:0:0:0:
448,192,128493,1,0,0:0:0:0:
192,192,128584,1,0,0:0:0:0:
64,192,128674,1,0,0:0:0:0:
320,192,128674,1,0,0:0:0:0:
448,192,128674,1,0,0:0:0:0:
64,192,133012,128,0,133102:0:0:0:0:
320,192,133102,128,0,133192:0:0:0:0:
192,192,133192,128,0,133283:0:0:0:0:
448,192,133283,128,0,133373:0:0:0:0:
320,192,133373,128,0,133734:0:0:0:0:
64,192,133734,128,0,134096:0:0:0:0:
448,192,134096,1,0,0:0:0:0:
320,192,134156,1,0,0:0:0:0:
64,192,134216,1,0,0:0:0:0:
192,192,134277,1,0,0:0:0:0:
448,192,134337,1,0,0:0:0:0:
320,192,134397,1,0,0:0:0:0:
64,192,134457,1,0,0:0:0:0:
192,192,134548,1,0,0:0:0:0:
320,192,134638,1,0,0:0:0:0:
448,192,134728,1,0,0:0:0:0:
320,192,134819,1,0,0:0:0:0:
192,192,134819,1,0,0:0:0:0:
64,192,134909,1,0,0:0:0:0:
320,192,134999,1,0,0:0:0:0:
192,192,135090,1,0,0:0:0:0:
320,192,135180,1,0,0:0:0:0:
448,192,135180,1,0,0:0:0:0:
192,192,135271,1,0,0:0:0:0:
64,192,135361,1,0,0:0:0:0:
448,192,135451,1,0,0:0:0:0:
320,192,135542,1,0,0:0:0:0:
64,192,135542,1,0,0:0:0:0:
192,192,135632,1,0,0:0:0:0:
320,192,135722,1,0,0:0:0:0:
448,192,135813,1,0,0:0:0:0:
64,192,135903,1,0,0:0:0:0:
192,192,135903,1,0,0:0:0:0:
320,192,135993,1,0,0:0:0:0:
448,192,136084,1,0,0:0:0:0:
320,192,136174,1,0,0:0:0:0:
192,192,136265,1,0,0:0:0:0:
448,192,136265,1,0,0:0:0:0:
64,192,136355,1,0,0:0:0:0:
448,192,136445,1,0,0:0:0:0:
320,192,136536,1,0,0:0:0:0:
192,192,136626,1,0,0:0:0:0:
64,192,136626,1,0,0:0:0:0:
320,192,136716,1,0,0:0:0:0:
448,192,136807,1,0,0:0:0:0:
64,192,136897,1,0,0:0:0:0:
448,192,136987,1,0,0:0:0:0:
192,192,136987,1,0,0:0:0:0:
320,192,137078,1,0,0:0:0:0:
192,192,137168,1,0,0:0:0:0:
64,192,137259,1,0,0:0:0:0:
192,192,137349,1,0,0:0:0:0:
320,192,137349,1,0,0:0:0:0:
448,192,137439,1,0,0:0:0:0:
320,192,137530,1,0,0:0:0:0:
64,192,137530,1,0,0:0:0:0:
192,192,137620,1,0,0:0:0:0:
320,192,137710,1,0,0:0:0:0:
448,192,137710,1,0,0:0:0:0:
192,192,137801,1,0,0:0:0:0:
64,192,137891,1,0,0:0:0:0:
448,192,137891,1,0,0:0:0:0:
320,192,137981,1,0,0:0:0:0:
192,192,138072,1,0,0:0:0:0:
64,192,138072,1,0,0:0:0:0:
320,192,138162,1,0,0:0:0:0:
192,192,138253,1,0,0:0:0:0:
448,192,138253,1,0,0:0:0:0:
64,192,138343,1,0,0:0:0:0:
320,192,138433,1,0,0:0:0:0:
448,192,138433,1,0,0:0:0:0:
192,192,138524,1,0,0:0:0:0:
64,192,138614,1,0,0:0:0:0:
448,192,138614,1,0,0:0:0:0:
320,192,138704,1,0,0:0:0:0:
192,192,138795,1,0,0:0:0:0:
448,192,138795,1,0,0:0:0:0:
64,192,138885,1,0,0:0:0:0:
192,192,138975,1,0,0:0:0:0:
320,192,138975,1,0,0:0:0:0:
448,192,139066,1,0,0:0:0:0:
64,192,139156,1,0,0:0:0:0:
192,192,139156,1,0,0:0:0:0:
320,192,139246,1,0,0:0:0:0:
64,192,139337,1,0,0:0:0:0:
448,192,139337,1,0,0:0:0:0:
320,192,139427,1,0,0:0:0:0:
192,192,139518,1,0,0:0:0:0:
64,192,139518,1,0,0:0:0:0:
320,192,139608,1,0,0:0:0:0:
192,192,139698,1,0,0:0:0:0:
448,192,139698,1,0,0:0:0:0:
64,192,139789,1,0,0:0:0:0:
192,192,139879,1,0,0:0:0:0:
320,192,139879,1,0,0:0:0:0:
448,192,139969,1,0,0:0:0:0:
64,192,140060,1,0,0:0:0:0:
192,192,140060,1,0,0:0:0:0:
320,192,140150,1,0,0:0:0:0:
192,192,140240,1,0,0:0:0:0:
448,192,140240,1,0,0:0:0:0:
64,192,140240,1,0,0:0:0:0:
320,192,140331,1,0,0:0:0:0:
192,192,140421,1,0,0:0:0:0:
64,192,140421,1,0,0:0:0:0:
448,192,140512,1,0,0:0:0:0:
320,192,140602,1,0,0:0:0:0:
192,192,140602,1,0,0:0:0:0:
64,192,140602,1,0,0:0:0:0:
448,192,140692,1,0,0:0:0:0:
64,192,140783,1,0,0:0:0:0:
320,192,140783,1,0,0:0:0:0:
192,192,140873,1,0,0:0:0:0:
320,192,140963,1,0,0:0:0:0:
448,192,140963,1,0,0:0:0:0:
64,192,140963,1,0,0:0:0:0:
192,192,141054,1,0,0:0:0:0:
448,192,141144,1,0,0:0:0:0:
64,192,141144,1,0,0:0:0:0:
320,192,141234,1,0,0:0:0:0:
192,192,141325,1,0,0:0:0:0:
448,192,141325,1,0,0:0:0:0:
64,192,141325,1,0,0:0:0:0:
320,192,141415,1,0,0:0:0:0:
192,192,141506,1,0,0:0:0:0:
64,192,141506,1,0,0:0:0:0:
320,192,141596,1,0,0:0:0:0:
448,192,141686,1,0,0:0:0:0:
192,192,141686,1,0,0:0:0:0:
64,192,141686,1,0,0:0:0:0:
320,192,141777,1,0,0:0:0:0:
448,192,141867,1,0,0:0:0:0:
64,192,141867,1,0,0:0:0:0:
192,192,141957,1,0,0:0:0:0:
320,192,142048,1,0,0:0:0:0:
448,192,142048,1,0,0:0:0:0:
64,192,142048,1,0,0:0:0:0:
192,192,142138,1,0,0:0:0:0:
320,192,142228,1,0,0:0:0:0:
448,192,142228,1,0,0:0:0:0:
192,192,142319,1,0,0:0:0:0:
64,192,142409,1,0,0:0:0:0:
320,192,142409,1,0,0:0:0:0:
448,192,142409,1,0,0:0:0:0:
192,192,142499,1,0,0:0:0:0:
448,192,142590,5,0,0:0:0:0:
64,192,142590,1,0,0:0:0:0:
192,192,142680,1,0,0:0:0:0:
320,192,142771,1,0,0:0:0:0:
448,192,142771,1,0,0:0:0:0:
64,192,142771,1,0,0:0:0:0:
192,192,142861,1,0,0:0:0:0:
448,192,142951,1,0,0:0:0:0:
64,192,142951,1,0,0:0:0:0:
192,192,143042,1,0,0:0:0:0:
448,192,143132,5,0,0:0:0:0:
320,192,143192,1,0,0:0:0:0:
192,192,143253,1,0,0:0:0:0:
64,192,143313,1,0,0:0:0:0:
192,192,143373,1,0,0:0:0:0:
320,192,143433,1,0,0:0:0:0:
448,192,143493,1,0,0:0:0:0:
64,192,143554,1,0,0:0:0:0:
192,192,143614,1,0,0:0:0:0:
448,192,143674,1,0,0:0:0:0:
320,192,143734,1,0,0:0:0:0:
192,192,143795,1,0,0:0:0:0:
64,192,143855,1,0,0:0:0:0:
448,192,143915,1,0,0:0:0:0:
320,192,143975,1,0,0:0:0:0:
192,192,144036,1,0,0:0:0:0:
64,192,144096,1,0,0:0:0:0:
192,192,144156,1,0,0:0:0:0:
320,192,144216,1,0,0:0:0:0:
448,192,144277,1,0,0:0:0:0:
320,192,144337,1,0,0:0:0:0:
64,192,144397,1,0,0:0:0:0:
192,192,144457,1,0,0:0:0:0:
320,192,144518,1,0,0:0:0:0:
448,192,144578,1,0,0:0:0:0:
320,192,144623,1,0,0:0:0:0:
192,192,144668,1,0,0:0:0:0:
64,192,144713,1,0,0:0:0:0:
448,192,144759,1,0,0:0:0:0:
320,192,144804,1,0,0:0:0:0:
192,192,144849,1,0,0:0:0:0:
64,192,144894,1,0,0:0:0:0:
448,192,144939,1,0,0:0:0:0:
320,192,144984,1,0,0:0:0:0:
192,192,145030,1,0,0:0:0:0:
64,192,145075,1,0,0:0:0:0:
448,192,145120,1,0,0:0:0:0:
320,192,145165,1,0,0:0:0:0:
192,192,145210,1,0,0:0:0:0:
64,192,145256,1,0,0:0:0:0:
448,192,145301,1,0,0:0:0:0:
320,192,145346,1,0,0:0:0:0:
192,192,145391,1,0,0:0:0:0:
64,192,145436,1,0,0:0:0:0:
448,192,145481,1,0,0:0:0:0:
320,192,145527,1,0,0:0:0:0:
192,192,145572,1,0,0:0:0:0:
64,192,145617,1,0,0:0:0:0:
448,192,145662,1,0,0:0:0:0:
320,192,145707,1,0,0:0:0:0:
192,192,145753,1,0,0:0:0:0:
64,192,145798,1,0,0:0:0:0:
448,192,145843,1,0,0:0:0:0:
320,192,145888,1,0,0:0:0:0:
192,192,145933,1,0,0:0:0:0:
64,192,145978,1,0,0:0:0:0:
448,192,146024,128,0,146204:0:0:0:0:
192,192,146204,128,0,146385:0:0:0:0:
64,192,146385,128,0,146566:0:0:0:0:
320,192,146566,128,0,146746:0:0:0:0:
448,192,146746,128,0,146927:0:0:0:0:
192,192,146927,128,0,147108:0:0:0:0:
320,192,147108,128,0,147289:0:0:0:0:
64,192,147289,128,0,147469:0:0:0:0:
448,192,147469,1,0,0:0:0:0:
320,192,147469,1,0,0:0:0:0:
192,192,147560,1,0,0:0:0:0:
320,192,147650,1,0,0:0:0:0:
192,192,147740,1,0,0:0:0:0:
448,192,147831,1,0,0:0:0:0:
64,192,147831,1,0,0:0:0:0:
192,192,147921,1,0,0:0:0:0:
320,192,148012,1,0,0:0:0:0:
448,192,148102,1,0,0:0:0:0:
64,192,148192,1,0,0:0:0:0:
320,192,148192,1,0,0:0:0:0:
448,192,148283,1,0,0:0:0:0:
192,192,148373,1,0,0:0:0:0:
320,192,148463,1,0,0:0:0:0:
64,192,148554,1,0,0:0:0:0:
192,192,148554,1,0,0:0:0:0:
320,192,148644,1,0,0:0:0:0:
64,192,148734,1,0,0:0:0:0:
320,192,148825,1,0,0:0:0:0:
448,192,148915,1,0,0:0:0:0:
192,192,148915,1,0,0:0:0:0:
64,192,149006,1,0,0:0:0:0:
448,192,149096,1,0,0:0:0:0:
320,192,149186,1,0,0:0:0:0:
192,192,149277,1,0,0:0:0:0:
64,192,149277,1,0,0:0:0:0:
320,192,149367,1,0,0:0:0:0:
448,192,149457,1,0,0:0:0:0:
192,192,149548,1,0,0:0:0:0:
320,192,149638,1,0,0:0:0:0:
64,192,149638,1,0,0:0:0:0:
448,192,149728,1,0,0:0:0:0:
320,192,149819,1,0,0:0:0:0:
192,192,149909,1,0,0:0:0:0:
320,192,149999,1,0,0:0:0:0:
448,192,149999,1,0,0:0:0:0:
64,192,150090,1,0,0:0:0:0:
448,192,150180,1,0,0:0:0:0:
192,192,150271,1,0,0:0:0:0:
448,192,150361,1,0,0:0:0:0:
64,192,150361,1,0,0:0:0:0:
320,192,150451,1,0,0:0:0:0:
192,192,150542,1,0,0:0:0:0:
64,192,150632,1,0,0:0:0:0:
192,192,150722,1,0,0:0:0:0:
448,192,150722,1,0,0:0:0:0:
320,192,150813,1,0,0:0:0:0:
192,192,150903,1,0,0:0:0:0:
64,192,150993,1,0,0:0:0:0:
192,192,151084,1,0,0:0:0:0:
320,192,151084,1,0,0:0:0:0:
448,192,151174,1,0,0:0:0:0:
64,192,151265,1,0,0:0:0:0:
320,192,151355,1,0,0:0:0:0:
448,192,151445,1,0,0:0:0:0:
192,192,151445,1,0,0:0:0:0:
64,192,151536,1,0,0:0:0:0:
448,192,151626,1,0,0:0:0:0:
192,192,151716,1,0,0:0:0:0:
320,192,151807,1,0,0:0:0:0:
64,192,151807,1,0,0:0:0:0:
448,192,151897,1,0,0:0:0:0:
320,192,151987,1,0,0:0:0:0:
192,192,152078,1,0,0:0:0:0:
320,192,152168,1,0,0:0:0:0:
448,192,152168,1,0,0:0:0:0:
64,192,152259,1,0,0:0:0:0:
192,192,152349,1,0,0:0:0:0:
320,192,152439,1,0,0:0:0:0:
448,192,152530,1,0,0:0:0:0:
192,192,152530,1,0,0:0:0:0:
64,192,152620,1,0,0:0:0:0:
448,192,152710,1,0,0:0:0:0:
320,192,152801,1,0,0:0:0:0:
64,192,152891,1,0,0:0:0:0:
192,192,152951,1,0,0:0:0:0:
320,192,153012,1,0,0:0:0:0:
448,192,153072,1,0,0:0:0:0:
64,192,153132,1,0,0:0:0:0:
192,192,153192,1,0,0:0:0:0:
320,192,153253,1,0,0:0:0:0:
448,192,153253,1,0,0:0:0:0:
192,192,153343,1,0,0:0:0:0:
64,192,153433,1,0,0:0:0:0:
192,192,153524,1,0,0:0:0:0:
448,192,153614,1,0,0:0:0:0:
64,192,153614,1,0,0:0:0:0:
320,192,153704,1,0,0:0:0:0:
192,192,153795,1,0,0:0:0:0:
320,192,153885,1,0,0:0:0:0:
64,192,153975,1,0,0:0:0:0:
448,192,153975,1,0,0:0:0:0:
320,192,154066,1,0,0:0:0:0:
192,192,154066,1,0,0:0:0:0:
64,192,154156,1,0,0:0:0:0:
448,192,154156,1,0,0:0:0:0:
320,192,154246,1,0,0:0:0:0:
192,192,154246,1,0,0:0:0:0:
64,192,154337,1,0,0:0:0:0:
448,192,154337,1,0,0:0:0:0:
320,192,154427,1,0,0:0:0:0:
192,192,154427,1,0,0:0:0:0:
64,192,154518,1,0,0:0:0:0:
448,192,154518,1,0,0:0:0:0:
320,192,154608,1,0,0:0:0:0:
192,192,154608,1,0,0:0:0:0:
64,192,154698,1,0,0:0:0:0:
448,192,154698,1,0,0:0:0:0:
320,192,154789,1,0,0:0:0:0:
192,192,154879,1,0,0:0:0:0:
64,192,154969,1,0,0:0:0:0:
192,192,155060,1,0,0:0:0:0:
320,192,155060,1,0,0:0:0:0:
448,192,155150,1,0,0:0:0:0:
192,192,155240,1,0,0:0:0:0:
320,192,155331,1,0,0:0:0:0:
192,192,155421,1,0,0:0:0:0:
448,192,155421,1,0,0:0:0:0:
64,192,155512,1,0,0:0:0:0:
192,192,155602,1,0,0:0:0:0:
448,192,155692,1,0,0:0:0:0:
64,192,155783,1,0,0:0:0:0:
320,192,155783,1,0,0:0:0:0:
192,192,155873,1,0,0:0:0:0:
448,192,155873,1,0,0:0:0:0:
320,192,155963,1,0,0:0:0:0:
64,192,155963,1,0,0:0:0:0:
192,192,156054,1,0,0:0:0:0:
448,192,156054,1,0,0:0:0:0:
320,192,156144,1,0,0:0:0:0:
64,192,156144,1,0,0:0:0:0:
448,192,156234,1,0,0:0:0:0:
320,192,156325,1,0,0:0:0:0:
192,192,156415,1,0,0:0:0:0:
64,192,156506,1,0,0:0:0:0:
320,192,156506,1,0,0:0:0:0:
448,192,156596,1,0,0:0:0:0:
320,192,156686,1,0,0:0:0:0:
192,192,156777,1,0,0:0:0:0:
448,192,156867,1,0,0:0:0:0:
320,192,156867,1,0,0:0:0:0:
192,192,156957,1,0,0:0:0:0:
64,192,156957,1,0,0:0:0:0:
320,192,157048,1,0,0:0:0:0:
448,192,157048,1,0,0:0:0:0:
192,192,157138,1,0,0:0:0:0:
64,192,157138,1,0,0:0:0:0:
448,192,157228,1,0,0:0:0:0:
320,192,157228,1,0,0:0:0:0:
192,192,157319,1,0,0:0:0:0:
64,192,157319,1,0,0:0:0:0:
320,192,157409,1,0,0:0:0:0:
448,192,157409,1,0,0:0:0:0:
192,192,157499,1,0,0:0:0:0:
64,192,157499,1,0,0:0:0:0:
448,192,157590,1,0,0:0:0:0:
320,192,157590,1,0,0:0:0:0:
192,192,157680,1,0,0:0:0:0:
64,192,157771,1,0,0:0:0:0:
320,192,157861,1,0,0:0:0:0:
448,192,157951,1,0,0:0:0:0:
64,192,157951,1,0,0:0:0:0:
320,192,158042,1,0,0:0:0:0:
192,192,158132,1,0,0:0:0:0:
64,192,158222,1,0,0:0:0:0:
320,192,158313,128,0,158674:0:0:0:0:
192,192,158674,1,0,0:0:0:0:
64,192,158734,1,0,0:0:0:0:
448,192,158795,1,0,0:0:0:0:
320,192,158855,1,0,0:0:0:0:
192,192,158915,1,0,0:0:0:0:
64,192,158975,1,0,0:0:0:0:
448,192,159036,1,0,0:0:0:0:
320,192,159036,1,0,0:0:0:0:
192,192,159126,1,0,0:0:0:0:
64,192,159216,1,0,0:0:0:0:
448,192,159216,1,0,0:0:0:0:
320,192,159307,1,0,0:0:0:0:
448,192,159397,1,0,0:0:0:0:
192,192,159397,1,0,0:0:0:0:
64,192,159487,1,0,0:0:0:0:
448,192,159578,1,0,0:0:0:0:
192,192,159578,1,0,0:0:0:0:
320,192,159668,1,0,0:0:0:0:
448,192,159759,1,0,0:0:0:0:
64,192,159759,1,0,0:0:0:0:
192,192,159849,1,0,0:0:0:0:
320,192,159939,1,0,0:0:0:0:
448,192,159939,1,0,0:0:0:0:
192,192,160030,1,0,0:0:0:0:
64,192,160120,1,0,0:0:0:0:
320,192,160120,1,0,0:0:0:0:
448,192,160210,1,0,0:0:0:0:
320,192,160301,1,0,0:0:0:0:
192,192,160301,1,0,0:0:0:0:
64,192,160391,1,0,0:0:0:0:
192,192,160481,1,0,0:0:0:0:
448,192,160481,1,0,0:0:0:0:
320,192,160572,1,0,0:0:0:0:
192,192,160662,1,0,0:0:0:0:
64,192,160662,1,0,0:0:0:0:
320,192,160753,1,0,0:0:0:0:
448,192,160843,1,0,0:0:0:0:
192,192,160843,1,0,0:0:0:0:
320,192,160933,1,0,0:0:0:0:
448,192,161024,1,0,0:0:0:0:
64,192,161024,1,0,0:0:0:0:
192,192,161114,1,0,0:0:0:0:
320,192,161204,1,0,0:0:0:0:
448,192,161204,1,0,0:0:0:0:
192,192,161295,1,0,0:0:0:0:
64,192,161385,1,0,0:0:0:0:
320,192,161385,1,0,0:0:0:0:
448,192,161475,1,0,0:0:0:0:
320,192,161566,1,0,0:0:0:0:
192,192,161566,1,0,0:0:0:0:
64,192,161656,1,0,0:0:0:0:
448,192,161746,1,0,0:0:0:0:
320,192,161746,1,0,0:0:0:0:
192,192,161837,1,0,0:0:0:0:
64,192,161927,1,0,0:0:0:0:
320,192,161927,1,0,0:0:0:0:
448,192,162018,1,0,0:0:0:0:
320,192,162108,1,0,0:0:0:0:
192,192,162108,1,0,0:0:0:0:
64,192,162198,1,0,0:0:0:0:
448,192,162289,1,0,0:0:0:0:
192,192,162289,1,0,0:0:0:0:
320,192,162379,1,0,0:0:0:0:
448,192,162469,1,0,0:0:0:0:
192,192,162469,1,0,0:0:0:0:
64,192,162560,1,0,0:0:0:0:
192,192,162650,1,0,0:0:0:0:
320,192,162650,1,0,0:0:0:0:
448,192,162740,1,0,0:0:0:0:
320,192,162831,1,0,0:0:0:0:
192,192,162831,1,0,0:0:0:0:
64,192,162921,1,0,0:0:0:0:
448,192,163012,1,0,0:0:0:0:
192,192,163012,1,0,0:0:0:0:
320,192,163102,1,0,0:0:0:0:
192,192,163192,1,0,0:0:0:0:
448,192,163192,1,0,0:0:0:0:
64,192,163283,1,0,0:0:0:0:
192,192,163373,1,0,0:0:0:0:
320,192,163373,128,0,163554:0:0:0:0:
448,192,163554,128,0,163734:0:0:0:0:
192,192,163734,128,0,163915:0:0:0:0:
64,192,163915,128,0,164096:0:0:0:0:
320,192,164096,128,0,164186:0:0:0:0:
448,192,164096,128,0,164186:0:0:0:0:
192,192,164186,128,0,164277:0:0:0:0:
64,192,164186,128,0,164277:0:0:0:0:
320,192,164277,128,0,164367:0:0:0:0:
448,192,164277,128,0,164367:0:0:0:0:
192,192,164367,128,0,164457:0:0:0:0:
64,192,164367,128,0,164457:0:0:0:0:
320,192,164457,1,0,0:0:0:0:
448,192,164518,1,0,0:0:0:0:
64,192,164578,1,0,0:0:0:0:
192,192,164638,1,0,0:0:0:0:
320,192,164698,1,0,0:0:0:0:
448,192,164759,1,0,0:0:0:0:
192,192,164819,1,0,0:0:0:0:
64,192,164819,1,0,0:0:0:0:
320,192,164909,1,0,0:0:0:0:
192,192,164999,1,0,0:0:0:0:
448,192,164999,1,0,0:0:0:0:
64,192,165090,1,0,0:0:0:0:
192,192,165180,1,0,0:0:0:0:
320,192,165180,1,0,0:0:0:0:
448,192,165271,1,0,0:0:0:0:
64,192,165361,1,0,0:0:0:0:
320,192,165361,1,0,0:0:0:0:
192,192,165451,1,0,0:0:0:0:
64,192,165542,1,0,0:0:0:0:
448,192,165542,1,0,0:0:0:0:
320,192,165632,1,0,0:0:0:0:
192,192,165632,1,0,0:0:0:0:
64,192,165722,1,0,0:0:0:0:
448,192,165722,1,0,0:0:0:0:
320,192,165813,1,0,0:0:0:0:
192,192,165813,1,0,0:0:0:0:
64,192,165903,1,0,0:0:0:0:
448,192,165903,1,0,0:0:0:0:
320,192,165993,1,0,0:0:0:0:
192,192,165993,1,0,0:0:0:0:
64,192,166084,1,0,0:0:0:0:
448,192,166084,1,0,0:0:0:0:
320,192,166174,1,0,0:0:0:0:
192,192,166174,1,0,0:0:0:0:
64,192,166265,1,0,0:0:0:0:
448,192,166265,1,0,0:0:0:0:
320,192,166355,1,0,0:0:0:0:
192,192,166445,1,0,0:0:0:0:
64,192,166445,1,0,0:0:0:0:
320,192,166536,1,0,0:0:0:0:
448,192,166626,1,0,0:0:0:0:
192,192,166626,1,0,0:0:0:0:
64,192,166716,1,0,0:0:0:0:
192,192,166807,1,0,0:0:0:0:
320,192,166807,1,0,0:0:0:0:
448,192,166897,1,0,0:0:0:0:
64,192,166987,1,0,0:0:0:0:
192,192,166987,1,0,0:0:0:0:
320,192,167078,1,0,0:0:0:0:
448,192,167168,1,0,0:0:0:0:
64,192,167168,1,0,0:0:0:0:
320,192,167259,1,0,0:0:0:0:
448,192,167349,1,0,0:0:0:0:
192,192,167349,1,0,0:0:0:0:
64,192,167439,1,0,0:0:0:0:
320,192,167439,1,0,0:0:0:0:
192,192,167530,1,0,0:0:0:0:
448,192,167530,1,0,0:0:0:0:
320,192,167620,1,0,0:0:0:0:
64,192,167620,1,0,0:0:0:0:
192,192,167710,1,0,0:0:0:0:
448,192,167710,1,0,0:0:0:0:
64,192,167801,1,0,0:0:0:0:
192,192,167891,1,0,0:0:0:0:
320,192,167891,1,0,0:0:0:0:
448,192,167981,1,0,0:0:0:0:
320,192,168072,1,0,0:0:0:0:
64,192,168072,1,0,0:0:0:0:
192,192,168162,1,0,0:0:0:0:
320,192,168253,1,0,0:0:0:0:
448,192,168253,1,0,0:0:0:0:
192,192,168343,1,0,0:0:0:0:
320,192,168433,1,0,0:0:0:0:
448,192,168433,1,0,0:0:0:0:
192,192,168524,1,0,0:0:0:0:
64,192,168524,1,0,0:0:0:0:
320,192,168614,1,0,0:0:0:0:
448,192,168614,1,0,0:0:0:0:
192,192,168704,1,0,0:0:0:0:
64,192,168704,1,0,0:0:0:0:
320,192,168795,1,0,0:0:0:0:
448,192,168795,1,0,0:0:0:0:
192,192,168885,1,0,0:0:0:0:
64,192,168885,1,0,0:0:0:0:
320,192,168975,1,0,0:0:0:0:
448,192,168975,1,0,0:0:0:0:
192,192,169066,1,0,0:0:0:0:
64,192,169066,1,0,0:0:0:0:
320,192,169156,1,0,0:0:0:0:
448,192,169156,1,0,0:0:0:0:
192,192,169246,1,0,0:0:0:0:
64,192,169337,1,0,0:0:0:0:
320,192,169337,1,0,0:0:0:0:
448,192,169427,1,0,0:0:0:0:
320,192,169518,1,0,0:0:0:0:
192,192,169518,1,0,0:0:0:0:
64,192,169608,1,0,0:0:0:0:
448,192,169698,1,0,0:0:0:0:
320,192,169698,1,0,0:0:0:0:
192,192,169789,1,0,0:0:0:0:
64,192,169879,1,0,0:0:0:0:
448,192,169879,128,0,170240:0:0:0:0:
64,192,170240,1,0,0:0:0:0:
192,192,170301,1,0,0:0:0:0:
448,192,170361,1,0,0:0:0:0:
320,192,170421,1,0,0:0:0:0:
64,192,170481,1,0,0:0:0:0:
192,192,170542,1,0,0:0:0:0:
320,192,170602,1,0,0:0:0:0:
