osu file format v14

[General]
AudioFilename: audio150.mp3
AudioLeadIn: 0
PreviewTime: 7711
Countdown: 1
SampleSet: None
StackLeniency: 0.7
Mode: 3
LetterboxInBreaks: 0
SpecialStyle: 1
WidescreenStoryboard: 0

[Editor]
Bookmarks: 3895,7751,11606,15461,19317,23172,30883,42449,46305,54979,58835,62690,66546,70401,89678,98353,102209,106064,109919,113775
DistanceSpacing: 2
BeatDivisor: 4
GridSize: 16
TimelineZoom: 1.8

[Metadata]
Title:Ludicrous Speed
TitleUnicode:Ludicrous Speed
Artist:F-777
ArtistUnicode:F-777
Creator:ColdCR
Version:SuperSonic [1,5x Rate]
Source:
Tags:
BeatmapID:1963696
BeatmapSetID:879737

[Difficulty]
HPDrainRate:9
CircleSize:4
OverallDifficulty:8
ApproachRate:9
SliderMultiplier:3
SliderTickRate:1

[Events]
//Background and Video events
0,0,"thumb-1920-596769.jpg",0,0
//Break Periods
//Storyboard Layer 0 (Background)
//Storyboard Layer 1 (Fail)
//Storyboard Layer 2 (Pass)
//Storyboard Layer 3 (Foreground)
//Storyboard Sound Samples

[TimingPoints]
40,240.963855421687,4,1,0,10,1,0

[HitObjects]
64,192,40,5,0,0:0:0:0:
192,192,100,1,0,0:0:0:0:
320,192,160,1,0,0:0:0:0:
448,192,221,1,0,0:0:0:0:
320,192,281,1,0,0:0:0:0:
192,192,341,1,0,0:0:0:0:
64,192,401,1,0,0:0:0:0:
320,192,461,1,0,0:0:0:0:
192,192,521,1,0,0:0:0:0:
448,192,582,1,0,0:0:0:0:
64,192,642,1,0,0:0:0:0:
320,192,702,1,0,0:0:0:0:
192,192,763,1,0,0:0:0:0:
448,192,823,1,0,0:0:0:0:
192,192,883,1,0,0:0:0:0:
64,192,943,1,0,0:0:0:0:
320,192,1003,1,0,0:0:0:0:
192,192,1064,1,0,0:0:0:0:
64,192,1124,1,0,0:0:0:0:
192,192,1184,1,0,0:0:0:0:
320,192,1245,1,0,0:0:0:0:
448,192,1305,1,0,0:0:0:0:
64,192,1365,1,0,0:0:0:0:
192,192,1425,1,0,0:0:0:0:
320,192,1485,1,0,0:0:0:0:
448,192,1546,1,0,0:0:0:0:
192,192,1606,1,0,0:0:0:0:
64,192,1666,1,0,0:0:0:0:
320,192,1727,1,0,0:0:0:0:
192,192,1787,1,0,0:0:0:0:
64,192,1847,1,0,0:0:0:0:
320,192,1907,1,0,0:0:0:0:
64,192,1967,1,0,0:0:0:0:
320,192,2027,1,0,0:0:0:0:
448,192,2088,1,0,0:0:0:0:
192,192,2148,1,0,0:0:0:0:
64,192,2209,1,0,0:0:0:0:
192,192,2269,1,0,0:0:0:0:
320,192,2329,1,0,0:0:0:0:
64,192,2389,1,0,0:0:0:0:
448,192,2449,1,0,0:0:0:0:
192,192,2509,1,0,0:0:0:0:
448,192,2570,1,0,0:0:0:0:
64,192,2630,1,0,0:0:0:0:
320,192,2690,1,0,0:0:0:0:
192,192,2751,1,0,0:0:0:0:
448,192,2811,1,0,0:0:0:0:
64,192,2871,1,0,0:0:0:0:
320,192,2931,1,0,0:0:0:0:
448,192,2991,1,0,0:0:0:0:
320,192,3052,1,0,0:0:0:0:
192,192,3112,1,0,0:0:0:0:
64,192,3172,1,0,0:0:0:0:
320,192,3233,1,0,0:0:0:0:
448,192,3293,1,0,0:0:0:0:
320,192,3353,1,0,0:0:0:0:
192,192,3413,1,0,0:0:0:0:
64,192,3473,1,0,0:0:0:0:
448,192,3533,1,0,0:0:0:0:
192,192,3594,1,0,0:0:0:0:
64,192,3654,1,0,0:0:0:0:
448,192,3694,1,0,0:0:0:0:
320,192,3735,1,0,0:0:0:0:
192,192,3775,1,0,0:0:0:0:
64,192,3815,1,0,0:0:0:0:
448,192,3815,1,0,0:0:0:0:
320,192,3855,1,0,0:0:0:0:
192,192,3895,1,0,0:0:0:0:
448,192,3895,1,0,0:0:0:0:
64,192,3955,1,0,0:0:0:0:
192,192,4015,1,0,0:0:0:0:
320,192,4076,1,0,0:0:0:0:
448,192,4136,1,0,0:0:0:0:
192,192,4196,1,0,0:0:0:0:
320,192,4257,1,0,0:0:0:0:
64,192,4257,1,0,0:0:0:0:
448,192,4317,1,0,0:0:0:0:
64,192,4377,1,0,0:0:0:0:
192,192,4437,1,0,0:0:0:0:
320,192,4497,1,0,0:0:0:0:
448,192,4497,1,0,0:0:0:0:
192,192,4558,1,0,0:0:0:0:
320,192,4618,1,0,0:0:0:0:
448,192,4678,1,0,0:0:0:0:
320,192,4739,1,0,0:0:0:0:
64,192,4739,1,0,0:0:0:0:
192,192,4799,1,0,0:0:0:0:
320,192,4859,1,0,0:0:0:0:
448,192,4919,1,0,0:0:0:0:
64,192,4979,1,0,0:0:0:0:
192,192,4979,1,0,0:0:0:0:
320,192,5039,1,0,0:0:0:0:
448,192,5100,1,0,0:0:0:0:
320,192,5160,1,0,0:0:0:0:
64,192,5221,1,0,0:0:0:0:
448,192,5221,1,0,0:0:0:0:
192,192,5281,1,0,0:0:0:0:
320,192,5341,1,0,0:0:0:0:
192,192,5401,1,0,0:0:0:0:
320,192,5461,1,0,0:0:0:0:
448,192,5461,1,0,0:0:0:0:
192,192,5521,1,0,0:0:0:0:
64,192,5582,1,0,0:0:0:0:
448,192,5642,1,0,0:0:0:0:
320,192,5702,1,0,0:0:0:0:
192,192,5702,1,0,0:0:0:0:
64,192,5763,1,0,0:0:0:0:
192,192,5823,1,0,0:0:0:0:
320,192,5883,1,0,0:0:0:0:
192,192,5943,1,0,0:0:0:0:
448,192,5943,1,0,0:0:0:0:
64,192,6003,1,0,0:0:0:0:
320,192,6064,1,0,0:0:0:0:
192,192,6124,1,0,0:0:0:0:
64,192,6184,1,0,0:0:0:0:
448,192,6184,1,0,0:0:0:0:
192,192,6245,1,0,0:0:0:0:
320,192,6305,1,0,0:0:0:0:
192,192,6365,1,0,0:0:0:0:
320,192,6425,1,0,0:0:0:0:
448,192,6425,1,0,0:0:0:0:
192,192,6485,1,0,0:0:0:0:
64,192,6546,1,0,0:0:0:0:
448,192,6606,1,0,0:0:0:0:
320,192,6666,1,0,0:0:0:0:
192,192,6666,1,0,0:0:0:0:
64,192,6727,1,0,0:0:0:0:
448,192,6787,1,0,0:0:0:0:
320,192,6847,1,0,0:0:0:0:
64,192,6907,1,0,0:0:0:0:
192,192,6907,1,0,0:0:0:0:
320,192,6967,1,0,0:0:0:0:
448,192,7027,1,0,0:0:0:0:
64,192,7088,1,0,0:0:0:0:
192,192,7148,1,0,0:0:0:0:
448,192,7148,1,0,0:0:0:0:
320,192,7209,1,0,0:0:0:0:
64,192,7269,128,0,7509:0:0:0:0:
448,192,7509,1,0,0:0:0:0:
320,192,7550,1,0,0:0:0:0:
192,192,7590,1,0,0:0:0:0:
64,192,7630,1,0,0:0:0:0:
448,192,7630,1,0,0:0:0:0:
320,192,7670,1,0,0:0:0:0:
192,192,7711,1,0,0:0:0:0:
64,192,7751,1,0,0:0:0:0:
448,192,7751,1,0,0:0:0:0:
320,192,7811,1,0,0:0:0:0:
448,192,7871,1,0,0:0:0:0:
320,192,7931,1,0,0:0:0:0:
192,192,7991,1,0,0:0:0:0:
448,192,7991,1,0,0:0:0:0:
64,192,8052,1,0,0:0:0:0:
192,192,8112,1,0,0:0:0:0:
320,192,8172,1,0,0:0:0:0:
192,192,8233,1,0,0:0:0:0:
64,192,8233,1,0,0:0:0:0:
448,192,8293,1,0,0:0:0:0:
64,192,8353,1,0,0:0:0:0:
320,192,8413,1,0,0:0:0:0:
192,192,8473,1,0,0:0:0:0:
448,192,8473,1,0,0:0:0:0:
64,192,8533,1,0,0:0:0:0:
448,192,8594,1,0,0:0:0:0:
192,192,8654,1,0,0:0:0:0:
448,192,8715,1,0,0:0:0:0:
320,192,8715,1,0,0:0:0:0:
64,192,8775,1,0,0:0:0:0:
192,192,8835,1,0,0:0:0:0:
448,192,8895,1,0,0:0:0:0:
320,192,8955,1,0,0:0:0:0:
192,192,8955,1,0,0:0:0:0:
64,192,9015,1,0,0:0:0:0:
192,192,9076,1,0,0:0:0:0:
320,192,9136,1,0,0:0:0:0:
192,192,9196,1,0,0:0:0:0:
448,192,9196,1,0,0:0:0:0:
64,192,9257,1,0,0:0:0:0:
192,192,9317,1,0,0:0:0:0:
448,192,9377,1,0,0:0:0:0:
192,192,9437,1,0,0:0:0:0:
320,192,9437,1,0,0:0:0:0:
64,192,9497,1,0,0:0:0:0:
448,192,9558,1,0,0:0:0:0:
192,192,9618,1,0,0:0:0:0:
448,192,9678,1,0,0:0:0:0:
320,192,9678,1,0,0:0:0:0:
192,192,9739,1,0,0:0:0:0:
64,192,9799,1,0,0:0:0:0:
448,192,9859,1,0,0:0:0:0:
320,192,9919,1,0,0:0:0:0:
192,192,9919,1,0,0:0:0:0:
64,192,9979,1,0,0:0:0:0:
192,192,10039,1,0,0:0:0:0:
320,192,10100,1,0,0:0:0:0:
192,192,10160,1,0,0:0:0:0:
448,192,10160,1,0,0:0:0:0:
64,192,10221,1,0,0:0:0:0:
192,192,10281,1,0,0:0:0:0:
448,192,10341,1,0,0:0:0:0:
64,192,10401,1,0,0:0:0:0:
192,192,10401,1,0,0:0:0:0:
320,192,10461,1,0,0:0:0:0:
64,192,10521,1,0,0:0:0:0:
448,192,10582,1,0,0:0:0:0:
320,192,10642,1,0,0:0:0:0:
192,192,10642,1,0,0:0:0:0:
64,192,10702,1,0,0:0:0:0:
320,192,10763,1,0,0:0:0:0:
192,192,10823,1,0,0:0:0:0:
64,192,10883,1,0,0:0:0:0:
448,192,10883,1,0,0:0:0:0:
192,192,10943,1,0,0:0:0:0:
320,192,11003,1,0,0:0:0:0:
448,192,11064,1,0,0:0:0:0:
320,192,11124,1,0,0:0:0:0:
192,192,11124,1,0,0:0:0:0:
64,192,11184,1,0,0:0:0:0:
448,192,11245,1,0,0:0:0:0:
320,192,11305,1,0,0:0:0:0:
64,192,11325,1,0,0:0:0:0:
192,192,11365,1,0,0:0:0:0:
320,192,11405,1,0,0:0:0:0:
448,192,11445,1,0,0:0:0:0:
64,192,11485,1,0,0:0:0:0:
192,192,11525,1,0,0:0:0:0:
320,192,11566,1,0,0:0:0:0:
448,192,11606,1,0,0:0:0:0:
64,192,11606,1,0,0:0:0:0:
192,192,11666,1,0,0:0:0:0:
320,192,11727,1,0,0:0:0:0:
192,192,11787,1,0,0:0:0:0:
448,192,11847,1,0,0:0:0:0:
64,192,11847,1,0,0:0:0:0:
320,192,11907,1,0,0:0:0:0:
192,192,11967,1,0,0:0:0:0:
320,192,12027,1,0,0:0:0:0:
192,192,12088,1,0,0:0:0:0:
64,192,12088,1,0,0:0:0:0:
320,192,12148,1,0,0:0:0:0:
448,192,12148,1,0,0:0:0:0:
192,192,12209,1,0,0:0:0:0:
64,192,12209,1,0,0:0:0:0:
320,192,12269,1,0,0:0:0:0:
448,192,12269,1,0,0:0:0:0:
192,192,12329,1,0,0:0:0:0:
64,192,12329,1,0,0:0:0:0:
320,192,12389,1,0,0:0:0:0:
448,192,12389,1,0,0:0:0:0:
192,192,12449,1,0,0:0:0:0:
64,192,12449,1,0,0:0:0:0:
320,192,12509,1,0,0:0:0:0:
448,192,12509,1,0,0:0:0:0:
192,192,12570,1,0,0:0:0:0:
64,192,12570,1,0,0:0:0:0:
320,192,12630,1,0,0:0:0:0:
448,192,12690,1,0,0:0:0:0:
320,192,12751,1,0,0:0:0:0:
192,192,12811,1,0,0:0:0:0:
448,192,12811,1,0,0:0:0:0:
64,192,12871,1,0,0:0:0:0:
320,192,12931,1,0,0:0:0:0:
192,192,12991,1,0,0:0:0:0:
64,192,13052,1,0,0:0:0:0:
448,192,13052,1,0,0:0:0:0:
320,192,13112,1,0,0:0:0:0:
192,192,13172,1,0,0:0:0:0:
64,192,13233,1,0,0:0:0:0:
192,192,13293,1,0,0:0:0:0:
448,192,13293,1,0,0:0:0:0:
320,192,13353,1,0,0:0:0:0:
64,192,13353,1,0,0:0:0:0:
192,192,13413,1,0,0:0:0:0:
448,192,13413,1,0,0:0:0:0:
320,192,13473,1,0,0:0:0:0:
64,192,13473,1,0,0:0:0:0:
192,192,13533,1,0,0:0:0:0:
448,192,13533,1,0,0:0:0:0:
320,192,13594,1,0,0:0:0:0:
448,192,13654,1,0,0:0:0:0:
320,192,13715,1,0,0:0:0:0:
192,192,13775,1,0,0:0:0:0:
64,192,13775,1,0,0:0:0:0:
320,192,13835,1,0,0:0:0:0:
448,192,13895,1,0,0:0:0:0:
64,192,13955,1,0,0:0:0:0:
192,192,14015,1,0,0:0:0:0:
320,192,14015,1,0,0:0:0:0:
448,192,14076,1,0,0:0:0:0:
64,192,14076,1,0,0:0:0:0:
192,192,14136,1,0,0:0:0:0:
320,192,14136,1,0,0:0:0:0:
64,192,14196,1,0,0:0:0:0:
448,192,14196,1,0,0:0:0:0:
320,192,14257,1,0,0:0:0:0:
192,192,14257,1,0,0:0:0:0:
64,192,14317,1,0,0:0:0:0:
448,192,14317,1,0,0:0:0:0:
320,192,14377,1,0,0:0:0:0:
192,192,14377,1,0,0:0:0:0:
64,192,14437,1,0,0:0:0:0:
448,192,14437,1,0,0:0:0:0:
320,192,14497,1,0,0:0:0:0:
192,192,14497,1,0,0:0:0:0:
448,192,14558,1,0,0:0:0:0:
320,192,14618,1,0,0:0:0:0:
192,192,14678,1,0,0:0:0:0:
64,192,14739,1,0,0:0:0:0:
320,192,14739,1,0,0:0:0:0:
448,192,14799,1,0,0:0:0:0:
320,192,14859,1,0,0:0:0:0:
192,192,14919,1,0,0:0:0:0:
320,192,14979,128,0,15221:0:0:0:0:
64,192,15221,1,0,0:0:0:0:
192,192,15261,1,0,0:0:0:0:
448,192,15301,1,0,0:0:0:0:
320,192,15341,1,0,0:0:0:0:
64,192,15381,1,0,0:0:0:0:
192,192,15421,1,0,0:0:0:0:
320,192,15461,1,0,0:0:0:0:
448,192,15461,1,0,0:0:0:0:
192,192,15521,1,0,0:0:0:0:
64,192,15582,1,0,0:0:0:0:
320,192,15582,1,0,0:0:0:0:
448,192,15642,1,0,0:0:0:0:
320,192,15702,1,0,0:0:0:0:
192,192,15702,1,0,0:0:0:0:
64,192,15763,1,0,0:0:0:0:
448,192,15823,1,0,0:0:0:0:
320,192,15823,1,0,0:0:0:0:
192,192,15883,1,0,0:0:0:0:
64,192,15943,1,0,0:0:0:0:
320,192,15943,1,0,0:0:0:0:
448,192,16003,1,0,0:0:0:0:
192,192,16064,1,0,0:0:0:0:
64,192,16064,1,0,0:0:0:0:
320,192,16124,1,0,0:0:0:0:
64,192,16184,1,0,0:0:0:0:
448,192,16184,1,0,0:0:0:0:
320,192,16245,1,0,0:0:0:0:
448,192,16305,1,0,0:0:0:0:
192,192,16305,1,0,0:0:0:0:
64,192,16365,1,0,0:0:0:0:
192,192,16425,1,0,0:0:0:0:
320,192,16425,1,0,0:0:0:0:
448,192,16485,1,0,0:0:0:0:
64,192,16546,1,0,0:0:0:0:
320,192,16546,1,0,0:0:0:0:
192,192,16606,1,0,0:0:0:0:
320,192,16666,1,0,0:0:0:0:
448,192,16666,1,0,0:0:0:0:
192,192,16727,1,0,0:0:0:0:
64,192,16787,1,0,0:0:0:0:
448,192,16787,1,0,0:0:0:0:
320,192,16847,1,0,0:0:0:0:
192,192,16907,1,0,0:0:0:0:
448,192,16907,1,0,0:0:0:0:
64,192,16967,1,0,0:0:0:0:
448,192,17027,1,0,0:0:0:0:
320,192,17027,1,0,0:0:0:0:
192,192,17088,1,0,0:0:0:0:
64,192,17148,1,0,0:0:0:0:
320,192,17148,1,0,0:0:0:0:
448,192,17209,1,0,0:0:0:0:
192,192,17269,1,0,0:0:0:0:
320,192,17269,1,0,0:0:0:0:
64,192,17329,1,0,0:0:0:0:
448,192,17389,1,0,0:0:0:0:
192,192,17389,1,0,0:0:0:0:
320,192,17449,1,0,0:0:0:0:
192,192,17509,1,0,0:0:0:0:
64,192,17509,1,0,0:0:0:0:
320,192,17570,1,0,0:0:0:0:
448,192,17630,1,0,0:0:0:0:
64,192,17630,1,0,0:0:0:0:
192,192,17690,1,0,0:0:0:0:
320,192,17751,1,0,0:0:0:0:
64,192,17751,1,0,0:0:0:0:
448,192,17811,1,0,0:0:0:0:
320,192,17871,1,0,0:0:0:0:
192,192,17871,1,0,0:0:0:0:
64,192,17931,1,0,0:0:0:0:
448,192,17991,1,0,0:0:0:0:
320,192,17991,1,0,0:0:0:0:
192,192,18052,1,0,0:0:0:0:
64,192,18112,1,0,0:0:0:0:
448,192,18112,1,0,0:0:0:0:
320,192,18172,1,0,0:0:0:0:
192,192,18233,1,0,0:0:0:0:
64,192,18233,1,0,0:0:0:0:
320,192,18293,1,0,0:0:0:0:
448,192,18353,128,0,18473:0:0:0:0:
192,192,18473,128,0,18594:0:0:0:0:
320,192,18594,128,0,18835:0:0:0:0:
64,192,18835,128,0,18895:0:0:0:0:
192,192,18835,128,0,18895:0:0:0:0:
448,192,18895,128,0,18955:0:0:0:0:
320,192,18895,128,0,18955:0:0:0:0:
192,192,18955,128,0,19015:0:0:0:0:
64,192,18955,128,0,19015:0:0:0:0:
320,192,19015,128,0,19076:0:0:0:0:
448,192,19015,128,0,19076:0:0:0:0:
192,192,19076,1,0,0:0:0:0:
64,192,19116,1,0,0:0:0:0:
448,192,19156,1,0,0:0:0:0:
320,192,19196,1,0,0:0:0:0:
192,192,19237,1,0,0:0:0:0:
64,192,19277,1,0,0:0:0:0:
448,192,19317,1,0,0:0:0:0:
320,192,19377,1,0,0:0:0:0:
192,192,19437,1,0,0:0:0:0:
448,192,19437,1,0,0:0:0:0:
64,192,19497,1,0,0:0:0:0:
192,192,19558,1,0,0:0:0:0:
320,192,19558,1,0,0:0:0:0:
448,192,19618,1,0,0:0:0:0:
320,192,19678,1,0,0:0:0:0:
64,192,19678,1,0,0:0:0:0:
192,192,19739,1,0,0:0:0:0:
64,192,19799,1,0,0:0:0:0:
448,192,19799,1,0,0:0:0:0:
320,192,19859,1,0,0:0:0:0:
192,192,19859,1,0,0:0:0:0:
64,192,19919,1,0,0:0:0:0:
448,192,19919,1,0,0:0:0:0:
320,192,19979,1,0,0:0:0:0:
192,192,19979,1,0,0:0:0:0:
64,192,20039,1,0,0:0:0:0:
448,192,20039,1,0,0:0:0:0:
320,192,20100,1,0,0:0:0:0:
192,192,20100,1,0,0:0:0:0:
64,192,20160,1,0,0:0:0:0:
448,192,20160,1,0,0:0:0:0:
320,192,20221,1,0,0:0:0:0:
192,192,20221,1,0,0:0:0:0:
64,192,20281,1,0,0:0:0:0:
448,192,20281,1,0,0:0:0:0:
320,192,20341,1,0,0:0:0:0:
192,192,20401,1,0,0:0:0:0:
64,192,20401,1,0,0:0:0:0:
320,192,20461,1,0,0:0:0:0:
192,192,20521,1,0,0:0:0:0:
448,192,20521,1,0,0:0:0:0:
64,192,20582,1,0,0:0:0:0:
192,192,20642,1,0,0:0:0:0:
320,192,20642,1,0,0:0:0:0:
448,192,20702,1,0,0:0:0:0:
192,192,20763,1,0,0:0:0:0:
320,192,20763,1,0,0:0:0:0:
64,192,20823,1,0,0:0:0:0:
448,192,20883,1,0,0:0:0:0:
320,192,20883,1,0,0:0:0:0:
192,192,20943,1,0,0:0:0:0:
64,192,21003,1,0,0:0:0:0:
320,192,21003,1,0,0:0:0:0:
448,192,21064,1,0,0:0:0:0:
192,192,21064,1,0,0:0:0:0:
320,192,21124,1,0,0:0:0:0:
64,192,21124,1,0,0:0:0:0:
192,192,21184,1,0,0:0:0:0:
448,192,21184,1,0,0:0:0:0:
320,192,21245,1,0,0:0:0:0:
64,192,21245,1,0,0:0:0:0:
448,192,21305,1,0,0:0:0:0:
320,192,21365,1,0,0:0:0:0:
192,192,21365,1,0,0:0:0:0:
64,192,21425,1,0,0:0:0:0:
448,192,21485,1,0,0:0:0:0:
192,192,21485,1,0,0:0:0:0:
320,192,21546,1,0,0:0:0:0:
192,192,21606,1,0,0:0:0:0:
448,192,21606,1,0,0:0:0:0:
64,192,21666,1,0,0:0:0:0:
448,192,21727,1,0,0:0:0:0:
320,192,21727,1,0,0:0:0:0:
192,192,21787,1,0,0:0:0:0:
64,192,21787,1,0,0:0:0:0:
320,192,21847,1,0,0:0:0:0:
448,192,21847,1,0,0:0:0:0:
192,192,21907,1,0,0:0:0:0:
64,192,21907,1,0,0:0:0:0:
320,192,21967,1,0,0:0:0:0:
448,192,21967,1,0,0:0:0:0:
192,192,22027,1,0,0:0:0:0:
64,192,22027,1,0,0:0:0:0:
320,192,22088,1,0,0:0:0:0:
448,192,22088,1,0,0:0:0:0:
192,192,22148,1,0,0:0:0:0:
64,192,22148,1,0,0:0:0:0:
320,192,22209,1,0,0:0:0:0:
448,192,22209,1,0,0:0:0:0:
192,192,22269,1,0,0:0:0:0:
64,192,22329,1,0,0:0:0:0:
320,192,22329,1,0,0:0:0:0:
448,192,22389,1,0,0:0:0:0:
320,192,22449,1,0,0:0:0:0:
192,192,22449,1,0,0:0:0:0:
64,192,22509,1,0,0:0:0:0:
448,192,22570,1,0,0:0:0:0:
320,192,22570,1,0,0:0:0:0:
192,192,22630,1,0,0:0:0:0:
64,192,22690,128,0,22931:0:0:0:0:
448,192,22931,1,0,0:0:0:0:
320,192,22971,1,0,0:0:0:0:
192,192,23011,1,0,0:0:0:0:
64,192,23052,1,0,0:0:0:0:
448,192,23092,1,0,0:0:0:0:
320,192,23132,1,0,0:0:0:0:
192,192,23172,1,0,0:0:0:0:
64,192,23172,1,0,0:0:0:0:
320,192,23293,1,0,0:0:0:0:
448,192,23293,1,0,0:0:0:0:
192,192,23413,1,0,0:0:0:0:
448,192,23533,1,0,0:0:0:0:
64,192,23533,1,0,0:0:0:0:
64,192,23775,1,0,0:0:0:0:
448,192,23775,1,0,0:0:0:0:
192,192,23895,1,0,0:0:0:0:
320,192,24015,1,0,0:0:0:0:
192,192,24015,1,0,0:0:0:0:
448,192,24257,1,0,0:0:0:0:
320,192,24257,1,0,0:0:0:0:
192,192,24377,1,0,0:0:0:0:
320,192,24497,1,0,0:0:0:0:
64,192,24497,1,0,0:0:0:0:
192,192,24739,1,0,0:0:0:0:
320,192,24739,1,0,0:0:0:0:
448,192,24859,1,0,0:0:0:0:
320,192,24979,1,0,0:0:0:0:
64,192,24979,1,0,0:0:0:0:
192,192,25221,1,0,0:0:0:0:
320,192,25221,1,0,0:0:0:0:
448,192,25341,1,0,0:0:0:0:
64,192,25461,1,0,0:0:0:0:
192,192,25461,1,0,0:0:0:0:
448,192,25702,1,0,0:0:0:0:
320,192,25702,1,0,0:0:0:0:
192,192,25823,1,0,0:0:0:0:
192,192,25943,1,0,0:0:0:0:
64,192,25943,1,0,0:0:0:0:
448,192,26184,1,0,0:0:0:0:
192,192,26184,1,0,0:0:0:0:
192,192,26305,1,0,0:0:0:0:
64,192,26425,1,0,0:0:0:0:
448,192,26425,1,0,0:0:0:0:
320,192,26666,1,0,0:0:0:0:
64,192,26666,1,0,0:0:0:0:
448,192,26787,1,0,0:0:0:0:
320,192,26907,1,0,0:0:0:0:
448,192,26907,1,0,0:0:0:0:
64,192,27027,128,0,29919:0:0:0:0:
192,192,27148,1,0,0:0:0:0:
320,192,27148,1,0,0:0:0:0:
320,192,27269,1,0,0:0:0:0:
448,192,27389,1,0,0:0:0:0:
192,192,27389,1,0,0:0:0:0:
448,192,27630,1,0,0:0:0:0:
320,192,27630,1,0,0:0:0:0:
192,192,27751,1,0,0:0:0:0:
192,192,27871,1,0,0:0:0:0:
448,192,27871,1,0,0:0:0:0:
448,192,28112,1,0,0:0:0:0:
320,192,28112,1,0,0:0:0:0:
192,192,28233,1,0,0:0:0:0:
320,192,28353,1,0,0:0:0:0:
192,192,28353,1,0,0:0:0:0:
448,192,28594,1,0,0:0:0:0:
192,192,28594,1,0,0:0:0:0:
320,192,28715,1,0,0:0:0:0:
192,192,28835,1,0,0:0:0:0:
320,192,28835,1,0,0:0:0:0:
448,192,29076,1,0,0:0:0:0:
320,192,29076,1,0,0:0:0:0:
448,192,29196,1,0,0:0:0:0:
192,192,29317,1,0,0:0:0:0:
320,192,29317,1,0,0:0:0:0:
448,192,29558,1,0,0:0:0:0:
192,192,29558,1,0,0:0:0:0:
320,192,29678,1,0,0:0:0:0:
192,192,29799,1,0,0:0:0:0:
320,192,29799,1,0,0:0:0:0:
448,192,29919,1,0,0:0:0:0:
320,192,29979,1,0,0:0:0:0:
192,192,30039,128,0,30160:0:0:0:0:
64,192,30160,128,0,30281:0:0:0:0:
320,192,30281,128,0,30401:0:0:0:0:
448,192,30401,128,0,30642:0:0:0:0:
64,192,30642,1,0,0:0:0:0:
192,192,30682,1,0,0:0:0:0:
320,192,30723,1,0,0:0:0:0:
448,192,30763,1,0,0:0:0:0:
64,192,30803,1,0,0:0:0:0:
192,192,30843,1,0,0:0:0:0:
320,192,30883,1,0,0:0:0:0:
448,192,30883,1,0,0:0:0:0:
192,192,30943,1,0,0:0:0:0:
64,192,31003,1,0,0:0:0:0:
192,192,31064,1,0,0:0:0:0:
320,192,31124,1,0,0:0:0:0:
448,192,31124,1,0,0:0:0:0:
64,192,31124,1,0,0:0:0:0:
192,192,31184,1,0,0:0:0:0:
320,192,31245,1,0,0:0:0:0:
448,192,31305,1,0,0:0:0:0:
320,192,31365,1,0,0:0:0:0:
192,192,31365,1,0,0:0:0:0:
64,192,31365,1,0,0:0:0:0:
448,192,31425,1,0,0:0:0:0:
320,192,31485,1,0,0:0:0:0:
192,192,31546,1,0,0:0:0:0:
64,192,31606,1,0,0:0:0:0:
320,192,31606,1,0,0:0:0:0:
448,192,31606,1,0,0:0:0:0:
192,192,31666,1,0,0:0:0:0:
320,192,31727,1,0,0:0:0:0:
448,192,31787,1,0,0:0:0:0:
320,192,31847,1,0,0:0:0:0:
192,192,31847,1,0,0:0:0:0:
64,192,31847,1,0,0:0:0:0:
448,192,31907,1,0,0:0:0:0:
320,192,31967,1,0,0:0:0:0:
192,192,32027,1,0,0:0:0:0:
64,192,32088,1,0,0:0:0:0:
320,192,32088,1,0,0:0:0:0:
448,192,32088,1,0,0:0:0:0:
192,192,32148,1,0,0:0:0:0:
320,192,32209,1,0,0:0:0:0:
192,192,32269,1,0,0:0:0:0:
320,192,32329,1,0,0:0:0:0:
64,192,32329,1,0,0:0:0:0:
448,192,32329,1,0,0:0:0:0:
192,192,32389,1,0,0:0:0:0:
64,192,32449,1,0,0:0:0:0:
448,192,32509,1,0,0:0:0:0:
320,192,32570,1,0,0:0:0:0:
192,192,32570,1,0,0:0:0:0:
64,192,32570,1,0,0:0:0:0:
448,192,32630,1,0,0:0:0:0:
64,192,32690,1,0,0:0:0:0:
192,192,32751,1,0,0:0:0:0:
320,192,32811,1,0,0:0:0:0:
448,192,32811,1,0,0:0:0:0:
64,192,32811,1,0,0:0:0:0:
192,192,32871,1,0,0:0:0:0:
320,192,32931,1,0,0:0:0:0:
192,192,32991,1,0,0:0:0:0:
320,192,33052,1,0,0:0:0:0:
448,192,33052,1,0,0:0:0:0:
64,192,33052,1,0,0:0:0:0:
192,192,33112,1,0,0:0:0:0:
320,192,33172,1,0,0:0:0:0:
448,192,33233,1,0,0:0:0:0:
320,192,33293,1,0,0:0:0:0:
192,192,33293,1,0,0:0:0:0:
64,192,33293,1,0,0:0:0:0:
448,192,33353,1,0,0:0:0:0:
192,192,33413,1,0,0:0:0:0:
320,192,33473,1,0,0:0:0:0:
448,192,33533,1,0,0:0:0:0:
192,192,33533,1,0,0:0:0:0:
64,192,33533,1,0,0:0:0:0:
320,192,33594,1,0,0:0:0:0:
192,192,33654,1,0,0:0:0:0:
448,192,33715,1,0,0:0:0:0:
320,192,33775,1,0,0:0:0:0:
192,192,33775,1,0,0:0:0:0:
64,192,33775,1,0,0:0:0:0:
448,192,33835,1,0,0:0:0:0:
320,192,33895,1,0,0:0:0:0:
192,192,33955,1,0,0:0:0:0:
64,192,34015,1,0,0:0:0:0:
320,192,34015,1,0,0:0:0:0:
448,192,34015,1,0,0:0:0:0:
192,192,34076,1,0,0:0:0:0:
448,192,34136,1,0,0:0:0:0:
320,192,34196,1,0,0:0:0:0:
192,192,34257,1,0,0:0:0:0:
64,192,34257,1,0,0:0:0:0:
448,192,34257,1,0,0:0:0:0:
320,192,34317,1,0,0:0:0:0:
192,192,34377,1,0,0:0:0:0:
448,192,34437,1,0,0:0:0:0:
320,192,34497,1,0,0:0:0:0:
192,192,34497,1,0,0:0:0:0:
64,192,34497,1,0,0:0:0:0:
448,192,34558,1,0,0:0:0:0:
64,192,34618,1,0,0:0:0:0:
192,192,34678,1,0,0:0:0:0:
320,192,34739,1,0,0:0:0:0:
448,192,34739,1,0,0:0:0:0:
64,192,34739,1,0,0:0:0:0:
192,192,34799,1,0,0:0:0:0:
320,192,34859,1,0,0:0:0:0:
448,192,34919,1,0,0:0:0:0:
64,192,34979,1,0,0:0:0:0:
192,192,34979,1,0,0:0:0:0:
320,192,34979,1,0,0:0:0:0:
448,192,35039,1,0,0:0:0:0:
320,192,35100,1,0,0:0:0:0:
64,192,35160,1,0,0:0:0:0:
192,192,35221,1,0,0:0:0:0:
320,192,35221,1,0,0:0:0:0:
448,192,35221,1,0,0:0:0:0:
64,192,35281,1,0,0:0:0:0:
192,192,35341,1,0,0:0:0:0:
320,192,35401,1,0,0:0:0:0:
192,192,35461,1,0,0:0:0:0:
64,192,35461,1,0,0:0:0:0:
448,192,35461,1,0,0:0:0:0:
320,192,35521,1,0,0:0:0:0:
64,192,35582,1,0,0:0:0:0:
192,192,35642,1,0,0:0:0:0:
320,192,35702,1,0,0:0:0:0:
448,192,35702,1,0,0:0:0:0:
64,192,35702,1,0,0:0:0:0:
192,192,35763,1,0,0:0:0:0:
448,192,35823,1,0,0:0:0:0:
320,192,35883,1,0,0:0:0:0:
192,192,35943,1,0,0:0:0:0:
448,192,35943,1,0,0:0:0:0:
64,192,35943,1,0,0:0:0:0:
320,192,36003,1,0,0:0:0:0:
192,192,36064,1,0,0:0:0:0:
64,192,36124,1,0,0:0:0:0:
192,192,36184,1,0,0:0:0:0:
320,192,36184,1,0,0:0:0:0:
448,192,36184,1,0,0:0:0:0:
64,192,36245,1,0,0:0:0:0:
320,192,36305,1,0,0:0:0:0:
448,192,36365,1,0,0:0:0:0:
320,192,36425,1,0,0:0:0:0:
192,192,36425,1,0,0:0:0:0:
64,192,36425,1,0,0:0:0:0:
448,192,36485,1,0,0:0:0:0:
320,192,36546,1,0,0:0:0:0:
64,192,36606,1,0,0:0:0:0:
192,192,36666,1,0,0:0:0:0:
448,192,36666,1,0,0:0:0:0:
320,192,36666,1,0,0:0:0:0:
64,192,36727,1,0,0:0:0:0:
192,192,36787,1,0,0:0:0:0:
320,192,36847,1,0,0:0:0:0:
192,192,36907,1,0,0:0:0:0:
64,192,36907,1,0,0:0:0:0:
448,192,36907,1,0,0:0:0:0:
320,192,36967,1,0,0:0:0:0:
192,192,37027,1,0,0:0:0:0:
64,192,37088,1,0,0:0:0:0:
320,192,37148,1,0,0:0:0:0:
192,192,37148,1,0,0:0:0:0:
448,192,37148,1,0,0:0:0:0:
64,192,37209,1,0,0:0:0:0:
192,192,37269,1,0,0:0:0:0:
320,192,37329,1,0,0:0:0:0:
192,192,37389,1,0,0:0:0:0:
64,192,37389,1,0,0:0:0:0:
448,192,37389,1,0,0:0:0:0:
320,192,37449,1,0,0:0:0:0:
192,192,37509,1,0,0:0:0:0:
320,192,37570,1,0,0:0:0:0:
448,192,37630,1,0,0:0:0:0:
192,192,37630,1,0,0:0:0:0:
64,192,37630,1,0,0:0:0:0:
320,192,37690,1,0,0:0:0:0:
192,192,37751,1,0,0:0:0:0:
64,192,37811,1,0,0:0:0:0:
192,192,37871,1,0,0:0:0:0:
320,192,37871,1,0,0:0:0:0:
448,192,37871,1,0,0:0:0:0:
64,192,37931,1,0,0:0:0:0:
192,192,37991,1,0,0:0:0:0:
448,192,38052,1,0,0:0:0:0:
320,192,38112,1,0,0:0:0:0:
192,192,38112,1,0,0:0:0:0:
64,192,38112,1,0,0:0:0:0:
448,192,38172,1,0,0:0:0:0:
320,192,38233,1,0,0:0:0:0:
192,192,38293,1,0,0:0:0:0:
320,192,38353,1,0,0:0:0:0:
448,192,38353,1,0,0:0:0:0:
64,192,38353,1,0,0:0:0:0:
192,192,38413,1,0,0:0:0:0:
320,192,38473,1,0,0:0:0:0:
64,192,38533,1,0,0:0:0:0:
192,192,38594,1,0,0:0:0:0:
320,192,38594,1,0,0:0:0:0:
448,192,38594,1,0,0:0:0:0:
64,192,38654,1,0,0:0:0:0:
192,192,38715,1,0,0:0:0:0:
320,192,38775,1,0,0:0:0:0:
192,192,38835,1,0,0:0:0:0:
64,192,38835,1,0,0:0:0:0:
448,192,38835,1,0,0:0:0:0:
320,192,38895,1,0,0:0:0:0:
192,192,38955,1,0,0:0:0:0:
320,192,39015,1,0,0:0:0:0:
64,192,39076,1,0,0:0:0:0:
192,192,39076,1,0,0:0:0:0:
448,192,39076,1,0,0:0:0:0:
320,192,39136,1,0,0:0:0:0:
192,192,39196,1,0,0:0:0:0:
448,192,39257,1,0,0:0:0:0:
320,192,39317,1,0,0:0:0:0:
192,192,39317,1,0,0:0:0:0:
64,192,39317,1,0,0:0:0:0:
448,192,39377,1,0,0:0:0:0:
320,192,39437,1,0,0:0:0:0:
192,192,39497,1,0,0:0:0:0:
64,192,39558,1,0,0:0:0:0:
320,192,39558,1,0,0:0:0:0:
448,192,39558,1,0,0:0:0:0:
192,192,39618,1,0,0:0:0:0:
64,192,39678,1,0,0:0:0:0:
448,192,39739,1,0,0:0:0:0:
320,192,39799,1,0,0:0:0:0:
192,192,39799,1,0,0:0:0:0:
64,192,39799,1,0,0:0:0:0:
448,192,39859,1,0,0:0:0:0:
320,192,39919,1,0,0:0:0:0:
192,192,39979,1,0,0:0:0:0:
64,192,40039,1,0,0:0:0:0:
320,192,40039,1,0,0:0:0:0:
448,192,40039,1,0,0:0:0:0:
192,192,40100,1,0,0:0:0:0:
320,192,40160,1,0,0:0:0:0:
192,192,40221,1,0,0:0:0:0:
320,192,40281,1,0,0:0:0:0:
448,192,40281,1,0,0:0:0:0:
64,192,40281,1,0,0:0:0:0:
192,192,40341,1,0,0:0:0:0:
320,192,40401,1,0,0:0:0:0:
448,192,40461,1,0,0:0:0:0:
320,192,40521,1,0,0:0:0:0:
192,192,40521,1,0,0:0:0:0:
64,192,40521,1,0,0:0:0:0:
448,192,40582,1,0,0:0:0:0:
320,192,40642,1,0,0:0:0:0:
64,192,40702,1,0,0:0:0:0:
192,192,40763,1,0,0:0:0:0:
320,192,40763,1,0,0:0:0:0:
448,192,40763,1,0,0:0:0:0:
64,192,40823,1,0,0:0:0:0:
192,192,40883,1,0,0:0:0:0:
320,192,40943,1,0,0:0:0:0:
192,192,41003,1,0,0:0:0:0:
64,192,41003,1,0,0:0:0:0:
448,192,41003,1,0,0:0:0:0:
320,192,41064,1,0,0:0:0:0:
192,192,41124,1,0,0:0:0:0:
64,192,41184,1,0,0:0:0:0:
192,192,41245,1,0,0:0:0:0:
448,192,41245,1,0,0:0:0:0:
320,192,41245,1,0,0:0:0:0:
64,192,41305,1,0,0:0:0:0:
192,192,41365,1,0,0:0:0:0:
320,192,41425,1,0,0:0:0:0:
192,192,41485,1,0,0:0:0:0:
64,192,41485,1,0,0:0:0:0:
448,192,41485,1,0,0:0:0:0:
320,192,41546,1,0,0:0:0:0:
192,192,41606,1,0,0:0:0:0:
448,192,41666,1,0,0:0:0:0:
320,192,41727,1,0,0:0:0:0:
192,192,41727,1,0,0:0:0:0:
64,192,41727,1,0,0:0:0:0:
448,192,41787,1,0,0:0:0:0:
64,192,41847,1,0,0:0:0:0:
192,192,41907,1,0,0:0:0:0:
320,192,41967,1,0,0:0:0:0:
448,192,41967,1,0,0:0:0:0:
64,192,41967,1,0,0:0:0:0:
192,192,42027,1,0,0:0:0:0:
320,192,42088,1,0,0:0:0:0:
192,192,42148,1,0,0:0:0:0:
448,192,42209,1,0,0:0:0:0:
64,192,42209,1,0,0:0:0:0:
320,192,42209,1,0,0:0:0:0:
192,192,42269,1,0,0:0:0:0:
64,192,42329,1,0,0:0:0:0:
320,192,42389,1,0,0:0:0:0:
64,192,42449,1,0,0:0:0:0:
192,192,42449,1,0,0:0:0:0:
448,192,42449,128,0,42570:0:0:0:0:
320,192,42570,128,0,42690:0:0:0:0:
64,192,42690,128,0,42811:0:0:0:0:
192,192,42690,1,0,0:0:0:0:
320,192,42811,128,0,42931:0:0:0:0:
192,192,42931,128,0,43052:0:0:0:0:
448,192,42931,1,0,0:0:0:0:
448,192,43052,128,0,43172:0:0:0:0:
64,192,43172,128,0,43293:0:0:0:0:
320,192,43172,1,0,0:0:0:0:
192,192,43293,128,0,43413:0:0:0:0:
448,192,43413,1,0,0:0:0:0:
448,192,43533,128,0,43654:0:0:0:0:
192,192,43654,128,0,43775:0:0:0:0:
320,192,43654,1,0,0:0:0:0:
64,192,43775,128,0,43895:0:0:0:0:
320,192,43895,128,0,44015:0:0:0:0:
448,192,43895,1,0,0:0:0:0:
192,192,44015,128,0,44136:0:0:0:0:
448,192,44136,128,0,44257:0:0:0:0:
64,192,44136,1,0,0:0:0:0:
320,192,44257,128,0,44377:0:0:0:0:
192,192,44377,1,0,0:0:0:0:
448,192,44497,128,0,44618:0:0:0:0:
192,192,44618,128,0,44739:0:0:0:0:
320,192,44618,1,0,0:0:0:0:
320,192,44739,128,0,44859:0:0:0:0:
64,192,44859,128,0,44979:0:0:0:0:
192,192,44859,1,0,0:0:0:0:
320,192,44979,128,0,45100:0:0:0:0:
448,192,45100,128,0,45221:0:0:0:0:
64,192,45100,1,0,0:0:0:0:
320,192,45221,128,0,45341:0:0:0:0:
448,192,45341,1,0,0:0:0:0:
64,192,45341,1,0,0:0:0:0:
320,192,45582,1,0,0:0:0:0:
192,192,45823,1,0,0:0:0:0:
448,192,46064,1,0,0:0:0:0:
64,192,46305,1,0,0:0:0:0:
192,192,46365,1,0,0:0:0:0:
448,192,46425,1,0,0:0:0:0:
320,192,46485,1,0,0:0:0:0:
192,192,46546,1,0,0:0:0:0:
64,192,46606,1,0,0:0:0:0:
448,192,46666,1,0,0:0:0:0:
320,192,46727,1,0,0:0:0:0:
192,192,46787,1,0,0:0:0:0:
64,192,46847,1,0,0:0:0:0:
192,192,46907,1,0,0:0:0:0:
320,192,46967,1,0,0:0:0:0:
448,192,47027,1,0,0:0:0:0:
64,192,47088,1,0,0:0:0:0:
192,192,47148,1,0,0:0:0:0:
320,192,47209,1,0,0:0:0:0:
192,192,47269,1,0,0:0:0:0:
64,192,47329,1,0,0:0:0:0:
448,192,47389,1,0,0:0:0:0:
320,192,47449,1,0,0:0:0:0:
192,192,47509,1,0,0:0:0:0:
64,192,47570,1,0,0:0:0:0:
320,192,47630,1,0,0:0:0:0:
192,192,47690,1,0,0:0:0:0:
320,192,47751,1,0,0:0:0:0:
448,192,47811,1,0,0:0:0:0:
320,192,47871,1,0,0:0:0:0:
192,192,47931,1,0,0:0:0:0:
64,192,47991,1,0,0:0:0:0:
448,192,48052,1,0,0:0:0:0:
320,192,48112,1,0,0:0:0:0:
192,192,48172,1,0,0:0:0:0:
64,192,48233,1,0,0:0:0:0:
320,192,48233,1,0,0:0:0:0:
448,192,48293,1,0,0:0:0:0:
320,192,48353,1,0,0:0:0:0:
192,192,48353,1,0,0:0:0:0:
64,192,48413,1,0,0:0:0:0:
448,192,48473,1,0,0:0:0:0:
320,192,48473,1,0,0:0:0:0:
192,192,48533,1,0,0:0:0:0:
64,192,48594,1,0,0:0:0:0:
320,192,48594,1,0,0:0:0:0:
448,192,48654,1,0,0:0:0:0:
64,192,48715,1,0,0:0:0:0:
192,192,48715,1,0,0:0:0:0:
320,192,48775,1,0,0:0:0:0:
448,192,48835,1,0,0:0:0:0:
192,192,48835,1,0,0:0:0:0:
64,192,48895,1,0,0:0:0:0:
320,192,48955,1,0,0:0:0:0:
448,192,48955,1,0,0:0:0:0:
192,192,49015,1,0,0:0:0:0:
64,192,49076,1,0,0:0:0:0:
448,192,49076,1,0,0:0:0:0:
320,192,49136,1,0,0:0:0:0:
192,192,49196,1,0,0:0:0:0:
448,192,49196,1,0,0:0:0:0:
64,192,49257,1,0,0:0:0:0:
192,192,49317,1,0,0:0:0:0:
320,192,49317,1,0,0:0:0:0:
448,192,49377,1,0,0:0:0:0:
64,192,49437,1,0,0:0:0:0:
192,192,49437,1,0,0:0:0:0:
320,192,49497,1,0,0:0:0:0:
448,192,49558,1,0,0:0:0:0:
192,192,49558,1,0,0:0:0:0:
64,192,49618,1,0,0:0:0:0:
448,192,49678,1,0,0:0:0:0:
320,192,49678,1,0,0:0:0:0:
192,192,49739,1,0,0:0:0:0:
64,192,49799,1,0,0:0:0:0:
320,192,49799,1,0,0:0:0:0:
448,192,49859,1,0,0:0:0:0:
64,192,49919,1,0,0:0:0:0:
192,192,49919,1,0,0:0:0:0:
320,192,49979,1,0,0:0:0:0:
192,192,50039,1,0,0:0:0:0:
448,192,50039,1,0,0:0:0:0:
64,192,50100,1,0,0:0:0:0:
320,192,50160,1,0,0:0:0:0:
192,192,50160,1,0,0:0:0:0:
448,192,50160,1,0,0:0:0:0:
64,192,50221,1,0,0:0:0:0:
192,192,50281,1,0,0:0:0:0:
320,192,50281,1,0,0:0:0:0:
448,192,50341,1,0,0:0:0:0:
320,192,50401,1,0,0:0:0:0:
192,192,50401,1,0,0:0:0:0:
64,192,50401,1,0,0:0:0:0:
448,192,50461,1,0,0:0:0:0:
320,192,50521,1,0,0:0:0:0:
64,192,50521,1,0,0:0:0:0:
192,192,50582,1,0,0:0:0:0:
320,192,50642,1,0,0:0:0:0:
448,192,50642,1,0,0:0:0:0:
64,192,50642,1,0,0:0:0:0:
192,192,50702,1,0,0:0:0:0:
320,192,50763,1,0,0:0:0:0:
448,192,50763,1,0,0:0:0:0:
192,192,50823,1,0,0:0:0:0:
64,192,50883,1,0,0:0:0:0:
320,192,50883,1,0,0:0:0:0:
448,192,50883,1,0,0:0:0:0:
192,192,50943,1,0,0:0:0:0:
448,192,51003,1,0,0:0:0:0:
64,192,51003,1,0,0:0:0:0:
320,192,51064,1,0,0:0:0:0:
64,192,51124,1,0,0:0:0:0:
448,192,51124,1,0,0:0:0:0:
192,192,51124,1,0,0:0:0:0:
320,192,51184,1,0,0:0:0:0:
192,192,51245,1,0,0:0:0:0:
64,192,51245,1,0,0:0:0:0:
320,192,51305,1,0,0:0:0:0:
192,192,51365,1,0,0:0:0:0:
448,192,51365,1,0,0:0:0:0:
64,192,51365,1,0,0:0:0:0:
320,192,51425,1,0,0:0:0:0:
192,192,51485,1,0,0:0:0:0:
448,192,51485,1,0,0:0:0:0:
64,192,51546,1,0,0:0:0:0:
192,192,51606,1,0,0:0:0:0:
320,192,51606,1,0,0:0:0:0:
448,192,51606,1,0,0:0:0:0:
64,192,51666,1,0,0:0:0:0:
448,192,51727,5,0,0:0:0:0:
320,192,51727,1,0,0:0:0:0:
192,192,51787,1,0,0:0:0:0:
64,192,51847,1,0,0:0:0:0:
320,192,51847,1,0,0:0:0:0:
448,192,51847,1,0,0:0:0:0:
192,192,51907,1,0,0:0:0:0:
64,192,51967,1,0,0:0:0:0:
448,192,51967,1,0,0:0:0:0:
320,192,52027,1,0,0:0:0:0:
448,192,52088,5,0,0:0:0:0:
320,192,52128,1,0,0:0:0:0:
192,192,52168,1,0,0:0:0:0:
64,192,52209,1,0,0:0:0:0:
448,192,52249,1,0,0:0:0:0:
320,192,52289,1,0,0:0:0:0:
192,192,52329,1,0,0:0:0:0:
64,192,52369,1,0,0:0:0:0:
192,192,52409,1,0,0:0:0:0:
320,192,52449,1,0,0:0:0:0:
448,192,52489,1,0,0:0:0:0:
320,192,52529,1,0,0:0:0:0:
192,192,52570,1,0,0:0:0:0:
64,192,52610,1,0,0:0:0:0:
448,192,52650,1,0,0:0:0:0:
320,192,52690,1,0,0:0:0:0:
64,192,52731,1,0,0:0:0:0:
192,192,52771,1,0,0:0:0:0:
320,192,52811,1,0,0:0:0:0:
448,192,52851,1,0,0:0:0:0:
192,192,52891,1,0,0:0:0:0:
320,192,52931,1,0,0:0:0:0:
448,192,52971,1,0,0:0:0:0:
320,192,53011,1,0,0:0:0:0:
192,192,53052,1,0,0:0:0:0:
64,192,53092,1,0,0:0:0:0:
192,192,53132,1,0,0:0:0:0:
448,192,53172,1,0,0:0:0:0:
320,192,53213,1,0,0:0:0:0:
64,192,53253,1,0,0:0:0:0:
192,192,53293,1,0,0:0:0:0:
448,192,53333,1,0,0:0:0:0:
320,192,53373,1,0,0:0:0:0:
192,192,53413,1,0,0:0:0:0:
64,192,53453,1,0,0:0:0:0:
448,192,53493,1,0,0:0:0:0:
320,192,53533,1,0,0:0:0:0:
192,192,53574,1,0,0:0:0:0:
64,192,53614,1,0,0:0:0:0:
320,192,53654,1,0,0:0:0:0:
448,192,53694,1,0,0:0:0:0:
64,192,53735,1,0,0:0:0:0:
192,192,53775,1,0,0:0:0:0:
320,192,53815,1,0,0:0:0:0:
448,192,53855,1,0,0:0:0:0:
64,192,53895,1,0,0:0:0:0:
192,192,53935,1,0,0:0:0:0:
320,192,53975,1,0,0:0:0:0:
448,192,54015,1,0,0:0:0:0:
64,192,54015,1,0,0:0:0:0:
320,192,54076,1,0,0:0:0:0:
192,192,54136,1,0,0:0:0:0:
64,192,54196,1,0,0:0:0:0:
448,192,54257,128,0,54497:0:0:0:0:
192,192,54497,128,0,54739:0:0:0:0:
448,192,54739,1,0,0:0:0:0:
320,192,54779,1,0,0:0:0:0:
64,192,54819,1,0,0:0:0:0:
192,192,54859,1,0,0:0:0:0:
448,192,54899,1,0,0:0:0:0:
320,192,54939,1,0,0:0:0:0:
192,192,54979,1,0,0:0:0:0:
64,192,54979,1,0,0:0:0:0:
320,192,55039,1,0,0:0:0:0:
192,192,55100,1,0,0:0:0:0:
64,192,55160,1,0,0:0:0:0:
192,192,55221,1,0,0:0:0:0:
448,192,55221,1,0,0:0:0:0:
320,192,55281,1,0,0:0:0:0:
192,192,55341,1,0,0:0:0:0:
448,192,55401,1,0,0:0:0:0:
320,192,55461,1,0,0:0:0:0:
192,192,55461,1,0,0:0:0:0:
64,192,55521,1,0,0:0:0:0:
448,192,55582,1,0,0:0:0:0:
192,192,55642,1,0,0:0:0:0:
448,192,55702,1,0,0:0:0:0:
64,192,55702,1,0,0:0:0:0:
320,192,55763,1,0,0:0:0:0:
64,192,55823,1,0,0:0:0:0:
320,192,55883,1,0,0:0:0:0:
448,192,55943,1,0,0:0:0:0:
192,192,55943,1,0,0:0:0:0:
64,192,56003,1,0,0:0:0:0:
448,192,56064,1,0,0:0:0:0:
320,192,56124,1,0,0:0:0:0:
192,192,56184,1,0,0:0:0:0:
64,192,56184,1,0,0:0:0:0:
320,192,56245,1,0,0:0:0:0:
448,192,56305,1,0,0:0:0:0:
192,192,56365,1,0,0:0:0:0:
64,192,56425,1,0,0:0:0:0:
448,192,56425,1,0,0:0:0:0:
320,192,56485,1,0,0:0:0:0:
192,192,56546,1,0,0:0:0:0:
64,192,56606,1,0,0:0:0:0:
192,192,56666,1,0,0:0:0:0:
320,192,56666,1,0,0:0:0:0:
448,192,56727,1,0,0:0:0:0:
320,192,56787,1,0,0:0:0:0:
64,192,56847,1,0,0:0:0:0:
448,192,56907,1,0,0:0:0:0:
320,192,56907,1,0,0:0:0:0:
192,192,56967,1,0,0:0:0:0:
64,192,57027,1,0,0:0:0:0:
192,192,57088,1,0,0:0:0:0:
320,192,57148,1,0,0:0:0:0:
64,192,57148,1,0,0:0:0:0:
448,192,57209,1,0,0:0:0:0:
64,192,57269,1,0,0:0:0:0:
192,192,57329,1,0,0:0:0:0:
320,192,57389,1,0,0:0:0:0:
448,192,57389,1,0,0:0:0:0:
192,192,57449,1,0,0:0:0:0:
320,192,57509,1,0,0:0:0:0:
64,192,57570,1,0,0:0:0:0:
320,192,57630,1,0,0:0:0:0:
448,192,57630,1,0,0:0:0:0:
192,192,57690,1,0,0:0:0:0:
448,192,57751,1,0,0:0:0:0:
192,192,57811,1,0,0:0:0:0:
64,192,57871,1,0,0:0:0:0:
320,192,57871,1,0,0:0:0:0:
448,192,57931,1,0,0:0:0:0:
320,192,57991,1,0,0:0:0:0:
192,192,58052,1,0,0:0:0:0:
320,192,58112,1,0,0:0:0:0:
448,192,58112,1,0,0:0:0:0:
192,192,58172,1,0,0:0:0:0:
64,192,58233,1,0,0:0:0:0:
192,192,58293,1,0,0:0:0:0:
320,192,58353,1,0,0:0:0:0:
64,192,58353,1,0,0:0:0:0:
448,192,58413,1,0,0:0:0:0:
320,192,58473,1,0,0:0:0:0:
192,192,58533,1,0,0:0:0:0:
64,192,58594,1,0,0:0:0:0:
192,192,58634,1,0,0:0:0:0:
320,192,58674,1,0,0:0:0:0:
448,192,58715,1,0,0:0:0:0:
64,192,58755,1,0,0:0:0:0:
192,192,58795,1,0,0:0:0:0:
320,192,58835,1,0,0:0:0:0:
448,192,58835,1,0,0:0:0:0:
192,192,58895,1,0,0:0:0:0:
64,192,58955,1,0,0:0:0:0:
192,192,59015,1,0,0:0:0:0:
320,192,59076,1,0,0:0:0:0:
448,192,59076,1,0,0:0:0:0:
192,192,59136,1,0,0:0:0:0:
448,192,59196,1,0,0:0:0:0:
320,192,59257,1,0,0:0:0:0:
192,192,59317,1,0,0:0:0:0:
64,192,59317,1,0,0:0:0:0:
320,192,59377,1,0,0:0:0:0:
448,192,59377,1,0,0:0:0:0:
192,192,59437,1,0,0:0:0:0:
64,192,59437,1,0,0:0:0:0:
320,192,59497,1,0,0:0:0:0:
448,192,59497,1,0,0:0:0:0:
64,192,59558,1,0,0:0:0:0:
192,192,59558,1,0,0:0:0:0:
320,192,59618,1,0,0:0:0:0:
448,192,59618,1,0,0:0:0:0:
192,192,59678,1,0,0:0:0:0:
64,192,59678,1,0,0:0:0:0:
320,192,59739,1,0,0:0:0:0:
448,192,59739,1,0,0:0:0:0:
192,192,59799,1,0,0:0:0:0:
64,192,59799,1,0,0:0:0:0:
320,192,59859,1,0,0:0:0:0:
448,192,59919,1,0,0:0:0:0:
320,192,59979,1,0,0:0:0:0:
192,192,60039,1,0,0:0:0:0:
448,192,60039,1,0,0:0:0:0:
64,192,60100,1,0,0:0:0:0:
192,192,60160,1,0,0:0:0:0:
320,192,60221,1,0,0:0:0:0:
64,192,60281,1,0,0:0:0:0:
448,192,60281,1,0,0:0:0:0:
320,192,60341,1,0,0:0:0:0:
192,192,60401,1,0,0:0:0:0:
64,192,60461,1,0,0:0:0:0:
192,192,60521,1,0,0:0:0:0:
448,192,60521,1,0,0:0:0:0:
320,192,60582,1,0,0:0:0:0:
64,192,60582,1,0,0:0:0:0:
192,192,60642,1,0,0:0:0:0:
448,192,60642,1,0,0:0:0:0:
320,192,60702,1,0,0:0:0:0:
64,192,60702,1,0,0:0:0:0:
192,192,60763,1,0,0:0:0:0:
448,192,60763,1,0,0:0:0:0:
64,192,60823,1,0,0:0:0:0:
192,192,60883,1,0,0:0:0:0:
320,192,60943,1,0,0:0:0:0:
192,192,61003,1,0,0:0:0:0:
448,192,61003,1,0,0:0:0:0:
64,192,61064,1,0,0:0:0:0:
192,192,61124,1,0,0:0:0:0:
320,192,61184,1,0,0:0:0:0:
448,192,61245,1,0,0:0:0:0:
64,192,61245,1,0,0:0:0:0:
192,192,61305,1,0,0:0:0:0:
320,192,61305,1,0,0:0:0:0:
448,192,61365,1,0,0:0:0:0:
64,192,61365,1,0,0:0:0:0:
192,192,61425,1,0,0:0:0:0:
320,192,61425,1,0,0:0:0:0:
64,192,61485,1,0,0:0:0:0:
448,192,61485,1,0,0:0:0:0:
320,192,61546,1,0,0:0:0:0:
192,192,61546,1,0,0:0:0:0:
64,192,61606,1,0,0:0:0:0:
448,192,61606,1,0,0:0:0:0:
320,192,61666,1,0,0:0:0:0:
192,192,61666,1,0,0:0:0:0:
64,192,61727,1,0,0:0:0:0:
448,192,61727,1,0,0:0:0:0:
192,192,61787,1,0,0:0:0:0:
320,192,61847,1,0,0:0:0:0:
448,192,61907,1,0,0:0:0:0:
320,192,61967,1,0,0:0:0:0:
192,192,61967,1,0,0:0:0:0:
64,192,62027,1,0,0:0:0:0:
320,192,62088,1,0,0:0:0:0:
192,192,62148,1,0,0:0:0:0:
64,192,62209,1,0,0:0:0:0:
448,192,62209,128,0,62449:0:0:0:0:
64,192,62449,1,0,0:0:0:0:
192,192,62489,1,0,0:0:0:0:
448,192,62529,1,0,0:0:0:0:
320,192,62570,1,0,0:0:0:0:
64,192,62610,1,0,0:0:0:0:
192,192,62650,1,0,0:0:0:0:
320,192,62690,1,0,0:0:0:0:
448,192,62690,1,0,0:0:0:0:
64,192,62690,1,0,0:0:0:0:
192,192,62751,1,0,0:0:0:0:
320,192,62811,1,0,0:0:0:0:
64,192,62811,1,0,0:0:0:0:
448,192,62871,1,0,0:0:0:0:
192,192,62931,1,0,0:0:0:0:
64,192,62931,1,0,0:0:0:0:
320,192,62931,1,0,0:0:0:0:
448,192,62991,1,0,0:0:0:0:
320,192,63052,1,0,0:0:0:0:
192,192,63052,1,0,0:0:0:0:
64,192,63112,1,0,0:0:0:0:
320,192,63172,1,0,0:0:0:0:
192,192,63172,1,0,0:0:0:0:
448,192,63172,1,0,0:0:0:0:
64,192,63233,1,0,0:0:0:0:
448,192,63293,1,0,0:0:0:0:
192,192,63293,1,0,0:0:0:0:
320,192,63353,1,0,0:0:0:0:
192,192,63413,1,0,0:0:0:0:
64,192,63413,1,0,0:0:0:0:
448,192,63413,1,0,0:0:0:0:
320,192,63473,1,0,0:0:0:0:
64,192,63533,1,0,0:0:0:0:
192,192,63533,1,0,0:0:0:0:
320,192,63594,1,0,0:0:0:0:
192,192,63654,1,0,0:0:0:0:
64,192,63654,1,0,0:0:0:0:
448,192,63654,1,0,0:0:0:0:
320,192,63715,1,0,0:0:0:0:
448,192,63775,1,0,0:0:0:0:
192,192,63775,1,0,0:0:0:0:
64,192,63835,1,0,0:0:0:0:
192,192,63895,1,0,0:0:0:0:
320,192,63895,1,0,0:0:0:0:
448,192,63895,1,0,0:0:0:0:
64,192,63955,1,0,0:0:0:0:
320,192,64015,1,0,0:0:0:0:
192,192,64015,1,0,0:0:0:0:
448,192,64076,1,0,0:0:0:0:
320,192,64136,1,0,0:0:0:0:
64,192,64136,1,0,0:0:0:0:
192,192,64136,1,0,0:0:0:0:
448,192,64196,1,0,0:0:0:0:
320,192,64257,1,0,0:0:0:0:
64,192,64257,1,0,0:0:0:0:
192,192,64317,1,0,0:0:0:0:
320,192,64377,1,0,0:0:0:0:
64,192,64377,1,0,0:0:0:0:
448,192,64377,1,0,0:0:0:0:
192,192,64437,1,0,0:0:0:0:
448,192,64497,1,0,0:0:0:0:
64,192,64497,1,0,0:0:0:0:
320,192,64558,1,0,0:0:0:0:
64,192,64618,1,0,0:0:0:0:
448,192,64618,1,0,0:0:0:0:
192,192,64618,1,0,0:0:0:0:
320,192,64678,1,0,0:0:0:0:
192,192,64739,1,0,0:0:0:0:
448,192,64739,1,0,0:0:0:0:
64,192,64799,1,0,0:0:0:0:
192,192,64859,1,0,0:0:0:0:
320,192,64859,1,0,0:0:0:0:
448,192,64859,1,0,0:0:0:0:
64,192,64919,1,0,0:0:0:0:
192,192,64979,1,0,0:0:0:0:
320,192,64979,1,0,0:0:0:0:
448,192,65039,1,0,0:0:0:0:
320,192,65100,1,0,0:0:0:0:
192,192,65100,1,0,0:0:0:0:
64,192,65100,1,0,0:0:0:0:
448,192,65160,1,0,0:0:0:0:
64,192,65221,1,0,0:0:0:0:
320,192,65221,1,0,0:0:0:0:
192,192,65281,1,0,0:0:0:0:
320,192,65341,1,0,0:0:0:0:
448,192,65341,1,0,0:0:0:0:
64,192,65341,1,0,0:0:0:0:
192,192,65401,1,0,0:0:0:0:
448,192,65461,1,0,0:0:0:0:
64,192,65461,1,0,0:0:0:0:
320,192,65521,1,0,0:0:0:0:
64,192,65582,1,0,0:0:0:0:
192,192,65582,1,0,0:0:0:0:
448,192,65582,128,0,65702:0:0:0:0:
320,192,65702,128,0,65823:0:0:0:0:
64,192,65823,128,0,66064:0:0:0:0:
192,192,66064,128,0,66124:0:0:0:0:
448,192,66064,128,0,66124:0:0:0:0:
320,192,66124,128,0,66184:0:0:0:0:
64,192,66124,128,0,66184:0:0:0:0:
192,192,66184,128,0,66245:0:0:0:0:
448,192,66184,128,0,66245:0:0:0:0:
64,192,66245,128,0,66305:0:0:0:0:
320,192,66245,128,0,66305:0:0:0:0:
448,192,66305,1,0,0:0:0:0:
320,192,66345,1,0,0:0:0:0:
192,192,66385,1,0,0:0:0:0:
64,192,66425,1,0,0:0:0:0:
448,192,66465,1,0,0:0:0:0:
320,192,66505,1,0,0:0:0:0:
192,192,66546,1,0,0:0:0:0:
64,192,66546,1,0,0:0:0:0:
448,192,66546,1,0,0:0:0:0:
320,192,66606,1,0,0:0:0:0:
192,192,66666,1,0,0:0:0:0:
448,192,66666,1,0,0:0:0:0:
64,192,66727,1,0,0:0:0:0:
192,192,66787,1,0,0:0:0:0:
320,192,66787,1,0,0:0:0:0:
448,192,66787,1,0,0:0:0:0:
64,192,66847,1,0,0:0:0:0:
192,192,66907,1,0,0:0:0:0:
320,192,66907,1,0,0:0:0:0:
448,192,66967,1,0,0:0:0:0:
64,192,67027,1,0,0:0:0:0:
192,192,67027,1,0,0:0:0:0:
320,192,67088,1,0,0:0:0:0:
448,192,67088,1,0,0:0:0:0:
192,192,67148,1,0,0:0:0:0:
64,192,67148,1,0,0:0:0:0:
448,192,67209,1,0,0:0:0:0:
320,192,67209,1,0,0:0:0:0:
192,192,67269,1,0,0:0:0:0:
64,192,67269,1,0,0:0:0:0:
320,192,67329,1,0,0:0:0:0:
448,192,67329,1,0,0:0:0:0:
192,192,67389,1,0,0:0:0:0:
64,192,67389,1,0,0:0:0:0:
320,192,67449,1,0,0:0:0:0:
448,192,67449,1,0,0:0:0:0:
192,192,67509,1,0,0:0:0:0:
64,192,67509,1,0,0:0:0:0:
320,192,67570,1,0,0:0:0:0:
448,192,67630,1,0,0:0:0:0:
192,192,67630,1,0,0:0:0:0:
64,192,67690,1,0,0:0:0:0:
192,192,67751,1,0,0:0:0:0:
320,192,67751,1,0,0:0:0:0:
448,192,67751,1,0,0:0:0:0:
64,192,67811,1,0,0:0:0:0:
192,192,67871,1,0,0:0:0:0:
448,192,67871,1,0,0:0:0:0:
320,192,67931,1,0,0:0:0:0:
192,192,67991,1,0,0:0:0:0:
64,192,67991,1,0,0:0:0:0:
448,192,67991,1,0,0:0:0:0:
320,192,68052,1,0,0:0:0:0:
192,192,68112,1,0,0:0:0:0:
64,192,68112,1,0,0:0:0:0:
320,192,68172,1,0,0:0:0:0:
192,192,68233,1,0,0:0:0:0:
448,192,68233,1,0,0:0:0:0:
320,192,68293,1,0,0:0:0:0:
64,192,68293,1,0,0:0:0:0:
192,192,68353,1,0,0:0:0:0:
448,192,68353,1,0,0:0:0:0:
320,192,68413,1,0,0:0:0:0:
64,192,68413,1,0,0:0:0:0:
192,192,68473,1,0,0:0:0:0:
448,192,68473,1,0,0:0:0:0:
64,192,68533,1,0,0:0:0:0:
192,192,68594,1,0,0:0:0:0:
320,192,68594,1,0,0:0:0:0:
448,192,68654,1,0,0:0:0:0:
320,192,68715,1,0,0:0:0:0:
64,192,68715,1,0,0:0:0:0:
192,192,68715,1,0,0:0:0:0:
448,192,68775,1,0,0:0:0:0:
320,192,68835,1,0,0:0:0:0:
192,192,68835,1,0,0:0:0:0:
64,192,68895,1,0,0:0:0:0:
192,192,68955,1,0,0:0:0:0:
320,192,68955,1,0,0:0:0:0:
448,192,69015,1,0,0:0:0:0:
64,192,69015,1,0,0:0:0:0:
192,192,69076,1,0,0:0:0:0:
320,192,69076,1,0,0:0:0:0:
64,192,69136,1,0,0:0:0:0:
448,192,69136,1,0,0:0:0:0:
320,192,69196,1,0,0:0:0:0:
192,192,69196,1,0,0:0:0:0:
64,192,69257,1,0,0:0:0:0:
448,192,69257,1,0,0:0:0:0:
320,192,69317,1,0,0:0:0:0:
192,192,69317,1,0,0:0:0:0:
64,192,69377,1,0,0:0:0:0:
448,192,69377,1,0,0:0:0:0:
320,192,69437,1,0,0:0:0:0:
192,192,69437,1,0,0:0:0:0:
448,192,69497,1,0,0:0:0:0:
64,192,69558,1,0,0:0:0:0:
320,192,69558,1,0,0:0:0:0:
192,192,69618,1,0,0:0:0:0:
320,192,69678,1,0,0:0:0:0:
64,192,69678,1,0,0:0:0:0:
448,192,69678,1,0,0:0:0:0:
192,192,69739,1,0,0:0:0:0:
320,192,69799,1,0,0:0:0:0:
448,192,69799,1,0,0:0:0:0:
192,192,69859,1,0,0:0:0:0:
64,192,69919,1,0,0:0:0:0:
320,192,69919,1,0,0:0:0:0:
448,192,69919,128,0,70160:0:0:0:0:
64,192,70160,1,0,0:0:0:0:
192,192,70200,1,0,0:0:0:0:
320,192,70241,1,0,0:0:0:0:
448,192,70281,1,0,0:0:0:0:
64,192,70321,1,0,0:0:0:0:
192,192,70361,1,0,0:0:0:0:
320,192,70401,1,0,0:0:0:0:
448,192,70401,1,0,0:0:0:0:
192,192,70461,1,0,0:0:0:0:
64,192,70521,1,0,0:0:0:0:
192,192,70582,1,0,0:0:0:0:
320,192,70642,1,0,0:0:0:0:
448,192,70702,1,0,0:0:0:0:
64,192,70763,1,0,0:0:0:0:
192,192,70823,1,0,0:0:0:0:
320,192,70883,1,0,0:0:0:0:
192,192,70943,1,0,0:0:0:0:
448,192,71003,1,0,0:0:0:0:
192,192,71064,1,0,0:0:0:0:
64,192,71124,1,0,0:0:0:0:
320,192,71184,1,0,0:0:0:0:
192,192,71245,1,0,0:0:0:0:
448,192,71305,1,0,0:0:0:0:
320,192,71365,1,0,0:0:0:0:
192,192,71425,1,0,0:0:0:0:
64,192,71485,1,0,0:0:0:0:
192,192,71546,1,0,0:0:0:0:
320,192,71606,1,0,0:0:0:0:
448,192,71666,1,0,0:0:0:0:
320,192,71727,1,0,0:0:0:0:
192,192,71787,1,0,0:0:0:0:
320,192,71847,1,0,0:0:0:0:
448,192,71907,1,0,0:0:0:0:
64,192,71967,1,0,0:0:0:0:
192,192,72027,1,0,0:0:0:0:
320,192,72088,1,0,0:0:0:0:
192,192,72148,1,0,0:0:0:0:
448,192,72209,1,0,0:0:0:0:
64,192,72269,1,0,0:0:0:0:
192,192,72329,1,0,0:0:0:0:
320,192,72389,1,0,0:0:0:0:
192,192,72449,1,0,0:0:0:0:
64,192,72509,1,0,0:0:0:0:
448,192,72570,1,0,0:0:0:0:
320,192,72630,1,0,0:0:0:0:
192,192,72690,1,0,0:0:0:0:
64,192,72751,1,0,0:0:0:0:
448,192,72811,1,0,0:0:0:0:
192,192,72871,1,0,0:0:0:0:
320,192,72931,1,0,0:0:0:0:
64,192,72991,1,0,0:0:0:0:
320,192,73052,1,0,0:0:0:0:
64,192,73112,1,0,0:0:0:0:
448,192,73172,1,0,0:0:0:0:
192,192,73233,1,0,0:0:0:0:
320,192,73293,1,0,0:0:0:0:
448,192,73353,1,0,0:0:0:0:
320,192,73413,1,0,0:0:0:0:
192,192,73473,1,0,0:0:0:0:
64,192,73533,1,0,0:0:0:0:
448,192,73594,1,0,0:0:0:0:
320,192,73654,1,0,0:0:0:0:
192,192,73715,1,0,0:0:0:0:
64,192,73775,1,0,0:0:0:0:
448,192,73835,1,0,0:0:0:0:
320,192,73895,1,0,0:0:0:0:
192,192,73955,1,0,0:0:0:0:
320,192,74015,1,0,0:0:0:0:
192,192,74056,1,0,0:0:0:0:
64,192,74096,1,0,0:0:0:0:
448,192,74136,1,0,0:0:0:0:
320,192,74176,1,0,0:0:0:0:
192,192,74217,1,0,0:0:0:0:
64,192,74257,1,0,0:0:0:0:
448,192,74257,128,0,77148:0:0:0:0:
192,192,74317,1,0,0:0:0:0:
320,192,74377,1,0,0:0:0:0:
192,192,74437,1,0,0:0:0:0:
64,192,74497,1,0,0:0:0:0:
320,192,74558,1,0,0:0:0:0:
192,192,74618,1,0,0:0:0:0:
64,192,74678,1,0,0:0:0:0:
192,192,74739,1,0,0:0:0:0:
320,192,74799,1,0,0:0:0:0:
192,192,74859,1,0,0:0:0:0:
64,192,74919,1,0,0:0:0:0:
320,192,74979,1,0,0:0:0:0:
192,192,75039,1,0,0:0:0:0:
320,192,75100,1,0,0:0:0:0:
192,192,75160,1,0,0:0:0:0:
64,192,75221,1,0,0:0:0:0:
192,192,75281,1,0,0:0:0:0:
320,192,75341,1,0,0:0:0:0:
64,192,75401,1,0,0:0:0:0:
192,192,75461,1,0,0:0:0:0:
320,192,75521,1,0,0:0:0:0:
64,192,75582,1,0,0:0:0:0:
192,192,75642,1,0,0:0:0:0:
320,192,75702,1,0,0:0:0:0:
192,192,75763,1,0,0:0:0:0:
64,192,75823,1,0,0:0:0:0:
192,192,75883,1,0,0:0:0:0:
320,192,75943,1,0,0:0:0:0:
192,192,76003,1,0,0:0:0:0:
320,192,76064,1,0,0:0:0:0:
192,192,76124,1,0,0:0:0:0:
320,192,76184,1,0,0:0:0:0:
192,192,76245,1,0,0:0:0:0:
64,192,76305,1,0,0:0:0:0:
192,192,76365,1,0,0:0:0:0:
320,192,76425,1,0,0:0:0:0:
192,192,76485,1,0,0:0:0:0:
320,192,76546,1,0,0:0:0:0:
192,192,76606,1,0,0:0:0:0:
64,192,76666,1,0,0:0:0:0:
192,192,76727,1,0,0:0:0:0:
320,192,76787,1,0,0:0:0:0:
192,192,76847,1,0,0:0:0:0:
64,192,76907,1,0,0:0:0:0:
320,192,76967,1,0,0:0:0:0:
192,192,77027,1,0,0:0:0:0:
64,192,77088,1,0,0:0:0:0:
320,192,77148,128,0,77209:0:0:0:0:
192,192,77209,128,0,77269:0:0:0:0:
64,192,77269,128,0,77329:0:0:0:0:
448,192,77329,128,0,77389:0:0:0:0:
192,192,77389,128,0,77449:0:0:0:0:
320,192,77449,128,0,77509:0:0:0:0:
64,192,77509,128,0,77570:0:0:0:0:
448,192,77570,128,0,77630:0:0:0:0:
320,192,77630,128,0,77871:0:0:0:0:
64,192,77871,1,0,0:0:0:0:
192,192,77911,1,0,0:0:0:0:
320,192,77951,1,0,0:0:0:0:
448,192,77991,1,0,0:0:0:0:
64,192,78031,1,0,0:0:0:0:
192,192,78072,1,0,0:0:0:0:
320,192,78112,1,0,0:0:0:0:
448,192,78112,1,0,0:0:0:0:
192,192,78172,1,0,0:0:0:0:
64,192,78233,1,0,0:0:0:0:
192,192,78293,1,0,0:0:0:0:
320,192,78353,1,0,0:0:0:0:
448,192,78413,1,0,0:0:0:0:
320,192,78473,1,0,0:0:0:0:
192,192,78533,1,0,0:0:0:0:
320,192,78594,1,0,0:0:0:0:
448,192,78654,1,0,0:0:0:0:
64,192,78715,1,0,0:0:0:0:
320,192,78775,1,0,0:0:0:0:
192,192,78835,1,0,0:0:0:0:
448,192,78895,1,0,0:0:0:0:
192,192,78955,1,0,0:0:0:0:
64,192,79015,1,0,0:0:0:0:
320,192,79076,1,0,0:0:0:0:
448,192,79136,1,0,0:0:0:0:
320,192,79196,1,0,0:0:0:0:
192,192,79257,1,0,0:0:0:0:
64,192,79317,1,0,0:0:0:0:
448,192,79377,1,0,0:0:0:0:
320,192,79437,1,0,0:0:0:0:
192,192,79497,1,0,0:0:0:0:
64,192,79558,1,0,0:0:0:0:
192,192,79618,1,0,0:0:0:0:
320,192,79678,1,0,0:0:0:0:
192,192,79739,1,0,0:0:0:0:
320,192,79799,1,0,0:0:0:0:
192,192,79859,1,0,0:0:0:0:
448,192,79919,1,0,0:0:0:0:
192,192,79979,1,0,0:0:0:0:
64,192,80039,1,0,0:0:0:0:
192,192,80100,1,0,0:0:0:0:
320,192,80160,1,0,0:0:0:0:
448,192,80221,1,0,0:0:0:0:
320,192,80281,1,0,0:0:0:0:
192,192,80341,1,0,0:0:0:0:
320,192,80401,1,0,0:0:0:0:
448,192,80461,1,0,0:0:0:0:
64,192,80521,1,0,0:0:0:0:
320,192,80582,1,0,0:0:0:0:
192,192,80642,1,0,0:0:0:0:
448,192,80702,1,0,0:0:0:0:
64,192,80763,1,0,0:0:0:0:
320,192,80823,1,0,0:0:0:0:
192,192,80883,1,0,0:0:0:0:
448,192,80943,1,0,0:0:0:0:
320,192,81003,1,0,0:0:0:0:
192,192,81064,1,0,0:0:0:0:
64,192,81124,1,0,0:0:0:0:
192,192,81184,1,0,0:0:0:0:
320,192,81245,1,0,0:0:0:0:
448,192,81305,1,0,0:0:0:0:
64,192,81365,1,0,0:0:0:0:
192,192,81425,1,0,0:0:0:0:
320,192,81485,1,0,0:0:0:0:
448,192,81546,1,0,0:0:0:0:
320,192,81606,1,0,0:0:0:0:
192,192,81666,1,0,0:0:0:0:
320,192,81727,1,0,0:0:0:0:
448,192,81767,1,0,0:0:0:0:
192,192,81807,1,0,0:0:0:0:
64,192,81847,1,0,0:0:0:0:
320,192,81887,1,0,0:0:0:0:
448,192,81927,1,0,0:0:0:0:
192,192,81967,1,0,0:0:0:0:
320,192,81967,1,0,0:0:0:0:
64,192,82027,1,0,0:0:0:0:
192,192,82088,1,0,0:0:0:0:
320,192,82148,1,0,0:0:0:0:
448,192,82209,1,0,0:0:0:0:
320,192,82269,1,0,0:0:0:0:
192,192,82329,1,0,0:0:0:0:
448,192,82329,1,0,0:0:0:0:
64,192,82389,1,0,0:0:0:0:
448,192,82449,1,0,0:0:0:0:
320,192,82449,1,0,0:0:0:0:
192,192,82509,1,0,0:0:0:0:
64,192,82570,1,0,0:0:0:0:
192,192,82630,1,0,0:0:0:0:
320,192,82690,1,0,0:0:0:0:
448,192,82751,1,0,0:0:0:0:
320,192,82811,1,0,0:0:0:0:
192,192,82811,1,0,0:0:0:0:
64,192,82871,1,0,0:0:0:0:
192,192,82931,1,0,0:0:0:0:
320,192,82931,1,0,0:0:0:0:
448,192,82931,1,0,0:0:0:0:
64,192,82991,1,0,0:0:0:0:
192,192,83052,1,0,0:0:0:0:
320,192,83112,1,0,0:0:0:0:
192,192,83172,1,0,0:0:0:0:
64,192,83172,1,0,0:0:0:0:
448,192,83172,1,0,0:0:0:0:
320,192,83233,1,0,0:0:0:0:
448,192,83293,1,0,0:0:0:0:
64,192,83293,1,0,0:0:0:0:
192,192,83353,1,0,0:0:0:0:
320,192,83413,1,0,0:0:0:0:
448,192,83413,1,0,0:0:0:0:
192,192,83473,1,0,0:0:0:0:
64,192,83533,1,0,0:0:0:0:
192,192,83594,1,0,0:0:0:0:
320,192,83654,1,0,0:0:0:0:
448,192,83715,1,0,0:0:0:0:
64,192,83775,1,0,0:0:0:0:
192,192,83775,1,0,0:0:0:0:
320,192,83835,1,0,0:0:0:0:
192,192,83895,1,0,0:0:0:0:
448,192,83895,1,0,0:0:0:0:
64,192,83895,1,0,0:0:0:0:
320,192,83955,1,0,0:0:0:0:
192,192,84015,1,0,0:0:0:0:
320,192,84076,1,0,0:0:0:0:
448,192,84136,1,0,0:0:0:0:
64,192,84196,1,0,0:0:0:0:
192,192,84257,1,0,0:0:0:0:
448,192,84257,1,0,0:0:0:0:
320,192,84317,1,0,0:0:0:0:
192,192,84377,1,0,0:0:0:0:
64,192,84377,1,0,0:0:0:0:
320,192,84437,1,0,0:0:0:0:
448,192,84497,1,0,0:0:0:0:
64,192,84558,1,0,0:0:0:0:
192,192,84618,1,0,0:0:0:0:
320,192,84678,1,0,0:0:0:0:
448,192,84739,1,0,0:0:0:0:
64,192,84739,1,0,0:0:0:0:
192,192,84799,1,0,0:0:0:0:
320,192,84859,1,0,0:0:0:0:
448,192,84859,1,0,0:0:0:0:
64,192,84859,1,0,0:0:0:0:
192,192,84919,1,0,0:0:0:0:
64,192,84979,1,0,0:0:0:0:
448,192,85039,1,0,0:0:0:0:
320,192,85100,1,0,0:0:0:0:
64,192,85100,1,0,0:0:0:0:
192,192,85100,1,0,0:0:0:0:
448,192,85160,1,0,0:0:0:0:
320,192,85221,1,0,0:0:0:0:
192,192,85221,1,0,0:0:0:0:
64,192,85281,1,0,0:0:0:0:
192,192,85341,1,0,0:0:0:0:
320,192,85341,1,0,0:0:0:0:
448,192,85401,1,0,0:0:0:0:
64,192,85461,1,0,0:0:0:0:
192,192,85521,1,0,0:0:0:0:
320,192,85582,1,0,0:0:0:0:
448,192,85582,1,0,0:0:0:0:
64,192,85582,1,0,0:0:0:0:
192,192,85642,1,0,0:0:0:0:
320,192,85702,1,0,0:0:0:0:
448,192,85702,1,0,0:0:0:0:
192,192,85763,1,0,0:0:0:0:
64,192,85823,1,0,0:0:0:0:
320,192,85823,1,0,0:0:0:0:
448,192,85823,1,0,0:0:0:0:
64,192,88715,128,0,88775:0:0:0:0:
320,192,88775,128,0,88835:0:0:0:0:
192,192,88835,128,0,88895:0:0:0:0:
448,192,88895,128,0,88955:0:0:0:0:
320,192,88955,128,0,89196:0:0:0:0:
64,192,89196,128,0,89437:0:0:0:0:
448,192,89437,1,0,0:0:0:0:
320,192,89477,1,0,0:0:0:0:
64,192,89517,1,0,0:0:0:0:
192,192,89558,1,0,0:0:0:0:
448,192,89598,1,0,0:0:0:0:
320,192,89638,1,0,0:0:0:0:
64,192,89678,1,0,0:0:0:0:
192,192,89739,1,0,0:0:0:0:
320,192,89799,1,0,0:0:0:0:
448,192,89859,1,0,0:0:0:0:
320,192,89919,1,0,0:0:0:0:
192,192,89919,1,0,0:0:0:0:
64,192,89979,1,0,0:0:0:0:
320,192,90039,1,0,0:0:0:0:
192,192,90100,1,0,0:0:0:0:
320,192,90160,1,0,0:0:0:0:
448,192,90160,1,0,0:0:0:0:
192,192,90221,1,0,0:0:0:0:
64,192,90281,1,0,0:0:0:0:
448,192,90341,1,0,0:0:0:0:
320,192,90401,1,0,0:0:0:0:
64,192,90401,1,0,0:0:0:0:
192,192,90461,1,0,0:0:0:0:
320,192,90521,1,0,0:0:0:0:
448,192,90582,1,0,0:0:0:0:
64,192,90642,1,0,0:0:0:0:
192,192,90642,1,0,0:0:0:0:
320,192,90702,1,0,0:0:0:0:
448,192,90763,1,0,0:0:0:0:
320,192,90823,1,0,0:0:0:0:
192,192,90883,1,0,0:0:0:0:
448,192,90883,1,0,0:0:0:0:
64,192,90943,1,0,0:0:0:0:
448,192,91003,1,0,0:0:0:0:
320,192,91064,1,0,0:0:0:0:
192,192,91124,1,0,0:0:0:0:
64,192,91124,1,0,0:0:0:0:
320,192,91184,1,0,0:0:0:0:
448,192,91245,1,0,0:0:0:0:
64,192,91305,1,0,0:0:0:0:
448,192,91365,1,0,0:0:0:0:
192,192,91365,1,0,0:0:0:0:
320,192,91425,1,0,0:0:0:0:
192,192,91485,1,0,0:0:0:0:
64,192,91546,1,0,0:0:0:0:
192,192,91606,1,0,0:0:0:0:
320,192,91606,1,0,0:0:0:0:
448,192,91666,1,0,0:0:0:0:
320,192,91727,1,0,0:0:0:0:
64,192,91727,1,0,0:0:0:0:
192,192,91787,1,0,0:0:0:0:
320,192,91847,1,0,0:0:0:0:
448,192,91847,1,0,0:0:0:0:
192,192,91907,1,0,0:0:0:0:
64,192,91967,1,0,0:0:0:0:
448,192,91967,1,0,0:0:0:0:
320,192,92027,1,0,0:0:0:0:
192,192,92088,1,0,0:0:0:0:
64,192,92088,1,0,0:0:0:0:
320,192,92148,1,0,0:0:0:0:
192,192,92209,1,0,0:0:0:0:
448,192,92209,1,0,0:0:0:0:
64,192,92269,1,0,0:0:0:0:
320,192,92329,1,0,0:0:0:0:
448,192,92329,1,0,0:0:0:0:
192,192,92389,1,0,0:0:0:0:
64,192,92449,1,0,0:0:0:0:
448,192,92449,1,0,0:0:0:0:
320,192,92509,1,0,0:0:0:0:
192,192,92570,1,0,0:0:0:0:
448,192,92570,1,0,0:0:0:0:
64,192,92630,1,0,0:0:0:0:
192,192,92690,1,0,0:0:0:0:
320,192,92690,1,0,0:0:0:0:
448,192,92751,1,0,0:0:0:0:
64,192,92811,1,0,0:0:0:0:
192,192,92811,1,0,0:0:0:0:
320,192,92871,1,0,0:0:0:0:
64,192,92931,1,0,0:0:0:0:
448,192,92931,1,0,0:0:0:0:
320,192,92991,1,0,0:0:0:0:
192,192,93052,1,0,0:0:0:0:
64,192,93052,1,0,0:0:0:0:
320,192,93112,1,0,0:0:0:0:
192,192,93172,1,0,0:0:0:0:
448,192,93172,1,0,0:0:0:0:
64,192,93233,1,0,0:0:0:0:
192,192,93293,1,0,0:0:0:0:
320,192,93293,1,0,0:0:0:0:
448,192,93353,1,0,0:0:0:0:
64,192,93413,1,0,0:0:0:0:
192,192,93413,1,0,0:0:0:0:
320,192,93473,1,0,0:0:0:0:
192,192,93533,1,0,0:0:0:0:
448,192,93533,1,0,0:0:0:0:
64,192,93533,1,0,0:0:0:0:
320,192,93594,1,0,0:0:0:0:
192,192,93654,1,0,0:0:0:0:
64,192,93654,1,0,0:0:0:0:
448,192,93715,1,0,0:0:0:0:
320,192,93775,1,0,0:0:0:0:
192,192,93775,1,0,0:0:0:0:
64,192,93775,1,0,0:0:0:0:
448,192,93835,1,0,0:0:0:0:
64,192,93895,1,0,0:0:0:0:
320,192,93895,1,0,0:0:0:0:
192,192,93955,1,0,0:0:0:0:
320,192,94015,1,0,0:0:0:0:
448,192,94015,1,0,0:0:0:0:
64,192,94015,1,0,0:0:0:0:
192,192,94076,1,0,0:0:0:0:
448,192,94136,1,0,0:0:0:0:
64,192,94136,1,0,0:0:0:0:
320,192,94196,1,0,0:0:0:0:
192,192,94257,1,0,0:0:0:0:
448,192,94257,1,0,0:0:0:0:
64,192,94257,1,0,0:0:0:0:
320,192,94317,1,0,0:0:0:0:
192,192,94377,1,0,0:0:0:0:
64,192,94377,1,0,0:0:0:0:
320,192,94437,1,0,0:0:0:0:
448,192,94497,1,0,0:0:0:0:
192,192,94497,1,0,0:0:0:0:
64,192,94497,1,0,0:0:0:0:
320,192,94558,1,0,0:0:0:0:
448,192,94618,1,0,0:0:0:0:
64,192,94618,1,0,0:0:0:0:
192,192,94678,1,0,0:0:0:0:
320,192,94739,1,0,0:0:0:0:
448,192,94739,1,0,0:0:0:0:
64,192,94739,1,0,0:0:0:0:
192,192,94799,1,0,0:0:0:0:
320,192,94859,1,0,0:0:0:0:
448,192,94859,1,0,0:0:0:0:
192,192,94919,1,0,0:0:0:0:
64,192,94979,1,0,0:0:0:0:
320,192,94979,1,0,0:0:0:0:
448,192,94979,1,0,0:0:0:0:
192,192,95039,1,0,0:0:0:0:
448,192,95100,5,0,0:0:0:0:
64,192,95100,1,0,0:0:0:0:
192,192,95160,1,0,0:0:0:0:
320,192,95221,1,0,0:0:0:0:
448,192,95221,1,0,0:0:0:0:
64,192,95221,1,0,0:0:0:0:
192,192,95281,1,0,0:0:0:0:
448,192,95341,1,0,0:0:0:0:
64,192,95341,1,0,0:0:0:0:
192,192,95401,1,0,0:0:0:0:
448,192,95461,5,0,0:0:0:0:
320,192,95501,1,0,0:0:0:0:
192,192,95542,1,0,0:0:0:0:
64,192,95582,1,0,0:0:0:0:
192,192,95622,1,0,0:0:0:0:
320,192,95662,1,0,0:0:0:0:
448,192,95702,1,0,0:0:0:0:
64,192,95743,1,0,0:0:0:0:
192,192,95783,1,0,0:0:0:0:
448,192,95823,1,0,0:0:0:0:
320,192,95863,1,0,0:0:0:0:
192,192,95903,1,0,0:0:0:0:
64,192,95943,1,0,0:0:0:0:
448,192,95983,1,0,0:0:0:0:
320,192,96023,1,0,0:0:0:0:
192,192,96064,1,0,0:0:0:0:
64,192,96104,1,0,0:0:0:0:
192,192,96144,1,0,0:0:0:0:
320,192,96184,1,0,0:0:0:0:
448,192,96225,1,0,0:0:0:0:
320,192,96265,1,0,0:0:0:0:
64,192,96305,1,0,0:0:0:0:
192,192,96345,1,0,0:0:0:0:
320,192,96385,1,0,0:0:0:0:
448,192,96425,1,0,0:0:0:0:
320,192,96455,1,0,0:0:0:0:
192,192,96485,1,0,0:0:0:0:
64,192,96515,1,0,0:0:0:0:
448,192,96546,1,0,0:0:0:0:
320,192,96576,1,0,0:0:0:0:
192,192,96606,1,0,0:0:0:0:
64,192,96636,1,0,0:0:0:0:
448,192,96666,1,0,0:0:0:0:
320,192,96696,1,0,0:0:0:0:
192,192,96727,1,0,0:0:0:0:
64,192,96757,1,0,0:0:0:0:
448,192,96787,1,0,0:0:0:0:
320,192,96817,1,0,0:0:0:0:
192,192,96847,1,0,0:0:0:0:
64,192,96877,1,0,0:0:0:0:
448,192,96907,1,0,0:0:0:0:
320,192,96937,1,0,0:0:0:0:
192,192,96967,1,0,0:0:0:0:
64,192,96997,1,0,0:0:0:0:
448,192,97027,1,0,0:0:0:0:
320,192,97058,1,0,0:0:0:0:
192,192,97088,1,0,0:0:0:0:
64,192,97118,1,0,0:0:0:0:
448,192,97148,1,0,0:0:0:0:
320,192,97178,1,0,0:0:0:0:
192,192,97209,1,0,0:0:0:0:
64,192,97239,1,0,0:0:0:0:
448,192,97269,1,0,0:0:0:0:
320,192,97299,1,0,0:0:0:0:
192,192,97329,1,0,0:0:0:0:
64,192,97359,1,0,0:0:0:0:
448,192,97389,128,0,97509:0:0:0:0:
192,192,97509,128,0,97630:0:0:0:0:
64,192,97630,128,0,97751:0:0:0:0:
320,192,97751,128,0,97871:0:0:0:0:
448,192,97871,128,0,97991:0:0:0:0:
192,192,97991,128,0,98112:0:0:0:0:
320,192,98112,128,0,98233:0:0:0:0:
64,192,98233,128,0,98353:0:0:0:0:
448,192,98353,1,0,0:0:0:0:
320,192,98353,1,0,0:0:0:0:
192,192,98413,1,0,0:0:0:0:
320,192,98473,1,0,0:0:0:0:
192,192,98533,1,0,0:0:0:0:
448,192,98594,1,0,0:0:0:0:
64,192,98594,1,0,0:0:0:0:
192,192,98654,1,0,0:0:0:0:
320,192,98715,1,0,0:0:0:0:
448,192,98775,1,0,0:0:0:0:
64,192,98835,1,0,0:0:0:0:
320,192,98835,1,0,0:0:0:0:
448,192,98895,1,0,0:0:0:0:
192,192,98955,1,0,0:0:0:0:
320,192,99015,1,0,0:0:0:0:
64,192,99076,1,0,0:0:0:0:
192,192,99076,1,0,0:0:0:0:
320,192,99136,1,0,0:0:0:0:
64,192,99196,1,0,0:0:0:0:
320,192,99257,1,0,0:0:0:0:
448,192,99317,1,0,0:0:0:0:
192,192,99317,1,0,0:0:0:0:
64,192,99377,1,0,0:0:0:0:
448,192,99437,1,0,0:0:0:0:
320,192,99497,1,0,0:0:0:0:
192,192,99558,1,0,0:0:0:0:
64,192,99558,1,0,0:0:0:0:
320,192,99618,1,0,0:0:0:0:
448,192,99678,1,0,0:0:0:0:
192,192,99739,1,0,0:0:0:0:
320,192,99799,1,0,0:0:0:0:
64,192,99799,1,0,0:0:0:0:
448,192,99859,1,0,0:0:0:0:
320,192,99919,1,0,0:0:0:0:
192,192,99979,1,0,0:0:0:0:
320,192,100039,1,0,0:0:0:0:
448,192,100039,1,0,0:0:0:0:
64,192,100100,1,0,0:0:0:0:
448,192,100160,1,0,0:0:0:0:
192,192,100221,1,0,0:0:0:0:
448,192,100281,1,0,0:0:0:0:
64,192,100281,1,0,0:0:0:0:
320,192,100341,1,0,0:0:0:0:
192,192,100401,1,0,0:0:0:0:
64,192,100461,1,0,0:0:0:0:
192,192,100521,1,0,0:0:0:0:
448,192,100521,1,0,0:0:0:0:
320,192,100582,1,0,0:0:0:0:
192,192,100642,1,0,0:0:0:0:
64,192,100702,1,0,0:0:0:0:
192,192,100763,1,0,0:0:0:0:
320,192,100763,1,0,0:0:0:0:
448,192,100823,1,0,0:0:0:0:
64,192,100883,1,0,0:0:0:0:
320,192,100943,1,0,0:0:0:0:
448,192,101003,1,0,0:0:0:0:
192,192,101003,1,0,0:0:0:0:
64,192,101064,1,0,0:0:0:0:
448,192,101124,1,0,0:0:0:0:
192,192,101184,1,0,0:0:0:0:
320,192,101245,1,0,0:0:0:0:
64,192,101245,1,0,0:0:0:0:
448,192,101305,1,0,0:0:0:0:
320,192,101365,1,0,0:0:0:0:
192,192,101425,1,0,0:0:0:0:
320,192,101485,1,0,0:0:0:0:
448,192,101485,1,0,0:0:0:0:
64,192,101546,1,0,0:0:0:0:
192,192,101606,1,0,0:0:0:0:
320,192,101666,1,0,0:0:0:0:
448,192,101727,1,0,0:0:0:0:
192,192,101727,1,0,0:0:0:0:
64,192,101787,1,0,0:0:0:0:
448,192,101847,1,0,0:0:0:0:
320,192,101907,1,0,0:0:0:0:
64,192,101967,1,0,0:0:0:0:
192,192,102007,1,0,0:0:0:0:
320,192,102048,1,0,0:0:0:0:
448,192,102088,1,0,0:0:0:0:
64,192,102128,1,0,0:0:0:0:
192,192,102168,1,0,0:0:0:0:
320,192,102209,1,0,0:0:0:0:
448,192,102209,1,0,0:0:0:0:
192,192,102269,1,0,0:0:0:0:
64,192,102329,1,0,0:0:0:0:
192,192,102389,1,0,0:0:0:0:
448,192,102449,1,0,0:0:0:0:
64,192,102449,1,0,0:0:0:0:
320,192,102509,1,0,0:0:0:0:
192,192,102570,1,0,0:0:0:0:
320,192,102630,1,0,0:0:0:0:
64,192,102690,1,0,0:0:0:0:
448,192,102690,1,0,0:0:0:0:
320,192,102751,1,0,0:0:0:0:
192,192,102751,1,0,0:0:0:0:
64,192,102811,1,0,0:0:0:0:
448,192,102811,1,0,0:0:0:0:
320,192,102871,1,0,0:0:0:0:
192,192,102871,1,0,0:0:0:0:
64,192,102931,1,0,0:0:0:0:
448,192,102931,1,0,0:0:0:0:
320,192,102991,1,0,0:0:0:0:
192,192,102991,1,0,0:0:0:0:
64,192,103052,1,0,0:0:0:0:
448,192,103052,1,0,0:0:0:0:
320,192,103112,1,0,0:0:0:0:
192,192,103112,1,0,0:0:0:0:
64,192,103172,1,0,0:0:0:0:
448,192,103172,1,0,0:0:0:0:
320,192,103233,1,0,0:0:0:0:
192,192,103293,1,0,0:0:0:0:
64,192,103353,1,0,0:0:0:0:
192,192,103413,1,0,0:0:0:0:
320,192,103413,1,0,0:0:0:0:
448,192,103473,1,0,0:0:0:0:
192,192,103533,1,0,0:0:0:0:
320,192,103594,1,0,0:0:0:0:
192,192,103654,1,0,0:0:0:0:
448,192,103654,1,0,0:0:0:0:
64,192,103715,1,0,0:0:0:0:
192,192,103775,1,0,0:0:0:0:
448,192,103835,1,0,0:0:0:0:
64,192,103895,1,0,0:0:0:0:
320,192,103895,1,0,0:0:0:0:
192,192,103955,1,0,0:0:0:0:
448,192,103955,1,0,0:0:0:0:
320,192,104015,1,0,0:0:0:0:
64,192,104015,1,0,0:0:0:0:
192,192,104076,1,0,0:0:0:0:
448,192,104076,1,0,0:0:0:0:
320,192,104136,1,0,0:0:0:0:
64,192,104136,1,0,0:0:0:0:
448,192,104196,1,0,0:0:0:0:
320,192,104257,1,0,0:0:0:0:
192,192,104317,1,0,0:0:0:0:
64,192,104377,1,0,0:0:0:0:
320,192,104377,1,0,0:0:0:0:
448,192,104437,1,0,0:0:0:0:
320,192,104497,1,0,0:0:0:0:
192,192,104558,1,0,0:0:0:0:
448,192,104618,1,0,0:0:0:0:
320,192,104618,1,0,0:0:0:0:
192,192,104678,1,0,0:0:0:0:
64,192,104678,1,0,0:0:0:0:
320,192,104739,1,0,0:0:0:0:
448,192,104739,1,0,0:0:0:0:
192,192,104799,1,0,0:0:0:0:
64,192,104799,1,0,0:0:0:0:
448,192,104859,1,0,0:0:0:0:
320,192,104859,1,0,0:0:0:0:
192,192,104919,1,0,0:0:0:0:
64,192,104919,1,0,0:0:0:0:
320,192,104979,1,0,0:0:0:0:
448,192,104979,1,0,0:0:0:0:
192,192,105039,1,0,0:0:0:0:
64,192,105039,1,0,0:0:0:0:
448,192,105100,1,0,0:0:0:0:
320,192,105100,1,0,0:0:0:0:
192,192,105160,1,0,0:0:0:0:
64,192,105221,1,0,0:0:0:0:
320,192,105281,1,0,0:0:0:0:
448,192,105341,1,0,0:0:0:0:
64,192,105341,1,0,0:0:0:0:
320,192,105401,1,0,0:0:0:0:
192,192,105461,1,0,0:0:0:0:
64,192,105521,1,0,0:0:0:0:
320,192,105582,128,0,105823:0:0:0:0:
192,192,105823,1,0,0:0:0:0:
64,192,105863,1,0,0:0:0:0:
448,192,105903,1,0,0:0:0:0:
320,192,105943,1,0,0:0:0:0:
192,192,105983,1,0,0:0:0:0:
64,192,106023,1,0,0:0:0:0:
448,192,106064,1,0,0:0:0:0:
320,192,106064,1,0,0:0:0:0:
192,192,106124,1,0,0:0:0:0:
64,192,106184,1,0,0:0:0:0:
448,192,106184,1,0,0:0:0:0:
320,192,106245,1,0,0:0:0:0:
448,192,106305,1,0,0:0:0:0:
192,192,106305,1,0,0:0:0:0:
64,192,106365,1,0,0:0:0:0:
448,192,106425,1,0,0:0:0:0:
192,192,106425,1,0,0:0:0:0:
320,192,106485,1,0,0:0:0:0:
448,192,106546,1,0,0:0:0:0:
64,192,106546,1,0,0:0:0:0:
192,192,106606,1,0,0:0:0:0:
320,192,106666,1,0,0:0:0:0:
448,192,106666,1,0,0:0:0:0:
192,192,106727,1,0,0:0:0:0:
64,192,106787,1,0,0:0:0:0:
320,192,106787,1,0,0:0:0:0:
448,192,106847,1,0,0:0:0:0:
320,192,106907,1,0,0:0:0:0:
192,192,106907,1,0,0:0:0:0:
64,192,106967,1,0,0:0:0:0:
192,192,107027,1,0,0:0:0:0:
448,192,107027,1,0,0:0:0:0:
320,192,107088,1,0,0:0:0:0:
192,192,107148,1,0,0:0:0:0:
64,192,107148,1,0,0:0:0:0:
320,192,107209,1,0,0:0:0:0:
448,192,107269,1,0,0:0:0:0:
192,192,107269,1,0,0:0:0:0:
320,192,107329,1,0,0:0:0:0:
448,192,107389,1,0,0:0:0:0:
64,192,107389,1,0,0:0:0:0:
192,192,107449,1,0,0:0:0:0:
320,192,107509,1,0,0:0:0:0:
448,192,107509,1,0,0:0:0:0:
192,192,107570,1,0,0:0:0:0:
64,192,107630,1,0,0:0:0:0:
320,192,107630,1,0,0:0:0:0:
448,192,107690,1,0,0:0:0:0:
320,192,107751,1,0,0:0:0:0:
192,192,107751,1,0,0:0:0:0:
64,192,107811,1,0,0:0:0:0:
448,192,107871,1,0,0:0:0:0:
320,192,107871,1,0,0:0:0:0:
192,192,107931,1,0,0:0:0:0:
64,192,107991,1,0,0:0:0:0:
320,192,107991,1,0,0:0:0:0:
448,192,108052,1,0,0:0:0:0:
320,192,108112,1,0,0:0:0:0:
192,192,108112,1,0,0:0:0:0:
64,192,108172,1,0,0:0:0:0:
448,192,108233,1,0,0:0:0:0:
192,192,108233,1,0,0:0:0:0:
320,192,108293,1,0,0:0:0:0:
448,192,108353,1,0,0:0:0:0:
192,192,108353,1,0,0:0:0:0:
64,192,108413,1,0,0:0:0:0:
192,192,108473,1,0,0:0:0:0:
320,192,108473,1,0,0:0:0:0:
448,192,108533,1,0,0:0:0:0:
320,192,108594,1,0,0:0:0:0:
192,192,108594,1,0,0:0:0:0:
64,192,108654,1,0,0:0:0:0:
448,192,108715,1,0,0:0:0:0:
192,192,108715,1,0,0:0:0:0:
320,192,108775,1,0,0:0:0:0:
192,192,108835,1,0,0:0:0:0:
448,192,108835,1,0,0:0:0:0:
64,192,108895,1,0,0:0:0:0:
192,192,108955,1,0,0:0:0:0:
320,192,108955,128,0,109076:0:0:0:0:
448,192,109076,128,0,109196:0:0:0:0:
192,192,109196,128,0,109317:0:0:0:0:
64,192,109317,128,0,109437:0:0:0:0:
320,192,109437,128,0,109497:0:0:0:0:
448,192,109437,128,0,109497:0:0:0:0:
192,192,109497,128,0,109558:0:0:0:0:
64,192,109497,128,0,109558:0:0:0:0:
320,192,109558,128,0,109618:0:0:0:0:
448,192,109558,128,0,109618:0:0:0:0:
192,192,109618,128,0,109678:0:0:0:0:
64,192,109618,128,0,109678:0:0:0:0:
320,192,109678,1,0,0:0:0:0:
448,192,109719,1,0,0:0:0:0:
64,192,109759,1,0,0:0:0:0:
192,192,109799,1,0,0:0:0:0:
320,192,109839,1,0,0:0:0:0:
448,192,109879,1,0,0:0:0:0:
192,192,109919,1,0,0:0:0:0:
64,192,109919,1,0,0:0:0:0:
320,192,109979,1,0,0:0:0:0:
192,192,110039,1,0,0:0:0:0:
448,192,110039,1,0,0:0:0:0:
64,192,110100,1,0,0:0:0:0:
192,192,110160,1,0,0:0:0:0:
320,192,110160,1,0,0:0:0:0:
448,192,110221,1,0,0:0:0:0:
64,192,110281,1,0,0:0:0:0:
320,192,110281,1,0,0:0:0:0:
192,192,110341,1,0,0:0:0:0:
64,192,110401,1,0,0:0:0:0:
448,192,110401,1,0,0:0:0:0:
320,192,110461,1,0,0:0:0:0:
192,192,110461,1,0,0:0:0:0:
64,192,110521,1,0,0:0:0:0:
448,192,110521,1,0,0:0:0:0:
320,192,110582,1,0,0:0:0:0:
192,192,110582,1,0,0:0:0:0:
64,192,110642,1,0,0:0:0:0:
448,192,110642,1,0,0:0:0:0:
320,192,110702,1,0,0:0:0:0:
192,192,110702,1,0,0:0:0:0:
64,192,110763,1,0,0:0:0:0:
448,192,110763,1,0,0:0:0:0:
320,192,110823,1,0,0:0:0:0:
192,192,110823,1,0,0:0:0:0:
64,192,110883,1,0,0:0:0:0:
448,192,110883,1,0,0:0:0:0:
320,192,110943,1,0,0:0:0:0:
192,192,111003,1,0,0:0:0:0:
64,192,111003,1,0,0:0:0:0:
320,192,111064,1,0,0:0:0:0:
448,192,111124,1,0,0:0:0:0:
192,192,111124,1,0,0:0:0:0:
64,192,111184,1,0,0:0:0:0:
192,192,111245,1,0,0:0:0:0:
320,192,111245,1,0,0:0:0:0:
448,192,111305,1,0,0:0:0:0:
64,192,111365,1,0,0:0:0:0:
192,192,111365,1,0,0:0:0:0:
320,192,111425,1,0,0:0:0:0:
448,192,111485,1,0,0:0:0:0:
64,192,111485,1,0,0:0:0:0:
320,192,111546,1,0,0:0:0:0:
448,192,111606,1,0,0:0:0:0:
192,192,111606,1,0,0:0:0:0:
64,192,111666,1,0,0:0:0:0:
320,192,111666,1,0,0:0:0:0:
192,192,111727,1,0,0:0:0:0:
448,192,111727,1,0,0:0:0:0:
320,192,111787,1,0,0:0:0:0:
64,192,111787,1,0,0:0:0:0:
192,192,111847,1,0,0:0:0:0:
448,192,111847,1,0,0:0:0:0:
64,192,111907,1,0,0:0:0:0:
192,192,111967,1,0,0:0:0:0:
320,192,111967,1,0,0:0:0:0:
448,192,112027,1,0,0:0:0:0:
320,192,112088,1,0,0:0:0:0:
64,192,112088,1,0,0:0:0:0:
192,192,112148,1,0,0:0:0:0:
320,192,112209,1,0,0:0:0:0:
448,192,112209,1,0,0:0:0:0:
192,192,112269,1,0,0:0:0:0:
320,192,112329,1,0,0:0:0:0:
448,192,112329,1,0,0:0:0:0:
192,192,112389,1,0,0:0:0:0:
64,192,112389,1,0,0:0:0:0:
320,192,112449,1,0,0:0:0:0:
448,192,112449,1,0,0:0:0:0:
192,192,112509,1,0,0:0:0:0:
64,192,112509,1,0,0:0:0:0:
320,192,112570,1,0,0:0:0:0:
448,192,112570,1,0,0:0:0:0:
192,192,112630,1,0,0:0:0:0:
64,192,112630,1,0,0:0:0:0:
320,192,112690,1,0,0:0:0:0:
448,192,112690,1,0,0:0:0:0:
192,192,112751,1,0,0:0:0:0:
64,192,112751,1,0,0:0:0:0:
320,192,112811,1,0,0:0:0:0:
448,192,112811,1,0,0:0:0:0:
192,192,112871,1,0,0:0:0:0:
64,192,112931,1,0,0:0:0:0:
320,192,112931,1,0,0:0:0:0:
448,192,112991,1,0,0:0:0:0:
320,192,113052,1,0,0:0:0:0:
192,192,113052,1,0,0:0:0:0:
64,192,113112,1,0,0:0:0:0:
448,192,113172,1,0,0:0:0:0:
320,192,113172,1,0,0:0:0:0:
192,192,113233,1,0,0:0:0:0:
64,192,113293,1,0,0:0:0:0:
448,192,113293,128,0,113533:0:0:0:0:
64,192,113533,1,0,0:0:0:0:
192,192,113574,1,0,0:0:0:0:
448,192,113614,1,0,0:0:0:0:
320,192,113654,1,0,0:0:0:0:
64,192,113694,1,0,0:0:0:0:
192,192,113735,1,0,0:0:0:0:
320,192,113775,1,0,0:0:0:0:
