osu file format v14

[General]
AudioFilename: audio140.mp3
AudioLeadIn: 0
PreviewTime: 8261
Countdown: 1
SampleSet: None
StackLeniency: 0.7
Mode: 3
LetterboxInBreaks: 0
SpecialStyle: 1
WidescreenStoryboard: 0

[Editor]
Bookmarks: 4171,8301,12432,16563,20694,24824,33086,45479,49609,58904,63034,67165,71296,75427,96081,105375,109506,113637,117768,121899
DistanceSpacing: 2
BeatDivisor: 4
GridSize: 16
TimelineZoom: 1.8

[Metadata]
Title:Ludicrous Speed
TitleUnicode:Ludicrous Speed
Artist:F-777
ArtistUnicode:F-777
Creator:ColdCR
Version:SuperSonic [1,4x Rate]
Source:
Tags:
BeatmapID:1963695
BeatmapSetID:879737

[Difficulty]
HPDrainRate:9
CircleSize:4
OverallDifficulty:8
ApproachRate:9
SliderMultiplier:3
SliderTickRate:1

[Events]
//Background and Video events
0,0,"thumb-1920-596769.jpg",0,0
//Break Periods
//Storyboard Layer 0 (Background)
//Storyboard Layer 1 (Fail)
//Storyboard Layer 2 (Pass)
//Storyboard Layer 3 (Foreground)
//Storyboard Sound Samples

[TimingPoints]
40,258.175559380379,4,1,0,10,1,0

[HitObjects]
64,192,40,5,0,0:0:0:0:
192,192,104,1,0,0:0:0:0:
320,192,169,1,0,0:0:0:0:
448,192,234,1,0,0:0:0:0:
320,192,298,1,0,0:0:0:0:
192,192,362,1,0,0:0:0:0:
64,192,427,1,0,0:0:0:0:
320,192,491,1,0,0:0:0:0:
192,192,556,1,0,0:0:0:0:
448,192,621,1,0,0:0:0:0:
64,192,685,1,0,0:0:0:0:
320,192,749,1,0,0:0:0:0:
192,192,814,1,0,0:0:0:0:
448,192,879,1,0,0:0:0:0:
192,192,944,1,0,0:0:0:0:
64,192,1008,1,0,0:0:0:0:
320,192,1072,1,0,0:0:0:0:
192,192,1137,1,0,0:0:0:0:
64,192,1201,1,0,0:0:0:0:
192,192,1266,1,0,0:0:0:0:
320,192,1331,1,0,0:0:0:0:
448,192,1395,1,0,0:0:0:0:
64,192,1459,1,0,0:0:0:0:
192,192,1524,1,0,0:0:0:0:
320,192,1589,1,0,0:0:0:0:
448,192,1654,1,0,0:0:0:0:
192,192,1718,1,0,0:0:0:0:
64,192,1782,1,0,0:0:0:0:
320,192,1847,1,0,0:0:0:0:
192,192,1911,1,0,0:0:0:0:
64,192,1976,1,0,0:0:0:0:
320,192,2041,1,0,0:0:0:0:
64,192,2105,1,0,0:0:0:0:
320,192,2169,1,0,0:0:0:0:
448,192,2234,1,0,0:0:0:0:
192,192,2299,1,0,0:0:0:0:
64,192,2364,1,0,0:0:0:0:
192,192,2428,1,0,0:0:0:0:
320,192,2492,1,0,0:0:0:0:
64,192,2557,1,0,0:0:0:0:
448,192,2621,1,0,0:0:0:0:
192,192,2686,1,0,0:0:0:0:
448,192,2751,1,0,0:0:0:0:
64,192,2815,1,0,0:0:0:0:
320,192,2879,1,0,0:0:0:0:
192,192,2944,1,0,0:0:0:0:
448,192,3009,1,0,0:0:0:0:
64,192,3073,1,0,0:0:0:0:
320,192,3138,1,0,0:0:0:0:
448,192,3202,1,0,0:0:0:0:
320,192,3267,1,0,0:0:0:0:
192,192,3331,1,0,0:0:0:0:
64,192,3396,1,0,0:0:0:0:
320,192,3461,1,0,0:0:0:0:
448,192,3525,1,0,0:0:0:0:
320,192,3589,1,0,0:0:0:0:
192,192,3654,1,0,0:0:0:0:
64,192,3719,1,0,0:0:0:0:
448,192,3783,1,0,0:0:0:0:
192,192,3848,1,0,0:0:0:0:
64,192,3912,1,0,0:0:0:0:
448,192,3955,1,0,0:0:0:0:
320,192,3999,1,0,0:0:0:0:
192,192,4041,1,0,0:0:0:0:
64,192,4084,1,0,0:0:0:0:
448,192,4084,1,0,0:0:0:0:
320,192,4127,1,0,0:0:0:0:
192,192,4171,1,0,0:0:0:0:
448,192,4171,1,0,0:0:0:0:
64,192,4235,1,0,0:0:0:0:
192,192,4299,1,0,0:0:0:0:
320,192,4364,1,0,0:0:0:0:
448,192,4429,1,0,0:0:0:0:
192,192,4493,1,0,0:0:0:0:
320,192,4558,1,0,0:0:0:0:
64,192,4558,1,0,0:0:0:0:
448,192,4622,1,0,0:0:0:0:
64,192,4687,1,0,0:0:0:0:
192,192,4751,1,0,0:0:0:0:
320,192,4816,1,0,0:0:0:0:
448,192,4816,1,0,0:0:0:0:
192,192,4881,1,0,0:0:0:0:
320,192,4945,1,0,0:0:0:0:
448,192,5009,1,0,0:0:0:0:
320,192,5074,1,0,0:0:0:0:
64,192,5074,1,0,0:0:0:0:
192,192,5139,1,0,0:0:0:0:
320,192,5203,1,0,0:0:0:0:
448,192,5268,1,0,0:0:0:0:
64,192,5332,1,0,0:0:0:0:
192,192,5332,1,0,0:0:0:0:
320,192,5396,1,0,0:0:0:0:
448,192,5461,1,0,0:0:0:0:
320,192,5526,1,0,0:0:0:0:
64,192,5591,1,0,0:0:0:0:
448,192,5591,1,0,0:0:0:0:
192,192,5655,1,0,0:0:0:0:
320,192,5719,1,0,0:0:0:0:
192,192,5784,1,0,0:0:0:0:
320,192,5849,1,0,0:0:0:0:
448,192,5849,1,0,0:0:0:0:
192,192,5913,1,0,0:0:0:0:
64,192,5978,1,0,0:0:0:0:
448,192,6042,1,0,0:0:0:0:
320,192,6106,1,0,0:0:0:0:
192,192,6106,1,0,0:0:0:0:
64,192,6171,1,0,0:0:0:0:
192,192,6236,1,0,0:0:0:0:
320,192,6301,1,0,0:0:0:0:
192,192,6365,1,0,0:0:0:0:
448,192,6365,1,0,0:0:0:0:
64,192,6429,1,0,0:0:0:0:
320,192,6494,1,0,0:0:0:0:
192,192,6559,1,0,0:0:0:0:
64,192,6623,1,0,0:0:0:0:
448,192,6623,1,0,0:0:0:0:
192,192,6688,1,0,0:0:0:0:
320,192,6752,1,0,0:0:0:0:
192,192,6816,1,0,0:0:0:0:
320,192,6881,1,0,0:0:0:0:
448,192,6881,1,0,0:0:0:0:
192,192,6946,1,0,0:0:0:0:
64,192,7011,1,0,0:0:0:0:
448,192,7075,1,0,0:0:0:0:
320,192,7139,1,0,0:0:0:0:
192,192,7139,1,0,0:0:0:0:
64,192,7204,1,0,0:0:0:0:
448,192,7269,1,0,0:0:0:0:
320,192,7333,1,0,0:0:0:0:
64,192,7398,1,0,0:0:0:0:
192,192,7398,1,0,0:0:0:0:
320,192,7462,1,0,0:0:0:0:
448,192,7526,1,0,0:0:0:0:
64,192,7591,1,0,0:0:0:0:
192,192,7656,1,0,0:0:0:0:
448,192,7656,1,0,0:0:0:0:
320,192,7721,1,0,0:0:0:0:
64,192,7785,128,0,8043:0:0:0:0:
448,192,8043,1,0,0:0:0:0:
320,192,8086,1,0,0:0:0:0:
192,192,8129,1,0,0:0:0:0:
64,192,8172,1,0,0:0:0:0:
448,192,8172,1,0,0:0:0:0:
320,192,8215,1,0,0:0:0:0:
192,192,8259,1,0,0:0:0:0:
64,192,8301,1,0,0:0:0:0:
448,192,8301,1,0,0:0:0:0:
320,192,8366,1,0,0:0:0:0:
448,192,8430,1,0,0:0:0:0:
320,192,8495,1,0,0:0:0:0:
192,192,8559,1,0,0:0:0:0:
448,192,8559,1,0,0:0:0:0:
64,192,8624,1,0,0:0:0:0:
192,192,8689,1,0,0:0:0:0:
320,192,8753,1,0,0:0:0:0:
192,192,8818,1,0,0:0:0:0:
64,192,8818,1,0,0:0:0:0:
448,192,8882,1,0,0:0:0:0:
64,192,8946,1,0,0:0:0:0:
320,192,9011,1,0,0:0:0:0:
192,192,9076,1,0,0:0:0:0:
448,192,9076,1,0,0:0:0:0:
64,192,9140,1,0,0:0:0:0:
448,192,9205,1,0,0:0:0:0:
192,192,9269,1,0,0:0:0:0:
448,192,9334,1,0,0:0:0:0:
320,192,9334,1,0,0:0:0:0:
64,192,9399,1,0,0:0:0:0:
192,192,9463,1,0,0:0:0:0:
448,192,9528,1,0,0:0:0:0:
320,192,9592,1,0,0:0:0:0:
192,192,9592,1,0,0:0:0:0:
64,192,9656,1,0,0:0:0:0:
192,192,9721,1,0,0:0:0:0:
320,192,9786,1,0,0:0:0:0:
192,192,9850,1,0,0:0:0:0:
448,192,9850,1,0,0:0:0:0:
64,192,9915,1,0,0:0:0:0:
192,192,9979,1,0,0:0:0:0:
448,192,10044,1,0,0:0:0:0:
192,192,10109,1,0,0:0:0:0:
320,192,10109,1,0,0:0:0:0:
64,192,10173,1,0,0:0:0:0:
448,192,10238,1,0,0:0:0:0:
192,192,10302,1,0,0:0:0:0:
448,192,10366,1,0,0:0:0:0:
320,192,10366,1,0,0:0:0:0:
192,192,10431,1,0,0:0:0:0:
64,192,10496,1,0,0:0:0:0:
448,192,10560,1,0,0:0:0:0:
320,192,10625,1,0,0:0:0:0:
192,192,10625,1,0,0:0:0:0:
64,192,10689,1,0,0:0:0:0:
192,192,10754,1,0,0:0:0:0:
320,192,10819,1,0,0:0:0:0:
192,192,10883,1,0,0:0:0:0:
448,192,10883,1,0,0:0:0:0:
64,192,10948,1,0,0:0:0:0:
192,192,11012,1,0,0:0:0:0:
448,192,11076,1,0,0:0:0:0:
64,192,11141,1,0,0:0:0:0:
192,192,11141,1,0,0:0:0:0:
320,192,11206,1,0,0:0:0:0:
64,192,11270,1,0,0:0:0:0:
448,192,11335,1,0,0:0:0:0:
320,192,11399,1,0,0:0:0:0:
192,192,11399,1,0,0:0:0:0:
64,192,11464,1,0,0:0:0:0:
320,192,11529,1,0,0:0:0:0:
192,192,11593,1,0,0:0:0:0:
64,192,11658,1,0,0:0:0:0:
448,192,11658,1,0,0:0:0:0:
192,192,11722,1,0,0:0:0:0:
320,192,11786,1,0,0:0:0:0:
448,192,11851,1,0,0:0:0:0:
320,192,11916,1,0,0:0:0:0:
192,192,11916,1,0,0:0:0:0:
64,192,11980,1,0,0:0:0:0:
448,192,12045,1,0,0:0:0:0:
320,192,12109,1,0,0:0:0:0:
64,192,12131,1,0,0:0:0:0:
192,192,12174,1,0,0:0:0:0:
320,192,12217,1,0,0:0:0:0:
448,192,12260,1,0,0:0:0:0:
64,192,12303,1,0,0:0:0:0:
192,192,12346,1,0,0:0:0:0:
320,192,12389,1,0,0:0:0:0:
448,192,12432,1,0,0:0:0:0:
64,192,12432,1,0,0:0:0:0:
192,192,12496,1,0,0:0:0:0:
320,192,12561,1,0,0:0:0:0:
192,192,12626,1,0,0:0:0:0:
448,192,12690,1,0,0:0:0:0:
64,192,12690,1,0,0:0:0:0:
320,192,12755,1,0,0:0:0:0:
192,192,12819,1,0,0:0:0:0:
320,192,12884,1,0,0:0:0:0:
192,192,12949,1,0,0:0:0:0:
64,192,12949,1,0,0:0:0:0:
320,192,13013,1,0,0:0:0:0:
448,192,13013,1,0,0:0:0:0:
192,192,13078,1,0,0:0:0:0:
64,192,13078,1,0,0:0:0:0:
320,192,13142,1,0,0:0:0:0:
448,192,13142,1,0,0:0:0:0:
192,192,13206,1,0,0:0:0:0:
64,192,13206,1,0,0:0:0:0:
320,192,13271,1,0,0:0:0:0:
448,192,13271,1,0,0:0:0:0:
192,192,13336,1,0,0:0:0:0:
64,192,13336,1,0,0:0:0:0:
320,192,13400,1,0,0:0:0:0:
448,192,13400,1,0,0:0:0:0:
192,192,13465,1,0,0:0:0:0:
64,192,13465,1,0,0:0:0:0:
320,192,13529,1,0,0:0:0:0:
448,192,13594,1,0,0:0:0:0:
320,192,13659,1,0,0:0:0:0:
192,192,13723,1,0,0:0:0:0:
448,192,13723,1,0,0:0:0:0:
64,192,13787,1,0,0:0:0:0:
320,192,13852,1,0,0:0:0:0:
192,192,13916,1,0,0:0:0:0:
64,192,13981,1,0,0:0:0:0:
448,192,13981,1,0,0:0:0:0:
320,192,14046,1,0,0:0:0:0:
192,192,14110,1,0,0:0:0:0:
64,192,14175,1,0,0:0:0:0:
192,192,14239,1,0,0:0:0:0:
448,192,14239,1,0,0:0:0:0:
320,192,14304,1,0,0:0:0:0:
64,192,14304,1,0,0:0:0:0:
192,192,14369,1,0,0:0:0:0:
448,192,14369,1,0,0:0:0:0:
320,192,14433,1,0,0:0:0:0:
64,192,14433,1,0,0:0:0:0:
192,192,14497,1,0,0:0:0:0:
448,192,14497,1,0,0:0:0:0:
320,192,14562,1,0,0:0:0:0:
448,192,14626,1,0,0:0:0:0:
320,192,14691,1,0,0:0:0:0:
192,192,14756,1,0,0:0:0:0:
64,192,14756,1,0,0:0:0:0:
320,192,14820,1,0,0:0:0:0:
448,192,14885,1,0,0:0:0:0:
64,192,14949,1,0,0:0:0:0:
192,192,15014,1,0,0:0:0:0:
320,192,15014,1,0,0:0:0:0:
448,192,15079,1,0,0:0:0:0:
64,192,15079,1,0,0:0:0:0:
192,192,15143,1,0,0:0:0:0:
320,192,15143,1,0,0:0:0:0:
64,192,15207,1,0,0:0:0:0:
448,192,15207,1,0,0:0:0:0:
320,192,15272,1,0,0:0:0:0:
192,192,15272,1,0,0:0:0:0:
64,192,15336,1,0,0:0:0:0:
448,192,15336,1,0,0:0:0:0:
320,192,15401,1,0,0:0:0:0:
192,192,15401,1,0,0:0:0:0:
64,192,15466,1,0,0:0:0:0:
448,192,15466,1,0,0:0:0:0:
320,192,15530,1,0,0:0:0:0:
192,192,15530,1,0,0:0:0:0:
448,192,15595,1,0,0:0:0:0:
320,192,15659,1,0,0:0:0:0:
192,192,15724,1,0,0:0:0:0:
64,192,15789,1,0,0:0:0:0:
320,192,15789,1,0,0:0:0:0:
448,192,15853,1,0,0:0:0:0:
320,192,15917,1,0,0:0:0:0:
192,192,15982,1,0,0:0:0:0:
320,192,16046,128,0,16305:0:0:0:0:
64,192,16305,1,0,0:0:0:0:
192,192,16348,1,0,0:0:0:0:
448,192,16391,1,0,0:0:0:0:
320,192,16434,1,0,0:0:0:0:
64,192,16477,1,0,0:0:0:0:
192,192,16520,1,0,0:0:0:0:
320,192,16563,1,0,0:0:0:0:
448,192,16563,1,0,0:0:0:0:
192,192,16627,1,0,0:0:0:0:
64,192,16692,1,0,0:0:0:0:
320,192,16692,1,0,0:0:0:0:
448,192,16756,1,0,0:0:0:0:
320,192,16821,1,0,0:0:0:0:
192,192,16821,1,0,0:0:0:0:
64,192,16886,1,0,0:0:0:0:
448,192,16950,1,0,0:0:0:0:
320,192,16950,1,0,0:0:0:0:
192,192,17015,1,0,0:0:0:0:
64,192,17079,1,0,0:0:0:0:
320,192,17079,1,0,0:0:0:0:
448,192,17144,1,0,0:0:0:0:
192,192,17209,1,0,0:0:0:0:
64,192,17209,1,0,0:0:0:0:
320,192,17273,1,0,0:0:0:0:
64,192,17337,1,0,0:0:0:0:
448,192,17337,1,0,0:0:0:0:
320,192,17402,1,0,0:0:0:0:
448,192,17466,1,0,0:0:0:0:
192,192,17466,1,0,0:0:0:0:
64,192,17531,1,0,0:0:0:0:
192,192,17596,1,0,0:0:0:0:
320,192,17596,1,0,0:0:0:0:
448,192,17660,1,0,0:0:0:0:
64,192,17725,1,0,0:0:0:0:
320,192,17725,1,0,0:0:0:0:
192,192,17789,1,0,0:0:0:0:
320,192,17854,1,0,0:0:0:0:
448,192,17854,1,0,0:0:0:0:
192,192,17919,1,0,0:0:0:0:
64,192,17983,1,0,0:0:0:0:
448,192,17983,1,0,0:0:0:0:
320,192,18047,1,0,0:0:0:0:
192,192,18112,1,0,0:0:0:0:
448,192,18112,1,0,0:0:0:0:
64,192,18176,1,0,0:0:0:0:
448,192,18241,1,0,0:0:0:0:
320,192,18241,1,0,0:0:0:0:
192,192,18306,1,0,0:0:0:0:
64,192,18370,1,0,0:0:0:0:
320,192,18370,1,0,0:0:0:0:
448,192,18435,1,0,0:0:0:0:
192,192,18499,1,0,0:0:0:0:
320,192,18499,1,0,0:0:0:0:
64,192,18564,1,0,0:0:0:0:
448,192,18629,1,0,0:0:0:0:
192,192,18629,1,0,0:0:0:0:
320,192,18693,1,0,0:0:0:0:
192,192,18757,1,0,0:0:0:0:
64,192,18757,1,0,0:0:0:0:
320,192,18822,1,0,0:0:0:0:
448,192,18886,1,0,0:0:0:0:
64,192,18886,1,0,0:0:0:0:
192,192,18951,1,0,0:0:0:0:
320,192,19016,1,0,0:0:0:0:
64,192,19016,1,0,0:0:0:0:
448,192,19080,1,0,0:0:0:0:
320,192,19144,1,0,0:0:0:0:
192,192,19144,1,0,0:0:0:0:
64,192,19209,1,0,0:0:0:0:
448,192,19274,1,0,0:0:0:0:
320,192,19274,1,0,0:0:0:0:
192,192,19339,1,0,0:0:0:0:
64,192,19403,1,0,0:0:0:0:
448,192,19403,1,0,0:0:0:0:
320,192,19467,1,0,0:0:0:0:
192,192,19532,1,0,0:0:0:0:
64,192,19532,1,0,0:0:0:0:
320,192,19596,1,0,0:0:0:0:
448,192,19661,128,0,19790:0:0:0:0:
192,192,19790,128,0,19919:0:0:0:0:
320,192,19919,128,0,20177:0:0:0:0:
64,192,20177,128,0,20242:0:0:0:0:
192,192,20177,128,0,20242:0:0:0:0:
448,192,20242,128,0,20306:0:0:0:0:
320,192,20242,128,0,20306:0:0:0:0:
192,192,20306,128,0,20371:0:0:0:0:
64,192,20306,128,0,20371:0:0:0:0:
320,192,20371,128,0,20436:0:0:0:0:
448,192,20371,128,0,20436:0:0:0:0:
192,192,20436,1,0,0:0:0:0:
64,192,20479,1,0,0:0:0:0:
448,192,20521,1,0,0:0:0:0:
320,192,20564,1,0,0:0:0:0:
192,192,20608,1,0,0:0:0:0:
64,192,20651,1,0,0:0:0:0:
448,192,20694,1,0,0:0:0:0:
320,192,20759,1,0,0:0:0:0:
192,192,20823,1,0,0:0:0:0:
448,192,20823,1,0,0:0:0:0:
64,192,20887,1,0,0:0:0:0:
192,192,20952,1,0,0:0:0:0:
320,192,20952,1,0,0:0:0:0:
448,192,21016,1,0,0:0:0:0:
320,192,21081,1,0,0:0:0:0:
64,192,21081,1,0,0:0:0:0:
192,192,21146,1,0,0:0:0:0:
64,192,21210,1,0,0:0:0:0:
448,192,21210,1,0,0:0:0:0:
320,192,21274,1,0,0:0:0:0:
192,192,21274,1,0,0:0:0:0:
64,192,21339,1,0,0:0:0:0:
448,192,21339,1,0,0:0:0:0:
320,192,21404,1,0,0:0:0:0:
192,192,21404,1,0,0:0:0:0:
64,192,21468,1,0,0:0:0:0:
448,192,21468,1,0,0:0:0:0:
320,192,21533,1,0,0:0:0:0:
192,192,21533,1,0,0:0:0:0:
64,192,21597,1,0,0:0:0:0:
448,192,21597,1,0,0:0:0:0:
320,192,21662,1,0,0:0:0:0:
192,192,21662,1,0,0:0:0:0:
64,192,21726,1,0,0:0:0:0:
448,192,21726,1,0,0:0:0:0:
320,192,21791,1,0,0:0:0:0:
192,192,21856,1,0,0:0:0:0:
64,192,21856,1,0,0:0:0:0:
320,192,21920,1,0,0:0:0:0:
192,192,21984,1,0,0:0:0:0:
448,192,21984,1,0,0:0:0:0:
64,192,22049,1,0,0:0:0:0:
192,192,22114,1,0,0:0:0:0:
320,192,22114,1,0,0:0:0:0:
448,192,22178,1,0,0:0:0:0:
192,192,22243,1,0,0:0:0:0:
320,192,22243,1,0,0:0:0:0:
64,192,22307,1,0,0:0:0:0:
448,192,22372,1,0,0:0:0:0:
320,192,22372,1,0,0:0:0:0:
192,192,22436,1,0,0:0:0:0:
64,192,22501,1,0,0:0:0:0:
320,192,22501,1,0,0:0:0:0:
448,192,22566,1,0,0:0:0:0:
192,192,22566,1,0,0:0:0:0:
320,192,22630,1,0,0:0:0:0:
64,192,22630,1,0,0:0:0:0:
192,192,22694,1,0,0:0:0:0:
448,192,22694,1,0,0:0:0:0:
320,192,22759,1,0,0:0:0:0:
64,192,22759,1,0,0:0:0:0:
448,192,22824,1,0,0:0:0:0:
320,192,22888,1,0,0:0:0:0:
192,192,22888,1,0,0:0:0:0:
64,192,22953,1,0,0:0:0:0:
448,192,23017,1,0,0:0:0:0:
192,192,23017,1,0,0:0:0:0:
320,192,23082,1,0,0:0:0:0:
192,192,23146,1,0,0:0:0:0:
448,192,23146,1,0,0:0:0:0:
64,192,23211,1,0,0:0:0:0:
448,192,23276,1,0,0:0:0:0:
320,192,23276,1,0,0:0:0:0:
192,192,23340,1,0,0:0:0:0:
64,192,23340,1,0,0:0:0:0:
320,192,23404,1,0,0:0:0:0:
448,192,23404,1,0,0:0:0:0:
192,192,23469,1,0,0:0:0:0:
64,192,23469,1,0,0:0:0:0:
320,192,23534,1,0,0:0:0:0:
448,192,23534,1,0,0:0:0:0:
192,192,23598,1,0,0:0:0:0:
64,192,23598,1,0,0:0:0:0:
320,192,23663,1,0,0:0:0:0:
448,192,23663,1,0,0:0:0:0:
192,192,23727,1,0,0:0:0:0:
64,192,23727,1,0,0:0:0:0:
320,192,23792,1,0,0:0:0:0:
448,192,23792,1,0,0:0:0:0:
192,192,23856,1,0,0:0:0:0:
64,192,23921,1,0,0:0:0:0:
320,192,23921,1,0,0:0:0:0:
448,192,23986,1,0,0:0:0:0:
320,192,24050,1,0,0:0:0:0:
192,192,24050,1,0,0:0:0:0:
64,192,24114,1,0,0:0:0:0:
448,192,24179,1,0,0:0:0:0:
320,192,24179,1,0,0:0:0:0:
192,192,24244,1,0,0:0:0:0:
64,192,24308,128,0,24566:0:0:0:0:
448,192,24566,1,0,0:0:0:0:
320,192,24609,1,0,0:0:0:0:
192,192,24652,1,0,0:0:0:0:
64,192,24696,1,0,0:0:0:0:
448,192,24739,1,0,0:0:0:0:
320,192,24781,1,0,0:0:0:0:
192,192,24824,1,0,0:0:0:0:
64,192,24824,1,0,0:0:0:0:
320,192,24954,1,0,0:0:0:0:
448,192,24954,1,0,0:0:0:0:
192,192,25083,1,0,0:0:0:0:
448,192,25211,1,0,0:0:0:0:
64,192,25211,1,0,0:0:0:0:
64,192,25470,1,0,0:0:0:0:
448,192,25470,1,0,0:0:0:0:
192,192,25599,1,0,0:0:0:0:
320,192,25728,1,0,0:0:0:0:
192,192,25728,1,0,0:0:0:0:
448,192,25986,1,0,0:0:0:0:
320,192,25986,1,0,0:0:0:0:
192,192,26116,1,0,0:0:0:0:
320,192,26244,1,0,0:0:0:0:
64,192,26244,1,0,0:0:0:0:
192,192,26503,1,0,0:0:0:0:
320,192,26503,1,0,0:0:0:0:
448,192,26631,1,0,0:0:0:0:
320,192,26761,1,0,0:0:0:0:
64,192,26761,1,0,0:0:0:0:
192,192,27019,1,0,0:0:0:0:
320,192,27019,1,0,0:0:0:0:
448,192,27148,1,0,0:0:0:0:
64,192,27277,1,0,0:0:0:0:
192,192,27277,1,0,0:0:0:0:
448,192,27535,1,0,0:0:0:0:
320,192,27535,1,0,0:0:0:0:
192,192,27664,1,0,0:0:0:0:
192,192,27794,1,0,0:0:0:0:
64,192,27794,1,0,0:0:0:0:
448,192,28051,1,0,0:0:0:0:
192,192,28051,1,0,0:0:0:0:
192,192,28181,1,0,0:0:0:0:
64,192,28310,1,0,0:0:0:0:
448,192,28310,1,0,0:0:0:0:
320,192,28568,1,0,0:0:0:0:
64,192,28568,1,0,0:0:0:0:
448,192,28697,1,0,0:0:0:0:
320,192,28826,1,0,0:0:0:0:
448,192,28826,1,0,0:0:0:0:
64,192,28955,128,0,32054:0:0:0:0:
192,192,29084,1,0,0:0:0:0:
320,192,29084,1,0,0:0:0:0:
320,192,29214,1,0,0:0:0:0:
448,192,29343,1,0,0:0:0:0:
192,192,29343,1,0,0:0:0:0:
448,192,29601,1,0,0:0:0:0:
320,192,29601,1,0,0:0:0:0:
192,192,29730,1,0,0:0:0:0:
192,192,29859,1,0,0:0:0:0:
448,192,29859,1,0,0:0:0:0:
448,192,30117,1,0,0:0:0:0:
320,192,30117,1,0,0:0:0:0:
192,192,30246,1,0,0:0:0:0:
320,192,30375,1,0,0:0:0:0:
192,192,30375,1,0,0:0:0:0:
448,192,30634,1,0,0:0:0:0:
192,192,30634,1,0,0:0:0:0:
320,192,30763,1,0,0:0:0:0:
192,192,30891,1,0,0:0:0:0:
320,192,30891,1,0,0:0:0:0:
448,192,31150,1,0,0:0:0:0:
320,192,31150,1,0,0:0:0:0:
448,192,31279,1,0,0:0:0:0:
192,192,31408,1,0,0:0:0:0:
320,192,31408,1,0,0:0:0:0:
448,192,31666,1,0,0:0:0:0:
192,192,31666,1,0,0:0:0:0:
320,192,31795,1,0,0:0:0:0:
192,192,31924,1,0,0:0:0:0:
320,192,31924,1,0,0:0:0:0:
448,192,32054,1,0,0:0:0:0:
320,192,32118,1,0,0:0:0:0:
192,192,32182,128,0,32311:0:0:0:0:
64,192,32311,128,0,32441:0:0:0:0:
320,192,32441,128,0,32570:0:0:0:0:
448,192,32570,128,0,32828:0:0:0:0:
64,192,32828,1,0,0:0:0:0:
192,192,32871,1,0,0:0:0:0:
320,192,32914,1,0,0:0:0:0:
448,192,32957,1,0,0:0:0:0:
64,192,33000,1,0,0:0:0:0:
192,192,33043,1,0,0:0:0:0:
320,192,33086,1,0,0:0:0:0:
448,192,33086,1,0,0:0:0:0:
192,192,33151,1,0,0:0:0:0:
64,192,33215,1,0,0:0:0:0:
192,192,33280,1,0,0:0:0:0:
320,192,33344,1,0,0:0:0:0:
448,192,33344,1,0,0:0:0:0:
64,192,33344,1,0,0:0:0:0:
192,192,33409,1,0,0:0:0:0:
320,192,33474,1,0,0:0:0:0:
448,192,33538,1,0,0:0:0:0:
320,192,33602,1,0,0:0:0:0:
192,192,33602,1,0,0:0:0:0:
64,192,33602,1,0,0:0:0:0:
448,192,33667,1,0,0:0:0:0:
320,192,33731,1,0,0:0:0:0:
192,192,33796,1,0,0:0:0:0:
64,192,33861,1,0,0:0:0:0:
320,192,33861,1,0,0:0:0:0:
448,192,33861,1,0,0:0:0:0:
192,192,33925,1,0,0:0:0:0:
320,192,33990,1,0,0:0:0:0:
448,192,34054,1,0,0:0:0:0:
320,192,34119,1,0,0:0:0:0:
192,192,34119,1,0,0:0:0:0:
64,192,34119,1,0,0:0:0:0:
448,192,34184,1,0,0:0:0:0:
320,192,34248,1,0,0:0:0:0:
192,192,34312,1,0,0:0:0:0:
64,192,34377,1,0,0:0:0:0:
320,192,34377,1,0,0:0:0:0:
448,192,34377,1,0,0:0:0:0:
192,192,34441,1,0,0:0:0:0:
320,192,34506,1,0,0:0:0:0:
192,192,34571,1,0,0:0:0:0:
320,192,34635,1,0,0:0:0:0:
64,192,34635,1,0,0:0:0:0:
448,192,34635,1,0,0:0:0:0:
192,192,34700,1,0,0:0:0:0:
64,192,34764,1,0,0:0:0:0:
448,192,34829,1,0,0:0:0:0:
320,192,34894,1,0,0:0:0:0:
192,192,34894,1,0,0:0:0:0:
64,192,34894,1,0,0:0:0:0:
448,192,34958,1,0,0:0:0:0:
64,192,35022,1,0,0:0:0:0:
192,192,35087,1,0,0:0:0:0:
320,192,35151,1,0,0:0:0:0:
448,192,35151,1,0,0:0:0:0:
64,192,35151,1,0,0:0:0:0:
192,192,35216,1,0,0:0:0:0:
320,192,35281,1,0,0:0:0:0:
192,192,35345,1,0,0:0:0:0:
320,192,35410,1,0,0:0:0:0:
448,192,35410,1,0,0:0:0:0:
64,192,35410,1,0,0:0:0:0:
192,192,35474,1,0,0:0:0:0:
320,192,35539,1,0,0:0:0:0:
448,192,35604,1,0,0:0:0:0:
320,192,35668,1,0,0:0:0:0:
192,192,35668,1,0,0:0:0:0:
64,192,35668,1,0,0:0:0:0:
448,192,35732,1,0,0:0:0:0:
192,192,35797,1,0,0:0:0:0:
320,192,35861,1,0,0:0:0:0:
448,192,35926,1,0,0:0:0:0:
192,192,35926,1,0,0:0:0:0:
64,192,35926,1,0,0:0:0:0:
320,192,35991,1,0,0:0:0:0:
192,192,36055,1,0,0:0:0:0:
448,192,36120,1,0,0:0:0:0:
320,192,36184,1,0,0:0:0:0:
192,192,36184,1,0,0:0:0:0:
64,192,36184,1,0,0:0:0:0:
448,192,36249,1,0,0:0:0:0:
320,192,36314,1,0,0:0:0:0:
192,192,36378,1,0,0:0:0:0:
64,192,36442,1,0,0:0:0:0:
320,192,36442,1,0,0:0:0:0:
448,192,36442,1,0,0:0:0:0:
192,192,36507,1,0,0:0:0:0:
448,192,36571,1,0,0:0:0:0:
320,192,36636,1,0,0:0:0:0:
192,192,36701,1,0,0:0:0:0:
64,192,36701,1,0,0:0:0:0:
448,192,36701,1,0,0:0:0:0:
320,192,36765,1,0,0:0:0:0:
192,192,36830,1,0,0:0:0:0:
448,192,36894,1,0,0:0:0:0:
320,192,36959,1,0,0:0:0:0:
192,192,36959,1,0,0:0:0:0:
64,192,36959,1,0,0:0:0:0:
448,192,37024,1,0,0:0:0:0:
64,192,37088,1,0,0:0:0:0:
192,192,37152,1,0,0:0:0:0:
320,192,37217,1,0,0:0:0:0:
448,192,37217,1,0,0:0:0:0:
64,192,37217,1,0,0:0:0:0:
192,192,37281,1,0,0:0:0:0:
320,192,37346,1,0,0:0:0:0:
448,192,37411,1,0,0:0:0:0:
64,192,37475,1,0,0:0:0:0:
192,192,37475,1,0,0:0:0:0:
320,192,37475,1,0,0:0:0:0:
448,192,37539,1,0,0:0:0:0:
320,192,37604,1,0,0:0:0:0:
64,192,37669,1,0,0:0:0:0:
192,192,37734,1,0,0:0:0:0:
320,192,37734,1,0,0:0:0:0:
448,192,37734,1,0,0:0:0:0:
64,192,37798,1,0,0:0:0:0:
192,192,37862,1,0,0:0:0:0:
320,192,37927,1,0,0:0:0:0:
192,192,37991,1,0,0:0:0:0:
64,192,37991,1,0,0:0:0:0:
448,192,37991,1,0,0:0:0:0:
320,192,38056,1,0,0:0:0:0:
64,192,38121,1,0,0:0:0:0:
192,192,38185,1,0,0:0:0:0:
320,192,38249,1,0,0:0:0:0:
448,192,38249,1,0,0:0:0:0:
64,192,38249,1,0,0:0:0:0:
192,192,38314,1,0,0:0:0:0:
448,192,38379,1,0,0:0:0:0:
320,192,38444,1,0,0:0:0:0:
192,192,38508,1,0,0:0:0:0:
448,192,38508,1,0,0:0:0:0:
64,192,38508,1,0,0:0:0:0:
320,192,38572,1,0,0:0:0:0:
192,192,38637,1,0,0:0:0:0:
64,192,38701,1,0,0:0:0:0:
192,192,38766,1,0,0:0:0:0:
320,192,38766,1,0,0:0:0:0:
448,192,38766,1,0,0:0:0:0:
64,192,38831,1,0,0:0:0:0:
320,192,38895,1,0,0:0:0:0:
448,192,38959,1,0,0:0:0:0:
320,192,39024,1,0,0:0:0:0:
192,192,39024,1,0,0:0:0:0:
64,192,39024,1,0,0:0:0:0:
448,192,39089,1,0,0:0:0:0:
320,192,39154,1,0,0:0:0:0:
64,192,39218,1,0,0:0:0:0:
192,192,39282,1,0,0:0:0:0:
448,192,39282,1,0,0:0:0:0:
320,192,39282,1,0,0:0:0:0:
64,192,39347,1,0,0:0:0:0:
192,192,39411,1,0,0:0:0:0:
320,192,39476,1,0,0:0:0:0:
192,192,39541,1,0,0:0:0:0:
64,192,39541,1,0,0:0:0:0:
448,192,39541,1,0,0:0:0:0:
320,192,39605,1,0,0:0:0:0:
192,192,39669,1,0,0:0:0:0:
64,192,39734,1,0,0:0:0:0:
320,192,39799,1,0,0:0:0:0:
192,192,39799,1,0,0:0:0:0:
448,192,39799,1,0,0:0:0:0:
64,192,39864,1,0,0:0:0:0:
192,192,39928,1,0,0:0:0:0:
320,192,39992,1,0,0:0:0:0:
192,192,40057,1,0,0:0:0:0:
64,192,40057,1,0,0:0:0:0:
448,192,40057,1,0,0:0:0:0:
320,192,40121,1,0,0:0:0:0:
192,192,40186,1,0,0:0:0:0:
320,192,40251,1,0,0:0:0:0:
448,192,40315,1,0,0:0:0:0:
192,192,40315,1,0,0:0:0:0:
64,192,40315,1,0,0:0:0:0:
320,192,40379,1,0,0:0:0:0:
192,192,40444,1,0,0:0:0:0:
64,192,40509,1,0,0:0:0:0:
192,192,40573,1,0,0:0:0:0:
320,192,40573,1,0,0:0:0:0:
448,192,40573,1,0,0:0:0:0:
64,192,40638,1,0,0:0:0:0:
192,192,40702,1,0,0:0:0:0:
448,192,40767,1,0,0:0:0:0:
320,192,40831,1,0,0:0:0:0:
192,192,40831,1,0,0:0:0:0:
64,192,40831,1,0,0:0:0:0:
448,192,40896,1,0,0:0:0:0:
320,192,40961,1,0,0:0:0:0:
192,192,41025,1,0,0:0:0:0:
320,192,41089,1,0,0:0:0:0:
448,192,41089,1,0,0:0:0:0:
64,192,41089,1,0,0:0:0:0:
192,192,41154,1,0,0:0:0:0:
320,192,41219,1,0,0:0:0:0:
64,192,41283,1,0,0:0:0:0:
192,192,41348,1,0,0:0:0:0:
320,192,41348,1,0,0:0:0:0:
448,192,41348,1,0,0:0:0:0:
64,192,41412,1,0,0:0:0:0:
192,192,41477,1,0,0:0:0:0:
320,192,41541,1,0,0:0:0:0:
192,192,41606,1,0,0:0:0:0:
64,192,41606,1,0,0:0:0:0:
448,192,41606,1,0,0:0:0:0:
320,192,41671,1,0,0:0:0:0:
192,192,41735,1,0,0:0:0:0:
320,192,41799,1,0,0:0:0:0:
64,192,41864,1,0,0:0:0:0:
192,192,41864,1,0,0:0:0:0:
448,192,41864,1,0,0:0:0:0:
320,192,41929,1,0,0:0:0:0:
192,192,41993,1,0,0:0:0:0:
448,192,42058,1,0,0:0:0:0:
320,192,42122,1,0,0:0:0:0:
192,192,42122,1,0,0:0:0:0:
64,192,42122,1,0,0:0:0:0:
448,192,42187,1,0,0:0:0:0:
320,192,42251,1,0,0:0:0:0:
192,192,42316,1,0,0:0:0:0:
64,192,42381,1,0,0:0:0:0:
320,192,42381,1,0,0:0:0:0:
448,192,42381,1,0,0:0:0:0:
192,192,42445,1,0,0:0:0:0:
64,192,42509,1,0,0:0:0:0:
448,192,42574,1,0,0:0:0:0:
320,192,42639,1,0,0:0:0:0:
192,192,42639,1,0,0:0:0:0:
64,192,42639,1,0,0:0:0:0:
448,192,42703,1,0,0:0:0:0:
320,192,42768,1,0,0:0:0:0:
192,192,42832,1,0,0:0:0:0:
64,192,42896,1,0,0:0:0:0:
320,192,42896,1,0,0:0:0:0:
448,192,42896,1,0,0:0:0:0:
192,192,42961,1,0,0:0:0:0:
320,192,43026,1,0,0:0:0:0:
192,192,43091,1,0,0:0:0:0:
320,192,43155,1,0,0:0:0:0:
448,192,43155,1,0,0:0:0:0:
64,192,43155,1,0,0:0:0:0:
192,192,43219,1,0,0:0:0:0:
320,192,43284,1,0,0:0:0:0:
448,192,43349,1,0,0:0:0:0:
320,192,43413,1,0,0:0:0:0:
192,192,43413,1,0,0:0:0:0:
64,192,43413,1,0,0:0:0:0:
448,192,43478,1,0,0:0:0:0:
320,192,43542,1,0,0:0:0:0:
64,192,43606,1,0,0:0:0:0:
192,192,43671,1,0,0:0:0:0:
320,192,43671,1,0,0:0:0:0:
448,192,43671,1,0,0:0:0:0:
64,192,43736,1,0,0:0:0:0:
192,192,43801,1,0,0:0:0:0:
320,192,43865,1,0,0:0:0:0:
192,192,43929,1,0,0:0:0:0:
64,192,43929,1,0,0:0:0:0:
448,192,43929,1,0,0:0:0:0:
320,192,43994,1,0,0:0:0:0:
192,192,44059,1,0,0:0:0:0:
64,192,44123,1,0,0:0:0:0:
192,192,44188,1,0,0:0:0:0:
448,192,44188,1,0,0:0:0:0:
320,192,44188,1,0,0:0:0:0:
64,192,44252,1,0,0:0:0:0:
192,192,44316,1,0,0:0:0:0:
320,192,44381,1,0,0:0:0:0:
192,192,44446,1,0,0:0:0:0:
64,192,44446,1,0,0:0:0:0:
448,192,44446,1,0,0:0:0:0:
320,192,44511,1,0,0:0:0:0:
192,192,44575,1,0,0:0:0:0:
448,192,44639,1,0,0:0:0:0:
320,192,44704,1,0,0:0:0:0:
192,192,44704,1,0,0:0:0:0:
64,192,44704,1,0,0:0:0:0:
448,192,44769,1,0,0:0:0:0:
64,192,44833,1,0,0:0:0:0:
192,192,44898,1,0,0:0:0:0:
320,192,44962,1,0,0:0:0:0:
448,192,44962,1,0,0:0:0:0:
64,192,44962,1,0,0:0:0:0:
192,192,45026,1,0,0:0:0:0:
320,192,45091,1,0,0:0:0:0:
192,192,45156,1,0,0:0:0:0:
448,192,45221,1,0,0:0:0:0:
64,192,45221,1,0,0:0:0:0:
320,192,45221,1,0,0:0:0:0:
192,192,45285,1,0,0:0:0:0:
64,192,45349,1,0,0:0:0:0:
320,192,45414,1,0,0:0:0:0:
64,192,45479,1,0,0:0:0:0:
192,192,45479,1,0,0:0:0:0:
448,192,45479,128,0,45608:0:0:0:0:
320,192,45608,128,0,45736:0:0:0:0:
64,192,45736,128,0,45866:0:0:0:0:
192,192,45736,1,0,0:0:0:0:
320,192,45866,128,0,45995:0:0:0:0:
192,192,45995,128,0,46124:0:0:0:0:
448,192,45995,1,0,0:0:0:0:
448,192,46124,128,0,46253:0:0:0:0:
64,192,46253,128,0,46382:0:0:0:0:
320,192,46253,1,0,0:0:0:0:
192,192,46382,128,0,46511:0:0:0:0:
448,192,46511,1,0,0:0:0:0:
448,192,46640,128,0,46769:0:0:0:0:
192,192,46769,128,0,46899:0:0:0:0:
320,192,46769,1,0,0:0:0:0:
64,192,46899,128,0,47028:0:0:0:0:
320,192,47028,128,0,47156:0:0:0:0:
448,192,47028,1,0,0:0:0:0:
192,192,47156,128,0,47286:0:0:0:0:
448,192,47286,128,0,47415:0:0:0:0:
64,192,47286,1,0,0:0:0:0:
320,192,47415,128,0,47544:0:0:0:0:
192,192,47544,1,0,0:0:0:0:
448,192,47673,128,0,47802:0:0:0:0:
192,192,47802,128,0,47931:0:0:0:0:
320,192,47802,1,0,0:0:0:0:
320,192,47931,128,0,48060:0:0:0:0:
64,192,48060,128,0,48189:0:0:0:0:
192,192,48060,1,0,0:0:0:0:
320,192,48189,128,0,48319:0:0:0:0:
448,192,48319,128,0,48448:0:0:0:0:
64,192,48319,1,0,0:0:0:0:
320,192,48448,128,0,48576:0:0:0:0:
448,192,48576,1,0,0:0:0:0:
64,192,48576,1,0,0:0:0:0:
320,192,48835,1,0,0:0:0:0:
192,192,49093,1,0,0:0:0:0:
448,192,49351,1,0,0:0:0:0:
64,192,49609,1,0,0:0:0:0:
192,192,49674,1,0,0:0:0:0:
448,192,49739,1,0,0:0:0:0:
320,192,49803,1,0,0:0:0:0:
192,192,49868,1,0,0:0:0:0:
64,192,49932,1,0,0:0:0:0:
448,192,49996,1,0,0:0:0:0:
320,192,50061,1,0,0:0:0:0:
192,192,50126,1,0,0:0:0:0:
64,192,50190,1,0,0:0:0:0:
192,192,50255,1,0,0:0:0:0:
320,192,50319,1,0,0:0:0:0:
448,192,50384,1,0,0:0:0:0:
64,192,50449,1,0,0:0:0:0:
192,192,50513,1,0,0:0:0:0:
320,192,50578,1,0,0:0:0:0:
192,192,50642,1,0,0:0:0:0:
64,192,50706,1,0,0:0:0:0:
448,192,50771,1,0,0:0:0:0:
320,192,50836,1,0,0:0:0:0:
192,192,50900,1,0,0:0:0:0:
64,192,50965,1,0,0:0:0:0:
320,192,51029,1,0,0:0:0:0:
192,192,51094,1,0,0:0:0:0:
320,192,51159,1,0,0:0:0:0:
448,192,51223,1,0,0:0:0:0:
320,192,51287,1,0,0:0:0:0:
192,192,51352,1,0,0:0:0:0:
64,192,51416,1,0,0:0:0:0:
448,192,51481,1,0,0:0:0:0:
320,192,51546,1,0,0:0:0:0:
192,192,51610,1,0,0:0:0:0:
64,192,51675,1,0,0:0:0:0:
320,192,51675,1,0,0:0:0:0:
448,192,51739,1,0,0:0:0:0:
320,192,51804,1,0,0:0:0:0:
192,192,51804,1,0,0:0:0:0:
64,192,51869,1,0,0:0:0:0:
448,192,51933,1,0,0:0:0:0:
320,192,51933,1,0,0:0:0:0:
192,192,51997,1,0,0:0:0:0:
64,192,52062,1,0,0:0:0:0:
320,192,52062,1,0,0:0:0:0:
448,192,52126,1,0,0:0:0:0:
64,192,52191,1,0,0:0:0:0:
192,192,52191,1,0,0:0:0:0:
320,192,52256,1,0,0:0:0:0:
448,192,52320,1,0,0:0:0:0:
192,192,52320,1,0,0:0:0:0:
64,192,52385,1,0,0:0:0:0:
320,192,52449,1,0,0:0:0:0:
448,192,52449,1,0,0:0:0:0:
192,192,52514,1,0,0:0:0:0:
64,192,52579,1,0,0:0:0:0:
448,192,52579,1,0,0:0:0:0:
320,192,52643,1,0,0:0:0:0:
192,192,52707,1,0,0:0:0:0:
448,192,52707,1,0,0:0:0:0:
64,192,52772,1,0,0:0:0:0:
192,192,52836,1,0,0:0:0:0:
320,192,52836,1,0,0:0:0:0:
448,192,52901,1,0,0:0:0:0:
64,192,52966,1,0,0:0:0:0:
192,192,52966,1,0,0:0:0:0:
320,192,53030,1,0,0:0:0:0:
448,192,53095,1,0,0:0:0:0:
192,192,53095,1,0,0:0:0:0:
64,192,53159,1,0,0:0:0:0:
448,192,53224,1,0,0:0:0:0:
320,192,53224,1,0,0:0:0:0:
192,192,53289,1,0,0:0:0:0:
64,192,53353,1,0,0:0:0:0:
320,192,53353,1,0,0:0:0:0:
448,192,53417,1,0,0:0:0:0:
64,192,53482,1,0,0:0:0:0:
192,192,53482,1,0,0:0:0:0:
320,192,53546,1,0,0:0:0:0:
192,192,53611,1,0,0:0:0:0:
448,192,53611,1,0,0:0:0:0:
64,192,53676,1,0,0:0:0:0:
320,192,53740,1,0,0:0:0:0:
192,192,53740,1,0,0:0:0:0:
448,192,53740,1,0,0:0:0:0:
64,192,53805,1,0,0:0:0:0:
192,192,53869,1,0,0:0:0:0:
320,192,53869,1,0,0:0:0:0:
448,192,53934,1,0,0:0:0:0:
320,192,53999,1,0,0:0:0:0:
192,192,53999,1,0,0:0:0:0:
64,192,53999,1,0,0:0:0:0:
448,192,54063,1,0,0:0:0:0:
320,192,54127,1,0,0:0:0:0:
64,192,54127,1,0,0:0:0:0:
192,192,54192,1,0,0:0:0:0:
320,192,54256,1,0,0:0:0:0:
448,192,54256,1,0,0:0:0:0:
64,192,54256,1,0,0:0:0:0:
192,192,54321,1,0,0:0:0:0:
320,192,54386,1,0,0:0:0:0:
448,192,54386,1,0,0:0:0:0:
192,192,54450,1,0,0:0:0:0:
64,192,54515,1,0,0:0:0:0:
320,192,54515,1,0,0:0:0:0:
448,192,54515,1,0,0:0:0:0:
192,192,54579,1,0,0:0:0:0:
448,192,54644,1,0,0:0:0:0:
64,192,54644,1,0,0:0:0:0:
320,192,54709,1,0,0:0:0:0:
64,192,54773,1,0,0:0:0:0:
448,192,54773,1,0,0:0:0:0:
192,192,54773,1,0,0:0:0:0:
320,192,54837,1,0,0:0:0:0:
192,192,54902,1,0,0:0:0:0:
64,192,54902,1,0,0:0:0:0:
320,192,54966,1,0,0:0:0:0:
192,192,55031,1,0,0:0:0:0:
448,192,55031,1,0,0:0:0:0:
64,192,55031,1,0,0:0:0:0:
320,192,55096,1,0,0:0:0:0:
192,192,55160,1,0,0:0:0:0:
448,192,55160,1,0,0:0:0:0:
64,192,55225,1,0,0:0:0:0:
192,192,55289,1,0,0:0:0:0:
320,192,55289,1,0,0:0:0:0:
448,192,55289,1,0,0:0:0:0:
64,192,55354,1,0,0:0:0:0:
448,192,55419,5,0,0:0:0:0:
320,192,55419,1,0,0:0:0:0:
192,192,55483,1,0,0:0:0:0:
64,192,55547,1,0,0:0:0:0:
320,192,55547,1,0,0:0:0:0:
448,192,55547,1,0,0:0:0:0:
192,192,55612,1,0,0:0:0:0:
64,192,55676,1,0,0:0:0:0:
448,192,55676,1,0,0:0:0:0:
320,192,55741,1,0,0:0:0:0:
448,192,55806,5,0,0:0:0:0:
320,192,55849,1,0,0:0:0:0:
192,192,55891,1,0,0:0:0:0:
64,192,55935,1,0,0:0:0:0:
448,192,55978,1,0,0:0:0:0:
320,192,56021,1,0,0:0:0:0:
192,192,56064,1,0,0:0:0:0:
64,192,56106,1,0,0:0:0:0:
192,192,56150,1,0,0:0:0:0:
320,192,56193,1,0,0:0:0:0:
448,192,56236,1,0,0:0:0:0:
320,192,56279,1,0,0:0:0:0:
192,192,56322,1,0,0:0:0:0:
64,192,56365,1,0,0:0:0:0:
448,192,56408,1,0,0:0:0:0:
320,192,56451,1,0,0:0:0:0:
64,192,56494,1,0,0:0:0:0:
192,192,56537,1,0,0:0:0:0:
320,192,56580,1,0,0:0:0:0:
448,192,56623,1,0,0:0:0:0:
192,192,56666,1,0,0:0:0:0:
320,192,56709,1,0,0:0:0:0:
448,192,56752,1,0,0:0:0:0:
320,192,56795,1,0,0:0:0:0:
192,192,56839,1,0,0:0:0:0:
64,192,56881,1,0,0:0:0:0:
192,192,56924,1,0,0:0:0:0:
448,192,56967,1,0,0:0:0:0:
320,192,57011,1,0,0:0:0:0:
64,192,57054,1,0,0:0:0:0:
192,192,57096,1,0,0:0:0:0:
448,192,57139,1,0,0:0:0:0:
320,192,57182,1,0,0:0:0:0:
192,192,57226,1,0,0:0:0:0:
64,192,57269,1,0,0:0:0:0:
448,192,57311,1,0,0:0:0:0:
320,192,57354,1,0,0:0:0:0:
192,192,57398,1,0,0:0:0:0:
64,192,57441,1,0,0:0:0:0:
320,192,57484,1,0,0:0:0:0:
448,192,57526,1,0,0:0:0:0:
64,192,57570,1,0,0:0:0:0:
192,192,57613,1,0,0:0:0:0:
320,192,57656,1,0,0:0:0:0:
448,192,57699,1,0,0:0:0:0:
64,192,57742,1,0,0:0:0:0:
192,192,57785,1,0,0:0:0:0:
320,192,57828,1,0,0:0:0:0:
448,192,57871,1,0,0:0:0:0:
64,192,57871,1,0,0:0:0:0:
320,192,57936,1,0,0:0:0:0:
192,192,58000,1,0,0:0:0:0:
64,192,58064,1,0,0:0:0:0:
448,192,58129,128,0,58387:0:0:0:0:
192,192,58387,128,0,58646:0:0:0:0:
448,192,58646,1,0,0:0:0:0:
320,192,58689,1,0,0:0:0:0:
64,192,58731,1,0,0:0:0:0:
192,192,58774,1,0,0:0:0:0:
448,192,58818,1,0,0:0:0:0:
320,192,58861,1,0,0:0:0:0:
192,192,58904,1,0,0:0:0:0:
64,192,58904,1,0,0:0:0:0:
320,192,58968,1,0,0:0:0:0:
192,192,59033,1,0,0:0:0:0:
64,192,59097,1,0,0:0:0:0:
192,192,59162,1,0,0:0:0:0:
448,192,59162,1,0,0:0:0:0:
320,192,59226,1,0,0:0:0:0:
192,192,59291,1,0,0:0:0:0:
448,192,59356,1,0,0:0:0:0:
320,192,59420,1,0,0:0:0:0:
192,192,59420,1,0,0:0:0:0:
64,192,59484,1,0,0:0:0:0:
448,192,59549,1,0,0:0:0:0:
192,192,59614,1,0,0:0:0:0:
448,192,59678,1,0,0:0:0:0:
64,192,59678,1,0,0:0:0:0:
320,192,59743,1,0,0:0:0:0:
64,192,59807,1,0,0:0:0:0:
320,192,59872,1,0,0:0:0:0:
448,192,59936,1,0,0:0:0:0:
192,192,59936,1,0,0:0:0:0:
64,192,60001,1,0,0:0:0:0:
448,192,60066,1,0,0:0:0:0:
320,192,60130,1,0,0:0:0:0:
192,192,60194,1,0,0:0:0:0:
64,192,60194,1,0,0:0:0:0:
320,192,60259,1,0,0:0:0:0:
448,192,60324,1,0,0:0:0:0:
192,192,60388,1,0,0:0:0:0:
64,192,60453,1,0,0:0:0:0:
448,192,60453,1,0,0:0:0:0:
320,192,60517,1,0,0:0:0:0:
192,192,60582,1,0,0:0:0:0:
64,192,60646,1,0,0:0:0:0:
192,192,60711,1,0,0:0:0:0:
320,192,60711,1,0,0:0:0:0:
448,192,60776,1,0,0:0:0:0:
320,192,60840,1,0,0:0:0:0:
64,192,60904,1,0,0:0:0:0:
448,192,60969,1,0,0:0:0:0:
320,192,60969,1,0,0:0:0:0:
192,192,61034,1,0,0:0:0:0:
64,192,61098,1,0,0:0:0:0:
192,192,61163,1,0,0:0:0:0:
320,192,61227,1,0,0:0:0:0:
64,192,61227,1,0,0:0:0:0:
448,192,61292,1,0,0:0:0:0:
64,192,61356,1,0,0:0:0:0:
192,192,61421,1,0,0:0:0:0:
320,192,61486,1,0,0:0:0:0:
448,192,61486,1,0,0:0:0:0:
192,192,61550,1,0,0:0:0:0:
320,192,61614,1,0,0:0:0:0:
64,192,61679,1,0,0:0:0:0:
320,192,61744,1,0,0:0:0:0:
448,192,61744,1,0,0:0:0:0:
192,192,61808,1,0,0:0:0:0:
448,192,61873,1,0,0:0:0:0:
192,192,61937,1,0,0:0:0:0:
64,192,62001,1,0,0:0:0:0:
320,192,62001,1,0,0:0:0:0:
448,192,62066,1,0,0:0:0:0:
320,192,62131,1,0,0:0:0:0:
192,192,62196,1,0,0:0:0:0:
320,192,62260,1,0,0:0:0:0:
448,192,62260,1,0,0:0:0:0:
192,192,62324,1,0,0:0:0:0:
64,192,62389,1,0,0:0:0:0:
192,192,62454,1,0,0:0:0:0:
320,192,62518,1,0,0:0:0:0:
64,192,62518,1,0,0:0:0:0:
448,192,62583,1,0,0:0:0:0:
320,192,62647,1,0,0:0:0:0:
192,192,62711,1,0,0:0:0:0:
64,192,62776,1,0,0:0:0:0:
192,192,62819,1,0,0:0:0:0:
320,192,62862,1,0,0:0:0:0:
448,192,62906,1,0,0:0:0:0:
64,192,62949,1,0,0:0:0:0:
192,192,62991,1,0,0:0:0:0:
320,192,63034,1,0,0:0:0:0:
448,192,63034,1,0,0:0:0:0:
192,192,63099,1,0,0:0:0:0:
64,192,63164,1,0,0:0:0:0:
192,192,63228,1,0,0:0:0:0:
320,192,63293,1,0,0:0:0:0:
448,192,63293,1,0,0:0:0:0:
192,192,63357,1,0,0:0:0:0:
448,192,63421,1,0,0:0:0:0:
320,192,63486,1,0,0:0:0:0:
192,192,63551,1,0,0:0:0:0:
64,192,63551,1,0,0:0:0:0:
320,192,63616,1,0,0:0:0:0:
448,192,63616,1,0,0:0:0:0:
192,192,63680,1,0,0:0:0:0:
64,192,63680,1,0,0:0:0:0:
320,192,63744,1,0,0:0:0:0:
448,192,63744,1,0,0:0:0:0:
64,192,63809,1,0,0:0:0:0:
192,192,63809,1,0,0:0:0:0:
320,192,63874,1,0,0:0:0:0:
448,192,63874,1,0,0:0:0:0:
192,192,63938,1,0,0:0:0:0:
64,192,63938,1,0,0:0:0:0:
320,192,64003,1,0,0:0:0:0:
448,192,64003,1,0,0:0:0:0:
192,192,64067,1,0,0:0:0:0:
64,192,64067,1,0,0:0:0:0:
320,192,64131,1,0,0:0:0:0:
448,192,64196,1,0,0:0:0:0:
320,192,64261,1,0,0:0:0:0:
192,192,64325,1,0,0:0:0:0:
448,192,64325,1,0,0:0:0:0:
64,192,64390,1,0,0:0:0:0:
192,192,64454,1,0,0:0:0:0:
320,192,64519,1,0,0:0:0:0:
64,192,64584,1,0,0:0:0:0:
448,192,64584,1,0,0:0:0:0:
320,192,64648,1,0,0:0:0:0:
192,192,64713,1,0,0:0:0:0:
64,192,64777,1,0,0:0:0:0:
192,192,64841,1,0,0:0:0:0:
448,192,64841,1,0,0:0:0:0:
320,192,64906,1,0,0:0:0:0:
64,192,64906,1,0,0:0:0:0:
192,192,64971,1,0,0:0:0:0:
448,192,64971,1,0,0:0:0:0:
320,192,65035,1,0,0:0:0:0:
64,192,65035,1,0,0:0:0:0:
192,192,65100,1,0,0:0:0:0:
448,192,65100,1,0,0:0:0:0:
64,192,65164,1,0,0:0:0:0:
192,192,65229,1,0,0:0:0:0:
320,192,65294,1,0,0:0:0:0:
192,192,65358,1,0,0:0:0:0:
448,192,65358,1,0,0:0:0:0:
64,192,65423,1,0,0:0:0:0:
192,192,65487,1,0,0:0:0:0:
320,192,65551,1,0,0:0:0:0:
448,192,65616,1,0,0:0:0:0:
64,192,65616,1,0,0:0:0:0:
192,192,65681,1,0,0:0:0:0:
320,192,65681,1,0,0:0:0:0:
448,192,65745,1,0,0:0:0:0:
64,192,65745,1,0,0:0:0:0:
192,192,65810,1,0,0:0:0:0:
320,192,65810,1,0,0:0:0:0:
64,192,65874,1,0,0:0:0:0:
448,192,65874,1,0,0:0:0:0:
320,192,65939,1,0,0:0:0:0:
192,192,65939,1,0,0:0:0:0:
64,192,66004,1,0,0:0:0:0:
448,192,66004,1,0,0:0:0:0:
320,192,66068,1,0,0:0:0:0:
192,192,66068,1,0,0:0:0:0:
64,192,66133,1,0,0:0:0:0:
448,192,66133,1,0,0:0:0:0:
192,192,66197,1,0,0:0:0:0:
320,192,66261,1,0,0:0:0:0:
448,192,66326,1,0,0:0:0:0:
320,192,66391,1,0,0:0:0:0:
192,192,66391,1,0,0:0:0:0:
64,192,66455,1,0,0:0:0:0:
320,192,66520,1,0,0:0:0:0:
192,192,66584,1,0,0:0:0:0:
64,192,66649,1,0,0:0:0:0:
448,192,66649,128,0,66907:0:0:0:0:
64,192,66907,1,0,0:0:0:0:
192,192,66950,1,0,0:0:0:0:
448,192,66993,1,0,0:0:0:0:
320,192,67036,1,0,0:0:0:0:
64,192,67079,1,0,0:0:0:0:
192,192,67122,1,0,0:0:0:0:
320,192,67165,1,0,0:0:0:0:
448,192,67165,1,0,0:0:0:0:
64,192,67165,1,0,0:0:0:0:
192,192,67230,1,0,0:0:0:0:
320,192,67294,1,0,0:0:0:0:
64,192,67294,1,0,0:0:0:0:
448,192,67359,1,0,0:0:0:0:
192,192,67424,1,0,0:0:0:0:
64,192,67424,1,0,0:0:0:0:
320,192,67424,1,0,0:0:0:0:
448,192,67488,1,0,0:0:0:0:
320,192,67553,1,0,0:0:0:0:
192,192,67553,1,0,0:0:0:0:
64,192,67617,1,0,0:0:0:0:
320,192,67681,1,0,0:0:0:0:
192,192,67681,1,0,0:0:0:0:
448,192,67681,1,0,0:0:0:0:
64,192,67746,1,0,0:0:0:0:
448,192,67811,1,0,0:0:0:0:
192,192,67811,1,0,0:0:0:0:
320,192,67875,1,0,0:0:0:0:
192,192,67940,1,0,0:0:0:0:
64,192,67940,1,0,0:0:0:0:
448,192,67940,1,0,0:0:0:0:
320,192,68004,1,0,0:0:0:0:
64,192,68069,1,0,0:0:0:0:
192,192,68069,1,0,0:0:0:0:
320,192,68134,1,0,0:0:0:0:
192,192,68198,1,0,0:0:0:0:
64,192,68198,1,0,0:0:0:0:
448,192,68198,1,0,0:0:0:0:
320,192,68263,1,0,0:0:0:0:
448,192,68327,1,0,0:0:0:0:
192,192,68327,1,0,0:0:0:0:
64,192,68391,1,0,0:0:0:0:
192,192,68456,1,0,0:0:0:0:
320,192,68456,1,0,0:0:0:0:
448,192,68456,1,0,0:0:0:0:
64,192,68521,1,0,0:0:0:0:
320,192,68585,1,0,0:0:0:0:
192,192,68585,1,0,0:0:0:0:
448,192,68650,1,0,0:0:0:0:
320,192,68714,1,0,0:0:0:0:
64,192,68714,1,0,0:0:0:0:
192,192,68714,1,0,0:0:0:0:
448,192,68779,1,0,0:0:0:0:
320,192,68844,1,0,0:0:0:0:
64,192,68844,1,0,0:0:0:0:
192,192,68908,1,0,0:0:0:0:
320,192,68973,1,0,0:0:0:0:
64,192,68973,1,0,0:0:0:0:
448,192,68973,1,0,0:0:0:0:
192,192,69037,1,0,0:0:0:0:
448,192,69101,1,0,0:0:0:0:
64,192,69101,1,0,0:0:0:0:
320,192,69166,1,0,0:0:0:0:
64,192,69231,1,0,0:0:0:0:
448,192,69231,1,0,0:0:0:0:
192,192,69231,1,0,0:0:0:0:
320,192,69295,1,0,0:0:0:0:
192,192,69360,1,0,0:0:0:0:
448,192,69360,1,0,0:0:0:0:
64,192,69424,1,0,0:0:0:0:
192,192,69489,1,0,0:0:0:0:
320,192,69489,1,0,0:0:0:0:
448,192,69489,1,0,0:0:0:0:
64,192,69554,1,0,0:0:0:0:
192,192,69618,1,0,0:0:0:0:
320,192,69618,1,0,0:0:0:0:
448,192,69682,1,0,0:0:0:0:
320,192,69747,1,0,0:0:0:0:
192,192,69747,1,0,0:0:0:0:
64,192,69747,1,0,0:0:0:0:
448,192,69811,1,0,0:0:0:0:
64,192,69876,1,0,0:0:0:0:
320,192,69876,1,0,0:0:0:0:
192,192,69941,1,0,0:0:0:0:
320,192,70005,1,0,0:0:0:0:
448,192,70005,1,0,0:0:0:0:
64,192,70005,1,0,0:0:0:0:
192,192,70070,1,0,0:0:0:0:
448,192,70134,1,0,0:0:0:0:
64,192,70134,1,0,0:0:0:0:
320,192,70199,1,0,0:0:0:0:
64,192,70264,1,0,0:0:0:0:
192,192,70264,1,0,0:0:0:0:
448,192,70264,128,0,70392:0:0:0:0:
320,192,70392,128,0,70521:0:0:0:0:
64,192,70521,128,0,70780:0:0:0:0:
192,192,70780,128,0,70844:0:0:0:0:
448,192,70780,128,0,70844:0:0:0:0:
320,192,70844,128,0,70909:0:0:0:0:
64,192,70844,128,0,70909:0:0:0:0:
192,192,70909,128,0,70974:0:0:0:0:
448,192,70909,128,0,70974:0:0:0:0:
64,192,70974,128,0,71038:0:0:0:0:
320,192,70974,128,0,71038:0:0:0:0:
448,192,71038,1,0,0:0:0:0:
320,192,71081,1,0,0:0:0:0:
192,192,71124,1,0,0:0:0:0:
64,192,71167,1,0,0:0:0:0:
448,192,71210,1,0,0:0:0:0:
320,192,71253,1,0,0:0:0:0:
192,192,71296,1,0,0:0:0:0:
64,192,71296,1,0,0:0:0:0:
448,192,71296,1,0,0:0:0:0:
320,192,71361,1,0,0:0:0:0:
192,192,71425,1,0,0:0:0:0:
448,192,71425,1,0,0:0:0:0:
64,192,71490,1,0,0:0:0:0:
192,192,71554,1,0,0:0:0:0:
320,192,71554,1,0,0:0:0:0:
448,192,71554,1,0,0:0:0:0:
64,192,71619,1,0,0:0:0:0:
192,192,71684,1,0,0:0:0:0:
320,192,71684,1,0,0:0:0:0:
448,192,71748,1,0,0:0:0:0:
64,192,71812,1,0,0:0:0:0:
192,192,71812,1,0,0:0:0:0:
320,192,71877,1,0,0:0:0:0:
448,192,71877,1,0,0:0:0:0:
192,192,71941,1,0,0:0:0:0:
64,192,71941,1,0,0:0:0:0:
448,192,72006,1,0,0:0:0:0:
320,192,72006,1,0,0:0:0:0:
192,192,72071,1,0,0:0:0:0:
64,192,72071,1,0,0:0:0:0:
320,192,72135,1,0,0:0:0:0:
448,192,72135,1,0,0:0:0:0:
192,192,72200,1,0,0:0:0:0:
64,192,72200,1,0,0:0:0:0:
320,192,72264,1,0,0:0:0:0:
448,192,72264,1,0,0:0:0:0:
192,192,72329,1,0,0:0:0:0:
64,192,72329,1,0,0:0:0:0:
320,192,72394,1,0,0:0:0:0:
448,192,72458,1,0,0:0:0:0:
192,192,72458,1,0,0:0:0:0:
64,192,72522,1,0,0:0:0:0:
192,192,72587,1,0,0:0:0:0:
320,192,72587,1,0,0:0:0:0:
448,192,72587,1,0,0:0:0:0:
64,192,72651,1,0,0:0:0:0:
192,192,72716,1,0,0:0:0:0:
448,192,72716,1,0,0:0:0:0:
320,192,72781,1,0,0:0:0:0:
192,192,72845,1,0,0:0:0:0:
64,192,72845,1,0,0:0:0:0:
448,192,72845,1,0,0:0:0:0:
320,192,72910,1,0,0:0:0:0:
192,192,72974,1,0,0:0:0:0:
64,192,72974,1,0,0:0:0:0:
320,192,73039,1,0,0:0:0:0:
192,192,73104,1,0,0:0:0:0:
448,192,73104,1,0,0:0:0:0:
320,192,73168,1,0,0:0:0:0:
64,192,73168,1,0,0:0:0:0:
192,192,73232,1,0,0:0:0:0:
448,192,73232,1,0,0:0:0:0:
320,192,73297,1,0,0:0:0:0:
64,192,73297,1,0,0:0:0:0:
192,192,73361,1,0,0:0:0:0:
448,192,73361,1,0,0:0:0:0:
64,192,73426,1,0,0:0:0:0:
192,192,73491,1,0,0:0:0:0:
320,192,73491,1,0,0:0:0:0:
448,192,73555,1,0,0:0:0:0:
320,192,73620,1,0,0:0:0:0:
64,192,73620,1,0,0:0:0:0:
192,192,73620,1,0,0:0:0:0:
448,192,73684,1,0,0:0:0:0:
320,192,73749,1,0,0:0:0:0:
192,192,73749,1,0,0:0:0:0:
64,192,73814,1,0,0:0:0:0:
192,192,73878,1,0,0:0:0:0:
320,192,73878,1,0,0:0:0:0:
448,192,73942,1,0,0:0:0:0:
64,192,73942,1,0,0:0:0:0:
192,192,74007,1,0,0:0:0:0:
320,192,74007,1,0,0:0:0:0:
64,192,74071,1,0,0:0:0:0:
448,192,74071,1,0,0:0:0:0:
320,192,74136,1,0,0:0:0:0:
192,192,74136,1,0,0:0:0:0:
64,192,74201,1,0,0:0:0:0:
448,192,74201,1,0,0:0:0:0:
320,192,74265,1,0,0:0:0:0:
192,192,74265,1,0,0:0:0:0:
64,192,74330,1,0,0:0:0:0:
448,192,74330,1,0,0:0:0:0:
320,192,74394,1,0,0:0:0:0:
192,192,74394,1,0,0:0:0:0:
448,192,74459,1,0,0:0:0:0:
64,192,74524,1,0,0:0:0:0:
320,192,74524,1,0,0:0:0:0:
192,192,74588,1,0,0:0:0:0:
320,192,74652,1,0,0:0:0:0:
64,192,74652,1,0,0:0:0:0:
448,192,74652,1,0,0:0:0:0:
192,192,74717,1,0,0:0:0:0:
320,192,74781,1,0,0:0:0:0:
448,192,74781,1,0,0:0:0:0:
192,192,74846,1,0,0:0:0:0:
64,192,74911,1,0,0:0:0:0:
320,192,74911,1,0,0:0:0:0:
448,192,74911,128,0,75169:0:0:0:0:
64,192,75169,1,0,0:0:0:0:
192,192,75211,1,0,0:0:0:0:
320,192,75255,1,0,0:0:0:0:
448,192,75298,1,0,0:0:0:0:
64,192,75341,1,0,0:0:0:0:
192,192,75384,1,0,0:0:0:0:
320,192,75427,1,0,0:0:0:0:
448,192,75427,1,0,0:0:0:0:
192,192,75491,1,0,0:0:0:0:
64,192,75556,1,0,0:0:0:0:
192,192,75621,1,0,0:0:0:0:
320,192,75685,1,0,0:0:0:0:
448,192,75749,1,0,0:0:0:0:
64,192,75814,1,0,0:0:0:0:
192,192,75879,1,0,0:0:0:0:
320,192,75944,1,0,0:0:0:0:
192,192,76008,1,0,0:0:0:0:
448,192,76072,1,0,0:0:0:0:
192,192,76137,1,0,0:0:0:0:
64,192,76201,1,0,0:0:0:0:
320,192,76266,1,0,0:0:0:0:
192,192,76331,1,0,0:0:0:0:
448,192,76395,1,0,0:0:0:0:
320,192,76459,1,0,0:0:0:0:
192,192,76524,1,0,0:0:0:0:
64,192,76589,1,0,0:0:0:0:
192,192,76654,1,0,0:0:0:0:
320,192,76718,1,0,0:0:0:0:
448,192,76782,1,0,0:0:0:0:
320,192,76847,1,0,0:0:0:0:
192,192,76911,1,0,0:0:0:0:
320,192,76976,1,0,0:0:0:0:
448,192,77041,1,0,0:0:0:0:
64,192,77105,1,0,0:0:0:0:
192,192,77169,1,0,0:0:0:0:
320,192,77234,1,0,0:0:0:0:
192,192,77299,1,0,0:0:0:0:
448,192,77364,1,0,0:0:0:0:
64,192,77428,1,0,0:0:0:0:
192,192,77492,1,0,0:0:0:0:
320,192,77557,1,0,0:0:0:0:
192,192,77621,1,0,0:0:0:0:
64,192,77686,1,0,0:0:0:0:
448,192,77751,1,0,0:0:0:0:
320,192,77815,1,0,0:0:0:0:
192,192,77879,1,0,0:0:0:0:
64,192,77944,1,0,0:0:0:0:
448,192,78009,1,0,0:0:0:0:
192,192,78073,1,0,0:0:0:0:
320,192,78138,1,0,0:0:0:0:
64,192,78202,1,0,0:0:0:0:
320,192,78267,1,0,0:0:0:0:
64,192,78331,1,0,0:0:0:0:
448,192,78396,1,0,0:0:0:0:
192,192,78461,1,0,0:0:0:0:
320,192,78525,1,0,0:0:0:0:
448,192,78589,1,0,0:0:0:0:
320,192,78654,1,0,0:0:0:0:
192,192,78719,1,0,0:0:0:0:
64,192,78783,1,0,0:0:0:0:
448,192,78848,1,0,0:0:0:0:
320,192,78912,1,0,0:0:0:0:
192,192,78977,1,0,0:0:0:0:
64,192,79041,1,0,0:0:0:0:
448,192,79106,1,0,0:0:0:0:
320,192,79171,1,0,0:0:0:0:
192,192,79235,1,0,0:0:0:0:
320,192,79299,1,0,0:0:0:0:
192,192,79343,1,0,0:0:0:0:
64,192,79386,1,0,0:0:0:0:
448,192,79429,1,0,0:0:0:0:
320,192,79471,1,0,0:0:0:0:
192,192,79515,1,0,0:0:0:0:
64,192,79558,1,0,0:0:0:0:
448,192,79558,128,0,82656:0:0:0:0:
192,192,79622,1,0,0:0:0:0:
320,192,79687,1,0,0:0:0:0:
192,192,79751,1,0,0:0:0:0:
64,192,79816,1,0,0:0:0:0:
320,192,79881,1,0,0:0:0:0:
192,192,79945,1,0,0:0:0:0:
64,192,80009,1,0,0:0:0:0:
192,192,80074,1,0,0:0:0:0:
320,192,80139,1,0,0:0:0:0:
192,192,80203,1,0,0:0:0:0:
64,192,80268,1,0,0:0:0:0:
320,192,80332,1,0,0:0:0:0:
192,192,80396,1,0,0:0:0:0:
320,192,80461,1,0,0:0:0:0:
192,192,80526,1,0,0:0:0:0:
64,192,80591,1,0,0:0:0:0:
192,192,80655,1,0,0:0:0:0:
320,192,80719,1,0,0:0:0:0:
64,192,80784,1,0,0:0:0:0:
192,192,80849,1,0,0:0:0:0:
320,192,80913,1,0,0:0:0:0:
64,192,80978,1,0,0:0:0:0:
192,192,81042,1,0,0:0:0:0:
320,192,81106,1,0,0:0:0:0:
192,192,81171,1,0,0:0:0:0:
64,192,81236,1,0,0:0:0:0:
192,192,81301,1,0,0:0:0:0:
320,192,81365,1,0,0:0:0:0:
192,192,81429,1,0,0:0:0:0:
320,192,81494,1,0,0:0:0:0:
192,192,81559,1,0,0:0:0:0:
320,192,81623,1,0,0:0:0:0:
192,192,81688,1,0,0:0:0:0:
64,192,81752,1,0,0:0:0:0:
192,192,81816,1,0,0:0:0:0:
320,192,81881,1,0,0:0:0:0:
192,192,81946,1,0,0:0:0:0:
320,192,82011,1,0,0:0:0:0:
192,192,82075,1,0,0:0:0:0:
64,192,82139,1,0,0:0:0:0:
192,192,82204,1,0,0:0:0:0:
320,192,82269,1,0,0:0:0:0:
192,192,82333,1,0,0:0:0:0:
64,192,82398,1,0,0:0:0:0:
320,192,82462,1,0,0:0:0:0:
192,192,82526,1,0,0:0:0:0:
64,192,82591,1,0,0:0:0:0:
320,192,82656,128,0,82721:0:0:0:0:
192,192,82721,128,0,82785:0:0:0:0:
64,192,82785,128,0,82849:0:0:0:0:
448,192,82849,128,0,82914:0:0:0:0:
192,192,82914,128,0,82979:0:0:0:0:
320,192,82979,128,0,83043:0:0:0:0:
64,192,83043,128,0,83108:0:0:0:0:
448,192,83108,128,0,83172:0:0:0:0:
320,192,83172,128,0,83430:0:0:0:0:
64,192,83430,1,0,0:0:0:0:
192,192,83474,1,0,0:0:0:0:
320,192,83516,1,0,0:0:0:0:
448,192,83559,1,0,0:0:0:0:
64,192,83602,1,0,0:0:0:0:
192,192,83646,1,0,0:0:0:0:
320,192,83689,1,0,0:0:0:0:
448,192,83689,1,0,0:0:0:0:
192,192,83753,1,0,0:0:0:0:
64,192,83818,1,0,0:0:0:0:
192,192,83882,1,0,0:0:0:0:
320,192,83946,1,0,0:0:0:0:
448,192,84011,1,0,0:0:0:0:
320,192,84076,1,0,0:0:0:0:
192,192,84140,1,0,0:0:0:0:
320,192,84205,1,0,0:0:0:0:
448,192,84269,1,0,0:0:0:0:
64,192,84334,1,0,0:0:0:0:
320,192,84399,1,0,0:0:0:0:
192,192,84463,1,0,0:0:0:0:
448,192,84528,1,0,0:0:0:0:
192,192,84592,1,0,0:0:0:0:
64,192,84656,1,0,0:0:0:0:
320,192,84721,1,0,0:0:0:0:
448,192,84786,1,0,0:0:0:0:
320,192,84850,1,0,0:0:0:0:
192,192,84915,1,0,0:0:0:0:
64,192,84979,1,0,0:0:0:0:
448,192,85044,1,0,0:0:0:0:
320,192,85109,1,0,0:0:0:0:
192,192,85173,1,0,0:0:0:0:
64,192,85238,1,0,0:0:0:0:
192,192,85302,1,0,0:0:0:0:
320,192,85366,1,0,0:0:0:0:
192,192,85431,1,0,0:0:0:0:
320,192,85496,1,0,0:0:0:0:
192,192,85560,1,0,0:0:0:0:
448,192,85625,1,0,0:0:0:0:
192,192,85689,1,0,0:0:0:0:
64,192,85754,1,0,0:0:0:0:
192,192,85819,1,0,0:0:0:0:
320,192,85883,1,0,0:0:0:0:
448,192,85948,1,0,0:0:0:0:
320,192,86012,1,0,0:0:0:0:
192,192,86076,1,0,0:0:0:0:
320,192,86141,1,0,0:0:0:0:
448,192,86206,1,0,0:0:0:0:
64,192,86270,1,0,0:0:0:0:
320,192,86335,1,0,0:0:0:0:
192,192,86399,1,0,0:0:0:0:
448,192,86464,1,0,0:0:0:0:
64,192,86529,1,0,0:0:0:0:
320,192,86593,1,0,0:0:0:0:
192,192,86658,1,0,0:0:0:0:
448,192,86722,1,0,0:0:0:0:
320,192,86786,1,0,0:0:0:0:
192,192,86851,1,0,0:0:0:0:
64,192,86916,1,0,0:0:0:0:
192,192,86980,1,0,0:0:0:0:
320,192,87045,1,0,0:0:0:0:
448,192,87109,1,0,0:0:0:0:
64,192,87174,1,0,0:0:0:0:
192,192,87239,1,0,0:0:0:0:
320,192,87303,1,0,0:0:0:0:
448,192,87368,1,0,0:0:0:0:
320,192,87432,1,0,0:0:0:0:
192,192,87496,1,0,0:0:0:0:
320,192,87561,1,0,0:0:0:0:
448,192,87604,1,0,0:0:0:0:
192,192,87647,1,0,0:0:0:0:
64,192,87690,1,0,0:0:0:0:
320,192,87734,1,0,0:0:0:0:
448,192,87776,1,0,0:0:0:0:
192,192,87819,1,0,0:0:0:0:
320,192,87819,1,0,0:0:0:0:
64,192,87884,1,0,0:0:0:0:
192,192,87949,1,0,0:0:0:0:
320,192,88013,1,0,0:0:0:0:
448,192,88078,1,0,0:0:0:0:
320,192,88142,1,0,0:0:0:0:
192,192,88206,1,0,0:0:0:0:
448,192,88206,1,0,0:0:0:0:
64,192,88271,1,0,0:0:0:0:
448,192,88336,1,0,0:0:0:0:
320,192,88336,1,0,0:0:0:0:
192,192,88400,1,0,0:0:0:0:
64,192,88465,1,0,0:0:0:0:
192,192,88529,1,0,0:0:0:0:
320,192,88594,1,0,0:0:0:0:
448,192,88659,1,0,0:0:0:0:
320,192,88723,1,0,0:0:0:0:
192,192,88723,1,0,0:0:0:0:
64,192,88787,1,0,0:0:0:0:
192,192,88852,1,0,0:0:0:0:
320,192,88852,1,0,0:0:0:0:
448,192,88852,1,0,0:0:0:0:
64,192,88916,1,0,0:0:0:0:
192,192,88981,1,0,0:0:0:0:
320,192,89046,1,0,0:0:0:0:
192,192,89110,1,0,0:0:0:0:
64,192,89110,1,0,0:0:0:0:
448,192,89110,1,0,0:0:0:0:
320,192,89175,1,0,0:0:0:0:
448,192,89239,1,0,0:0:0:0:
64,192,89239,1,0,0:0:0:0:
192,192,89304,1,0,0:0:0:0:
320,192,89369,1,0,0:0:0:0:
448,192,89369,1,0,0:0:0:0:
192,192,89433,1,0,0:0:0:0:
64,192,89497,1,0,0:0:0:0:
192,192,89562,1,0,0:0:0:0:
320,192,89626,1,0,0:0:0:0:
448,192,89691,1,0,0:0:0:0:
64,192,89756,1,0,0:0:0:0:
192,192,89756,1,0,0:0:0:0:
320,192,89820,1,0,0:0:0:0:
192,192,89885,1,0,0:0:0:0:
448,192,89885,1,0,0:0:0:0:
64,192,89885,1,0,0:0:0:0:
320,192,89949,1,0,0:0:0:0:
192,192,90014,1,0,0:0:0:0:
320,192,90079,1,0,0:0:0:0:
448,192,90143,1,0,0:0:0:0:
64,192,90207,1,0,0:0:0:0:
192,192,90272,1,0,0:0:0:0:
448,192,90272,1,0,0:0:0:0:
320,192,90336,1,0,0:0:0:0:
192,192,90401,1,0,0:0:0:0:
64,192,90401,1,0,0:0:0:0:
320,192,90466,1,0,0:0:0:0:
448,192,90530,1,0,0:0:0:0:
64,192,90595,1,0,0:0:0:0:
192,192,90659,1,0,0:0:0:0:
320,192,90724,1,0,0:0:0:0:
448,192,90789,1,0,0:0:0:0:
64,192,90789,1,0,0:0:0:0:
192,192,90853,1,0,0:0:0:0:
320,192,90917,1,0,0:0:0:0:
448,192,90917,1,0,0:0:0:0:
64,192,90917,1,0,0:0:0:0:
192,192,90982,1,0,0:0:0:0:
64,192,91046,1,0,0:0:0:0:
448,192,91111,1,0,0:0:0:0:
320,192,91176,1,0,0:0:0:0:
64,192,91176,1,0,0:0:0:0:
192,192,91176,1,0,0:0:0:0:
448,192,91240,1,0,0:0:0:0:
320,192,91305,1,0,0:0:0:0:
192,192,91305,1,0,0:0:0:0:
64,192,91369,1,0,0:0:0:0:
192,192,91434,1,0,0:0:0:0:
320,192,91434,1,0,0:0:0:0:
448,192,91499,1,0,0:0:0:0:
64,192,91563,1,0,0:0:0:0:
192,192,91627,1,0,0:0:0:0:
320,192,91692,1,0,0:0:0:0:
448,192,91692,1,0,0:0:0:0:
64,192,91692,1,0,0:0:0:0:
192,192,91756,1,0,0:0:0:0:
320,192,91821,1,0,0:0:0:0:
448,192,91821,1,0,0:0:0:0:
192,192,91886,1,0,0:0:0:0:
64,192,91950,1,0,0:0:0:0:
320,192,91950,1,0,0:0:0:0:
448,192,91950,1,0,0:0:0:0:
64,192,95049,128,0,95113:0:0:0:0:
320,192,95113,128,0,95177:0:0:0:0:
192,192,95177,128,0,95242:0:0:0:0:
448,192,95242,128,0,95306:0:0:0:0:
320,192,95306,128,0,95564:0:0:0:0:
64,192,95564,128,0,95823:0:0:0:0:
448,192,95823,1,0,0:0:0:0:
320,192,95866,1,0,0:0:0:0:
64,192,95909,1,0,0:0:0:0:
192,192,95952,1,0,0:0:0:0:
448,192,95995,1,0,0:0:0:0:
320,192,96038,1,0,0:0:0:0:
64,192,96081,1,0,0:0:0:0:
192,192,96146,1,0,0:0:0:0:
320,192,96210,1,0,0:0:0:0:
448,192,96274,1,0,0:0:0:0:
320,192,96339,1,0,0:0:0:0:
192,192,96339,1,0,0:0:0:0:
64,192,96404,1,0,0:0:0:0:
320,192,96468,1,0,0:0:0:0:
192,192,96533,1,0,0:0:0:0:
320,192,96597,1,0,0:0:0:0:
448,192,96597,1,0,0:0:0:0:
192,192,96662,1,0,0:0:0:0:
64,192,96726,1,0,0:0:0:0:
448,192,96791,1,0,0:0:0:0:
320,192,96856,1,0,0:0:0:0:
64,192,96856,1,0,0:0:0:0:
192,192,96920,1,0,0:0:0:0:
320,192,96984,1,0,0:0:0:0:
448,192,97049,1,0,0:0:0:0:
64,192,97114,1,0,0:0:0:0:
192,192,97114,1,0,0:0:0:0:
320,192,97178,1,0,0:0:0:0:
448,192,97243,1,0,0:0:0:0:
320,192,97307,1,0,0:0:0:0:
192,192,97372,1,0,0:0:0:0:
448,192,97372,1,0,0:0:0:0:
64,192,97436,1,0,0:0:0:0:
448,192,97501,1,0,0:0:0:0:
320,192,97566,1,0,0:0:0:0:
192,192,97630,1,0,0:0:0:0:
64,192,97630,1,0,0:0:0:0:
320,192,97694,1,0,0:0:0:0:
448,192,97759,1,0,0:0:0:0:
64,192,97824,1,0,0:0:0:0:
448,192,97888,1,0,0:0:0:0:
192,192,97888,1,0,0:0:0:0:
320,192,97953,1,0,0:0:0:0:
192,192,98017,1,0,0:0:0:0:
64,192,98082,1,0,0:0:0:0:
192,192,98146,1,0,0:0:0:0:
320,192,98146,1,0,0:0:0:0:
448,192,98211,1,0,0:0:0:0:
320,192,98276,1,0,0:0:0:0:
64,192,98276,1,0,0:0:0:0:
192,192,98340,1,0,0:0:0:0:
320,192,98404,1,0,0:0:0:0:
448,192,98404,1,0,0:0:0:0:
192,192,98469,1,0,0:0:0:0:
64,192,98534,1,0,0:0:0:0:
448,192,98534,1,0,0:0:0:0:
320,192,98598,1,0,0:0:0:0:
192,192,98663,1,0,0:0:0:0:
64,192,98663,1,0,0:0:0:0:
320,192,98727,1,0,0:0:0:0:
192,192,98792,1,0,0:0:0:0:
448,192,98792,1,0,0:0:0:0:
64,192,98856,1,0,0:0:0:0:
320,192,98921,1,0,0:0:0:0:
448,192,98921,1,0,0:0:0:0:
192,192,98986,1,0,0:0:0:0:
64,192,99050,1,0,0:0:0:0:
448,192,99050,1,0,0:0:0:0:
320,192,99114,1,0,0:0:0:0:
192,192,99179,1,0,0:0:0:0:
448,192,99179,1,0,0:0:0:0:
64,192,99244,1,0,0:0:0:0:
192,192,99308,1,0,0:0:0:0:
320,192,99308,1,0,0:0:0:0:
448,192,99373,1,0,0:0:0:0:
64,192,99437,1,0,0:0:0:0:
192,192,99437,1,0,0:0:0:0:
320,192,99501,1,0,0:0:0:0:
64,192,99566,1,0,0:0:0:0:
448,192,99566,1,0,0:0:0:0:
320,192,99631,1,0,0:0:0:0:
192,192,99696,1,0,0:0:0:0:
64,192,99696,1,0,0:0:0:0:
320,192,99760,1,0,0:0:0:0:
192,192,99824,1,0,0:0:0:0:
448,192,99824,1,0,0:0:0:0:
64,192,99889,1,0,0:0:0:0:
192,192,99954,1,0,0:0:0:0:
320,192,99954,1,0,0:0:0:0:
448,192,100018,1,0,0:0:0:0:
64,192,100083,1,0,0:0:0:0:
192,192,100083,1,0,0:0:0:0:
320,192,100147,1,0,0:0:0:0:
192,192,100211,1,0,0:0:0:0:
448,192,100211,1,0,0:0:0:0:
64,192,100211,1,0,0:0:0:0:
320,192,100276,1,0,0:0:0:0:
192,192,100341,1,0,0:0:0:0:
64,192,100341,1,0,0:0:0:0:
448,192,100406,1,0,0:0:0:0:
320,192,100470,1,0,0:0:0:0:
192,192,100470,1,0,0:0:0:0:
64,192,100470,1,0,0:0:0:0:
448,192,100534,1,0,0:0:0:0:
64,192,100599,1,0,0:0:0:0:
320,192,100599,1,0,0:0:0:0:
192,192,100664,1,0,0:0:0:0:
320,192,100728,1,0,0:0:0:0:
448,192,100728,1,0,0:0:0:0:
64,192,100728,1,0,0:0:0:0:
192,192,100793,1,0,0:0:0:0:
448,192,100857,1,0,0:0:0:0:
64,192,100857,1,0,0:0:0:0:
320,192,100921,1,0,0:0:0:0:
192,192,100986,1,0,0:0:0:0:
448,192,100986,1,0,0:0:0:0:
64,192,100986,1,0,0:0:0:0:
320,192,101051,1,0,0:0:0:0:
192,192,101116,1,0,0:0:0:0:
64,192,101116,1,0,0:0:0:0:
320,192,101180,1,0,0:0:0:0:
448,192,101244,1,0,0:0:0:0:
192,192,101244,1,0,0:0:0:0:
64,192,101244,1,0,0:0:0:0:
320,192,101309,1,0,0:0:0:0:
448,192,101374,1,0,0:0:0:0:
64,192,101374,1,0,0:0:0:0:
192,192,101438,1,0,0:0:0:0:
320,192,101503,1,0,0:0:0:0:
448,192,101503,1,0,0:0:0:0:
64,192,101503,1,0,0:0:0:0:
192,192,101567,1,0,0:0:0:0:
320,192,101631,1,0,0:0:0:0:
448,192,101631,1,0,0:0:0:0:
192,192,101696,1,0,0:0:0:0:
64,192,101761,1,0,0:0:0:0:
320,192,101761,1,0,0:0:0:0:
448,192,101761,1,0,0:0:0:0:
192,192,101825,1,0,0:0:0:0:
448,192,101890,5,0,0:0:0:0:
64,192,101890,1,0,0:0:0:0:
192,192,101954,1,0,0:0:0:0:
320,192,102019,1,0,0:0:0:0:
448,192,102019,1,0,0:0:0:0:
64,192,102019,1,0,0:0:0:0:
192,192,102084,1,0,0:0:0:0:
448,192,102148,1,0,0:0:0:0:
64,192,102148,1,0,0:0:0:0:
192,192,102213,1,0,0:0:0:0:
448,192,102277,5,0,0:0:0:0:
320,192,102320,1,0,0:0:0:0:
192,192,102364,1,0,0:0:0:0:
64,192,102406,1,0,0:0:0:0:
192,192,102449,1,0,0:0:0:0:
320,192,102492,1,0,0:0:0:0:
448,192,102535,1,0,0:0:0:0:
64,192,102579,1,0,0:0:0:0:
192,192,102621,1,0,0:0:0:0:
448,192,102664,1,0,0:0:0:0:
320,192,102707,1,0,0:0:0:0:
192,192,102751,1,0,0:0:0:0:
64,192,102794,1,0,0:0:0:0:
448,192,102836,1,0,0:0:0:0:
320,192,102879,1,0,0:0:0:0:
192,192,102923,1,0,0:0:0:0:
64,192,102966,1,0,0:0:0:0:
192,192,103009,1,0,0:0:0:0:
320,192,103051,1,0,0:0:0:0:
448,192,103095,1,0,0:0:0:0:
320,192,103138,1,0,0:0:0:0:
64,192,103181,1,0,0:0:0:0:
192,192,103224,1,0,0:0:0:0:
320,192,103267,1,0,0:0:0:0:
448,192,103310,1,0,0:0:0:0:
320,192,103342,1,0,0:0:0:0:
192,192,103374,1,0,0:0:0:0:
64,192,103406,1,0,0:0:0:0:
448,192,103439,1,0,0:0:0:0:
320,192,103471,1,0,0:0:0:0:
192,192,103504,1,0,0:0:0:0:
64,192,103536,1,0,0:0:0:0:
448,192,103568,1,0,0:0:0:0:
320,192,103600,1,0,0:0:0:0:
192,192,103633,1,0,0:0:0:0:
64,192,103665,1,0,0:0:0:0:
448,192,103697,1,0,0:0:0:0:
320,192,103729,1,0,0:0:0:0:
192,192,103761,1,0,0:0:0:0:
64,192,103794,1,0,0:0:0:0:
448,192,103826,1,0,0:0:0:0:
320,192,103859,1,0,0:0:0:0:
192,192,103891,1,0,0:0:0:0:
64,192,103923,1,0,0:0:0:0:
448,192,103955,1,0,0:0:0:0:
320,192,103988,1,0,0:0:0:0:
192,192,104020,1,0,0:0:0:0:
64,192,104052,1,0,0:0:0:0:
448,192,104084,1,0,0:0:0:0:
320,192,104116,1,0,0:0:0:0:
192,192,104149,1,0,0:0:0:0:
64,192,104181,1,0,0:0:0:0:
448,192,104214,1,0,0:0:0:0:
320,192,104246,1,0,0:0:0:0:
192,192,104278,1,0,0:0:0:0:
64,192,104310,1,0,0:0:0:0:
448,192,104343,128,0,104471:0:0:0:0:
192,192,104471,128,0,104601:0:0:0:0:
64,192,104601,128,0,104730:0:0:0:0:
320,192,104730,128,0,104859:0:0:0:0:
448,192,104859,128,0,104988:0:0:0:0:
192,192,104988,128,0,105117:0:0:0:0:
320,192,105117,128,0,105246:0:0:0:0:
64,192,105246,128,0,105375:0:0:0:0:
448,192,105375,1,0,0:0:0:0:
320,192,105375,1,0,0:0:0:0:
192,192,105440,1,0,0:0:0:0:
320,192,105504,1,0,0:0:0:0:
192,192,105569,1,0,0:0:0:0:
448,192,105634,1,0,0:0:0:0:
64,192,105634,1,0,0:0:0:0:
192,192,105698,1,0,0:0:0:0:
320,192,105763,1,0,0:0:0:0:
448,192,105827,1,0,0:0:0:0:
64,192,105891,1,0,0:0:0:0:
320,192,105891,1,0,0:0:0:0:
448,192,105956,1,0,0:0:0:0:
192,192,106021,1,0,0:0:0:0:
320,192,106085,1,0,0:0:0:0:
64,192,106150,1,0,0:0:0:0:
192,192,106150,1,0,0:0:0:0:
320,192,106214,1,0,0:0:0:0:
64,192,106279,1,0,0:0:0:0:
320,192,106344,1,0,0:0:0:0:
448,192,106408,1,0,0:0:0:0:
192,192,106408,1,0,0:0:0:0:
64,192,106473,1,0,0:0:0:0:
448,192,106537,1,0,0:0:0:0:
320,192,106601,1,0,0:0:0:0:
192,192,106666,1,0,0:0:0:0:
64,192,106666,1,0,0:0:0:0:
320,192,106731,1,0,0:0:0:0:
448,192,106795,1,0,0:0:0:0:
192,192,106860,1,0,0:0:0:0:
320,192,106924,1,0,0:0:0:0:
64,192,106924,1,0,0:0:0:0:
448,192,106989,1,0,0:0:0:0:
320,192,107054,1,0,0:0:0:0:
192,192,107118,1,0,0:0:0:0:
320,192,107182,1,0,0:0:0:0:
448,192,107182,1,0,0:0:0:0:
64,192,107247,1,0,0:0:0:0:
448,192,107311,1,0,0:0:0:0:
192,192,107376,1,0,0:0:0:0:
448,192,107441,1,0,0:0:0:0:
64,192,107441,1,0,0:0:0:0:
320,192,107505,1,0,0:0:0:0:
192,192,107570,1,0,0:0:0:0:
64,192,107634,1,0,0:0:0:0:
192,192,107699,1,0,0:0:0:0:
448,192,107699,1,0,0:0:0:0:
320,192,107764,1,0,0:0:0:0:
192,192,107828,1,0,0:0:0:0:
64,192,107892,1,0,0:0:0:0:
192,192,107957,1,0,0:0:0:0:
320,192,107957,1,0,0:0:0:0:
448,192,108021,1,0,0:0:0:0:
64,192,108086,1,0,0:0:0:0:
320,192,108151,1,0,0:0:0:0:
448,192,108215,1,0,0:0:0:0:
192,192,108215,1,0,0:0:0:0:
64,192,108280,1,0,0:0:0:0:
448,192,108344,1,0,0:0:0:0:
192,192,108409,1,0,0:0:0:0:
320,192,108474,1,0,0:0:0:0:
64,192,108474,1,0,0:0:0:0:
448,192,108538,1,0,0:0:0:0:
320,192,108602,1,0,0:0:0:0:
192,192,108667,1,0,0:0:0:0:
320,192,108731,1,0,0:0:0:0:
448,192,108731,1,0,0:0:0:0:
64,192,108796,1,0,0:0:0:0:
192,192,108861,1,0,0:0:0:0:
320,192,108925,1,0,0:0:0:0:
448,192,108990,1,0,0:0:0:0:
192,192,108990,1,0,0:0:0:0:
64,192,109054,1,0,0:0:0:0:
448,192,109119,1,0,0:0:0:0:
320,192,109184,1,0,0:0:0:0:
64,192,109248,1,0,0:0:0:0:
192,192,109291,1,0,0:0:0:0:
320,192,109334,1,0,0:0:0:0:
448,192,109377,1,0,0:0:0:0:
64,192,109420,1,0,0:0:0:0:
192,192,109463,1,0,0:0:0:0:
320,192,109506,1,0,0:0:0:0:
448,192,109506,1,0,0:0:0:0:
192,192,109571,1,0,0:0:0:0:
64,192,109635,1,0,0:0:0:0:
192,192,109700,1,0,0:0:0:0:
448,192,109764,1,0,0:0:0:0:
64,192,109764,1,0,0:0:0:0:
320,192,109829,1,0,0:0:0:0:
192,192,109894,1,0,0:0:0:0:
320,192,109958,1,0,0:0:0:0:
64,192,110022,1,0,0:0:0:0:
448,192,110022,1,0,0:0:0:0:
320,192,110087,1,0,0:0:0:0:
192,192,110087,1,0,0:0:0:0:
64,192,110151,1,0,0:0:0:0:
448,192,110151,1,0,0:0:0:0:
320,192,110216,1,0,0:0:0:0:
192,192,110216,1,0,0:0:0:0:
64,192,110281,1,0,0:0:0:0:
448,192,110281,1,0,0:0:0:0:
320,192,110345,1,0,0:0:0:0:
192,192,110345,1,0,0:0:0:0:
64,192,110410,1,0,0:0:0:0:
448,192,110410,1,0,0:0:0:0:
320,192,110474,1,0,0:0:0:0:
192,192,110474,1,0,0:0:0:0:
64,192,110539,1,0,0:0:0:0:
448,192,110539,1,0,0:0:0:0:
320,192,110604,1,0,0:0:0:0:
192,192,110668,1,0,0:0:0:0:
64,192,110732,1,0,0:0:0:0:
192,192,110797,1,0,0:0:0:0:
320,192,110797,1,0,0:0:0:0:
448,192,110861,1,0,0:0:0:0:
192,192,110926,1,0,0:0:0:0:
320,192,110991,1,0,0:0:0:0:
192,192,111055,1,0,0:0:0:0:
448,192,111055,1,0,0:0:0:0:
64,192,111120,1,0,0:0:0:0:
192,192,111184,1,0,0:0:0:0:
448,192,111249,1,0,0:0:0:0:
64,192,111314,1,0,0:0:0:0:
320,192,111314,1,0,0:0:0:0:
192,192,111378,1,0,0:0:0:0:
448,192,111378,1,0,0:0:0:0:
320,192,111442,1,0,0:0:0:0:
64,192,111442,1,0,0:0:0:0:
192,192,111507,1,0,0:0:0:0:
448,192,111507,1,0,0:0:0:0:
320,192,111571,1,0,0:0:0:0:
64,192,111571,1,0,0:0:0:0:
448,192,111636,1,0,0:0:0:0:
320,192,111701,1,0,0:0:0:0:
192,192,111765,1,0,0:0:0:0:
64,192,111830,1,0,0:0:0:0:
320,192,111830,1,0,0:0:0:0:
448,192,111894,1,0,0:0:0:0:
320,192,111959,1,0,0:0:0:0:
192,192,112024,1,0,0:0:0:0:
448,192,112088,1,0,0:0:0:0:
320,192,112088,1,0,0:0:0:0:
192,192,112152,1,0,0:0:0:0:
64,192,112152,1,0,0:0:0:0:
320,192,112217,1,0,0:0:0:0:
448,192,112217,1,0,0:0:0:0:
192,192,112281,1,0,0:0:0:0:
64,192,112281,1,0,0:0:0:0:
448,192,112346,1,0,0:0:0:0:
320,192,112346,1,0,0:0:0:0:
192,192,112411,1,0,0:0:0:0:
64,192,112411,1,0,0:0:0:0:
320,192,112475,1,0,0:0:0:0:
448,192,112475,1,0,0:0:0:0:
192,192,112539,1,0,0:0:0:0:
64,192,112539,1,0,0:0:0:0:
448,192,112604,1,0,0:0:0:0:
320,192,112604,1,0,0:0:0:0:
192,192,112669,1,0,0:0:0:0:
64,192,112734,1,0,0:0:0:0:
320,192,112798,1,0,0:0:0:0:
448,192,112862,1,0,0:0:0:0:
64,192,112862,1,0,0:0:0:0:
320,192,112927,1,0,0:0:0:0:
192,192,112991,1,0,0:0:0:0:
64,192,113056,1,0,0:0:0:0:
320,192,113121,128,0,113379:0:0:0:0:
192,192,113379,1,0,0:0:0:0:
64,192,113421,1,0,0:0:0:0:
448,192,113465,1,0,0:0:0:0:
320,192,113508,1,0,0:0:0:0:
192,192,113551,1,0,0:0:0:0:
64,192,113594,1,0,0:0:0:0:
448,192,113637,1,0,0:0:0:0:
320,192,113637,1,0,0:0:0:0:
192,192,113701,1,0,0:0:0:0:
64,192,113766,1,0,0:0:0:0:
448,192,113766,1,0,0:0:0:0:
320,192,113831,1,0,0:0:0:0:
448,192,113895,1,0,0:0:0:0:
192,192,113895,1,0,0:0:0:0:
64,192,113959,1,0,0:0:0:0:
448,192,114024,1,0,0:0:0:0:
192,192,114024,1,0,0:0:0:0:
320,192,114089,1,0,0:0:0:0:
448,192,114154,1,0,0:0:0:0:
64,192,114154,1,0,0:0:0:0:
192,192,114218,1,0,0:0:0:0:
320,192,114282,1,0,0:0:0:0:
448,192,114282,1,0,0:0:0:0:
192,192,114347,1,0,0:0:0:0:
64,192,114411,1,0,0:0:0:0:
320,192,114411,1,0,0:0:0:0:
448,192,114476,1,0,0:0:0:0:
320,192,114541,1,0,0:0:0:0:
192,192,114541,1,0,0:0:0:0:
64,192,114605,1,0,0:0:0:0:
192,192,114669,1,0,0:0:0:0:
448,192,114669,1,0,0:0:0:0:
320,192,114734,1,0,0:0:0:0:
192,192,114799,1,0,0:0:0:0:
64,192,114799,1,0,0:0:0:0:
320,192,114864,1,0,0:0:0:0:
448,192,114928,1,0,0:0:0:0:
192,192,114928,1,0,0:0:0:0:
320,192,114992,1,0,0:0:0:0:
448,192,115057,1,0,0:0:0:0:
64,192,115057,1,0,0:0:0:0:
192,192,115121,1,0,0:0:0:0:
320,192,115186,1,0,0:0:0:0:
448,192,115186,1,0,0:0:0:0:
192,192,115251,1,0,0:0:0:0:
64,192,115315,1,0,0:0:0:0:
320,192,115315,1,0,0:0:0:0:
448,192,115379,1,0,0:0:0:0:
320,192,115444,1,0,0:0:0:0:
192,192,115444,1,0,0:0:0:0:
64,192,115509,1,0,0:0:0:0:
448,192,115573,1,0,0:0:0:0:
320,192,115573,1,0,0:0:0:0:
192,192,115638,1,0,0:0:0:0:
64,192,115702,1,0,0:0:0:0:
320,192,115702,1,0,0:0:0:0:
448,192,115767,1,0,0:0:0:0:
320,192,115831,1,0,0:0:0:0:
192,192,115831,1,0,0:0:0:0:
64,192,115896,1,0,0:0:0:0:
448,192,115961,1,0,0:0:0:0:
192,192,115961,1,0,0:0:0:0:
320,192,116025,1,0,0:0:0:0:
448,192,116089,1,0,0:0:0:0:
192,192,116089,1,0,0:0:0:0:
64,192,116154,1,0,0:0:0:0:
192,192,116219,1,0,0:0:0:0:
320,192,116219,1,0,0:0:0:0:
448,192,116283,1,0,0:0:0:0:
320,192,116348,1,0,0:0:0:0:
192,192,116348,1,0,0:0:0:0:
64,192,116412,1,0,0:0:0:0:
448,192,116477,1,0,0:0:0:0:
192,192,116477,1,0,0:0:0:0:
320,192,116541,1,0,0:0:0:0:
192,192,116606,1,0,0:0:0:0:
448,192,116606,1,0,0:0:0:0:
64,192,116671,1,0,0:0:0:0:
192,192,116735,1,0,0:0:0:0:
320,192,116735,128,0,116864:0:0:0:0:
448,192,116864,128,0,116993:0:0:0:0:
192,192,116993,128,0,117122:0:0:0:0:
64,192,117122,128,0,117251:0:0:0:0:
320,192,117251,128,0,117316:0:0:0:0:
448,192,117251,128,0,117316:0:0:0:0:
192,192,117316,128,0,117381:0:0:0:0:
64,192,117316,128,0,117381:0:0:0:0:
320,192,117381,128,0,117445:0:0:0:0:
448,192,117381,128,0,117445:0:0:0:0:
192,192,117445,128,0,117509:0:0:0:0:
64,192,117445,128,0,117509:0:0:0:0:
320,192,117509,1,0,0:0:0:0:
448,192,117553,1,0,0:0:0:0:
64,192,117596,1,0,0:0:0:0:
192,192,117639,1,0,0:0:0:0:
320,192,117681,1,0,0:0:0:0:
448,192,117725,1,0,0:0:0:0:
192,192,117768,1,0,0:0:0:0:
64,192,117768,1,0,0:0:0:0:
320,192,117832,1,0,0:0:0:0:
192,192,117896,1,0,0:0:0:0:
448,192,117896,1,0,0:0:0:0:
64,192,117961,1,0,0:0:0:0:
192,192,118026,1,0,0:0:0:0:
320,192,118026,1,0,0:0:0:0:
448,192,118091,1,0,0:0:0:0:
64,192,118155,1,0,0:0:0:0:
320,192,118155,1,0,0:0:0:0:
192,192,118219,1,0,0:0:0:0:
64,192,118284,1,0,0:0:0:0:
448,192,118284,1,0,0:0:0:0:
320,192,118349,1,0,0:0:0:0:
192,192,118349,1,0,0:0:0:0:
64,192,118413,1,0,0:0:0:0:
448,192,118413,1,0,0:0:0:0:
320,192,118478,1,0,0:0:0:0:
192,192,118478,1,0,0:0:0:0:
64,192,118542,1,0,0:0:0:0:
448,192,118542,1,0,0:0:0:0:
320,192,118606,1,0,0:0:0:0:
192,192,118606,1,0,0:0:0:0:
64,192,118671,1,0,0:0:0:0:
448,192,118671,1,0,0:0:0:0:
320,192,118736,1,0,0:0:0:0:
192,192,118736,1,0,0:0:0:0:
64,192,118801,1,0,0:0:0:0:
448,192,118801,1,0,0:0:0:0:
320,192,118865,1,0,0:0:0:0:
192,192,118929,1,0,0:0:0:0:
64,192,118929,1,0,0:0:0:0:
320,192,118994,1,0,0:0:0:0:
448,192,119059,1,0,0:0:0:0:
192,192,119059,1,0,0:0:0:0:
64,192,119123,1,0,0:0:0:0:
192,192,119188,1,0,0:0:0:0:
320,192,119188,1,0,0:0:0:0:
448,192,119252,1,0,0:0:0:0:
64,192,119316,1,0,0:0:0:0:
192,192,119316,1,0,0:0:0:0:
320,192,119381,1,0,0:0:0:0:
448,192,119446,1,0,0:0:0:0:
64,192,119446,1,0,0:0:0:0:
320,192,119511,1,0,0:0:0:0:
448,192,119575,1,0,0:0:0:0:
192,192,119575,1,0,0:0:0:0:
64,192,119639,1,0,0:0:0:0:
320,192,119639,1,0,0:0:0:0:
192,192,119704,1,0,0:0:0:0:
448,192,119704,1,0,0:0:0:0:
320,192,119769,1,0,0:0:0:0:
64,192,119769,1,0,0:0:0:0:
192,192,119833,1,0,0:0:0:0:
448,192,119833,1,0,0:0:0:0:
64,192,119898,1,0,0:0:0:0:
192,192,119962,1,0,0:0:0:0:
320,192,119962,1,0,0:0:0:0:
448,192,120026,1,0,0:0:0:0:
320,192,120091,1,0,0:0:0:0:
64,192,120091,1,0,0:0:0:0:
192,192,120156,1,0,0:0:0:0:
320,192,120221,1,0,0:0:0:0:
448,192,120221,1,0,0:0:0:0:
192,192,120285,1,0,0:0:0:0:
320,192,120349,1,0,0:0:0:0:
448,192,120349,1,0,0:0:0:0:
192,192,120414,1,0,0:0:0:0:
64,192,120414,1,0,0:0:0:0:
320,192,120479,1,0,0:0:0:0:
448,192,120479,1,0,0:0:0:0:
192,192,120543,1,0,0:0:0:0:
64,192,120543,1,0,0:0:0:0:
320,192,120608,1,0,0:0:0:0:
448,192,120608,1,0,0:0:0:0:
192,192,120672,1,0,0:0:0:0:
64,192,120672,1,0,0:0:0:0:
320,192,120736,1,0,0:0:0:0:
448,192,120736,1,0,0:0:0:0:
192,192,120801,1,0,0:0:0:0:
64,192,120801,1,0,0:0:0:0:
320,192,120866,1,0,0:0:0:0:
448,192,120866,1,0,0:0:0:0:
192,192,120930,1,0,0:0:0:0:
64,192,120995,1,0,0:0:0:0:
320,192,120995,1,0,0:0:0:0:
448,192,121059,1,0,0:0:0:0:
320,192,121124,1,0,0:0:0:0:
192,192,121124,1,0,0:0:0:0:
64,192,121189,1,0,0:0:0:0:
448,192,121253,1,0,0:0:0:0:
320,192,121253,1,0,0:0:0:0:
192,192,121318,1,0,0:0:0:0:
64,192,121382,1,0,0:0:0:0:
448,192,121382,128,0,121640:0:0:0:0:
64,192,121640,1,0,0:0:0:0:
192,192,121684,1,0,0:0:0:0:
448,192,121726,1,0,0:0:0:0:
320,192,121769,1,0,0:0:0:0:
64,192,121812,1,0,0:0:0:0:
192,192,121856,1,0,0:0:0:0:
320,192,121899,1,0,0:0:0:0:
