osu file format v14

[General]
AudioFilename: audio120.mp3
AudioLeadIn: 0
PreviewTime: 9638
Countdown: 1
SampleSet: None
StackLeniency: 0.7
Mode: 3
LetterboxInBreaks: 0
SpecialStyle: 1
WidescreenStoryboard: 0

[Editor]
Bookmarks: 4859,9678,14498,19317,24136,28955,38594,53052,57871,68714,73533,78352,83172,87992,112088,122931,127751,132570,137389,142208
DistanceSpacing: 2
BeatDivisor: 4
GridSize: 16
TimelineZoom: 1.8

[Metadata]
Title:Ludicrous Speed
TitleUnicode:Ludicrous Speed
Artist:F-777
ArtistUnicode:F-777
Creator:ColdCR
Version:SuperSonic [1,2x Rate]
Source:
Tags:
BeatmapID:1963693
BeatmapSetID:879737

[Difficulty]
HPDrainRate:9
CircleSize:4
OverallDifficulty:8
ApproachRate:9
SliderMultiplier:3
SliderTickRate:1

[Events]
//Background and Video events
0,0,"thumb-1920-596769.jpg",0,0
//Break Periods
//Storyboard Layer 0 (Background)
//Storyboard Layer 1 (Fail)
//Storyboard Layer 2 (Pass)
//Storyboard Layer 3 (Foreground)
//Storyboard Sound Samples

[TimingPoints]
40,301.204819277108,4,1,0,10,1,0

[HitObjects]
64,192,40,5,0,0:0:0:0:
192,192,115,1,0,0:0:0:0:
320,192,190,1,0,0:0:0:0:
448,192,266,1,0,0:0:0:0:
320,192,341,1,0,0:0:0:0:
192,192,416,1,0,0:0:0:0:
64,192,492,1,0,0:0:0:0:
320,192,567,1,0,0:0:0:0:
192,192,642,1,0,0:0:0:0:
448,192,718,1,0,0:0:0:0:
64,192,792,1,0,0:0:0:0:
320,192,868,1,0,0:0:0:0:
192,192,943,1,0,0:0:0:0:
448,192,1018,1,0,0:0:0:0:
192,192,1094,1,0,0:0:0:0:
64,192,1169,1,0,0:0:0:0:
320,192,1244,1,0,0:0:0:0:
192,192,1320,1,0,0:0:0:0:
64,192,1395,1,0,0:0:0:0:
192,192,1470,1,0,0:0:0:0:
320,192,1546,1,0,0:0:0:0:
448,192,1621,1,0,0:0:0:0:
64,192,1696,1,0,0:0:0:0:
192,192,1772,1,0,0:0:0:0:
320,192,1847,1,0,0:0:0:0:
448,192,1922,1,0,0:0:0:0:
192,192,1998,1,0,0:0:0:0:
64,192,2072,1,0,0:0:0:0:
320,192,2148,1,0,0:0:0:0:
192,192,2223,1,0,0:0:0:0:
64,192,2298,1,0,0:0:0:0:
320,192,2374,1,0,0:0:0:0:
64,192,2449,1,0,0:0:0:0:
320,192,2524,1,0,0:0:0:0:
448,192,2600,1,0,0:0:0:0:
192,192,2675,1,0,0:0:0:0:
64,192,2751,1,0,0:0:0:0:
192,192,2826,1,0,0:0:0:0:
320,192,2901,1,0,0:0:0:0:
64,192,2977,1,0,0:0:0:0:
448,192,3052,1,0,0:0:0:0:
192,192,3127,1,0,0:0:0:0:
448,192,3202,1,0,0:0:0:0:
64,192,3278,1,0,0:0:0:0:
320,192,3352,1,0,0:0:0:0:
192,192,3428,1,0,0:0:0:0:
448,192,3503,1,0,0:0:0:0:
64,192,3578,1,0,0:0:0:0:
320,192,3654,1,0,0:0:0:0:
448,192,3729,1,0,0:0:0:0:
320,192,3805,1,0,0:0:0:0:
192,192,3880,1,0,0:0:0:0:
64,192,3955,1,0,0:0:0:0:
320,192,4031,1,0,0:0:0:0:
448,192,4106,1,0,0:0:0:0:
320,192,4181,1,0,0:0:0:0:
192,192,4257,1,0,0:0:0:0:
64,192,4332,1,0,0:0:0:0:
448,192,4407,1,0,0:0:0:0:
192,192,4482,1,0,0:0:0:0:
64,192,4558,1,0,0:0:0:0:
448,192,4608,1,0,0:0:0:0:
320,192,4658,1,0,0:0:0:0:
192,192,4708,1,0,0:0:0:0:
64,192,4758,1,0,0:0:0:0:
448,192,4758,1,0,0:0:0:0:
320,192,4808,1,0,0:0:0:0:
192,192,4859,1,0,0:0:0:0:
448,192,4859,1,0,0:0:0:0:
64,192,4934,1,0,0:0:0:0:
192,192,5009,1,0,0:0:0:0:
320,192,5085,1,0,0:0:0:0:
448,192,5160,1,0,0:0:0:0:
192,192,5235,1,0,0:0:0:0:
320,192,5311,1,0,0:0:0:0:
64,192,5311,1,0,0:0:0:0:
448,192,5386,1,0,0:0:0:0:
64,192,5462,1,0,0:0:0:0:
192,192,5537,1,0,0:0:0:0:
320,192,5612,1,0,0:0:0:0:
448,192,5612,1,0,0:0:0:0:
192,192,5688,1,0,0:0:0:0:
320,192,5762,1,0,0:0:0:0:
448,192,5838,1,0,0:0:0:0:
320,192,5913,1,0,0:0:0:0:
64,192,5913,1,0,0:0:0:0:
192,192,5988,1,0,0:0:0:0:
320,192,6063,1,0,0:0:0:0:
448,192,6139,1,0,0:0:0:0:
64,192,6214,1,0,0:0:0:0:
192,192,6214,1,0,0:0:0:0:
320,192,6289,1,0,0:0:0:0:
448,192,6365,1,0,0:0:0:0:
320,192,6440,1,0,0:0:0:0:
64,192,6516,1,0,0:0:0:0:
448,192,6516,1,0,0:0:0:0:
192,192,6591,1,0,0:0:0:0:
320,192,6666,1,0,0:0:0:0:
192,192,6742,1,0,0:0:0:0:
320,192,6817,1,0,0:0:0:0:
448,192,6817,1,0,0:0:0:0:
192,192,6892,1,0,0:0:0:0:
64,192,6968,1,0,0:0:0:0:
448,192,7042,1,0,0:0:0:0:
320,192,7118,1,0,0:0:0:0:
192,192,7118,1,0,0:0:0:0:
64,192,7193,1,0,0:0:0:0:
192,192,7268,1,0,0:0:0:0:
320,192,7344,1,0,0:0:0:0:
192,192,7419,1,0,0:0:0:0:
448,192,7419,1,0,0:0:0:0:
64,192,7494,1,0,0:0:0:0:
320,192,7570,1,0,0:0:0:0:
192,192,7645,1,0,0:0:0:0:
64,192,7720,1,0,0:0:0:0:
448,192,7720,1,0,0:0:0:0:
192,192,7796,1,0,0:0:0:0:
320,192,7871,1,0,0:0:0:0:
192,192,7946,1,0,0:0:0:0:
320,192,8022,1,0,0:0:0:0:
448,192,8022,1,0,0:0:0:0:
192,192,8097,1,0,0:0:0:0:
64,192,8172,1,0,0:0:0:0:
448,192,8248,1,0,0:0:0:0:
320,192,8322,1,0,0:0:0:0:
192,192,8322,1,0,0:0:0:0:
64,192,8398,1,0,0:0:0:0:
448,192,8473,1,0,0:0:0:0:
320,192,8548,1,0,0:0:0:0:
64,192,8624,1,0,0:0:0:0:
192,192,8624,1,0,0:0:0:0:
320,192,8699,1,0,0:0:0:0:
448,192,8774,1,0,0:0:0:0:
64,192,8850,1,0,0:0:0:0:
192,192,8925,1,0,0:0:0:0:
448,192,8925,1,0,0:0:0:0:
320,192,9001,1,0,0:0:0:0:
64,192,9076,128,0,9377:0:0:0:0:
448,192,9377,1,0,0:0:0:0:
320,192,9428,1,0,0:0:0:0:
192,192,9478,1,0,0:0:0:0:
64,192,9528,1,0,0:0:0:0:
448,192,9528,1,0,0:0:0:0:
320,192,9578,1,0,0:0:0:0:
192,192,9628,1,0,0:0:0:0:
64,192,9678,1,0,0:0:0:0:
448,192,9678,1,0,0:0:0:0:
320,192,9753,1,0,0:0:0:0:
448,192,9828,1,0,0:0:0:0:
320,192,9904,1,0,0:0:0:0:
192,192,9979,1,0,0:0:0:0:
448,192,9979,1,0,0:0:0:0:
64,192,10055,1,0,0:0:0:0:
192,192,10130,1,0,0:0:0:0:
320,192,10205,1,0,0:0:0:0:
192,192,10281,1,0,0:0:0:0:
64,192,10281,1,0,0:0:0:0:
448,192,10356,1,0,0:0:0:0:
64,192,10431,1,0,0:0:0:0:
320,192,10507,1,0,0:0:0:0:
192,192,10582,1,0,0:0:0:0:
448,192,10582,1,0,0:0:0:0:
64,192,10657,1,0,0:0:0:0:
448,192,10732,1,0,0:0:0:0:
192,192,10808,1,0,0:0:0:0:
448,192,10883,1,0,0:0:0:0:
320,192,10883,1,0,0:0:0:0:
64,192,10958,1,0,0:0:0:0:
192,192,11033,1,0,0:0:0:0:
448,192,11109,1,0,0:0:0:0:
320,192,11184,1,0,0:0:0:0:
192,192,11184,1,0,0:0:0:0:
64,192,11259,1,0,0:0:0:0:
192,192,11335,1,0,0:0:0:0:
320,192,11410,1,0,0:0:0:0:
192,192,11485,1,0,0:0:0:0:
448,192,11485,1,0,0:0:0:0:
64,192,11561,1,0,0:0:0:0:
192,192,11636,1,0,0:0:0:0:
448,192,11712,1,0,0:0:0:0:
192,192,11787,1,0,0:0:0:0:
320,192,11787,1,0,0:0:0:0:
64,192,11862,1,0,0:0:0:0:
448,192,11938,1,0,0:0:0:0:
192,192,12012,1,0,0:0:0:0:
448,192,12088,1,0,0:0:0:0:
320,192,12088,1,0,0:0:0:0:
192,192,12163,1,0,0:0:0:0:
64,192,12238,1,0,0:0:0:0:
448,192,12313,1,0,0:0:0:0:
320,192,12389,1,0,0:0:0:0:
192,192,12389,1,0,0:0:0:0:
64,192,12464,1,0,0:0:0:0:
192,192,12539,1,0,0:0:0:0:
320,192,12615,1,0,0:0:0:0:
192,192,12690,1,0,0:0:0:0:
448,192,12690,1,0,0:0:0:0:
64,192,12766,1,0,0:0:0:0:
192,192,12841,1,0,0:0:0:0:
448,192,12916,1,0,0:0:0:0:
64,192,12992,1,0,0:0:0:0:
192,192,12992,1,0,0:0:0:0:
320,192,13067,1,0,0:0:0:0:
64,192,13142,1,0,0:0:0:0:
448,192,13218,1,0,0:0:0:0:
320,192,13292,1,0,0:0:0:0:
192,192,13292,1,0,0:0:0:0:
64,192,13368,1,0,0:0:0:0:
320,192,13443,1,0,0:0:0:0:
192,192,13518,1,0,0:0:0:0:
64,192,13594,1,0,0:0:0:0:
448,192,13594,1,0,0:0:0:0:
192,192,13669,1,0,0:0:0:0:
320,192,13744,1,0,0:0:0:0:
448,192,13820,1,0,0:0:0:0:
320,192,13895,1,0,0:0:0:0:
192,192,13895,1,0,0:0:0:0:
64,192,13970,1,0,0:0:0:0:
448,192,14046,1,0,0:0:0:0:
320,192,14121,1,0,0:0:0:0:
64,192,14146,1,0,0:0:0:0:
192,192,14196,1,0,0:0:0:0:
320,192,14247,1,0,0:0:0:0:
448,192,14297,1,0,0:0:0:0:
64,192,14347,1,0,0:0:0:0:
192,192,14397,1,0,0:0:0:0:
320,192,14448,1,0,0:0:0:0:
448,192,14498,1,0,0:0:0:0:
64,192,14498,1,0,0:0:0:0:
192,192,14572,1,0,0:0:0:0:
320,192,14648,1,0,0:0:0:0:
192,192,14723,1,0,0:0:0:0:
448,192,14798,1,0,0:0:0:0:
64,192,14798,1,0,0:0:0:0:
320,192,14874,1,0,0:0:0:0:
192,192,14949,1,0,0:0:0:0:
320,192,15024,1,0,0:0:0:0:
192,192,15100,1,0,0:0:0:0:
64,192,15100,1,0,0:0:0:0:
320,192,15175,1,0,0:0:0:0:
448,192,15175,1,0,0:0:0:0:
192,192,15251,1,0,0:0:0:0:
64,192,15251,1,0,0:0:0:0:
320,192,15326,1,0,0:0:0:0:
448,192,15326,1,0,0:0:0:0:
192,192,15401,1,0,0:0:0:0:
64,192,15401,1,0,0:0:0:0:
320,192,15477,1,0,0:0:0:0:
448,192,15477,1,0,0:0:0:0:
192,192,15552,1,0,0:0:0:0:
64,192,15552,1,0,0:0:0:0:
320,192,15627,1,0,0:0:0:0:
448,192,15627,1,0,0:0:0:0:
192,192,15702,1,0,0:0:0:0:
64,192,15702,1,0,0:0:0:0:
320,192,15778,1,0,0:0:0:0:
448,192,15852,1,0,0:0:0:0:
320,192,15928,1,0,0:0:0:0:
192,192,16003,1,0,0:0:0:0:
448,192,16003,1,0,0:0:0:0:
64,192,16078,1,0,0:0:0:0:
320,192,16154,1,0,0:0:0:0:
192,192,16229,1,0,0:0:0:0:
64,192,16305,1,0,0:0:0:0:
448,192,16305,1,0,0:0:0:0:
320,192,16380,1,0,0:0:0:0:
192,192,16455,1,0,0:0:0:0:
64,192,16531,1,0,0:0:0:0:
192,192,16606,1,0,0:0:0:0:
448,192,16606,1,0,0:0:0:0:
320,192,16681,1,0,0:0:0:0:
64,192,16681,1,0,0:0:0:0:
192,192,16757,1,0,0:0:0:0:
448,192,16757,1,0,0:0:0:0:
320,192,16832,1,0,0:0:0:0:
64,192,16832,1,0,0:0:0:0:
192,192,16907,1,0,0:0:0:0:
448,192,16907,1,0,0:0:0:0:
320,192,16982,1,0,0:0:0:0:
448,192,17058,1,0,0:0:0:0:
320,192,17133,1,0,0:0:0:0:
192,192,17208,1,0,0:0:0:0:
64,192,17208,1,0,0:0:0:0:
320,192,17283,1,0,0:0:0:0:
448,192,17359,1,0,0:0:0:0:
64,192,17434,1,0,0:0:0:0:
192,192,17509,1,0,0:0:0:0:
320,192,17509,1,0,0:0:0:0:
448,192,17585,1,0,0:0:0:0:
64,192,17585,1,0,0:0:0:0:
192,192,17660,1,0,0:0:0:0:
320,192,17660,1,0,0:0:0:0:
64,192,17735,1,0,0:0:0:0:
448,192,17735,1,0,0:0:0:0:
320,192,17811,1,0,0:0:0:0:
192,192,17811,1,0,0:0:0:0:
64,192,17886,1,0,0:0:0:0:
448,192,17886,1,0,0:0:0:0:
320,192,17962,1,0,0:0:0:0:
192,192,17962,1,0,0:0:0:0:
64,192,18037,1,0,0:0:0:0:
448,192,18037,1,0,0:0:0:0:
320,192,18112,1,0,0:0:0:0:
192,192,18112,1,0,0:0:0:0:
448,192,18188,1,0,0:0:0:0:
320,192,18262,1,0,0:0:0:0:
192,192,18338,1,0,0:0:0:0:
64,192,18413,1,0,0:0:0:0:
320,192,18413,1,0,0:0:0:0:
448,192,18488,1,0,0:0:0:0:
320,192,18563,1,0,0:0:0:0:
192,192,18639,1,0,0:0:0:0:
320,192,18714,128,0,19016:0:0:0:0:
64,192,19016,1,0,0:0:0:0:
192,192,19066,1,0,0:0:0:0:
448,192,19116,1,0,0:0:0:0:
320,192,19166,1,0,0:0:0:0:
64,192,19217,1,0,0:0:0:0:
192,192,19267,1,0,0:0:0:0:
320,192,19317,1,0,0:0:0:0:
448,192,19317,1,0,0:0:0:0:
192,192,19392,1,0,0:0:0:0:
64,192,19468,1,0,0:0:0:0:
320,192,19468,1,0,0:0:0:0:
448,192,19542,1,0,0:0:0:0:
320,192,19618,1,0,0:0:0:0:
192,192,19618,1,0,0:0:0:0:
64,192,19693,1,0,0:0:0:0:
448,192,19768,1,0,0:0:0:0:
320,192,19768,1,0,0:0:0:0:
192,192,19844,1,0,0:0:0:0:
64,192,19919,1,0,0:0:0:0:
320,192,19919,1,0,0:0:0:0:
448,192,19994,1,0,0:0:0:0:
192,192,20070,1,0,0:0:0:0:
64,192,20070,1,0,0:0:0:0:
320,192,20145,1,0,0:0:0:0:
64,192,20220,1,0,0:0:0:0:
448,192,20220,1,0,0:0:0:0:
320,192,20296,1,0,0:0:0:0:
448,192,20371,1,0,0:0:0:0:
192,192,20371,1,0,0:0:0:0:
64,192,20446,1,0,0:0:0:0:
192,192,20522,1,0,0:0:0:0:
320,192,20522,1,0,0:0:0:0:
448,192,20597,1,0,0:0:0:0:
64,192,20672,1,0,0:0:0:0:
320,192,20672,1,0,0:0:0:0:
192,192,20748,1,0,0:0:0:0:
320,192,20822,1,0,0:0:0:0:
448,192,20822,1,0,0:0:0:0:
192,192,20898,1,0,0:0:0:0:
64,192,20973,1,0,0:0:0:0:
448,192,20973,1,0,0:0:0:0:
320,192,21048,1,0,0:0:0:0:
192,192,21124,1,0,0:0:0:0:
448,192,21124,1,0,0:0:0:0:
64,192,21199,1,0,0:0:0:0:
448,192,21274,1,0,0:0:0:0:
320,192,21274,1,0,0:0:0:0:
192,192,21350,1,0,0:0:0:0:
64,192,21425,1,0,0:0:0:0:
320,192,21425,1,0,0:0:0:0:
448,192,21501,1,0,0:0:0:0:
192,192,21576,1,0,0:0:0:0:
320,192,21576,1,0,0:0:0:0:
64,192,21651,1,0,0:0:0:0:
448,192,21727,1,0,0:0:0:0:
192,192,21727,1,0,0:0:0:0:
320,192,21802,1,0,0:0:0:0:
192,192,21877,1,0,0:0:0:0:
64,192,21877,1,0,0:0:0:0:
320,192,21952,1,0,0:0:0:0:
448,192,22028,1,0,0:0:0:0:
64,192,22028,1,0,0:0:0:0:
192,192,22102,1,0,0:0:0:0:
320,192,22178,1,0,0:0:0:0:
64,192,22178,1,0,0:0:0:0:
448,192,22253,1,0,0:0:0:0:
320,192,22328,1,0,0:0:0:0:
192,192,22328,1,0,0:0:0:0:
64,192,22404,1,0,0:0:0:0:
448,192,22479,1,0,0:0:0:0:
320,192,22479,1,0,0:0:0:0:
192,192,22555,1,0,0:0:0:0:
64,192,22630,1,0,0:0:0:0:
448,192,22630,1,0,0:0:0:0:
320,192,22705,1,0,0:0:0:0:
192,192,22781,1,0,0:0:0:0:
64,192,22781,1,0,0:0:0:0:
320,192,22856,1,0,0:0:0:0:
448,192,22931,128,0,23082:0:0:0:0:
192,192,23082,128,0,23232:0:0:0:0:
320,192,23232,128,0,23533:0:0:0:0:
64,192,23533,128,0,23609:0:0:0:0:
192,192,23533,128,0,23609:0:0:0:0:
448,192,23609,128,0,23684:0:0:0:0:
320,192,23609,128,0,23684:0:0:0:0:
192,192,23684,128,0,23759:0:0:0:0:
64,192,23684,128,0,23759:0:0:0:0:
320,192,23759,128,0,23835:0:0:0:0:
448,192,23759,128,0,23835:0:0:0:0:
192,192,23835,1,0,0:0:0:0:
64,192,23885,1,0,0:0:0:0:
448,192,23935,1,0,0:0:0:0:
320,192,23985,1,0,0:0:0:0:
192,192,24036,1,0,0:0:0:0:
64,192,24086,1,0,0:0:0:0:
448,192,24136,1,0,0:0:0:0:
320,192,24212,1,0,0:0:0:0:
192,192,24287,1,0,0:0:0:0:
448,192,24287,1,0,0:0:0:0:
64,192,24362,1,0,0:0:0:0:
192,192,24438,1,0,0:0:0:0:
320,192,24438,1,0,0:0:0:0:
448,192,24512,1,0,0:0:0:0:
320,192,24588,1,0,0:0:0:0:
64,192,24588,1,0,0:0:0:0:
192,192,24663,1,0,0:0:0:0:
64,192,24738,1,0,0:0:0:0:
448,192,24738,1,0,0:0:0:0:
320,192,24813,1,0,0:0:0:0:
192,192,24813,1,0,0:0:0:0:
64,192,24889,1,0,0:0:0:0:
448,192,24889,1,0,0:0:0:0:
320,192,24964,1,0,0:0:0:0:
192,192,24964,1,0,0:0:0:0:
64,192,25039,1,0,0:0:0:0:
448,192,25039,1,0,0:0:0:0:
320,192,25115,1,0,0:0:0:0:
192,192,25115,1,0,0:0:0:0:
64,192,25190,1,0,0:0:0:0:
448,192,25190,1,0,0:0:0:0:
320,192,25266,1,0,0:0:0:0:
192,192,25266,1,0,0:0:0:0:
64,192,25341,1,0,0:0:0:0:
448,192,25341,1,0,0:0:0:0:
320,192,25416,1,0,0:0:0:0:
192,192,25492,1,0,0:0:0:0:
64,192,25492,1,0,0:0:0:0:
320,192,25567,1,0,0:0:0:0:
192,192,25642,1,0,0:0:0:0:
448,192,25642,1,0,0:0:0:0:
64,192,25718,1,0,0:0:0:0:
192,192,25792,1,0,0:0:0:0:
320,192,25792,1,0,0:0:0:0:
448,192,25868,1,0,0:0:0:0:
192,192,25943,1,0,0:0:0:0:
320,192,25943,1,0,0:0:0:0:
64,192,26018,1,0,0:0:0:0:
448,192,26094,1,0,0:0:0:0:
320,192,26094,1,0,0:0:0:0:
192,192,26169,1,0,0:0:0:0:
64,192,26244,1,0,0:0:0:0:
320,192,26244,1,0,0:0:0:0:
448,192,26320,1,0,0:0:0:0:
192,192,26320,1,0,0:0:0:0:
320,192,26395,1,0,0:0:0:0:
64,192,26395,1,0,0:0:0:0:
192,192,26470,1,0,0:0:0:0:
448,192,26470,1,0,0:0:0:0:
320,192,26546,1,0,0:0:0:0:
64,192,26546,1,0,0:0:0:0:
448,192,26621,1,0,0:0:0:0:
320,192,26696,1,0,0:0:0:0:
192,192,26696,1,0,0:0:0:0:
64,192,26772,1,0,0:0:0:0:
448,192,26847,1,0,0:0:0:0:
192,192,26847,1,0,0:0:0:0:
320,192,26922,1,0,0:0:0:0:
192,192,26998,1,0,0:0:0:0:
448,192,26998,1,0,0:0:0:0:
64,192,27072,1,0,0:0:0:0:
448,192,27148,1,0,0:0:0:0:
320,192,27148,1,0,0:0:0:0:
192,192,27223,1,0,0:0:0:0:
64,192,27223,1,0,0:0:0:0:
320,192,27298,1,0,0:0:0:0:
448,192,27298,1,0,0:0:0:0:
192,192,27374,1,0,0:0:0:0:
64,192,27374,1,0,0:0:0:0:
320,192,27449,1,0,0:0:0:0:
448,192,27449,1,0,0:0:0:0:
192,192,27524,1,0,0:0:0:0:
64,192,27524,1,0,0:0:0:0:
320,192,27600,1,0,0:0:0:0:
448,192,27600,1,0,0:0:0:0:
192,192,27675,1,0,0:0:0:0:
64,192,27675,1,0,0:0:0:0:
320,192,27751,1,0,0:0:0:0:
448,192,27751,1,0,0:0:0:0:
192,192,27826,1,0,0:0:0:0:
64,192,27901,1,0,0:0:0:0:
320,192,27901,1,0,0:0:0:0:
448,192,27977,1,0,0:0:0:0:
320,192,28052,1,0,0:0:0:0:
192,192,28052,1,0,0:0:0:0:
64,192,28127,1,0,0:0:0:0:
448,192,28202,1,0,0:0:0:0:
320,192,28202,1,0,0:0:0:0:
192,192,28278,1,0,0:0:0:0:
64,192,28352,128,0,28654:0:0:0:0:
448,192,28654,1,0,0:0:0:0:
320,192,28704,1,0,0:0:0:0:
192,192,28754,1,0,0:0:0:0:
64,192,28805,1,0,0:0:0:0:
448,192,28855,1,0,0:0:0:0:
320,192,28905,1,0,0:0:0:0:
192,192,28955,1,0,0:0:0:0:
64,192,28955,1,0,0:0:0:0:
320,192,29106,1,0,0:0:0:0:
448,192,29106,1,0,0:0:0:0:
192,192,29257,1,0,0:0:0:0:
448,192,29407,1,0,0:0:0:0:
64,192,29407,1,0,0:0:0:0:
64,192,29708,1,0,0:0:0:0:
448,192,29708,1,0,0:0:0:0:
192,192,29859,1,0,0:0:0:0:
320,192,30009,1,0,0:0:0:0:
192,192,30009,1,0,0:0:0:0:
448,192,30311,1,0,0:0:0:0:
320,192,30311,1,0,0:0:0:0:
192,192,30462,1,0,0:0:0:0:
320,192,30612,1,0,0:0:0:0:
64,192,30612,1,0,0:0:0:0:
192,192,30913,1,0,0:0:0:0:
320,192,30913,1,0,0:0:0:0:
448,192,31063,1,0,0:0:0:0:
320,192,31214,1,0,0:0:0:0:
64,192,31214,1,0,0:0:0:0:
192,192,31516,1,0,0:0:0:0:
320,192,31516,1,0,0:0:0:0:
448,192,31666,1,0,0:0:0:0:
64,192,31817,1,0,0:0:0:0:
192,192,31817,1,0,0:0:0:0:
448,192,32118,1,0,0:0:0:0:
320,192,32118,1,0,0:0:0:0:
192,192,32268,1,0,0:0:0:0:
192,192,32419,1,0,0:0:0:0:
64,192,32419,1,0,0:0:0:0:
448,192,32720,1,0,0:0:0:0:
192,192,32720,1,0,0:0:0:0:
192,192,32871,1,0,0:0:0:0:
64,192,33022,1,0,0:0:0:0:
448,192,33022,1,0,0:0:0:0:
320,192,33322,1,0,0:0:0:0:
64,192,33322,1,0,0:0:0:0:
448,192,33473,1,0,0:0:0:0:
320,192,33624,1,0,0:0:0:0:
448,192,33624,1,0,0:0:0:0:
64,192,33774,128,0,37389:0:0:0:0:
192,192,33925,1,0,0:0:0:0:
320,192,33925,1,0,0:0:0:0:
320,192,34076,1,0,0:0:0:0:
448,192,34227,1,0,0:0:0:0:
192,192,34227,1,0,0:0:0:0:
448,192,34528,1,0,0:0:0:0:
320,192,34528,1,0,0:0:0:0:
192,192,34678,1,0,0:0:0:0:
192,192,34828,1,0,0:0:0:0:
448,192,34828,1,0,0:0:0:0:
448,192,35130,1,0,0:0:0:0:
320,192,35130,1,0,0:0:0:0:
192,192,35281,1,0,0:0:0:0:
320,192,35431,1,0,0:0:0:0:
192,192,35431,1,0,0:0:0:0:
448,192,35732,1,0,0:0:0:0:
192,192,35732,1,0,0:0:0:0:
320,192,35883,1,0,0:0:0:0:
192,192,36033,1,0,0:0:0:0:
320,192,36033,1,0,0:0:0:0:
448,192,36335,1,0,0:0:0:0:
320,192,36335,1,0,0:0:0:0:
448,192,36485,1,0,0:0:0:0:
192,192,36636,1,0,0:0:0:0:
320,192,36636,1,0,0:0:0:0:
448,192,36938,1,0,0:0:0:0:
192,192,36938,1,0,0:0:0:0:
320,192,37088,1,0,0:0:0:0:
192,192,37238,1,0,0:0:0:0:
320,192,37238,1,0,0:0:0:0:
448,192,37389,1,0,0:0:0:0:
320,192,37464,1,0,0:0:0:0:
192,192,37539,128,0,37690:0:0:0:0:
64,192,37690,128,0,37841:0:0:0:0:
320,192,37841,128,0,37992:0:0:0:0:
448,192,37992,128,0,38292:0:0:0:0:
64,192,38292,1,0,0:0:0:0:
192,192,38342,1,0,0:0:0:0:
320,192,38393,1,0,0:0:0:0:
448,192,38443,1,0,0:0:0:0:
64,192,38493,1,0,0:0:0:0:
192,192,38543,1,0,0:0:0:0:
320,192,38594,1,0,0:0:0:0:
448,192,38594,1,0,0:0:0:0:
192,192,38669,1,0,0:0:0:0:
64,192,38744,1,0,0:0:0:0:
192,192,38820,1,0,0:0:0:0:
320,192,38895,1,0,0:0:0:0:
448,192,38895,1,0,0:0:0:0:
64,192,38895,1,0,0:0:0:0:
192,192,38970,1,0,0:0:0:0:
320,192,39046,1,0,0:0:0:0:
448,192,39121,1,0,0:0:0:0:
320,192,39196,1,0,0:0:0:0:
192,192,39196,1,0,0:0:0:0:
64,192,39196,1,0,0:0:0:0:
448,192,39272,1,0,0:0:0:0:
320,192,39347,1,0,0:0:0:0:
192,192,39422,1,0,0:0:0:0:
64,192,39498,1,0,0:0:0:0:
320,192,39498,1,0,0:0:0:0:
448,192,39498,1,0,0:0:0:0:
192,192,39572,1,0,0:0:0:0:
320,192,39648,1,0,0:0:0:0:
448,192,39723,1,0,0:0:0:0:
320,192,39798,1,0,0:0:0:0:
192,192,39798,1,0,0:0:0:0:
64,192,39798,1,0,0:0:0:0:
448,192,39874,1,0,0:0:0:0:
320,192,39949,1,0,0:0:0:0:
192,192,40024,1,0,0:0:0:0:
64,192,40100,1,0,0:0:0:0:
320,192,40100,1,0,0:0:0:0:
448,192,40100,1,0,0:0:0:0:
192,192,40175,1,0,0:0:0:0:
320,192,40251,1,0,0:0:0:0:
192,192,40326,1,0,0:0:0:0:
320,192,40401,1,0,0:0:0:0:
64,192,40401,1,0,0:0:0:0:
448,192,40401,1,0,0:0:0:0:
192,192,40477,1,0,0:0:0:0:
64,192,40552,1,0,0:0:0:0:
448,192,40627,1,0,0:0:0:0:
320,192,40702,1,0,0:0:0:0:
192,192,40702,1,0,0:0:0:0:
64,192,40702,1,0,0:0:0:0:
448,192,40778,1,0,0:0:0:0:
64,192,40852,1,0,0:0:0:0:
192,192,40928,1,0,0:0:0:0:
320,192,41003,1,0,0:0:0:0:
448,192,41003,1,0,0:0:0:0:
64,192,41003,1,0,0:0:0:0:
192,192,41078,1,0,0:0:0:0:
320,192,41154,1,0,0:0:0:0:
192,192,41229,1,0,0:0:0:0:
320,192,41305,1,0,0:0:0:0:
448,192,41305,1,0,0:0:0:0:
64,192,41305,1,0,0:0:0:0:
192,192,41380,1,0,0:0:0:0:
320,192,41455,1,0,0:0:0:0:
448,192,41531,1,0,0:0:0:0:
320,192,41606,1,0,0:0:0:0:
192,192,41606,1,0,0:0:0:0:
64,192,41606,1,0,0:0:0:0:
448,192,41681,1,0,0:0:0:0:
192,192,41757,1,0,0:0:0:0:
320,192,41832,1,0,0:0:0:0:
448,192,41907,1,0,0:0:0:0:
192,192,41907,1,0,0:0:0:0:
64,192,41907,1,0,0:0:0:0:
320,192,41982,1,0,0:0:0:0:
192,192,42058,1,0,0:0:0:0:
448,192,42133,1,0,0:0:0:0:
320,192,42208,1,0,0:0:0:0:
192,192,42208,1,0,0:0:0:0:
64,192,42208,1,0,0:0:0:0:
448,192,42283,1,0,0:0:0:0:
320,192,42359,1,0,0:0:0:0:
192,192,42434,1,0,0:0:0:0:
64,192,42509,1,0,0:0:0:0:
320,192,42509,1,0,0:0:0:0:
448,192,42509,1,0,0:0:0:0:
192,192,42585,1,0,0:0:0:0:
448,192,42660,1,0,0:0:0:0:
320,192,42735,1,0,0:0:0:0:
192,192,42811,1,0,0:0:0:0:
64,192,42811,1,0,0:0:0:0:
448,192,42811,1,0,0:0:0:0:
320,192,42886,1,0,0:0:0:0:
192,192,42962,1,0,0:0:0:0:
448,192,43037,1,0,0:0:0:0:
320,192,43112,1,0,0:0:0:0:
192,192,43112,1,0,0:0:0:0:
64,192,43112,1,0,0:0:0:0:
448,192,43188,1,0,0:0:0:0:
64,192,43262,1,0,0:0:0:0:
192,192,43338,1,0,0:0:0:0:
320,192,43413,1,0,0:0:0:0:
448,192,43413,1,0,0:0:0:0:
64,192,43413,1,0,0:0:0:0:
192,192,43488,1,0,0:0:0:0:
320,192,43563,1,0,0:0:0:0:
448,192,43639,1,0,0:0:0:0:
64,192,43714,1,0,0:0:0:0:
192,192,43714,1,0,0:0:0:0:
320,192,43714,1,0,0:0:0:0:
448,192,43789,1,0,0:0:0:0:
320,192,43865,1,0,0:0:0:0:
64,192,43940,1,0,0:0:0:0:
192,192,44016,1,0,0:0:0:0:
320,192,44016,1,0,0:0:0:0:
448,192,44016,1,0,0:0:0:0:
64,192,44091,1,0,0:0:0:0:
192,192,44166,1,0,0:0:0:0:
320,192,44242,1,0,0:0:0:0:
192,192,44317,1,0,0:0:0:0:
64,192,44317,1,0,0:0:0:0:
448,192,44317,1,0,0:0:0:0:
320,192,44392,1,0,0:0:0:0:
64,192,44468,1,0,0:0:0:0:
192,192,44542,1,0,0:0:0:0:
320,192,44618,1,0,0:0:0:0:
448,192,44618,1,0,0:0:0:0:
64,192,44618,1,0,0:0:0:0:
192,192,44693,1,0,0:0:0:0:
448,192,44768,1,0,0:0:0:0:
320,192,44844,1,0,0:0:0:0:
192,192,44919,1,0,0:0:0:0:
448,192,44919,1,0,0:0:0:0:
64,192,44919,1,0,0:0:0:0:
320,192,44994,1,0,0:0:0:0:
192,192,45070,1,0,0:0:0:0:
64,192,45145,1,0,0:0:0:0:
192,192,45220,1,0,0:0:0:0:
320,192,45220,1,0,0:0:0:0:
448,192,45220,1,0,0:0:0:0:
64,192,45296,1,0,0:0:0:0:
320,192,45371,1,0,0:0:0:0:
448,192,45446,1,0,0:0:0:0:
320,192,45522,1,0,0:0:0:0:
192,192,45522,1,0,0:0:0:0:
64,192,45522,1,0,0:0:0:0:
448,192,45597,1,0,0:0:0:0:
320,192,45672,1,0,0:0:0:0:
64,192,45748,1,0,0:0:0:0:
192,192,45822,1,0,0:0:0:0:
448,192,45822,1,0,0:0:0:0:
320,192,45822,1,0,0:0:0:0:
64,192,45898,1,0,0:0:0:0:
192,192,45973,1,0,0:0:0:0:
320,192,46048,1,0,0:0:0:0:
192,192,46124,1,0,0:0:0:0:
64,192,46124,1,0,0:0:0:0:
448,192,46124,1,0,0:0:0:0:
320,192,46199,1,0,0:0:0:0:
192,192,46274,1,0,0:0:0:0:
64,192,46350,1,0,0:0:0:0:
320,192,46425,1,0,0:0:0:0:
192,192,46425,1,0,0:0:0:0:
448,192,46425,1,0,0:0:0:0:
64,192,46501,1,0,0:0:0:0:
192,192,46576,1,0,0:0:0:0:
320,192,46651,1,0,0:0:0:0:
192,192,46727,1,0,0:0:0:0:
64,192,46727,1,0,0:0:0:0:
448,192,46727,1,0,0:0:0:0:
320,192,46802,1,0,0:0:0:0:
192,192,46877,1,0,0:0:0:0:
320,192,46952,1,0,0:0:0:0:
448,192,47028,1,0,0:0:0:0:
192,192,47028,1,0,0:0:0:0:
64,192,47028,1,0,0:0:0:0:
320,192,47102,1,0,0:0:0:0:
192,192,47178,1,0,0:0:0:0:
64,192,47253,1,0,0:0:0:0:
192,192,47328,1,0,0:0:0:0:
320,192,47328,1,0,0:0:0:0:
448,192,47328,1,0,0:0:0:0:
64,192,47404,1,0,0:0:0:0:
192,192,47479,1,0,0:0:0:0:
448,192,47555,1,0,0:0:0:0:
320,192,47630,1,0,0:0:0:0:
192,192,47630,1,0,0:0:0:0:
64,192,47630,1,0,0:0:0:0:
448,192,47705,1,0,0:0:0:0:
320,192,47781,1,0,0:0:0:0:
192,192,47856,1,0,0:0:0:0:
320,192,47931,1,0,0:0:0:0:
448,192,47931,1,0,0:0:0:0:
64,192,47931,1,0,0:0:0:0:
192,192,48007,1,0,0:0:0:0:
320,192,48082,1,0,0:0:0:0:
64,192,48157,1,0,0:0:0:0:
192,192,48232,1,0,0:0:0:0:
320,192,48232,1,0,0:0:0:0:
448,192,48232,1,0,0:0:0:0:
64,192,48308,1,0,0:0:0:0:
192,192,48383,1,0,0:0:0:0:
320,192,48458,1,0,0:0:0:0:
192,192,48533,1,0,0:0:0:0:
64,192,48533,1,0,0:0:0:0:
448,192,48533,1,0,0:0:0:0:
320,192,48609,1,0,0:0:0:0:
192,192,48684,1,0,0:0:0:0:
320,192,48759,1,0,0:0:0:0:
64,192,48835,1,0,0:0:0:0:
192,192,48835,1,0,0:0:0:0:
448,192,48835,1,0,0:0:0:0:
320,192,48910,1,0,0:0:0:0:
192,192,48985,1,0,0:0:0:0:
448,192,49061,1,0,0:0:0:0:
320,192,49136,1,0,0:0:0:0:
192,192,49136,1,0,0:0:0:0:
64,192,49136,1,0,0:0:0:0:
448,192,49212,1,0,0:0:0:0:
320,192,49287,1,0,0:0:0:0:
192,192,49362,1,0,0:0:0:0:
64,192,49438,1,0,0:0:0:0:
320,192,49438,1,0,0:0:0:0:
448,192,49438,1,0,0:0:0:0:
192,192,49512,1,0,0:0:0:0:
64,192,49588,1,0,0:0:0:0:
448,192,49663,1,0,0:0:0:0:
320,192,49738,1,0,0:0:0:0:
192,192,49738,1,0,0:0:0:0:
64,192,49738,1,0,0:0:0:0:
448,192,49813,1,0,0:0:0:0:
320,192,49889,1,0,0:0:0:0:
192,192,49964,1,0,0:0:0:0:
64,192,50039,1,0,0:0:0:0:
320,192,50039,1,0,0:0:0:0:
448,192,50039,1,0,0:0:0:0:
192,192,50115,1,0,0:0:0:0:
320,192,50190,1,0,0:0:0:0:
192,192,50266,1,0,0:0:0:0:
320,192,50341,1,0,0:0:0:0:
448,192,50341,1,0,0:0:0:0:
64,192,50341,1,0,0:0:0:0:
192,192,50416,1,0,0:0:0:0:
320,192,50492,1,0,0:0:0:0:
448,192,50567,1,0,0:0:0:0:
320,192,50642,1,0,0:0:0:0:
192,192,50642,1,0,0:0:0:0:
64,192,50642,1,0,0:0:0:0:
448,192,50718,1,0,0:0:0:0:
320,192,50792,1,0,0:0:0:0:
64,192,50868,1,0,0:0:0:0:
192,192,50943,1,0,0:0:0:0:
320,192,50943,1,0,0:0:0:0:
448,192,50943,1,0,0:0:0:0:
64,192,51018,1,0,0:0:0:0:
192,192,51094,1,0,0:0:0:0:
320,192,51169,1,0,0:0:0:0:
192,192,51244,1,0,0:0:0:0:
64,192,51244,1,0,0:0:0:0:
448,192,51244,1,0,0:0:0:0:
320,192,51320,1,0,0:0:0:0:
192,192,51395,1,0,0:0:0:0:
64,192,51470,1,0,0:0:0:0:
192,192,51546,1,0,0:0:0:0:
448,192,51546,1,0,0:0:0:0:
320,192,51546,1,0,0:0:0:0:
64,192,51621,1,0,0:0:0:0:
192,192,51696,1,0,0:0:0:0:
320,192,51772,1,0,0:0:0:0:
192,192,51847,1,0,0:0:0:0:
64,192,51847,1,0,0:0:0:0:
448,192,51847,1,0,0:0:0:0:
320,192,51922,1,0,0:0:0:0:
192,192,51998,1,0,0:0:0:0:
448,192,52072,1,0,0:0:0:0:
320,192,52148,1,0,0:0:0:0:
192,192,52148,1,0,0:0:0:0:
64,192,52148,1,0,0:0:0:0:
448,192,52223,1,0,0:0:0:0:
64,192,52298,1,0,0:0:0:0:
192,192,52374,1,0,0:0:0:0:
320,192,52449,1,0,0:0:0:0:
448,192,52449,1,0,0:0:0:0:
64,192,52449,1,0,0:0:0:0:
192,192,52524,1,0,0:0:0:0:
320,192,52600,1,0,0:0:0:0:
192,192,52675,1,0,0:0:0:0:
448,192,52751,1,0,0:0:0:0:
64,192,52751,1,0,0:0:0:0:
320,192,52751,1,0,0:0:0:0:
192,192,52826,1,0,0:0:0:0:
64,192,52901,1,0,0:0:0:0:
320,192,52977,1,0,0:0:0:0:
64,192,53052,1,0,0:0:0:0:
192,192,53052,1,0,0:0:0:0:
448,192,53052,128,0,53202:0:0:0:0:
320,192,53202,128,0,53352:0:0:0:0:
64,192,53352,128,0,53503:0:0:0:0:
192,192,53352,1,0,0:0:0:0:
320,192,53503,128,0,53654:0:0:0:0:
192,192,53654,128,0,53805:0:0:0:0:
448,192,53654,1,0,0:0:0:0:
448,192,53805,128,0,53955:0:0:0:0:
64,192,53955,128,0,54106:0:0:0:0:
320,192,53955,1,0,0:0:0:0:
192,192,54106,128,0,54257:0:0:0:0:
448,192,54257,1,0,0:0:0:0:
448,192,54407,128,0,54558:0:0:0:0:
192,192,54558,128,0,54708:0:0:0:0:
320,192,54558,1,0,0:0:0:0:
64,192,54708,128,0,54859:0:0:0:0:
320,192,54859,128,0,55009:0:0:0:0:
448,192,54859,1,0,0:0:0:0:
192,192,55009,128,0,55160:0:0:0:0:
448,192,55160,128,0,55311:0:0:0:0:
64,192,55160,1,0,0:0:0:0:
320,192,55311,128,0,55462:0:0:0:0:
192,192,55462,1,0,0:0:0:0:
448,192,55612,128,0,55762:0:0:0:0:
192,192,55762,128,0,55913:0:0:0:0:
320,192,55762,1,0,0:0:0:0:
320,192,55913,128,0,56063:0:0:0:0:
64,192,56063,128,0,56214:0:0:0:0:
192,192,56063,1,0,0:0:0:0:
320,192,56214,128,0,56365:0:0:0:0:
448,192,56365,128,0,56516:0:0:0:0:
64,192,56365,1,0,0:0:0:0:
320,192,56516,128,0,56666:0:0:0:0:
448,192,56666,1,0,0:0:0:0:
64,192,56666,1,0,0:0:0:0:
320,192,56968,1,0,0:0:0:0:
192,192,57268,1,0,0:0:0:0:
448,192,57570,1,0,0:0:0:0:
64,192,57871,1,0,0:0:0:0:
192,192,57946,1,0,0:0:0:0:
448,192,58022,1,0,0:0:0:0:
320,192,58097,1,0,0:0:0:0:
192,192,58172,1,0,0:0:0:0:
64,192,58248,1,0,0:0:0:0:
448,192,58322,1,0,0:0:0:0:
320,192,58398,1,0,0:0:0:0:
192,192,58473,1,0,0:0:0:0:
64,192,58548,1,0,0:0:0:0:
192,192,58624,1,0,0:0:0:0:
320,192,58699,1,0,0:0:0:0:
448,192,58774,1,0,0:0:0:0:
64,192,58850,1,0,0:0:0:0:
192,192,58925,1,0,0:0:0:0:
320,192,59001,1,0,0:0:0:0:
192,192,59076,1,0,0:0:0:0:
64,192,59151,1,0,0:0:0:0:
448,192,59227,1,0,0:0:0:0:
320,192,59302,1,0,0:0:0:0:
192,192,59377,1,0,0:0:0:0:
64,192,59452,1,0,0:0:0:0:
320,192,59528,1,0,0:0:0:0:
192,192,59602,1,0,0:0:0:0:
320,192,59678,1,0,0:0:0:0:
448,192,59753,1,0,0:0:0:0:
320,192,59828,1,0,0:0:0:0:
192,192,59904,1,0,0:0:0:0:
64,192,59979,1,0,0:0:0:0:
448,192,60055,1,0,0:0:0:0:
320,192,60130,1,0,0:0:0:0:
192,192,60205,1,0,0:0:0:0:
64,192,60281,1,0,0:0:0:0:
320,192,60281,1,0,0:0:0:0:
448,192,60356,1,0,0:0:0:0:
320,192,60431,1,0,0:0:0:0:
192,192,60431,1,0,0:0:0:0:
64,192,60507,1,0,0:0:0:0:
448,192,60582,1,0,0:0:0:0:
320,192,60582,1,0,0:0:0:0:
192,192,60657,1,0,0:0:0:0:
64,192,60732,1,0,0:0:0:0:
320,192,60732,1,0,0:0:0:0:
448,192,60808,1,0,0:0:0:0:
64,192,60883,1,0,0:0:0:0:
192,192,60883,1,0,0:0:0:0:
320,192,60958,1,0,0:0:0:0:
448,192,61033,1,0,0:0:0:0:
192,192,61033,1,0,0:0:0:0:
64,192,61109,1,0,0:0:0:0:
320,192,61184,1,0,0:0:0:0:
448,192,61184,1,0,0:0:0:0:
192,192,61259,1,0,0:0:0:0:
64,192,61335,1,0,0:0:0:0:
448,192,61335,1,0,0:0:0:0:
320,192,61410,1,0,0:0:0:0:
192,192,61485,1,0,0:0:0:0:
448,192,61485,1,0,0:0:0:0:
64,192,61561,1,0,0:0:0:0:
192,192,61636,1,0,0:0:0:0:
320,192,61636,1,0,0:0:0:0:
448,192,61712,1,0,0:0:0:0:
64,192,61787,1,0,0:0:0:0:
192,192,61787,1,0,0:0:0:0:
320,192,61862,1,0,0:0:0:0:
448,192,61938,1,0,0:0:0:0:
192,192,61938,1,0,0:0:0:0:
64,192,62012,1,0,0:0:0:0:
448,192,62088,1,0,0:0:0:0:
320,192,62088,1,0,0:0:0:0:
192,192,62163,1,0,0:0:0:0:
64,192,62238,1,0,0:0:0:0:
320,192,62238,1,0,0:0:0:0:
448,192,62313,1,0,0:0:0:0:
64,192,62389,1,0,0:0:0:0:
192,192,62389,1,0,0:0:0:0:
320,192,62464,1,0,0:0:0:0:
192,192,62539,1,0,0:0:0:0:
448,192,62539,1,0,0:0:0:0:
64,192,62615,1,0,0:0:0:0:
320,192,62690,1,0,0:0:0:0:
192,192,62690,1,0,0:0:0:0:
448,192,62690,1,0,0:0:0:0:
64,192,62766,1,0,0:0:0:0:
192,192,62841,1,0,0:0:0:0:
320,192,62841,1,0,0:0:0:0:
448,192,62916,1,0,0:0:0:0:
320,192,62992,1,0,0:0:0:0:
192,192,62992,1,0,0:0:0:0:
64,192,62992,1,0,0:0:0:0:
448,192,63067,1,0,0:0:0:0:
320,192,63142,1,0,0:0:0:0:
64,192,63142,1,0,0:0:0:0:
192,192,63218,1,0,0:0:0:0:
320,192,63292,1,0,0:0:0:0:
448,192,63292,1,0,0:0:0:0:
64,192,63292,1,0,0:0:0:0:
192,192,63368,1,0,0:0:0:0:
320,192,63443,1,0,0:0:0:0:
448,192,63443,1,0,0:0:0:0:
192,192,63518,1,0,0:0:0:0:
64,192,63594,1,0,0:0:0:0:
320,192,63594,1,0,0:0:0:0:
448,192,63594,1,0,0:0:0:0:
192,192,63669,1,0,0:0:0:0:
448,192,63744,1,0,0:0:0:0:
64,192,63744,1,0,0:0:0:0:
320,192,63820,1,0,0:0:0:0:
64,192,63895,1,0,0:0:0:0:
448,192,63895,1,0,0:0:0:0:
192,192,63895,1,0,0:0:0:0:
320,192,63970,1,0,0:0:0:0:
192,192,64046,1,0,0:0:0:0:
64,192,64046,1,0,0:0:0:0:
320,192,64121,1,0,0:0:0:0:
192,192,64196,1,0,0:0:0:0:
448,192,64196,1,0,0:0:0:0:
64,192,64196,1,0,0:0:0:0:
320,192,64272,1,0,0:0:0:0:
192,192,64347,1,0,0:0:0:0:
448,192,64347,1,0,0:0:0:0:
64,192,64422,1,0,0:0:0:0:
192,192,64498,1,0,0:0:0:0:
320,192,64498,1,0,0:0:0:0:
448,192,64498,1,0,0:0:0:0:
64,192,64572,1,0,0:0:0:0:
448,192,64648,5,0,0:0:0:0:
320,192,64648,1,0,0:0:0:0:
192,192,64723,1,0,0:0:0:0:
64,192,64798,1,0,0:0:0:0:
320,192,64798,1,0,0:0:0:0:
448,192,64798,1,0,0:0:0:0:
192,192,64874,1,0,0:0:0:0:
64,192,64949,1,0,0:0:0:0:
448,192,64949,1,0,0:0:0:0:
320,192,65024,1,0,0:0:0:0:
448,192,65100,5,0,0:0:0:0:
320,192,65150,1,0,0:0:0:0:
192,192,65200,1,0,0:0:0:0:
64,192,65251,1,0,0:0:0:0:
448,192,65301,1,0,0:0:0:0:
320,192,65351,1,0,0:0:0:0:
192,192,65401,1,0,0:0:0:0:
64,192,65451,1,0,0:0:0:0:
192,192,65502,1,0,0:0:0:0:
320,192,65552,1,0,0:0:0:0:
448,192,65602,1,0,0:0:0:0:
320,192,65652,1,0,0:0:0:0:
192,192,65702,1,0,0:0:0:0:
64,192,65752,1,0,0:0:0:0:
448,192,65802,1,0,0:0:0:0:
320,192,65852,1,0,0:0:0:0:
64,192,65903,1,0,0:0:0:0:
192,192,65953,1,0,0:0:0:0:
320,192,66003,1,0,0:0:0:0:
448,192,66053,1,0,0:0:0:0:
192,192,66104,1,0,0:0:0:0:
320,192,66154,1,0,0:0:0:0:
448,192,66204,1,0,0:0:0:0:
320,192,66254,1,0,0:0:0:0:
192,192,66305,1,0,0:0:0:0:
64,192,66355,1,0,0:0:0:0:
192,192,66405,1,0,0:0:0:0:
448,192,66455,1,0,0:0:0:0:
320,192,66506,1,0,0:0:0:0:
64,192,66556,1,0,0:0:0:0:
192,192,66606,1,0,0:0:0:0:
448,192,66656,1,0,0:0:0:0:
320,192,66706,1,0,0:0:0:0:
192,192,66757,1,0,0:0:0:0:
64,192,66807,1,0,0:0:0:0:
448,192,66857,1,0,0:0:0:0:
320,192,66907,1,0,0:0:0:0:
192,192,66958,1,0,0:0:0:0:
64,192,67008,1,0,0:0:0:0:
320,192,67058,1,0,0:0:0:0:
448,192,67108,1,0,0:0:0:0:
64,192,67158,1,0,0:0:0:0:
192,192,67208,1,0,0:0:0:0:
320,192,67258,1,0,0:0:0:0:
448,192,67308,1,0,0:0:0:0:
64,192,67359,1,0,0:0:0:0:
192,192,67409,1,0,0:0:0:0:
320,192,67459,1,0,0:0:0:0:
448,192,67509,1,0,0:0:0:0:
64,192,67509,1,0,0:0:0:0:
320,192,67585,1,0,0:0:0:0:
192,192,67660,1,0,0:0:0:0:
64,192,67735,1,0,0:0:0:0:
448,192,67811,128,0,68112:0:0:0:0:
192,192,68112,128,0,68413:0:0:0:0:
448,192,68413,1,0,0:0:0:0:
320,192,68463,1,0,0:0:0:0:
64,192,68513,1,0,0:0:0:0:
192,192,68563,1,0,0:0:0:0:
448,192,68614,1,0,0:0:0:0:
320,192,68664,1,0,0:0:0:0:
192,192,68714,1,0,0:0:0:0:
64,192,68714,1,0,0:0:0:0:
320,192,68789,1,0,0:0:0:0:
192,192,68865,1,0,0:0:0:0:
64,192,68940,1,0,0:0:0:0:
192,192,69016,1,0,0:0:0:0:
448,192,69016,1,0,0:0:0:0:
320,192,69091,1,0,0:0:0:0:
192,192,69166,1,0,0:0:0:0:
448,192,69242,1,0,0:0:0:0:
320,192,69317,1,0,0:0:0:0:
192,192,69317,1,0,0:0:0:0:
64,192,69392,1,0,0:0:0:0:
448,192,69468,1,0,0:0:0:0:
192,192,69542,1,0,0:0:0:0:
448,192,69618,1,0,0:0:0:0:
64,192,69618,1,0,0:0:0:0:
320,192,69693,1,0,0:0:0:0:
64,192,69768,1,0,0:0:0:0:
320,192,69844,1,0,0:0:0:0:
448,192,69919,1,0,0:0:0:0:
192,192,69919,1,0,0:0:0:0:
64,192,69994,1,0,0:0:0:0:
448,192,70070,1,0,0:0:0:0:
320,192,70145,1,0,0:0:0:0:
192,192,70220,1,0,0:0:0:0:
64,192,70220,1,0,0:0:0:0:
320,192,70296,1,0,0:0:0:0:
448,192,70371,1,0,0:0:0:0:
192,192,70446,1,0,0:0:0:0:
64,192,70522,1,0,0:0:0:0:
448,192,70522,1,0,0:0:0:0:
320,192,70597,1,0,0:0:0:0:
192,192,70672,1,0,0:0:0:0:
64,192,70748,1,0,0:0:0:0:
192,192,70822,1,0,0:0:0:0:
320,192,70822,1,0,0:0:0:0:
448,192,70898,1,0,0:0:0:0:
320,192,70973,1,0,0:0:0:0:
64,192,71048,1,0,0:0:0:0:
448,192,71124,1,0,0:0:0:0:
320,192,71124,1,0,0:0:0:0:
192,192,71199,1,0,0:0:0:0:
64,192,71274,1,0,0:0:0:0:
192,192,71350,1,0,0:0:0:0:
320,192,71425,1,0,0:0:0:0:
64,192,71425,1,0,0:0:0:0:
448,192,71501,1,0,0:0:0:0:
64,192,71576,1,0,0:0:0:0:
192,192,71651,1,0,0:0:0:0:
320,192,71727,1,0,0:0:0:0:
448,192,71727,1,0,0:0:0:0:
192,192,71802,1,0,0:0:0:0:
320,192,71877,1,0,0:0:0:0:
64,192,71952,1,0,0:0:0:0:
320,192,72028,1,0,0:0:0:0:
448,192,72028,1,0,0:0:0:0:
192,192,72102,1,0,0:0:0:0:
448,192,72178,1,0,0:0:0:0:
192,192,72253,1,0,0:0:0:0:
64,192,72328,1,0,0:0:0:0:
320,192,72328,1,0,0:0:0:0:
448,192,72404,1,0,0:0:0:0:
320,192,72479,1,0,0:0:0:0:
192,192,72555,1,0,0:0:0:0:
320,192,72630,1,0,0:0:0:0:
448,192,72630,1,0,0:0:0:0:
192,192,72705,1,0,0:0:0:0:
64,192,72781,1,0,0:0:0:0:
192,192,72856,1,0,0:0:0:0:
320,192,72931,1,0,0:0:0:0:
64,192,72931,1,0,0:0:0:0:
448,192,73007,1,0,0:0:0:0:
320,192,73082,1,0,0:0:0:0:
192,192,73157,1,0,0:0:0:0:
64,192,73232,1,0,0:0:0:0:
192,192,73282,1,0,0:0:0:0:
320,192,73332,1,0,0:0:0:0:
448,192,73383,1,0,0:0:0:0:
64,192,73433,1,0,0:0:0:0:
192,192,73483,1,0,0:0:0:0:
320,192,73533,1,0,0:0:0:0:
448,192,73533,1,0,0:0:0:0:
192,192,73609,1,0,0:0:0:0:
64,192,73684,1,0,0:0:0:0:
192,192,73759,1,0,0:0:0:0:
320,192,73835,1,0,0:0:0:0:
448,192,73835,1,0,0:0:0:0:
192,192,73910,1,0,0:0:0:0:
448,192,73985,1,0,0:0:0:0:
320,192,74061,1,0,0:0:0:0:
192,192,74136,1,0,0:0:0:0:
64,192,74136,1,0,0:0:0:0:
320,192,74212,1,0,0:0:0:0:
448,192,74212,1,0,0:0:0:0:
192,192,74287,1,0,0:0:0:0:
64,192,74287,1,0,0:0:0:0:
320,192,74362,1,0,0:0:0:0:
448,192,74362,1,0,0:0:0:0:
64,192,74438,1,0,0:0:0:0:
192,192,74438,1,0,0:0:0:0:
320,192,74512,1,0,0:0:0:0:
448,192,74512,1,0,0:0:0:0:
192,192,74588,1,0,0:0:0:0:
64,192,74588,1,0,0:0:0:0:
320,192,74663,1,0,0:0:0:0:
448,192,74663,1,0,0:0:0:0:
192,192,74738,1,0,0:0:0:0:
64,192,74738,1,0,0:0:0:0:
320,192,74813,1,0,0:0:0:0:
448,192,74889,1,0,0:0:0:0:
320,192,74964,1,0,0:0:0:0:
192,192,75039,1,0,0:0:0:0:
448,192,75039,1,0,0:0:0:0:
64,192,75115,1,0,0:0:0:0:
192,192,75190,1,0,0:0:0:0:
320,192,75266,1,0,0:0:0:0:
64,192,75341,1,0,0:0:0:0:
448,192,75341,1,0,0:0:0:0:
320,192,75416,1,0,0:0:0:0:
192,192,75492,1,0,0:0:0:0:
64,192,75567,1,0,0:0:0:0:
192,192,75642,1,0,0:0:0:0:
448,192,75642,1,0,0:0:0:0:
320,192,75718,1,0,0:0:0:0:
64,192,75718,1,0,0:0:0:0:
192,192,75792,1,0,0:0:0:0:
448,192,75792,1,0,0:0:0:0:
320,192,75868,1,0,0:0:0:0:
64,192,75868,1,0,0:0:0:0:
192,192,75943,1,0,0:0:0:0:
448,192,75943,1,0,0:0:0:0:
64,192,76018,1,0,0:0:0:0:
192,192,76094,1,0,0:0:0:0:
320,192,76169,1,0,0:0:0:0:
192,192,76244,1,0,0:0:0:0:
448,192,76244,1,0,0:0:0:0:
64,192,76320,1,0,0:0:0:0:
192,192,76395,1,0,0:0:0:0:
320,192,76470,1,0,0:0:0:0:
448,192,76546,1,0,0:0:0:0:
64,192,76546,1,0,0:0:0:0:
192,192,76621,1,0,0:0:0:0:
320,192,76621,1,0,0:0:0:0:
448,192,76696,1,0,0:0:0:0:
64,192,76696,1,0,0:0:0:0:
192,192,76772,1,0,0:0:0:0:
320,192,76772,1,0,0:0:0:0:
64,192,76847,1,0,0:0:0:0:
448,192,76847,1,0,0:0:0:0:
320,192,76922,1,0,0:0:0:0:
192,192,76922,1,0,0:0:0:0:
64,192,76998,1,0,0:0:0:0:
448,192,76998,1,0,0:0:0:0:
320,192,77072,1,0,0:0:0:0:
192,192,77072,1,0,0:0:0:0:
64,192,77148,1,0,0:0:0:0:
448,192,77148,1,0,0:0:0:0:
192,192,77223,1,0,0:0:0:0:
320,192,77298,1,0,0:0:0:0:
448,192,77374,1,0,0:0:0:0:
320,192,77449,1,0,0:0:0:0:
192,192,77449,1,0,0:0:0:0:
64,192,77524,1,0,0:0:0:0:
320,192,77600,1,0,0:0:0:0:
192,192,77675,1,0,0:0:0:0:
64,192,77751,1,0,0:0:0:0:
448,192,77751,128,0,78052:0:0:0:0:
64,192,78052,1,0,0:0:0:0:
192,192,78102,1,0,0:0:0:0:
448,192,78152,1,0,0:0:0:0:
320,192,78202,1,0,0:0:0:0:
64,192,78252,1,0,0:0:0:0:
192,192,78302,1,0,0:0:0:0:
320,192,78352,1,0,0:0:0:0:
448,192,78352,1,0,0:0:0:0:
64,192,78352,1,0,0:0:0:0:
192,192,78428,1,0,0:0:0:0:
320,192,78503,1,0,0:0:0:0:
64,192,78503,1,0,0:0:0:0:
448,192,78578,1,0,0:0:0:0:
192,192,78654,1,0,0:0:0:0:
64,192,78654,1,0,0:0:0:0:
320,192,78654,1,0,0:0:0:0:
448,192,78729,1,0,0:0:0:0:
320,192,78805,1,0,0:0:0:0:
192,192,78805,1,0,0:0:0:0:
64,192,78880,1,0,0:0:0:0:
320,192,78955,1,0,0:0:0:0:
192,192,78955,1,0,0:0:0:0:
448,192,78955,1,0,0:0:0:0:
64,192,79031,1,0,0:0:0:0:
448,192,79106,1,0,0:0:0:0:
192,192,79106,1,0,0:0:0:0:
320,192,79181,1,0,0:0:0:0:
192,192,79257,1,0,0:0:0:0:
64,192,79257,1,0,0:0:0:0:
448,192,79257,1,0,0:0:0:0:
320,192,79332,1,0,0:0:0:0:
64,192,79407,1,0,0:0:0:0:
192,192,79407,1,0,0:0:0:0:
320,192,79482,1,0,0:0:0:0:
192,192,79558,1,0,0:0:0:0:
64,192,79558,1,0,0:0:0:0:
448,192,79558,1,0,0:0:0:0:
320,192,79633,1,0,0:0:0:0:
448,192,79708,1,0,0:0:0:0:
192,192,79708,1,0,0:0:0:0:
64,192,79783,1,0,0:0:0:0:
192,192,79859,1,0,0:0:0:0:
320,192,79859,1,0,0:0:0:0:
448,192,79859,1,0,0:0:0:0:
64,192,79934,1,0,0:0:0:0:
320,192,80009,1,0,0:0:0:0:
192,192,80009,1,0,0:0:0:0:
448,192,80085,1,0,0:0:0:0:
320,192,80160,1,0,0:0:0:0:
64,192,80160,1,0,0:0:0:0:
192,192,80160,1,0,0:0:0:0:
448,192,80235,1,0,0:0:0:0:
320,192,80311,1,0,0:0:0:0:
64,192,80311,1,0,0:0:0:0:
192,192,80386,1,0,0:0:0:0:
320,192,80462,1,0,0:0:0:0:
64,192,80462,1,0,0:0:0:0:
448,192,80462,1,0,0:0:0:0:
192,192,80537,1,0,0:0:0:0:
448,192,80612,1,0,0:0:0:0:
64,192,80612,1,0,0:0:0:0:
320,192,80688,1,0,0:0:0:0:
64,192,80762,1,0,0:0:0:0:
448,192,80762,1,0,0:0:0:0:
192,192,80762,1,0,0:0:0:0:
320,192,80838,1,0,0:0:0:0:
192,192,80913,1,0,0:0:0:0:
448,192,80913,1,0,0:0:0:0:
64,192,80988,1,0,0:0:0:0:
192,192,81063,1,0,0:0:0:0:
320,192,81063,1,0,0:0:0:0:
448,192,81063,1,0,0:0:0:0:
64,192,81139,1,0,0:0:0:0:
192,192,81214,1,0,0:0:0:0:
320,192,81214,1,0,0:0:0:0:
448,192,81289,1,0,0:0:0:0:
320,192,81365,1,0,0:0:0:0:
192,192,81365,1,0,0:0:0:0:
64,192,81365,1,0,0:0:0:0:
448,192,81440,1,0,0:0:0:0:
64,192,81516,1,0,0:0:0:0:
320,192,81516,1,0,0:0:0:0:
192,192,81591,1,0,0:0:0:0:
320,192,81666,1,0,0:0:0:0:
448,192,81666,1,0,0:0:0:0:
64,192,81666,1,0,0:0:0:0:
192,192,81742,1,0,0:0:0:0:
448,192,81817,1,0,0:0:0:0:
64,192,81817,1,0,0:0:0:0:
320,192,81892,1,0,0:0:0:0:
64,192,81968,1,0,0:0:0:0:
192,192,81968,1,0,0:0:0:0:
448,192,81968,128,0,82118:0:0:0:0:
320,192,82118,128,0,82268:0:0:0:0:
64,192,82268,128,0,82570:0:0:0:0:
192,192,82570,128,0,82645:0:0:0:0:
448,192,82570,128,0,82645:0:0:0:0:
320,192,82645,128,0,82720:0:0:0:0:
64,192,82645,128,0,82720:0:0:0:0:
192,192,82720,128,0,82796:0:0:0:0:
448,192,82720,128,0,82796:0:0:0:0:
64,192,82796,128,0,82871:0:0:0:0:
320,192,82796,128,0,82871:0:0:0:0:
448,192,82871,1,0,0:0:0:0:
320,192,82921,1,0,0:0:0:0:
192,192,82972,1,0,0:0:0:0:
64,192,83022,1,0,0:0:0:0:
448,192,83072,1,0,0:0:0:0:
320,192,83122,1,0,0:0:0:0:
192,192,83172,1,0,0:0:0:0:
64,192,83172,1,0,0:0:0:0:
448,192,83172,1,0,0:0:0:0:
320,192,83248,1,0,0:0:0:0:
192,192,83322,1,0,0:0:0:0:
448,192,83322,1,0,0:0:0:0:
64,192,83398,1,0,0:0:0:0:
192,192,83473,1,0,0:0:0:0:
320,192,83473,1,0,0:0:0:0:
448,192,83473,1,0,0:0:0:0:
64,192,83548,1,0,0:0:0:0:
192,192,83624,1,0,0:0:0:0:
320,192,83624,1,0,0:0:0:0:
448,192,83699,1,0,0:0:0:0:
64,192,83774,1,0,0:0:0:0:
192,192,83774,1,0,0:0:0:0:
320,192,83850,1,0,0:0:0:0:
448,192,83850,1,0,0:0:0:0:
192,192,83925,1,0,0:0:0:0:
64,192,83925,1,0,0:0:0:0:
448,192,84001,1,0,0:0:0:0:
320,192,84001,1,0,0:0:0:0:
192,192,84076,1,0,0:0:0:0:
64,192,84076,1,0,0:0:0:0:
320,192,84151,1,0,0:0:0:0:
448,192,84151,1,0,0:0:0:0:
192,192,84227,1,0,0:0:0:0:
64,192,84227,1,0,0:0:0:0:
320,192,84302,1,0,0:0:0:0:
448,192,84302,1,0,0:0:0:0:
192,192,84377,1,0,0:0:0:0:
64,192,84377,1,0,0:0:0:0:
320,192,84452,1,0,0:0:0:0:
448,192,84528,1,0,0:0:0:0:
192,192,84528,1,0,0:0:0:0:
64,192,84602,1,0,0:0:0:0:
192,192,84678,1,0,0:0:0:0:
320,192,84678,1,0,0:0:0:0:
448,192,84678,1,0,0:0:0:0:
64,192,84753,1,0,0:0:0:0:
192,192,84828,1,0,0:0:0:0:
448,192,84828,1,0,0:0:0:0:
320,192,84904,1,0,0:0:0:0:
192,192,84979,1,0,0:0:0:0:
64,192,84979,1,0,0:0:0:0:
448,192,84979,1,0,0:0:0:0:
320,192,85055,1,0,0:0:0:0:
192,192,85130,1,0,0:0:0:0:
64,192,85130,1,0,0:0:0:0:
320,192,85205,1,0,0:0:0:0:
192,192,85281,1,0,0:0:0:0:
448,192,85281,1,0,0:0:0:0:
320,192,85356,1,0,0:0:0:0:
64,192,85356,1,0,0:0:0:0:
192,192,85431,1,0,0:0:0:0:
448,192,85431,1,0,0:0:0:0:
320,192,85507,1,0,0:0:0:0:
64,192,85507,1,0,0:0:0:0:
192,192,85582,1,0,0:0:0:0:
448,192,85582,1,0,0:0:0:0:
64,192,85657,1,0,0:0:0:0:
192,192,85732,1,0,0:0:0:0:
320,192,85732,1,0,0:0:0:0:
448,192,85808,1,0,0:0:0:0:
320,192,85883,1,0,0:0:0:0:
64,192,85883,1,0,0:0:0:0:
192,192,85883,1,0,0:0:0:0:
448,192,85958,1,0,0:0:0:0:
320,192,86033,1,0,0:0:0:0:
192,192,86033,1,0,0:0:0:0:
64,192,86109,1,0,0:0:0:0:
192,192,86184,1,0,0:0:0:0:
320,192,86184,1,0,0:0:0:0:
448,192,86259,1,0,0:0:0:0:
64,192,86259,1,0,0:0:0:0:
192,192,86335,1,0,0:0:0:0:
320,192,86335,1,0,0:0:0:0:
64,192,86410,1,0,0:0:0:0:
448,192,86410,1,0,0:0:0:0:
320,192,86485,1,0,0:0:0:0:
192,192,86485,1,0,0:0:0:0:
64,192,86561,1,0,0:0:0:0:
448,192,86561,1,0,0:0:0:0:
320,192,86636,1,0,0:0:0:0:
192,192,86636,1,0,0:0:0:0:
64,192,86712,1,0,0:0:0:0:
448,192,86712,1,0,0:0:0:0:
320,192,86787,1,0,0:0:0:0:
192,192,86787,1,0,0:0:0:0:
448,192,86862,1,0,0:0:0:0:
64,192,86938,1,0,0:0:0:0:
320,192,86938,1,0,0:0:0:0:
192,192,87012,1,0,0:0:0:0:
320,192,87088,1,0,0:0:0:0:
64,192,87088,1,0,0:0:0:0:
448,192,87088,1,0,0:0:0:0:
192,192,87163,1,0,0:0:0:0:
320,192,87238,1,0,0:0:0:0:
448,192,87238,1,0,0:0:0:0:
192,192,87313,1,0,0:0:0:0:
64,192,87389,1,0,0:0:0:0:
320,192,87389,1,0,0:0:0:0:
448,192,87389,128,0,87690:0:0:0:0:
64,192,87690,1,0,0:0:0:0:
192,192,87740,1,0,0:0:0:0:
320,192,87791,1,0,0:0:0:0:
448,192,87841,1,0,0:0:0:0:
64,192,87891,1,0,0:0:0:0:
192,192,87941,1,0,0:0:0:0:
320,192,87992,1,0,0:0:0:0:
448,192,87992,1,0,0:0:0:0:
192,192,88067,1,0,0:0:0:0:
64,192,88142,1,0,0:0:0:0:
192,192,88218,1,0,0:0:0:0:
320,192,88292,1,0,0:0:0:0:
448,192,88368,1,0,0:0:0:0:
64,192,88443,1,0,0:0:0:0:
192,192,88518,1,0,0:0:0:0:
320,192,88594,1,0,0:0:0:0:
192,192,88669,1,0,0:0:0:0:
448,192,88744,1,0,0:0:0:0:
192,192,88820,1,0,0:0:0:0:
64,192,88895,1,0,0:0:0:0:
320,192,88970,1,0,0:0:0:0:
192,192,89046,1,0,0:0:0:0:
448,192,89121,1,0,0:0:0:0:
320,192,89196,1,0,0:0:0:0:
192,192,89272,1,0,0:0:0:0:
64,192,89347,1,0,0:0:0:0:
192,192,89422,1,0,0:0:0:0:
320,192,89498,1,0,0:0:0:0:
448,192,89572,1,0,0:0:0:0:
320,192,89648,1,0,0:0:0:0:
192,192,89723,1,0,0:0:0:0:
320,192,89798,1,0,0:0:0:0:
448,192,89874,1,0,0:0:0:0:
64,192,89949,1,0,0:0:0:0:
192,192,90024,1,0,0:0:0:0:
320,192,90100,1,0,0:0:0:0:
192,192,90175,1,0,0:0:0:0:
448,192,90251,1,0,0:0:0:0:
64,192,90326,1,0,0:0:0:0:
192,192,90401,1,0,0:0:0:0:
320,192,90477,1,0,0:0:0:0:
192,192,90552,1,0,0:0:0:0:
64,192,90627,1,0,0:0:0:0:
448,192,90702,1,0,0:0:0:0:
320,192,90778,1,0,0:0:0:0:
192,192,90852,1,0,0:0:0:0:
64,192,90928,1,0,0:0:0:0:
448,192,91003,1,0,0:0:0:0:
192,192,91078,1,0,0:0:0:0:
320,192,91154,1,0,0:0:0:0:
64,192,91229,1,0,0:0:0:0:
320,192,91305,1,0,0:0:0:0:
64,192,91380,1,0,0:0:0:0:
448,192,91455,1,0,0:0:0:0:
192,192,91531,1,0,0:0:0:0:
320,192,91606,1,0,0:0:0:0:
448,192,91681,1,0,0:0:0:0:
320,192,91757,1,0,0:0:0:0:
192,192,91832,1,0,0:0:0:0:
64,192,91907,1,0,0:0:0:0:
448,192,91982,1,0,0:0:0:0:
320,192,92058,1,0,0:0:0:0:
192,192,92133,1,0,0:0:0:0:
64,192,92208,1,0,0:0:0:0:
448,192,92283,1,0,0:0:0:0:
320,192,92359,1,0,0:0:0:0:
192,192,92434,1,0,0:0:0:0:
320,192,92509,1,0,0:0:0:0:
192,192,92560,1,0,0:0:0:0:
64,192,92610,1,0,0:0:0:0:
448,192,92660,1,0,0:0:0:0:
320,192,92710,1,0,0:0:0:0:
192,192,92761,1,0,0:0:0:0:
64,192,92811,1,0,0:0:0:0:
448,192,92811,128,0,96425:0:0:0:0:
192,192,92886,1,0,0:0:0:0:
320,192,92962,1,0,0:0:0:0:
192,192,93037,1,0,0:0:0:0:
64,192,93112,1,0,0:0:0:0:
320,192,93188,1,0,0:0:0:0:
192,192,93262,1,0,0:0:0:0:
64,192,93338,1,0,0:0:0:0:
192,192,93413,1,0,0:0:0:0:
320,192,93488,1,0,0:0:0:0:
192,192,93563,1,0,0:0:0:0:
64,192,93639,1,0,0:0:0:0:
320,192,93714,1,0,0:0:0:0:
192,192,93789,1,0,0:0:0:0:
320,192,93865,1,0,0:0:0:0:
192,192,93940,1,0,0:0:0:0:
64,192,94016,1,0,0:0:0:0:
192,192,94091,1,0,0:0:0:0:
320,192,94166,1,0,0:0:0:0:
64,192,94242,1,0,0:0:0:0:
192,192,94317,1,0,0:0:0:0:
320,192,94392,1,0,0:0:0:0:
64,192,94468,1,0,0:0:0:0:
192,192,94542,1,0,0:0:0:0:
320,192,94618,1,0,0:0:0:0:
192,192,94693,1,0,0:0:0:0:
64,192,94768,1,0,0:0:0:0:
192,192,94844,1,0,0:0:0:0:
320,192,94919,1,0,0:0:0:0:
192,192,94994,1,0,0:0:0:0:
320,192,95070,1,0,0:0:0:0:
192,192,95145,1,0,0:0:0:0:
320,192,95220,1,0,0:0:0:0:
192,192,95296,1,0,0:0:0:0:
64,192,95371,1,0,0:0:0:0:
192,192,95446,1,0,0:0:0:0:
320,192,95522,1,0,0:0:0:0:
192,192,95597,1,0,0:0:0:0:
320,192,95672,1,0,0:0:0:0:
192,192,95748,1,0,0:0:0:0:
64,192,95822,1,0,0:0:0:0:
192,192,95898,1,0,0:0:0:0:
320,192,95973,1,0,0:0:0:0:
192,192,96048,1,0,0:0:0:0:
64,192,96124,1,0,0:0:0:0:
320,192,96199,1,0,0:0:0:0:
192,192,96274,1,0,0:0:0:0:
64,192,96350,1,0,0:0:0:0:
320,192,96425,128,0,96501:0:0:0:0:
192,192,96501,128,0,96576:0:0:0:0:
64,192,96576,128,0,96651:0:0:0:0:
448,192,96651,128,0,96727:0:0:0:0:
192,192,96727,128,0,96802:0:0:0:0:
320,192,96802,128,0,96877:0:0:0:0:
64,192,96877,128,0,96952:0:0:0:0:
448,192,96952,128,0,97028:0:0:0:0:
320,192,97028,128,0,97328:0:0:0:0:
64,192,97328,1,0,0:0:0:0:
192,192,97379,1,0,0:0:0:0:
320,192,97429,1,0,0:0:0:0:
448,192,97479,1,0,0:0:0:0:
64,192,97529,1,0,0:0:0:0:
192,192,97580,1,0,0:0:0:0:
320,192,97630,1,0,0:0:0:0:
448,192,97630,1,0,0:0:0:0:
192,192,97705,1,0,0:0:0:0:
64,192,97781,1,0,0:0:0:0:
192,192,97856,1,0,0:0:0:0:
320,192,97931,1,0,0:0:0:0:
448,192,98007,1,0,0:0:0:0:
320,192,98082,1,0,0:0:0:0:
192,192,98157,1,0,0:0:0:0:
320,192,98232,1,0,0:0:0:0:
448,192,98308,1,0,0:0:0:0:
64,192,98383,1,0,0:0:0:0:
320,192,98458,1,0,0:0:0:0:
192,192,98533,1,0,0:0:0:0:
448,192,98609,1,0,0:0:0:0:
192,192,98684,1,0,0:0:0:0:
64,192,98759,1,0,0:0:0:0:
320,192,98835,1,0,0:0:0:0:
448,192,98910,1,0,0:0:0:0:
320,192,98985,1,0,0:0:0:0:
192,192,99061,1,0,0:0:0:0:
64,192,99136,1,0,0:0:0:0:
448,192,99212,1,0,0:0:0:0:
320,192,99287,1,0,0:0:0:0:
192,192,99362,1,0,0:0:0:0:
64,192,99438,1,0,0:0:0:0:
192,192,99512,1,0,0:0:0:0:
320,192,99588,1,0,0:0:0:0:
192,192,99663,1,0,0:0:0:0:
320,192,99738,1,0,0:0:0:0:
192,192,99813,1,0,0:0:0:0:
448,192,99889,1,0,0:0:0:0:
192,192,99964,1,0,0:0:0:0:
64,192,100039,1,0,0:0:0:0:
192,192,100115,1,0,0:0:0:0:
320,192,100190,1,0,0:0:0:0:
448,192,100266,1,0,0:0:0:0:
320,192,100341,1,0,0:0:0:0:
192,192,100416,1,0,0:0:0:0:
320,192,100492,1,0,0:0:0:0:
448,192,100567,1,0,0:0:0:0:
64,192,100642,1,0,0:0:0:0:
320,192,100718,1,0,0:0:0:0:
192,192,100792,1,0,0:0:0:0:
448,192,100868,1,0,0:0:0:0:
64,192,100943,1,0,0:0:0:0:
320,192,101018,1,0,0:0:0:0:
192,192,101094,1,0,0:0:0:0:
448,192,101169,1,0,0:0:0:0:
320,192,101244,1,0,0:0:0:0:
192,192,101320,1,0,0:0:0:0:
64,192,101395,1,0,0:0:0:0:
192,192,101470,1,0,0:0:0:0:
320,192,101546,1,0,0:0:0:0:
448,192,101621,1,0,0:0:0:0:
64,192,101696,1,0,0:0:0:0:
192,192,101772,1,0,0:0:0:0:
320,192,101847,1,0,0:0:0:0:
448,192,101922,1,0,0:0:0:0:
320,192,101998,1,0,0:0:0:0:
192,192,102072,1,0,0:0:0:0:
320,192,102148,1,0,0:0:0:0:
448,192,102198,1,0,0:0:0:0:
192,192,102248,1,0,0:0:0:0:
64,192,102298,1,0,0:0:0:0:
320,192,102349,1,0,0:0:0:0:
448,192,102399,1,0,0:0:0:0:
192,192,102449,1,0,0:0:0:0:
320,192,102449,1,0,0:0:0:0:
64,192,102524,1,0,0:0:0:0:
192,192,102600,1,0,0:0:0:0:
320,192,102675,1,0,0:0:0:0:
448,192,102751,1,0,0:0:0:0:
320,192,102826,1,0,0:0:0:0:
192,192,102901,1,0,0:0:0:0:
448,192,102901,1,0,0:0:0:0:
64,192,102977,1,0,0:0:0:0:
448,192,103052,1,0,0:0:0:0:
320,192,103052,1,0,0:0:0:0:
192,192,103127,1,0,0:0:0:0:
64,192,103202,1,0,0:0:0:0:
192,192,103278,1,0,0:0:0:0:
320,192,103352,1,0,0:0:0:0:
448,192,103428,1,0,0:0:0:0:
320,192,103503,1,0,0:0:0:0:
192,192,103503,1,0,0:0:0:0:
64,192,103578,1,0,0:0:0:0:
192,192,103654,1,0,0:0:0:0:
320,192,103654,1,0,0:0:0:0:
448,192,103654,1,0,0:0:0:0:
64,192,103729,1,0,0:0:0:0:
192,192,103805,1,0,0:0:0:0:
320,192,103880,1,0,0:0:0:0:
192,192,103955,1,0,0:0:0:0:
64,192,103955,1,0,0:0:0:0:
448,192,103955,1,0,0:0:0:0:
320,192,104031,1,0,0:0:0:0:
448,192,104106,1,0,0:0:0:0:
64,192,104106,1,0,0:0:0:0:
192,192,104181,1,0,0:0:0:0:
320,192,104257,1,0,0:0:0:0:
448,192,104257,1,0,0:0:0:0:
192,192,104332,1,0,0:0:0:0:
64,192,104407,1,0,0:0:0:0:
192,192,104482,1,0,0:0:0:0:
320,192,104558,1,0,0:0:0:0:
448,192,104633,1,0,0:0:0:0:
64,192,104708,1,0,0:0:0:0:
192,192,104708,1,0,0:0:0:0:
320,192,104783,1,0,0:0:0:0:
192,192,104859,1,0,0:0:0:0:
448,192,104859,1,0,0:0:0:0:
64,192,104859,1,0,0:0:0:0:
320,192,104934,1,0,0:0:0:0:
192,192,105009,1,0,0:0:0:0:
320,192,105085,1,0,0:0:0:0:
448,192,105160,1,0,0:0:0:0:
64,192,105235,1,0,0:0:0:0:
192,192,105311,1,0,0:0:0:0:
448,192,105311,1,0,0:0:0:0:
320,192,105386,1,0,0:0:0:0:
192,192,105462,1,0,0:0:0:0:
64,192,105462,1,0,0:0:0:0:
320,192,105537,1,0,0:0:0:0:
448,192,105612,1,0,0:0:0:0:
64,192,105688,1,0,0:0:0:0:
192,192,105762,1,0,0:0:0:0:
320,192,105838,1,0,0:0:0:0:
448,192,105913,1,0,0:0:0:0:
64,192,105913,1,0,0:0:0:0:
192,192,105988,1,0,0:0:0:0:
320,192,106063,1,0,0:0:0:0:
448,192,106063,1,0,0:0:0:0:
64,192,106063,1,0,0:0:0:0:
192,192,106139,1,0,0:0:0:0:
64,192,106214,1,0,0:0:0:0:
448,192,106289,1,0,0:0:0:0:
320,192,106365,1,0,0:0:0:0:
64,192,106365,1,0,0:0:0:0:
192,192,106365,1,0,0:0:0:0:
448,192,106440,1,0,0:0:0:0:
320,192,106516,1,0,0:0:0:0:
192,192,106516,1,0,0:0:0:0:
64,192,106591,1,0,0:0:0:0:
192,192,106666,1,0,0:0:0:0:
320,192,106666,1,0,0:0:0:0:
448,192,106742,1,0,0:0:0:0:
64,192,106817,1,0,0:0:0:0:
192,192,106892,1,0,0:0:0:0:
320,192,106968,1,0,0:0:0:0:
448,192,106968,1,0,0:0:0:0:
64,192,106968,1,0,0:0:0:0:
192,192,107042,1,0,0:0:0:0:
320,192,107118,1,0,0:0:0:0:
448,192,107118,1,0,0:0:0:0:
192,192,107193,1,0,0:0:0:0:
64,192,107268,1,0,0:0:0:0:
320,192,107268,1,0,0:0:0:0:
448,192,107268,1,0,0:0:0:0:
64,192,110883,128,0,110958:0:0:0:0:
320,192,110958,128,0,111033:0:0:0:0:
192,192,111033,128,0,111109:0:0:0:0:
448,192,111109,128,0,111184:0:0:0:0:
320,192,111184,128,0,111485:0:0:0:0:
64,192,111485,128,0,111787:0:0:0:0:
448,192,111787,1,0,0:0:0:0:
320,192,111837,1,0,0:0:0:0:
64,192,111887,1,0,0:0:0:0:
192,192,111938,1,0,0:0:0:0:
448,192,111988,1,0,0:0:0:0:
320,192,112038,1,0,0:0:0:0:
64,192,112088,1,0,0:0:0:0:
192,192,112163,1,0,0:0:0:0:
320,192,112238,1,0,0:0:0:0:
448,192,112313,1,0,0:0:0:0:
320,192,112389,1,0,0:0:0:0:
192,192,112389,1,0,0:0:0:0:
64,192,112464,1,0,0:0:0:0:
320,192,112539,1,0,0:0:0:0:
192,192,112615,1,0,0:0:0:0:
320,192,112690,1,0,0:0:0:0:
448,192,112690,1,0,0:0:0:0:
192,192,112766,1,0,0:0:0:0:
64,192,112841,1,0,0:0:0:0:
448,192,112916,1,0,0:0:0:0:
320,192,112992,1,0,0:0:0:0:
64,192,112992,1,0,0:0:0:0:
192,192,113067,1,0,0:0:0:0:
320,192,113142,1,0,0:0:0:0:
448,192,113218,1,0,0:0:0:0:
64,192,113292,1,0,0:0:0:0:
192,192,113292,1,0,0:0:0:0:
320,192,113368,1,0,0:0:0:0:
448,192,113443,1,0,0:0:0:0:
320,192,113518,1,0,0:0:0:0:
192,192,113594,1,0,0:0:0:0:
448,192,113594,1,0,0:0:0:0:
64,192,113669,1,0,0:0:0:0:
448,192,113744,1,0,0:0:0:0:
320,192,113820,1,0,0:0:0:0:
192,192,113895,1,0,0:0:0:0:
64,192,113895,1,0,0:0:0:0:
320,192,113970,1,0,0:0:0:0:
448,192,114046,1,0,0:0:0:0:
64,192,114121,1,0,0:0:0:0:
448,192,114196,1,0,0:0:0:0:
192,192,114196,1,0,0:0:0:0:
320,192,114272,1,0,0:0:0:0:
192,192,114347,1,0,0:0:0:0:
64,192,114422,1,0,0:0:0:0:
192,192,114498,1,0,0:0:0:0:
320,192,114498,1,0,0:0:0:0:
448,192,114572,1,0,0:0:0:0:
320,192,114648,1,0,0:0:0:0:
64,192,114648,1,0,0:0:0:0:
192,192,114723,1,0,0:0:0:0:
320,192,114798,1,0,0:0:0:0:
448,192,114798,1,0,0:0:0:0:
192,192,114874,1,0,0:0:0:0:
64,192,114949,1,0,0:0:0:0:
448,192,114949,1,0,0:0:0:0:
320,192,115024,1,0,0:0:0:0:
192,192,115100,1,0,0:0:0:0:
64,192,115100,1,0,0:0:0:0:
320,192,115175,1,0,0:0:0:0:
192,192,115251,1,0,0:0:0:0:
448,192,115251,1,0,0:0:0:0:
64,192,115326,1,0,0:0:0:0:
320,192,115401,1,0,0:0:0:0:
448,192,115401,1,0,0:0:0:0:
192,192,115477,1,0,0:0:0:0:
64,192,115552,1,0,0:0:0:0:
448,192,115552,1,0,0:0:0:0:
320,192,115627,1,0,0:0:0:0:
192,192,115702,1,0,0:0:0:0:
448,192,115702,1,0,0:0:0:0:
64,192,115778,1,0,0:0:0:0:
192,192,115852,1,0,0:0:0:0:
320,192,115852,1,0,0:0:0:0:
448,192,115928,1,0,0:0:0:0:
64,192,116003,1,0,0:0:0:0:
192,192,116003,1,0,0:0:0:0:
320,192,116078,1,0,0:0:0:0:
64,192,116154,1,0,0:0:0:0:
448,192,116154,1,0,0:0:0:0:
320,192,116229,1,0,0:0:0:0:
192,192,116305,1,0,0:0:0:0:
64,192,116305,1,0,0:0:0:0:
320,192,116380,1,0,0:0:0:0:
192,192,116455,1,0,0:0:0:0:
448,192,116455,1,0,0:0:0:0:
64,192,116531,1,0,0:0:0:0:
192,192,116606,1,0,0:0:0:0:
320,192,116606,1,0,0:0:0:0:
448,192,116681,1,0,0:0:0:0:
64,192,116757,1,0,0:0:0:0:
192,192,116757,1,0,0:0:0:0:
320,192,116832,1,0,0:0:0:0:
192,192,116907,1,0,0:0:0:0:
448,192,116907,1,0,0:0:0:0:
64,192,116907,1,0,0:0:0:0:
320,192,116982,1,0,0:0:0:0:
192,192,117058,1,0,0:0:0:0:
64,192,117058,1,0,0:0:0:0:
448,192,117133,1,0,0:0:0:0:
320,192,117208,1,0,0:0:0:0:
192,192,117208,1,0,0:0:0:0:
64,192,117208,1,0,0:0:0:0:
448,192,117283,1,0,0:0:0:0:
64,192,117359,1,0,0:0:0:0:
320,192,117359,1,0,0:0:0:0:
192,192,117434,1,0,0:0:0:0:
320,192,117509,1,0,0:0:0:0:
448,192,117509,1,0,0:0:0:0:
64,192,117509,1,0,0:0:0:0:
192,192,117585,1,0,0:0:0:0:
448,192,117660,1,0,0:0:0:0:
64,192,117660,1,0,0:0:0:0:
320,192,117735,1,0,0:0:0:0:
192,192,117811,1,0,0:0:0:0:
448,192,117811,1,0,0:0:0:0:
64,192,117811,1,0,0:0:0:0:
320,192,117886,1,0,0:0:0:0:
192,192,117962,1,0,0:0:0:0:
64,192,117962,1,0,0:0:0:0:
320,192,118037,1,0,0:0:0:0:
448,192,118112,1,0,0:0:0:0:
192,192,118112,1,0,0:0:0:0:
64,192,118112,1,0,0:0:0:0:
320,192,118188,1,0,0:0:0:0:
448,192,118262,1,0,0:0:0:0:
64,192,118262,1,0,0:0:0:0:
192,192,118338,1,0,0:0:0:0:
320,192,118413,1,0,0:0:0:0:
448,192,118413,1,0,0:0:0:0:
64,192,118413,1,0,0:0:0:0:
192,192,118488,1,0,0:0:0:0:
320,192,118563,1,0,0:0:0:0:
448,192,118563,1,0,0:0:0:0:
192,192,118639,1,0,0:0:0:0:
64,192,118714,1,0,0:0:0:0:
320,192,118714,1,0,0:0:0:0:
448,192,118714,1,0,0:0:0:0:
192,192,118789,1,0,0:0:0:0:
448,192,118865,5,0,0:0:0:0:
64,192,118865,1,0,0:0:0:0:
192,192,118940,1,0,0:0:0:0:
320,192,119016,1,0,0:0:0:0:
448,192,119016,1,0,0:0:0:0:
64,192,119016,1,0,0:0:0:0:
192,192,119091,1,0,0:0:0:0:
448,192,119166,1,0,0:0:0:0:
64,192,119166,1,0,0:0:0:0:
192,192,119242,1,0,0:0:0:0:
448,192,119317,5,0,0:0:0:0:
320,192,119367,1,0,0:0:0:0:
192,192,119418,1,0,0:0:0:0:
64,192,119468,1,0,0:0:0:0:
192,192,119518,1,0,0:0:0:0:
320,192,119568,1,0,0:0:0:0:
448,192,119618,1,0,0:0:0:0:
64,192,119668,1,0,0:0:0:0:
192,192,119718,1,0,0:0:0:0:
448,192,119768,1,0,0:0:0:0:
320,192,119818,1,0,0:0:0:0:
192,192,119869,1,0,0:0:0:0:
64,192,119919,1,0,0:0:0:0:
448,192,119969,1,0,0:0:0:0:
320,192,120019,1,0,0:0:0:0:
192,192,120070,1,0,0:0:0:0:
64,192,120120,1,0,0:0:0:0:
192,192,120170,1,0,0:0:0:0:
320,192,120220,1,0,0:0:0:0:
448,192,120271,1,0,0:0:0:0:
320,192,120321,1,0,0:0:0:0:
64,192,120371,1,0,0:0:0:0:
192,192,120421,1,0,0:0:0:0:
320,192,120472,1,0,0:0:0:0:
448,192,120522,1,0,0:0:0:0:
320,192,120559,1,0,0:0:0:0:
192,192,120597,1,0,0:0:0:0:
64,192,120634,1,0,0:0:0:0:
448,192,120672,1,0,0:0:0:0:
320,192,120710,1,0,0:0:0:0:
192,192,120748,1,0,0:0:0:0:
64,192,120785,1,0,0:0:0:0:
448,192,120822,1,0,0:0:0:0:
320,192,120860,1,0,0:0:0:0:
192,192,120898,1,0,0:0:0:0:
64,192,120936,1,0,0:0:0:0:
448,192,120973,1,0,0:0:0:0:
320,192,121011,1,0,0:0:0:0:
192,192,121048,1,0,0:0:0:0:
64,192,121087,1,0,0:0:0:0:
448,192,121124,1,0,0:0:0:0:
320,192,121162,1,0,0:0:0:0:
192,192,121199,1,0,0:0:0:0:
64,192,121237,1,0,0:0:0:0:
448,192,121274,1,0,0:0:0:0:
320,192,121312,1,0,0:0:0:0:
192,192,121350,1,0,0:0:0:0:
64,192,121388,1,0,0:0:0:0:
448,192,121425,1,0,0:0:0:0:
320,192,121462,1,0,0:0:0:0:
192,192,121501,1,0,0:0:0:0:
64,192,121538,1,0,0:0:0:0:
448,192,121576,1,0,0:0:0:0:
320,192,121613,1,0,0:0:0:0:
192,192,121651,1,0,0:0:0:0:
64,192,121688,1,0,0:0:0:0:
448,192,121727,128,0,121877:0:0:0:0:
192,192,121877,128,0,122028:0:0:0:0:
64,192,122028,128,0,122178:0:0:0:0:
320,192,122178,128,0,122328:0:0:0:0:
448,192,122328,128,0,122479:0:0:0:0:
192,192,122479,128,0,122630:0:0:0:0:
320,192,122630,128,0,122781:0:0:0:0:
64,192,122781,128,0,122931:0:0:0:0:
448,192,122931,1,0,0:0:0:0:
320,192,122931,1,0,0:0:0:0:
192,192,123007,1,0,0:0:0:0:
320,192,123082,1,0,0:0:0:0:
192,192,123157,1,0,0:0:0:0:
448,192,123232,1,0,0:0:0:0:
64,192,123232,1,0,0:0:0:0:
192,192,123308,1,0,0:0:0:0:
320,192,123383,1,0,0:0:0:0:
448,192,123458,1,0,0:0:0:0:
64,192,123533,1,0,0:0:0:0:
320,192,123533,1,0,0:0:0:0:
448,192,123609,1,0,0:0:0:0:
192,192,123684,1,0,0:0:0:0:
320,192,123759,1,0,0:0:0:0:
64,192,123835,1,0,0:0:0:0:
192,192,123835,1,0,0:0:0:0:
320,192,123910,1,0,0:0:0:0:
64,192,123985,1,0,0:0:0:0:
320,192,124061,1,0,0:0:0:0:
448,192,124136,1,0,0:0:0:0:
192,192,124136,1,0,0:0:0:0:
64,192,124212,1,0,0:0:0:0:
448,192,124287,1,0,0:0:0:0:
320,192,124362,1,0,0:0:0:0:
192,192,124438,1,0,0:0:0:0:
64,192,124438,1,0,0:0:0:0:
320,192,124512,1,0,0:0:0:0:
448,192,124588,1,0,0:0:0:0:
192,192,124663,1,0,0:0:0:0:
320,192,124738,1,0,0:0:0:0:
64,192,124738,1,0,0:0:0:0:
448,192,124813,1,0,0:0:0:0:
320,192,124889,1,0,0:0:0:0:
192,192,124964,1,0,0:0:0:0:
320,192,125039,1,0,0:0:0:0:
448,192,125039,1,0,0:0:0:0:
64,192,125115,1,0,0:0:0:0:
448,192,125190,1,0,0:0:0:0:
192,192,125266,1,0,0:0:0:0:
448,192,125341,1,0,0:0:0:0:
64,192,125341,1,0,0:0:0:0:
320,192,125416,1,0,0:0:0:0:
192,192,125492,1,0,0:0:0:0:
64,192,125567,1,0,0:0:0:0:
192,192,125642,1,0,0:0:0:0:
448,192,125642,1,0,0:0:0:0:
320,192,125718,1,0,0:0:0:0:
192,192,125792,1,0,0:0:0:0:
64,192,125868,1,0,0:0:0:0:
192,192,125943,1,0,0:0:0:0:
320,192,125943,1,0,0:0:0:0:
448,192,126018,1,0,0:0:0:0:
64,192,126094,1,0,0:0:0:0:
320,192,126169,1,0,0:0:0:0:
448,192,126244,1,0,0:0:0:0:
192,192,126244,1,0,0:0:0:0:
64,192,126320,1,0,0:0:0:0:
448,192,126395,1,0,0:0:0:0:
192,192,126470,1,0,0:0:0:0:
320,192,126546,1,0,0:0:0:0:
64,192,126546,1,0,0:0:0:0:
448,192,126621,1,0,0:0:0:0:
320,192,126696,1,0,0:0:0:0:
192,192,126772,1,0,0:0:0:0:
320,192,126847,1,0,0:0:0:0:
448,192,126847,1,0,0:0:0:0:
64,192,126922,1,0,0:0:0:0:
192,192,126998,1,0,0:0:0:0:
320,192,127072,1,0,0:0:0:0:
448,192,127148,1,0,0:0:0:0:
192,192,127148,1,0,0:0:0:0:
64,192,127223,1,0,0:0:0:0:
448,192,127298,1,0,0:0:0:0:
320,192,127374,1,0,0:0:0:0:
64,192,127449,1,0,0:0:0:0:
192,192,127499,1,0,0:0:0:0:
320,192,127550,1,0,0:0:0:0:
448,192,127600,1,0,0:0:0:0:
64,192,127650,1,0,0:0:0:0:
192,192,127700,1,0,0:0:0:0:
320,192,127751,1,0,0:0:0:0:
448,192,127751,1,0,0:0:0:0:
192,192,127826,1,0,0:0:0:0:
64,192,127901,1,0,0:0:0:0:
192,192,127977,1,0,0:0:0:0:
448,192,128052,1,0,0:0:0:0:
64,192,128052,1,0,0:0:0:0:
320,192,128127,1,0,0:0:0:0:
192,192,128202,1,0,0:0:0:0:
320,192,128278,1,0,0:0:0:0:
64,192,128352,1,0,0:0:0:0:
448,192,128352,1,0,0:0:0:0:
320,192,128428,1,0,0:0:0:0:
192,192,128428,1,0,0:0:0:0:
64,192,128503,1,0,0:0:0:0:
448,192,128503,1,0,0:0:0:0:
320,192,128578,1,0,0:0:0:0:
192,192,128578,1,0,0:0:0:0:
64,192,128654,1,0,0:0:0:0:
448,192,128654,1,0,0:0:0:0:
320,192,128729,1,0,0:0:0:0:
192,192,128729,1,0,0:0:0:0:
64,192,128805,1,0,0:0:0:0:
448,192,128805,1,0,0:0:0:0:
320,192,128880,1,0,0:0:0:0:
192,192,128880,1,0,0:0:0:0:
64,192,128955,1,0,0:0:0:0:
448,192,128955,1,0,0:0:0:0:
320,192,129031,1,0,0:0:0:0:
192,192,129106,1,0,0:0:0:0:
64,192,129181,1,0,0:0:0:0:
192,192,129257,1,0,0:0:0:0:
320,192,129257,1,0,0:0:0:0:
448,192,129332,1,0,0:0:0:0:
192,192,129407,1,0,0:0:0:0:
320,192,129482,1,0,0:0:0:0:
192,192,129558,1,0,0:0:0:0:
448,192,129558,1,0,0:0:0:0:
64,192,129633,1,0,0:0:0:0:
192,192,129708,1,0,0:0:0:0:
448,192,129783,1,0,0:0:0:0:
64,192,129859,1,0,0:0:0:0:
320,192,129859,1,0,0:0:0:0:
192,192,129934,1,0,0:0:0:0:
448,192,129934,1,0,0:0:0:0:
320,192,130009,1,0,0:0:0:0:
64,192,130009,1,0,0:0:0:0:
192,192,130085,1,0,0:0:0:0:
448,192,130085,1,0,0:0:0:0:
320,192,130160,1,0,0:0:0:0:
64,192,130160,1,0,0:0:0:0:
448,192,130235,1,0,0:0:0:0:
320,192,130311,1,0,0:0:0:0:
192,192,130386,1,0,0:0:0:0:
64,192,130462,1,0,0:0:0:0:
320,192,130462,1,0,0:0:0:0:
448,192,130537,1,0,0:0:0:0:
320,192,130612,1,0,0:0:0:0:
192,192,130688,1,0,0:0:0:0:
448,192,130762,1,0,0:0:0:0:
320,192,130762,1,0,0:0:0:0:
192,192,130838,1,0,0:0:0:0:
64,192,130838,1,0,0:0:0:0:
320,192,130913,1,0,0:0:0:0:
448,192,130913,1,0,0:0:0:0:
192,192,130988,1,0,0:0:0:0:
64,192,130988,1,0,0:0:0:0:
448,192,131063,1,0,0:0:0:0:
320,192,131063,1,0,0:0:0:0:
192,192,131139,1,0,0:0:0:0:
64,192,131139,1,0,0:0:0:0:
320,192,131214,1,0,0:0:0:0:
448,192,131214,1,0,0:0:0:0:
192,192,131289,1,0,0:0:0:0:
64,192,131289,1,0,0:0:0:0:
448,192,131365,1,0,0:0:0:0:
320,192,131365,1,0,0:0:0:0:
192,192,131440,1,0,0:0:0:0:
64,192,131516,1,0,0:0:0:0:
320,192,131591,1,0,0:0:0:0:
448,192,131666,1,0,0:0:0:0:
64,192,131666,1,0,0:0:0:0:
320,192,131742,1,0,0:0:0:0:
192,192,131817,1,0,0:0:0:0:
64,192,131892,1,0,0:0:0:0:
320,192,131968,128,0,132268:0:0:0:0:
192,192,132268,1,0,0:0:0:0:
64,192,132318,1,0,0:0:0:0:
448,192,132369,1,0,0:0:0:0:
320,192,132419,1,0,0:0:0:0:
192,192,132469,1,0,0:0:0:0:
64,192,132519,1,0,0:0:0:0:
448,192,132570,1,0,0:0:0:0:
320,192,132570,1,0,0:0:0:0:
192,192,132645,1,0,0:0:0:0:
64,192,132720,1,0,0:0:0:0:
448,192,132720,1,0,0:0:0:0:
320,192,132796,1,0,0:0:0:0:
448,192,132871,1,0,0:0:0:0:
192,192,132871,1,0,0:0:0:0:
64,192,132946,1,0,0:0:0:0:
448,192,133022,1,0,0:0:0:0:
192,192,133022,1,0,0:0:0:0:
320,192,133097,1,0,0:0:0:0:
448,192,133172,1,0,0:0:0:0:
64,192,133172,1,0,0:0:0:0:
192,192,133248,1,0,0:0:0:0:
320,192,133322,1,0,0:0:0:0:
448,192,133322,1,0,0:0:0:0:
192,192,133398,1,0,0:0:0:0:
64,192,133473,1,0,0:0:0:0:
320,192,133473,1,0,0:0:0:0:
448,192,133548,1,0,0:0:0:0:
320,192,133624,1,0,0:0:0:0:
192,192,133624,1,0,0:0:0:0:
64,192,133699,1,0,0:0:0:0:
192,192,133774,1,0,0:0:0:0:
448,192,133774,1,0,0:0:0:0:
320,192,133850,1,0,0:0:0:0:
192,192,133925,1,0,0:0:0:0:
64,192,133925,1,0,0:0:0:0:
320,192,134001,1,0,0:0:0:0:
448,192,134076,1,0,0:0:0:0:
192,192,134076,1,0,0:0:0:0:
320,192,134151,1,0,0:0:0:0:
448,192,134227,1,0,0:0:0:0:
64,192,134227,1,0,0:0:0:0:
192,192,134302,1,0,0:0:0:0:
320,192,134377,1,0,0:0:0:0:
448,192,134377,1,0,0:0:0:0:
192,192,134452,1,0,0:0:0:0:
64,192,134528,1,0,0:0:0:0:
320,192,134528,1,0,0:0:0:0:
448,192,134602,1,0,0:0:0:0:
320,192,134678,1,0,0:0:0:0:
192,192,134678,1,0,0:0:0:0:
64,192,134753,1,0,0:0:0:0:
448,192,134828,1,0,0:0:0:0:
320,192,134828,1,0,0:0:0:0:
192,192,134904,1,0,0:0:0:0:
64,192,134979,1,0,0:0:0:0:
320,192,134979,1,0,0:0:0:0:
448,192,135055,1,0,0:0:0:0:
320,192,135130,1,0,0:0:0:0:
192,192,135130,1,0,0:0:0:0:
64,192,135205,1,0,0:0:0:0:
448,192,135281,1,0,0:0:0:0:
192,192,135281,1,0,0:0:0:0:
320,192,135356,1,0,0:0:0:0:
448,192,135431,1,0,0:0:0:0:
192,192,135431,1,0,0:0:0:0:
64,192,135507,1,0,0:0:0:0:
192,192,135582,1,0,0:0:0:0:
320,192,135582,1,0,0:0:0:0:
448,192,135657,1,0,0:0:0:0:
320,192,135732,1,0,0:0:0:0:
192,192,135732,1,0,0:0:0:0:
64,192,135808,1,0,0:0:0:0:
448,192,135883,1,0,0:0:0:0:
192,192,135883,1,0,0:0:0:0:
320,192,135958,1,0,0:0:0:0:
192,192,136033,1,0,0:0:0:0:
448,192,136033,1,0,0:0:0:0:
64,192,136109,1,0,0:0:0:0:
192,192,136184,1,0,0:0:0:0:
320,192,136184,128,0,136335:0:0:0:0:
448,192,136335,128,0,136485:0:0:0:0:
192,192,136485,128,0,136636:0:0:0:0:
64,192,136636,128,0,136787:0:0:0:0:
320,192,136787,128,0,136862:0:0:0:0:
448,192,136787,128,0,136862:0:0:0:0:
192,192,136862,128,0,136938:0:0:0:0:
64,192,136862,128,0,136938:0:0:0:0:
320,192,136938,128,0,137012:0:0:0:0:
448,192,136938,128,0,137012:0:0:0:0:
192,192,137012,128,0,137088:0:0:0:0:
64,192,137012,128,0,137088:0:0:0:0:
320,192,137088,1,0,0:0:0:0:
448,192,137138,1,0,0:0:0:0:
64,192,137188,1,0,0:0:0:0:
192,192,137238,1,0,0:0:0:0:
320,192,137288,1,0,0:0:0:0:
448,192,137339,1,0,0:0:0:0:
192,192,137389,1,0,0:0:0:0:
64,192,137389,1,0,0:0:0:0:
320,192,137464,1,0,0:0:0:0:
192,192,137539,1,0,0:0:0:0:
448,192,137539,1,0,0:0:0:0:
64,192,137615,1,0,0:0:0:0:
192,192,137690,1,0,0:0:0:0:
320,192,137690,1,0,0:0:0:0:
448,192,137766,1,0,0:0:0:0:
64,192,137841,1,0,0:0:0:0:
320,192,137841,1,0,0:0:0:0:
192,192,137916,1,0,0:0:0:0:
64,192,137992,1,0,0:0:0:0:
448,192,137992,1,0,0:0:0:0:
320,192,138067,1,0,0:0:0:0:
192,192,138067,1,0,0:0:0:0:
64,192,138142,1,0,0:0:0:0:
448,192,138142,1,0,0:0:0:0:
320,192,138218,1,0,0:0:0:0:
192,192,138218,1,0,0:0:0:0:
64,192,138292,1,0,0:0:0:0:
448,192,138292,1,0,0:0:0:0:
320,192,138368,1,0,0:0:0:0:
192,192,138368,1,0,0:0:0:0:
64,192,138443,1,0,0:0:0:0:
448,192,138443,1,0,0:0:0:0:
320,192,138518,1,0,0:0:0:0:
192,192,138518,1,0,0:0:0:0:
64,192,138594,1,0,0:0:0:0:
448,192,138594,1,0,0:0:0:0:
320,192,138669,1,0,0:0:0:0:
192,192,138744,1,0,0:0:0:0:
64,192,138744,1,0,0:0:0:0:
320,192,138820,1,0,0:0:0:0:
448,192,138895,1,0,0:0:0:0:
192,192,138895,1,0,0:0:0:0:
64,192,138970,1,0,0:0:0:0:
192,192,139046,1,0,0:0:0:0:
320,192,139046,1,0,0:0:0:0:
448,192,139121,1,0,0:0:0:0:
64,192,139196,1,0,0:0:0:0:
192,192,139196,1,0,0:0:0:0:
320,192,139272,1,0,0:0:0:0:
448,192,139347,1,0,0:0:0:0:
64,192,139347,1,0,0:0:0:0:
320,192,139422,1,0,0:0:0:0:
448,192,139498,1,0,0:0:0:0:
192,192,139498,1,0,0:0:0:0:
64,192,139572,1,0,0:0:0:0:
320,192,139572,1,0,0:0:0:0:
192,192,139648,1,0,0:0:0:0:
448,192,139648,1,0,0:0:0:0:
320,192,139723,1,0,0:0:0:0:
64,192,139723,1,0,0:0:0:0:
192,192,139798,1,0,0:0:0:0:
448,192,139798,1,0,0:0:0:0:
64,192,139874,1,0,0:0:0:0:
192,192,139949,1,0,0:0:0:0:
320,192,139949,1,0,0:0:0:0:
448,192,140024,1,0,0:0:0:0:
320,192,140100,1,0,0:0:0:0:
64,192,140100,1,0,0:0:0:0:
192,192,140175,1,0,0:0:0:0:
320,192,140251,1,0,0:0:0:0:
448,192,140251,1,0,0:0:0:0:
192,192,140326,1,0,0:0:0:0:
320,192,140401,1,0,0:0:0:0:
448,192,140401,1,0,0:0:0:0:
192,192,140477,1,0,0:0:0:0:
64,192,140477,1,0,0:0:0:0:
320,192,140552,1,0,0:0:0:0:
448,192,140552,1,0,0:0:0:0:
192,192,140627,1,0,0:0:0:0:
64,192,140627,1,0,0:0:0:0:
320,192,140702,1,0,0:0:0:0:
448,192,140702,1,0,0:0:0:0:
192,192,140778,1,0,0:0:0:0:
64,192,140778,1,0,0:0:0:0:
320,192,140852,1,0,0:0:0:0:
448,192,140852,1,0,0:0:0:0:
192,192,140928,1,0,0:0:0:0:
64,192,140928,1,0,0:0:0:0:
320,192,141003,1,0,0:0:0:0:
448,192,141003,1,0,0:0:0:0:
192,192,141078,1,0,0:0:0:0:
64,192,141154,1,0,0:0:0:0:
320,192,141154,1,0,0:0:0:0:
448,192,141229,1,0,0:0:0:0:
320,192,141305,1,0,0:0:0:0:
192,192,141305,1,0,0:0:0:0:
64,192,141380,1,0,0:0:0:0:
448,192,141455,1,0,0:0:0:0:
320,192,141455,1,0,0:0:0:0:
192,192,141531,1,0,0:0:0:0:
64,192,141606,1,0,0:0:0:0:
448,192,141606,128,0,141907:0:0:0:0:
64,192,141907,1,0,0:0:0:0:
192,192,141958,1,0,0:0:0:0:
448,192,142008,1,0,0:0:0:0:
320,192,142058,1,0,0:0:0:0:
64,192,142108,1,0,0:0:0:0:
192,192,142158,1,0,0:0:0:0:
320,192,142208,1,0,0:0:0:0:
