osu file format v14

[General]
AudioFilename: audio.mp3
AudioLeadIn: 0
PreviewTime: 105542
Countdown: 1
SampleSet: None
StackLeniency: 0.7
Mode: 1
LetterboxInBreaks: 0
WidescreenStoryboard: 1

[Editor]
DistanceSpacing: 0.8
BeatDivisor: 2
GridSize: 4
TimelineZoom: 2.8

[Metadata]
Title:Ludicrous Speed
TitleUnicode:Ludicrous Speed
Artist:F-777
ArtistUnicode:F-777
Creator:-[ ix Ishida xi ]-
Version:Ludicrous (SV 1.1)
Source:
Tags:
BeatmapID:1609307
BeatmapSetID:765139

[Difficulty]
HPDrainRate:2.6
CircleSize:5
OverallDifficulty:7
ApproachRate:0
SliderMultiplier:1.1
SliderTickRate:1

[Events]
//Background and Video events
0,0,"Konachan.com - 262074 animal bird blonde_hair boots corset dress goth-loli green_eyes headdress lolita_fashion long_hair original pantyhose ra-bit wings.jpg",0,0
//Break Periods
//Storyboard Layer 0 (Background)
//Storyboard Layer 1 (Fail)
//Storyboard Layer 2 (Pass)
//Storyboard Layer 3 (Foreground)
//Storyboard Sound Samples

[TimingPoints]
0,180.722891566265,4,1,0,70,1,0
0,-200,4,1,0,70,0,0
5466,-188.679245283019,4,1,0,70,0,0
5512,-178.571428571429,4,1,0,70,0,0
5557,-169.491525423729,4,1,0,70,0,0
5602,-161.290322580645,4,1,0,70,0,0
5647,-153.846153846154,4,1,0,70,0,0
5692,-147.058823529412,4,1,0,70,0,0
5737,-140.845070422535,4,1,0,70,0,0
5783,-133.333333333333,4,1,0,70,0,0
10843,-100,4,1,0,70,0,0
11204,-133.333333333333,4,1,0,70,0,0
11249,-128.205128205128,4,1,0,70,0,0
11295,-123.456790123457,4,1,0,70,0,0
11340,-119.047619047619,4,1,0,70,0,0
11385,-114.942528735632,4,1,0,70,0,0
11430,-111.111111111111,4,1,0,70,0,0
11475,-107.52688172043,4,1,0,70,0,0
11521,-104.166666666667,4,1,0,70,0,0
11566,-100,4,1,0,70,0,1
16987,-66.6666666666667,4,1,0,70,0,1
17032,-69.4444444444444,4,1,0,70,0,1
17078,-72.463768115942,4,1,0,70,0,1
17123,-75.7575757575758,4,1,0,70,0,1
17168,-79.3650793650794,4,1,0,70,0,1
17213,-83.3333333333333,4,1,0,70,0,1
17258,-87.719298245614,4,1,0,70,0,1
17304,-93.4579439252336,4,1,0,70,0,1
17349,-100,4,1,0,70,0,1
22409,-66.6666666666667,4,1,0,70,0,1
22766,-66.6666666666667,4,1,0,70,0,1
22811,-69.4444444444444,4,1,0,70,0,1
22857,-72.463768115942,4,1,0,70,0,1
22902,-75.7575757575758,4,1,0,70,0,1
22947,-79.3650793650794,4,1,0,70,0,1
22992,-83.3333333333333,4,1,0,70,0,1
23037,-87.719298245614,4,1,0,70,0,1
23083,-93.4579439252336,4,1,0,70,0,1
23128,-100,4,1,0,70,0,1
28542,-66.6666666666667,4,1,0,70,0,1
28587,-69.4444444444444,4,1,0,70,0,1
28633,-72.463768115942,4,1,0,70,0,1
28678,-75.7575757575758,4,1,0,70,0,1
28723,-79.3650793650794,4,1,0,70,0,1
28768,-83.3333333333333,4,1,0,70,0,1
28813,-87.719298245614,4,1,0,70,0,1
28859,-93.4579439252336,4,1,0,70,0,1
28904,-100,4,1,0,70,0,1
33964,-66.6666666666667,4,1,0,70,0,1
34321,-66.6666666666667,4,1,0,70,0,1
34366,-69.4444444444444,4,1,0,70,0,1
34412,-72.463768115942,4,1,0,70,0,1
34457,-75.7575757575758,4,1,0,70,0,1
34502,-79.3650793650794,4,1,0,70,0,1
34547,-83.3333333333333,4,1,0,70,0,1
34592,-87.719298245614,4,1,0,70,0,1
34638,-93.4579439252336,4,1,0,70,0,1
34683,-100,4,1,0,70,0,1
34710,-200,4,1,0,70,0,0
44819,-175.438596491228,4,1,0,70,0,0
45180,-156.25,4,1,0,70,0,0
45542,-142.857142857143,4,1,0,70,0,0
45903,-131.578947368421,4,1,0,70,0,0
45948,-126.582278481013,4,1,0,70,0,0
45993,-121.951219512195,4,1,0,70,0,0
46039,-117.647058823529,4,1,0,70,0,0
46084,-113.636363636364,4,1,0,70,0,0
46129,-109.89010989011,4,1,0,70,0,0
46174,-106.382978723404,4,1,0,70,0,0
46219,-103.092783505155,4,1,0,70,0,0
46265,-100,4,1,0,70,0,0
47891,-103.092783505155,4,1,0,70,0,0
49337,-98.0392156862745,4,1,0,70,0,0
50783,-100,4,1,0,70,0,0
52228,-99.009900990099,4,1,0,70,0,0
53674,-96.1538461538461,4,1,0,70,0,0
55120,-93.4579439252336,4,1,0,70,0,0
56566,-95.2380952380952,4,1,0,70,0,0
58012,-105.263157894737,4,1,0,70,0,0
59457,-103.092783505155,4,1,0,70,0,0
60903,-106.382978723404,4,1,0,70,0,0
62344,-100,4,1,0,70,0,0
63790,-90.9090909090909,4,1,0,70,0,0
64241,-100,4,1,0,70,0,0
64603,-111.111111111111,4,1,0,70,0,0
64874,-125,4,1,0,70,0,0
65055,-111.111111111111,4,1,0,70,0,0
65326,-100,4,1,0,70,0,0
65687,-90.9090909090909,4,1,0,70,0,0
66139,-100,4,1,0,70,0,0
66501,-111.111111111111,4,1,0,70,0,0
66772,-125,4,1,0,70,0,0
66953,-111.111111111111,4,1,0,70,0,0
67224,-100,4,1,0,70,0,0
67585,-90.9090909090909,4,1,0,70,0,0
68037,-100,4,1,0,70,0,0
68399,-111.111111111111,4,1,0,70,0,0
68669,-125,4,1,0,70,0,0
68850,-111.111111111111,4,1,0,70,0,0
69031,-100,4,1,0,70,0,0
69076,-103.092783505155,4,1,0,70,0,0
69121,-106.382978723404,4,1,0,70,0,0
69166,-109.89010989011,4,1,0,70,0,0
69211,-113.636363636364,4,1,0,70,0,0
69257,-117.647058823529,4,1,0,70,0,0
69302,-121.951219512195,4,1,0,70,0,0
69347,-126.582278481013,4,1,0,70,0,0
69392,-133.333333333333,4,1,0,70,0,0
81686,-100,4,1,0,70,0,0
82036,-131.578947368421,4,1,0,70,0,0
82081,-126.582278481013,4,1,0,70,0,0
82126,-121.951219512195,4,1,0,70,0,0
82172,-117.647058823529,4,1,0,70,0,0
82217,-113.636363636364,4,1,0,70,0,0
82262,-109.89010989011,4,1,0,70,0,0
82307,-106.382978723404,4,1,0,70,0,0
82352,-103.092783505155,4,1,0,70,0,0
82398,-100,4,1,0,70,0,0
82409,-100,4,1,0,70,0,1
87820,-66.6666666666667,4,1,0,70,0,1
87865,-69.4444444444444,4,1,0,70,0,1
87911,-72.463768115942,4,1,0,70,0,1
87956,-75.7575757575758,4,1,0,70,0,1
88001,-79.3650793650794,4,1,0,70,0,1
88046,-83.3333333333333,4,1,0,70,0,1
88091,-87.719298245614,4,1,0,70,0,1
88137,-93.4579439252336,4,1,0,70,0,1
88182,-100,4,1,0,70,0,1
93603,-66.6666666666667,4,1,0,70,0,1
93648,-69.4444444444444,4,1,0,70,0,1
93694,-72.463768115942,4,1,0,70,0,1
93739,-75.7575757575758,4,1,0,70,0,1
93784,-79.3650793650794,4,1,0,70,0,1
93829,-83.3333333333333,4,1,0,70,0,1
93874,-87.719298245614,4,1,0,70,0,1
93920,-93.4579439252336,4,1,0,70,0,1
93965,-100,4,1,0,70,0,1
99386,-66.6666666666667,4,1,0,70,0,1
99431,-69.4444444444444,4,1,0,70,0,1
99477,-72.463768115942,4,1,0,70,0,1
99522,-75.7575757575758,4,1,0,70,0,1
99567,-79.3650793650794,4,1,0,70,0,1
99612,-83.3333333333333,4,1,0,70,0,1
99657,-87.719298245614,4,1,0,70,0,1
99703,-93.4579439252336,4,1,0,70,0,1
99748,-100,4,1,0,70,0,1
105553,-133.333333333333,4,1,0,50,0,0
115753,-128.205128205128,4,1,0,70,0,0
115843,-123.456790123457,4,1,0,70,0,0
115933,-119.047619047619,4,1,0,70,0,0
116024,-114.942528735632,4,1,0,70,0,0
116084,-113.636363636364,4,1,0,70,0,0
116144,-112.359550561798,4,1,0,70,0,0
116204,-111.111111111111,4,1,0,70,0,0
116295,-107.52688172043,4,1,0,70,0,0
116385,-100,4,1,0,70,0,0
116735,-66.6666666666667,4,1,0,70,0,0
116780,-69.4444444444444,4,1,0,70,0,0
116826,-72.463768115942,4,1,0,70,0,0
116871,-75.7575757575758,4,1,0,70,0,0
116916,-79.3650793650794,4,1,0,70,0,0
116961,-83.3333333333333,4,1,0,70,0,0
117006,-87.719298245614,4,1,0,70,0,0
117052,-93.4579439252336,4,1,0,70,0,0
117097,-100,4,1,0,70,0,0
117153,-133.333333333333,4,1,0,70,0,0
122891,-117.647058823529,4,1,0,70,0,0
128674,-66.6666666666667,4,1,0,70,0,0
129036,-25,4,1,0,70,0,0
133012,-133.333333333333,4,1,0,70,0,0
133734,-100,4,1,0,70,0,0
134085,-100,4,1,0,70,0,0
134130,-103.092783505155,4,1,0,70,0,0
134175,-106.382978723404,4,1,0,70,0,0
134220,-109.89010989011,4,1,0,70,0,0
134265,-113.636363636364,4,1,0,70,0,0
134311,-117.647058823529,4,1,0,70,0,0
134356,-121.951219512195,4,1,0,70,0,0
134401,-126.582278481013,4,1,0,70,0,0
134446,-133.333333333333,4,1,0,70,0,0
146024,-100,4,1,0,70,0,0
147469,-100,4,1,0,70,0,1
152880,-66.6666666666667,4,1,0,70,0,1
152925,-69.4444444444444,4,1,0,70,0,1
152971,-72.463768115942,4,1,0,70,0,1
153016,-75.7575757575758,4,1,0,70,0,1
153061,-79.3650793650794,4,1,0,70,0,1
153106,-83.3333333333333,4,1,0,70,0,1
153151,-87.719298245614,4,1,0,70,0,1
153197,-93.4579439252336,4,1,0,70,0,1
153242,-100,4,1,0,70,0,1
158663,-66.6666666666667,4,1,0,70,0,1
158708,-69.4444444444444,4,1,0,70,0,1
158754,-72.463768115942,4,1,0,70,0,1
158799,-75.7575757575758,4,1,0,70,0,1
158844,-79.3650793650794,4,1,0,70,0,1
158889,-83.3333333333333,4,1,0,70,0,1
158934,-87.719298245614,4,1,0,70,0,1
158980,-93.4579439252336,4,1,0,70,0,1
159025,-100,4,1,0,70,0,1
164446,-66.6666666666667,4,1,0,70,0,1
164491,-69.4444444444444,4,1,0,70,0,1
164537,-72.463768115942,4,1,0,70,0,1
164582,-75.7575757575758,4,1,0,70,0,1
164627,-79.3650793650794,4,1,0,70,0,1
164672,-83.3333333333333,4,1,0,70,0,1
164717,-87.719298245614,4,1,0,70,0,1
164763,-93.4579439252336,4,1,0,70,0,1
164808,-100,4,1,0,70,0,1
170229,-66.6666666666667,4,1,0,70,0,1
170274,-69.4444444444444,4,1,0,70,0,1
170320,-72.463768115942,4,1,0,70,0,1
170365,-75.7575757575758,4,1,0,70,0,1
170410,-79.3650793650794,4,1,0,70,0,1
170455,-83.3333333333333,4,1,0,70,0,1
170500,-87.719298245614,4,1,0,70,0,1
170546,-93.4579439252336,4,1,0,70,0,1
170591,-100,4,1,0,70,0,1
171867,-100,4,1,0,70,0,0

[HitObjects]
276,140,0,5,0,0:0:0:0:
276,84,90,1,8,0:0:0:0:
276,84,180,1,8,0:0:0:0:
276,84,271,1,8,0:0:0:0:
276,84,361,1,0,0:0:0:0:
276,84,451,1,8,0:0:0:0:
276,84,542,1,8,0:0:0:0:
276,84,632,1,8,0:0:0:0:
276,84,722,1,0,0:0:0:0:
276,84,813,1,8,0:0:0:0:
276,84,903,1,8,0:0:0:0:
276,84,993,1,8,0:0:0:0:
276,84,1084,1,0,0:0:0:0:
276,84,1174,1,8,0:0:0:0:
276,84,1265,1,8,0:0:0:0:
276,84,1355,1,0,0:0:0:0:
276,84,1445,1,0,0:0:0:0:
276,84,1536,1,8,0:0:0:0:
276,84,1626,1,8,0:0:0:0:
276,84,1716,1,8,0:0:0:0:
276,84,1807,1,0,0:0:0:0:
276,84,1897,1,8,0:0:0:0:
276,84,1987,1,8,0:0:0:0:
276,84,2078,1,8,0:0:0:0:
276,84,2168,1,0,0:0:0:0:
276,84,2259,1,8,0:0:0:0:
276,84,2349,1,8,0:0:0:0:
276,84,2439,1,8,0:0:0:0:
276,84,2530,1,0,0:0:0:0:
276,84,2620,1,0,0:0:0:0:
276,84,2710,1,8,0:0:0:0:
276,84,2801,1,8,0:0:0:0:
276,84,2891,1,0,0:0:0:0:
276,84,2981,1,8,0:0:0:0:
276,84,3072,1,8,0:0:0:0:
276,84,3162,1,8,0:0:0:0:
276,84,3253,1,0,0:0:0:0:
276,84,3343,1,8,0:0:0:0:
276,84,3433,1,8,0:0:0:0:
276,84,3524,1,8,0:0:0:0:
276,84,3614,1,0,0:0:0:0:
276,84,3704,1,8,0:0:0:0:
276,84,3795,1,8,0:0:0:0:
316,124,3885,1,8,0:0:0:0:
276,84,3975,1,0,0:0:0:0:
276,84,4066,1,8,0:0:0:0:
276,84,4156,1,8,0:0:0:0:
316,124,4246,1,0,0:0:0:0:
276,84,4337,1,0,0:0:0:0:
276,84,4427,1,8,0:0:0:0:
276,84,4518,1,8,0:0:0:0:
276,84,4608,1,8,0:0:0:0:
276,84,4698,1,0,0:0:0:0:
308,132,4789,1,8,0:0:0:0:
276,84,4879,1,8,0:0:0:0:
276,84,4969,1,8,0:0:0:0:
324,116,5060,1,0,0:0:0:0:
324,116,5150,1,8,0:0:0:0:
372,148,5240,1,0,0:0:0:0:
372,148,5331,1,8,0:0:0:0:
324,116,5421,1,0,0:0:0:0:
296,112,5466,1,8,0:0:0:0:
276,84,5512,1,0,0:0:0:0:
276,84,5557,1,8,0:0:0:0:
276,84,5602,1,0,0:0:0:0:
276,84,5647,1,8,0:0:0:0:
276,84,5692,1,0,0:0:0:0:
276,84,5737,1,8,0:0:0:0:
324,116,5783,1,4,0:0:0:0:
280,148,5873,1,8,0:0:0:0:
328,120,5963,1,8,0:0:0:0:
372,84,6054,1,8,0:0:0:0:
420,56,6144,1,0,0:0:0:0:
372,84,6234,1,8,0:0:0:0:
420,56,6325,1,8,0:0:0:0:
372,84,6415,1,8,0:0:0:0:
420,56,6506,1,0,0:0:0:0:
372,84,6596,1,8,0:0:0:0:
420,56,6686,1,8,0:0:0:0:
372,84,6777,1,8,0:0:0:0:
420,56,6867,1,0,0:0:0:0:
372,84,6957,1,8,0:0:0:0:
420,56,7048,1,8,0:0:0:0:
372,84,7138,1,0,0:0:0:0:
420,56,7228,1,0,0:0:0:0:
372,84,7319,1,8,0:0:0:0:
420,56,7409,1,8,0:0:0:0:
400,108,7499,1,8,0:0:0:0:
412,52,7590,1,0,0:0:0:0:
400,108,7680,1,8,0:0:0:0:
412,52,7771,1,8,0:0:0:0:
400,108,7861,1,8,0:0:0:0:
412,52,7951,1,0,0:0:0:0:
400,108,8042,1,8,0:0:0:0:
412,52,8132,1,8,0:0:0:0:
400,108,8222,1,8,0:0:0:0:
412,52,8313,1,0,0:0:0:0:
400,108,8403,1,0,0:0:0:0:
412,52,8493,1,8,0:0:0:0:
400,108,8584,1,8,0:0:0:0:
412,52,8674,1,0,0:0:0:0:
368,88,8765,1,8,0:0:0:0:
368,88,8855,1,8,0:0:0:0:
368,88,8945,1,8,0:0:0:0:
368,88,9036,1,0,0:0:0:0:
368,88,9126,1,8,0:0:0:0:
368,88,9216,1,8,0:0:0:0:
368,88,9307,1,8,0:0:0:0:
368,88,9397,1,0,0:0:0:0:
368,88,9487,1,0,0:0:0:0:
368,88,9578,1,8,0:0:0:0:
368,88,9668,1,8,0:0:0:0:
400,136,9759,1,0,0:0:0:0:
432,184,9849,1,8,0:0:0:0:
368,88,9939,1,8,0:0:0:0:
368,88,10030,1,8,0:0:0:0:
368,88,10120,1,0,0:0:0:0:
368,88,10210,1,8,0:0:0:0:
368,88,10301,1,8,0:0:0:0:
368,88,10391,1,8,0:0:0:0:
368,88,10481,1,0,0:0:0:0:
368,88,10572,1,8,0:0:0:0:
368,88,10662,1,8,0:0:0:0:
368,88,10753,1,8,0:0:0:0:
368,88,10843,1,0,0:0:0:0:
396,96,10888,1,8,0:0:0:0:
396,96,10933,1,8,0:0:0:0:
396,96,10978,1,8,0:0:0:0:
396,96,11024,1,0,0:0:0:0:
396,96,11204,1,0,0:0:0:0:
396,96,11249,1,8,0:0:0:0:
396,96,11295,1,0,0:0:0:0:
396,96,11340,1,8,0:0:0:0:
396,96,11385,1,0,0:0:0:0:
396,96,11430,1,8,0:0:0:0:
396,96,11475,1,0,0:0:0:0:
396,96,11521,1,8,0:0:0:0:
396,96,11566,1,4,0:0:0:0:
340,100,11656,1,8,0:0:0:0:
284,112,11746,1,8,0:0:0:0:
284,112,11837,1,8,0:0:0:0:
284,112,11927,1,0,0:0:0:0:
284,112,12018,1,8,0:0:0:0:
284,112,12108,1,8,0:0:0:0:
284,112,12198,1,8,0:0:0:0:
284,112,12289,1,0,0:0:0:0:
284,112,12379,1,8,0:0:0:0:
284,112,12469,1,8,0:0:0:0:
284,112,12560,1,8,0:0:0:0:
340,100,12650,1,0,0:0:0:0:
340,100,12740,1,8,0:0:0:0:
340,100,12831,1,8,0:0:0:0:
340,100,12921,1,8,0:0:0:0:
340,100,13012,1,0,0:0:0:0:
340,100,13102,1,8,0:0:0:0:
340,100,13192,1,8,0:0:0:0:
344,156,13283,1,0,0:0:0:0:
340,100,13373,1,0,0:0:0:0:
340,100,13463,1,8,0:0:0:0:
340,100,13554,1,8,0:0:0:0:
344,156,13644,1,0,0:0:0:0:
344,156,13734,1,0,0:0:0:0:
344,156,13825,1,8,0:0:0:0:
344,156,13915,1,8,0:0:0:0:
344,156,14006,1,0,0:0:0:0:
344,156,14096,1,0,0:0:0:0:
292,140,14186,1,8,0:0:0:0:
344,156,14277,1,0,0:0:0:0:
300,120,14367,1,8,0:0:0:0:
356,108,14457,1,0,0:0:0:0:
300,176,14548,1,8,0:0:0:0:
300,120,14638,1,8,0:0:0:0:
356,108,14728,1,8,0:0:0:0:
308,120,14819,1,0,0:0:0:0:
316,64,14909,1,8,0:0:0:0:
308,120,14999,1,8,0:0:0:0:
328,68,15090,1,8,0:0:0:0:
304,120,15180,1,0,0:0:0:0:
332,72,15271,1,8,0:0:0:0:
304,120,15361,1,8,0:0:0:0:
332,72,15451,1,0,0:0:0:0:
304,120,15542,1,0,0:0:0:0:
332,72,15632,1,8,0:0:0:0:
304,120,15722,1,8,0:0:0:0:
332,72,15813,1,8,0:0:0:0:
304,120,15903,1,0,0:0:0:0:
304,120,15993,1,8,0:0:0:0:
304,120,16084,1,8,0:0:0:0:
304,120,16174,1,8,0:0:0:0:
304,120,16265,1,0,0:0:0:0:
304,120,16355,1,0,0:0:0:0:
304,120,16445,1,8,0:0:0:0:
304,120,16536,1,8,0:0:0:0:
304,120,16626,1,0,0:0:0:0:
304,120,16716,1,8,0:0:0:0:
252,140,16807,1,0,0:0:0:0:
304,120,16897,1,8,0:0:0:0:
304,120,16987,1,0,0:0:0:0:
324,100,17033,1,8,0:0:0:0:
344,80,17078,1,0,0:0:0:0:
344,80,17123,1,8,0:0:0:0:
344,80,17168,1,0,0:0:0:0:
344,80,17213,1,8,0:0:0:0:
344,80,17259,1,0,0:0:0:0:
344,80,17304,1,8,0:0:0:0:
344,80,17349,1,0,0:0:0:0:
392,104,17439,1,0,0:0:0:0:
444,128,17530,1,8,0:0:0:0:
492,156,17620,1,8,0:0:0:0:
444,128,17710,1,0,0:0:0:0:
492,156,17801,1,8,0:0:0:0:
444,128,17891,1,8,0:0:0:0:
492,156,17981,1,8,0:0:0:0:
444,128,18072,1,0,0:0:0:0:
392,148,18162,1,0,0:0:0:0:
444,128,18253,1,8,0:0:0:0:
392,148,18343,1,8,0:0:0:0:
444,128,18433,1,0,0:0:0:0:
392,148,18524,1,8,0:0:0:0:
444,128,18614,1,8,0:0:0:0:
392,148,18704,1,8,0:0:0:0:
440,136,18795,1,0,0:0:0:0:
440,136,18885,1,8,0:0:0:0:
440,136,18975,1,8,0:0:0:0:
388,112,19066,1,0,0:0:0:0:
440,136,19156,1,0,0:0:0:0:
388,112,19246,1,8,0:0:0:0:
440,136,19337,1,8,0:0:0:0:
392,164,19427,1,8,0:0:0:0:
408,116,19518,1,0,0:0:0:0:
428,168,19608,1,0,0:0:0:0:
408,116,19698,1,8,0:0:0:0:
408,116,19789,1,0,0:0:0:0:
408,116,19879,1,0,0:0:0:0:
408,116,19969,1,8,0:0:0:0:
428,168,20060,1,0,0:0:0:0:
408,116,20150,1,8,0:0:0:0:
456,144,20240,1,0,0:0:0:0:
412,108,20331,1,8,0:0:0:0:
452,144,20421,1,8,0:0:0:0:
412,104,20512,1,8,0:0:0:0:
448,144,20602,1,0,0:0:0:0:
412,104,20692,1,8,0:0:0:0:
448,148,20783,1,8,0:0:0:0:
416,104,20873,1,8,0:0:0:0:
448,152,20963,1,0,0:0:0:0:
416,104,21054,1,8,0:0:0:0:
452,148,21144,1,0,0:0:0:0:
416,104,21234,1,8,0:0:0:0:
412,108,21325,1,0,0:0:0:0:
412,108,21415,1,8,0:0:0:0:
412,108,21506,1,8,0:0:0:0:
412,108,21596,1,8,0:0:0:0:
412,108,21686,1,0,0:0:0:0:
412,108,21777,1,8,0:0:0:0:
412,108,21867,1,8,0:0:0:0:
412,108,21957,1,0,0:0:0:0:
412,108,22048,1,8,0:0:0:0:
412,108,22138,1,8,0:0:0:0:
412,108,22228,1,0,0:0:0:0:
412,108,22319,1,8,0:0:0:0:
412,108,22409,1,8,0:0:0:0:
384,104,22454,1,8,0:0:0:0:
356,100,22499,1,8,0:0:0:0:
300,92,22590,1,0,0:0:0:0:
400,140,22771,1,0,0:0:0:0:
400,140,22816,1,8,0:0:0:0:
400,140,22861,1,0,0:0:0:0:
400,140,22906,1,8,0:0:0:0:
400,140,22951,1,0,0:0:0:0:
400,140,22996,1,8,0:0:0:0:
400,140,23042,1,0,0:0:0:0:
400,140,23087,1,8,0:0:0:0:
400,140,23132,1,0,0:0:0:0:
344,136,23222,1,0,0:0:0:0:
316,132,23268,1,0,0:0:0:0:
288,132,23313,1,8,0:0:0:0:
232,128,23403,1,8,0:0:0:0:
280,104,23493,1,0,0:0:0:0:
332,80,23584,1,0,0:0:0:0:
332,80,23674,1,8,0:0:0:0:
332,80,23765,1,8,0:0:0:0:
392,108,23855,1,0,0:0:0:0:
416,120,23900,1,0,0:0:0:0:
416,120,23945,1,0,0:0:0:0:
416,120,24036,1,8,0:0:0:0:
416,120,24126,1,0,0:0:0:0:
416,120,24216,1,8,0:0:0:0:
416,120,24262,1,8,0:0:0:0:
416,120,24307,1,0,0:0:0:0:
416,120,24397,1,8,0:0:0:0:
416,120,24487,1,0,0:0:0:0:
472,112,24578,1,8,0:0:0:0:
416,120,24668,1,8,0:0:0:0:
444,116,24713,1,8,0:0:0:0:
444,116,24759,1,0,0:0:0:0:
444,116,24849,1,0,0:0:0:0:
444,116,24939,1,8,0:0:0:0:
444,116,24984,1,8,0:0:0:0:
444,116,25030,1,0,0:0:0:0:
444,116,25120,1,0,0:0:0:0:
444,116,25210,1,8,0:0:0:0:
444,116,25301,1,0,0:0:0:0:
444,116,25346,1,0,0:0:0:0:
444,116,25391,1,0,0:0:0:0:
444,116,25481,1,8,0:0:0:0:
444,116,25572,1,8,0:0:0:0:
444,116,25662,1,0,0:0:0:0:
444,116,25753,1,0,0:0:0:0:
444,116,25798,1,0,0:0:0:0:
444,116,25843,1,8,0:0:0:0:
444,116,25933,1,0,0:0:0:0:
404,76,26024,1,8,0:0:0:0:
424,96,26114,1,8,0:0:0:0:
396,100,26159,1,8,0:0:0:0:
424,96,26204,1,0,0:0:0:0:
424,96,26295,1,0,0:0:0:0:
368,100,26385,1,0,0:0:0:0:
340,104,26430,1,0,0:0:0:0:
312,108,26475,1,0,0:0:0:0:
340,104,26566,1,0,0:0:0:0:
312,108,26656,1,8,0:0:0:0:
312,108,26746,1,0,0:0:0:0:
312,108,26837,1,0,0:0:0:0:
312,108,26882,1,0,0:0:0:0:
312,108,26927,1,8,0:0:0:0:
312,108,27018,1,0,0:0:0:0:
312,108,27108,1,8,0:0:0:0:
312,108,27198,1,0,0:0:0:0:
312,108,27289,1,8,0:0:0:0:
312,108,27379,1,0,0:0:0:0:
352,144,27469,1,8,0:0:0:0:
268,68,27650,1,8,0:0:0:0:
352,144,27831,1,0,0:0:0:0:
268,68,28012,1,0,0:0:0:0:
288,88,28057,1,0,0:0:0:0:
308,108,28102,1,0,0:0:0:0:
332,124,28147,1,0,0:0:0:0:
308,108,28192,1,8,0:0:0:0:
260,80,28283,1,0,0:0:0:0:
260,80,28373,1,8,0:0:0:0:
260,80,28463,1,8,0:0:0:0:
364,100,28554,1,0,0:0:0:0:
392,92,28599,1,8,0:0:0:0:
420,84,28644,1,0,0:0:0:0:
444,72,28689,1,8,0:0:0:0:
444,72,28734,1,0,0:0:0:0:
444,72,28780,1,8,0:0:0:0:
444,72,28825,1,0,0:0:0:0:
444,72,28870,1,8,0:0:0:0:
444,72,28915,1,4,0:0:0:0:
408,116,29006,1,0,0:0:0:0:
392,140,29051,1,0,0:0:0:0:
416,128,29096,1,8,0:0:0:0:
416,128,29186,1,8,0:0:0:0:
416,128,29277,1,0,0:0:0:0:
416,128,29367,1,0,0:0:0:0:
380,172,29457,1,0,0:0:0:0:
356,188,29503,1,0,0:0:0:0:
332,200,29548,1,8,0:0:0:0:
340,144,29638,1,8,0:0:0:0:
348,88,29728,1,0,0:0:0:0:
348,88,29819,1,8,0:0:0:0:
348,88,29909,1,8,0:0:0:0:
348,88,29954,1,8,0:0:0:0:
348,88,29999,1,0,0:0:0:0:
348,88,30090,1,0,0:0:0:0:
348,88,30180,1,8,0:0:0:0:
348,88,30225,1,8,0:0:0:0:
348,88,30271,1,0,0:0:0:0:
348,88,30361,1,8,0:0:0:0:
296,68,30451,1,8,0:0:0:0:
296,68,30496,1,0,0:0:0:0:
296,68,30542,1,8,0:0:0:0:
296,68,30587,1,8,0:0:0:0:
296,68,30632,1,0,0:0:0:0:
296,68,30722,1,8,0:0:0:0:
296,68,30768,1,8,0:0:0:0:
296,68,30813,1,0,0:0:0:0:
296,68,30903,1,8,0:0:0:0:
296,68,30993,1,0,0:0:0:0:
336,108,31084,1,0,0:0:0:0:
284,88,31174,1,0,0:0:0:0:
260,76,31219,1,0,0:0:0:0:
232,64,31265,1,0,0:0:0:0:
372,56,31355,1,8,0:0:0:0:
344,56,31445,1,8,0:0:0:0:
400,56,31536,1,0,0:0:0:0:
344,52,31626,1,8,0:0:0:0:
372,56,31671,1,8,0:0:0:0:
372,56,31716,1,0,0:0:0:0:
372,56,31762,1,0,0:0:0:0:
372,56,31807,1,8,0:0:0:0:
372,56,31897,1,8,0:0:0:0:
372,56,31987,1,8,0:0:0:0:
372,56,32078,1,0,0:0:0:0:
344,60,32123,1,0,0:0:0:0:
316,64,32168,1,0,0:0:0:0:
316,64,32259,1,0,0:0:0:0:
316,64,32349,1,0,0:0:0:0:
316,64,32439,1,8,0:0:0:0:
368,84,32530,1,0,0:0:0:0:
344,52,32620,1,0,0:0:0:0:
344,52,32665,1,0,0:0:0:0:
344,60,32710,1,8,0:0:0:0:
344,60,32801,1,0,0:0:0:0:
344,60,32891,1,8,0:0:0:0:
344,60,32981,1,0,0:0:0:0:
344,60,33072,1,8,0:0:0:0:
344,60,33117,1,8,0:0:0:0:
344,60,33162,1,0,0:0:0:0:
340,116,33253,1,8,0:0:0:0:
344,60,33343,1,0,0:0:0:0:
344,88,33388,1,0,0:0:0:0:
344,88,33433,1,8,0:0:0:0:
344,88,33524,1,0,0:0:0:0:
344,88,33614,1,8,0:0:0:0:
344,88,33659,1,8,0:0:0:0:
344,88,33704,1,0,0:0:0:0:
344,88,33795,1,8,0:0:0:0:
344,88,33885,1,0,0:0:0:0:
344,88,33975,1,8,0:0:0:0:
344,88,34021,1,8,0:0:0:0:
344,88,34066,1,8,0:0:0:0:
344,88,34111,1,8,0:0:0:0:
344,88,34156,1,0,0:0:0:0:
364,52,34337,1,0,0:0:0:0:
364,52,34382,1,8,0:0:0:0:
364,52,34427,1,0,0:0:0:0:
364,52,34472,1,8,0:0:0:0:
364,52,34518,1,0,0:0:0:0:
364,52,34563,1,8,0:0:0:0:
364,52,34608,1,0,0:0:0:0:
364,52,34653,1,8,0:0:0:0:
364,52,34698,1,4,0:0:0:0:
336,160,34879,1,0,0:0:0:0:
336,160,34969,1,0,0:0:0:0:
352,104,35060,1,8,0:0:0:0:
448,48,35240,1,0,0:0:0:0:
352,104,35421,1,8,0:0:0:0:
448,48,35602,1,8,0:0:0:0:
400,76,35692,1,0,0:0:0:0:
400,76,35783,1,8,0:0:0:0:
400,76,35873,1,8,0:0:0:0:
400,76,35963,1,0,0:0:0:0:
400,76,36144,1,0,0:0:0:0:
400,76,36325,1,0,0:0:0:0:
400,76,36415,1,0,0:0:0:0:
400,76,36506,1,8,0:0:0:0:
400,76,36686,1,0,0:0:0:0:
400,76,36867,1,8,0:0:0:0:
400,76,36957,1,8,0:0:0:0:
400,76,37048,1,0,0:0:0:0:
400,76,37228,1,8,0:0:0:0:
400,76,37319,1,8,0:0:0:0:
400,76,37409,1,8,0:0:0:0:
400,76,37499,1,8,0:0:0:0:
400,76,37590,1,0,0:0:0:0:
296,120,37771,1,0,0:0:0:0:
348,100,37861,1,0,0:0:0:0:
396,76,37951,1,8,0:0:0:0:
296,128,38132,1,0,0:0:0:0:
396,76,38313,1,8,0:0:0:0:
288,52,38493,1,8,0:0:0:0:
288,52,38584,1,0,0:0:0:0:
192,140,38765,1,8,0:0:0:0:
236,108,38855,1,0,0:0:0:0:
400,64,39036,1,0,0:0:0:0:
400,64,39216,1,0,0:0:0:0:
400,64,39307,1,0,0:0:0:0:
400,64,39397,1,8,0:0:0:0:
400,64,39578,1,0,0:0:0:0:
400,64,39759,1,8,0:0:0:0:
400,64,39939,1,0,0:0:0:0:
400,64,40120,1,8,0:0:0:0:
400,64,40301,1,8,0:0:0:0:
400,64,40481,1,0,0:0:0:0:
400,64,40662,1,8,0:0:0:0:
400,64,40753,1,8,0:0:0:0:
400,64,41024,1,8,0:0:0:0:
348,80,41114,1,8,0:0:0:0:
348,80,41385,1,8,0:0:0:0:
348,80,41475,1,8,0:0:0:0:
348,80,41746,1,8,0:0:0:0:
348,80,41927,1,0,0:0:0:0:
348,80,42108,1,8,0:0:0:0:
232,272,42469,1,8,0:0:0:0:
348,80,42831,1,8,0:0:0:0:
232,272,43192,1,8,0:0:0:0:
268,164,43373,1,0,0:0:0:0:
304,56,43554,1,8,0:0:0:0:
288,108,43644,1,8,0:0:0:0:
296,80,43915,1,8,0:0:0:0:
296,80,44006,1,8,0:0:0:0:
296,80,44277,1,8,0:0:0:0:
296,80,44367,1,8,0:0:0:0:
296,80,44638,1,8,0:0:0:0:
396,32,44819,1,0,0:0:0:0:
352,64,44909,1,0,0:0:0:0:
308,100,44999,1,0,0:0:0:0:
308,100,45180,1,8,0:0:0:0:
308,100,45271,1,0,0:0:0:0:
308,100,45361,1,0,0:0:0:0:
308,100,45451,1,8,0:0:0:0:
308,100,45542,1,8,0:0:0:0:
336,104,45587,1,8,0:0:0:0:
364,108,45632,1,8,0:0:0:0:
364,108,45722,1,0,0:0:0:0:
380,220,45903,1,0,0:0:0:0:
376,192,45948,1,8,0:0:0:0:
372,164,45993,1,0,0:0:0:0:
364,136,46039,1,8,0:0:0:0:
364,136,46084,1,0,0:0:0:0:
364,136,46129,1,8,0:0:0:0:
364,136,46174,1,0,0:0:0:0:
364,136,46219,1,8,0:0:0:0:
364,136,46265,1,4,0:0:0:0:
260,172,46445,1,0,0:0:0:0:
260,172,46536,1,8,0:0:0:0:
148,72,46626,1,8,0:0:0:0:
204,76,46716,1,8,0:0:0:0:
260,80,46807,1,0,0:0:0:0:
240,128,46897,1,8,0:0:0:0:
200,88,46987,1,8,0:0:0:0:
200,88,47078,1,0,0:0:0:0:
276,172,47259,1,0,0:0:0:0:
364,52,47349,1,8,0:0:0:0:
324,156,47530,1,8,0:0:0:0:
300,112,47620,1,0,0:0:0:0:
300,112,47710,1,8,0:0:0:0:
200,88,47891,1,0,0:0:0:0:
236,44,47981,1,8,0:0:0:0:
236,44,48072,1,8,0:0:0:0:
236,44,48162,1,8,0:0:0:0:
236,44,48253,1,0,0:0:0:0:
236,44,48343,1,8,0:0:0:0:
236,44,48433,1,8,0:0:0:0:
236,44,48524,1,0,0:0:0:0:
188,144,48704,1,0,0:0:0:0:
212,92,48795,1,8,0:0:0:0:
224,64,48975,1,8,0:0:0:0:
224,64,49066,1,0,0:0:0:0:
224,64,49156,1,8,0:0:0:0:
200,88,49337,1,0,0:0:0:0:
236,44,49427,1,8,0:0:0:0:
236,44,49518,1,8,0:0:0:0:
236,44,49608,1,8,0:0:0:0:
236,44,49699,1,0,0:0:0:0:
236,44,49789,1,8,0:0:0:0:
236,44,49879,1,8,0:0:0:0:
236,44,49970,1,0,0:0:0:0:
188,144,50150,1,0,0:0:0:0:
212,92,50241,1,8,0:0:0:0:
224,64,50421,1,8,0:0:0:0:
224,64,50512,1,0,0:0:0:0:
224,64,50602,1,8,0:0:0:0:
200,88,50783,1,0,0:0:0:0:
236,44,50873,1,8,0:0:0:0:
236,44,50964,1,8,0:0:0:0:
236,44,51054,1,8,0:0:0:0:
236,44,51145,1,0,0:0:0:0:
236,44,51235,1,8,0:0:0:0:
236,44,51325,1,8,0:0:0:0:
236,44,51416,1,0,0:0:0:0:
188,144,51596,1,0,0:0:0:0:
212,92,51687,1,8,0:0:0:0:
224,64,51867,1,8,0:0:0:0:
224,64,51958,1,8,0:0:0:0:
224,64,52048,1,0,0:0:0:0:
200,88,52228,1,0,0:0:0:0:
236,44,52318,1,8,0:0:0:0:
236,44,52409,1,8,0:0:0:0:
236,44,52499,1,8,0:0:0:0:
236,44,52590,1,0,0:0:0:0:
236,44,52680,1,8,0:0:0:0:
236,44,52770,1,8,0:0:0:0:
236,44,52861,1,0,0:0:0:0:
188,144,53041,1,0,0:0:0:0:
212,92,53132,1,8,0:0:0:0:
224,64,53312,1,8,0:0:0:0:
224,64,53403,1,0,0:0:0:0:
224,64,53493,1,8,0:0:0:0:
200,88,53674,1,0,0:0:0:0:
236,44,53764,1,8,0:0:0:0:
236,44,53855,1,8,0:0:0:0:
236,44,53945,1,8,0:0:0:0:
236,44,54036,1,0,0:0:0:0:
236,44,54126,1,8,0:0:0:0:
236,44,54216,1,8,0:0:0:0:
236,44,54307,1,0,0:0:0:0:
188,144,54487,1,0,0:0:0:0:
212,92,54578,1,8,0:0:0:0:
224,64,54758,1,8,0:0:0:0:
224,64,54849,1,0,0:0:0:0:
224,64,54939,1,8,0:0:0:0:
200,88,55120,1,0,0:0:0:0:
236,44,55210,1,8,0:0:0:0:
236,44,55301,1,8,0:0:0:0:
236,44,55391,1,8,0:0:0:0:
236,44,55482,1,0,0:0:0:0:
236,44,55572,1,8,0:0:0:0:
236,44,55662,1,8,0:0:0:0:
236,44,55753,1,0,0:0:0:0:
188,144,55933,1,0,0:0:0:0:
212,92,56024,1,8,0:0:0:0:
224,64,56204,1,8,0:0:0:0:
224,64,56295,1,0,0:0:0:0:
224,64,56385,1,8,0:0:0:0:
200,88,56566,1,0,0:0:0:0:
236,44,56656,1,8,0:0:0:0:
236,44,56747,1,8,0:0:0:0:
236,44,56837,1,8,0:0:0:0:
236,44,56928,1,0,0:0:0:0:
236,44,57018,1,8,0:0:0:0:
236,44,57108,1,8,0:0:0:0:
236,44,57199,1,0,0:0:0:0:
188,144,57379,1,0,0:0:0:0:
212,92,57470,1,8,0:0:0:0:
224,64,57650,1,8,0:0:0:0:
224,64,57741,1,8,0:0:0:0:
224,64,57831,1,0,0:0:0:0:
200,88,58012,1,0,0:0:0:0:
236,44,58102,1,8,0:0:0:0:
236,44,58193,1,8,0:0:0:0:
236,44,58283,1,8,0:0:0:0:
236,44,58374,1,0,0:0:0:0:
236,44,58464,1,8,0:0:0:0:
236,44,58554,1,8,0:0:0:0:
236,44,58645,1,0,0:0:0:0:
188,144,58825,1,0,0:0:0:0:
212,92,58916,1,8,0:0:0:0:
224,64,59096,1,8,0:0:0:0:
224,64,59187,1,0,0:0:0:0:
224,64,59277,1,8,0:0:0:0:
200,88,59457,1,0,0:0:0:0:
236,44,59547,1,8,0:0:0:0:
236,44,59638,1,8,0:0:0:0:
236,44,59728,1,8,0:0:0:0:
236,44,59819,1,0,0:0:0:0:
236,44,59909,1,8,0:0:0:0:
236,44,59999,1,8,0:0:0:0:
236,44,60090,1,0,0:0:0:0:
188,144,60270,1,0,0:0:0:0:
212,92,60361,1,8,0:0:0:0:
224,64,60541,1,8,0:0:0:0:
224,64,60632,1,0,0:0:0:0:
224,64,60722,1,8,0:0:0:0:
200,88,60903,1,0,0:0:0:0:
236,44,60993,1,8,0:0:0:0:
236,44,61084,1,8,0:0:0:0:
236,44,61174,1,8,0:0:0:0:
236,44,61265,1,0,0:0:0:0:
236,44,61355,1,8,0:0:0:0:
236,44,61445,1,8,0:0:0:0:
236,44,61536,1,0,0:0:0:0:
188,144,61716,1,0,0:0:0:0:
212,92,61807,1,8,0:0:0:0:
224,64,61987,1,8,0:0:0:0:
224,64,62078,1,0,0:0:0:0:
224,64,62168,1,8,0:0:0:0:
200,88,62349,1,0,0:0:0:0:
236,44,62439,1,8,0:0:0:0:
236,44,62530,1,8,0:0:0:0:
236,44,62620,1,8,0:0:0:0:
236,44,62711,1,0,0:0:0:0:
236,44,62801,1,8,0:0:0:0:
236,44,62891,1,8,0:0:0:0:
236,44,62982,1,0,0:0:0:0:
188,144,63162,1,0,0:0:0:0:
212,92,63253,1,8,0:0:0:0:
224,64,63433,1,8,0:0:0:0:
224,64,63524,1,0,0:0:0:0:
224,64,63614,1,8,0:0:0:0:
200,88,63795,1,8,0:0:0:0:
236,44,63885,1,8,0:0:0:0:
236,44,63976,1,8,0:0:0:0:
236,44,64066,1,8,0:0:0:0:
236,44,64247,1,8,0:0:0:0:
236,44,64337,1,8,0:0:0:0:
236,44,64428,1,8,0:0:0:0:
188,144,64608,1,8,0:0:0:0:
212,92,64699,1,8,0:0:0:0:
224,64,64879,1,8,0:0:0:0:
224,64,65060,1,8,0:0:0:0:
276,84,65150,1,8,0:0:0:0:
380,124,65331,1,8,0:0:0:0:
328,104,65421,1,8,0:0:0:0:
380,120,65512,1,8,0:0:0:0:
272,88,65692,1,8,0:0:0:0:
328,104,65783,1,8,0:0:0:0:
380,120,65873,1,8,0:0:0:0:
332,92,65963,1,8,0:0:0:0:
332,92,66144,1,8,0:0:0:0:
332,92,66234,1,8,0:0:0:0:
332,92,66325,1,8,0:0:0:0:
336,204,66506,1,8,0:0:0:0:
336,260,66596,1,8,0:0:0:0:
336,148,66777,1,8,0:0:0:0:
336,260,66957,1,8,0:0:0:0:
336,204,67048,1,8,0:0:0:0:
336,316,67228,1,8,0:0:0:0:
336,260,67319,1,8,0:0:0:0:
336,204,67409,1,8,0:0:0:0:
332,316,67590,1,8,0:0:0:0:
332,260,67680,1,8,0:0:0:0:
336,204,67771,1,8,0:0:0:0:
332,260,67861,1,8,0:0:0:0:
376,156,68042,1,8,0:0:0:0:
396,104,68132,1,8,0:0:0:0:
376,156,68222,1,8,0:0:0:0:
376,156,68403,1,8,0:0:0:0:
376,156,68493,1,8,0:0:0:0:
376,156,68674,1,8,0:0:0:0:
376,156,68855,1,8,0:0:0:0:
376,156,69036,1,8,0:0:0:0:
376,156,69081,1,8,0:0:0:0:
352,140,69126,1,8,0:0:0:0:
328,124,69171,1,8,0:0:0:0:
304,112,69216,1,8,0:0:0:0:
280,96,69262,1,8,0:0:0:0:
256,84,69307,1,8,0:0:0:0:
256,84,69352,1,8,0:0:0:0:
256,84,69397,1,0,0:0:0:0:
288,128,69487,1,8,0:0:0:0:
332,160,69578,1,0,0:0:0:0:
376,192,69668,1,8,0:0:0:0:
376,192,69759,1,0,0:0:0:0:
376,192,69849,1,8,0:0:0:0:
376,192,69939,1,0,0:0:0:0:
376,192,70030,1,8,0:0:0:0:
256,84,70120,1,0,0:0:0:0:
288,128,70210,1,8,0:0:0:0:
332,160,70301,1,0,0:0:0:0:
376,192,70391,1,8,0:0:0:0:
376,192,70482,1,0,0:0:0:0:
376,192,70572,1,8,0:0:0:0:
376,192,70662,1,0,0:0:0:0:
376,192,70753,1,8,0:0:0:0:
256,84,70843,1,0,0:0:0:0:
288,128,70933,1,8,0:0:0:0:
332,160,71024,1,0,0:0:0:0:
376,192,71114,1,8,0:0:0:0:
376,192,71205,1,0,0:0:0:0:
376,192,71295,1,8,0:0:0:0:
376,192,71385,1,0,0:0:0:0:
376,192,71476,1,8,0:0:0:0:
256,84,71566,1,0,0:0:0:0:
288,128,71656,1,8,0:0:0:0:
332,160,71747,1,0,0:0:0:0:
376,192,71837,1,8,0:0:0:0:
376,192,71928,1,0,0:0:0:0:
376,192,72018,1,8,0:0:0:0:
376,192,72108,1,0,0:0:0:0:
376,192,72199,1,8,0:0:0:0:
376,136,72289,1,0,0:0:0:0:
352,84,72379,1,8,0:0:0:0:
352,84,72409,1,8,0:0:0:0:
352,84,72469,1,0,0:0:0:0:
296,96,72560,1,8,0:0:0:0:
276,96,72590,1,8,0:0:0:0:
240,92,72650,1,0,0:0:0:0:
352,84,72740,1,8,0:0:0:0:
352,84,72770,1,8,0:0:0:0:
352,84,72830,1,0,0:0:0:0:
296,96,72921,1,8,0:0:0:0:
276,96,72951,1,8,0:0:0:0:
240,92,73011,1,0,0:0:0:0:
352,84,73102,1,8,0:0:0:0:
352,84,73132,1,8,0:0:0:0:
352,84,73192,1,0,0:0:0:0:
296,96,73283,1,8,0:0:0:0:
276,96,73313,1,8,0:0:0:0:
240,92,73373,1,0,0:0:0:0:
352,84,73463,1,8,0:0:0:0:
352,84,73493,1,8,0:0:0:0:
352,84,73553,1,0,0:0:0:0:
296,96,73644,1,8,0:0:0:0:
276,96,73674,1,8,0:0:0:0:
240,92,73734,1,0,0:0:0:0:
352,84,73825,1,8,0:0:0:0:
352,84,73855,1,8,0:0:0:0:
352,84,73915,1,0,0:0:0:0:
296,96,74006,1,8,0:0:0:0:
276,96,74036,1,8,0:0:0:0:
240,92,74096,1,0,0:0:0:0:
352,84,74186,1,8,0:0:0:0:
352,84,74216,1,8,0:0:0:0:
352,84,74276,1,0,0:0:0:0:
296,96,74367,1,8,0:0:0:0:
276,96,74397,1,8,0:0:0:0:
240,92,74457,1,0,0:0:0:0:
352,84,74548,1,8,0:0:0:0:
352,84,74578,1,8,0:0:0:0:
352,84,74638,1,0,0:0:0:0:
296,96,74729,1,8,0:0:0:0:
276,96,74759,1,8,0:0:0:0:
240,92,74819,1,0,0:0:0:0:
352,84,74909,1,8,0:0:0:0:
352,84,74939,1,8,0:0:0:0:
352,84,74999,1,0,0:0:0:0:
296,96,75090,1,8,0:0:0:0:
276,96,75120,1,8,0:0:0:0:
240,92,75180,1,0,0:0:0:0:
296,100,75271,1,0,0:0:0:0:
324,104,75316,1,8,0:0:0:0:
324,104,75361,1,0,0:0:0:0:
324,104,75451,1,0,0:0:0:0:
324,104,75496,1,8,0:0:0:0:
324,104,75542,1,0,0:0:0:0:
324,104,75632,1,0,0:0:0:0:
324,104,75677,1,8,0:0:0:0:
324,104,75722,1,0,0:0:0:0:
324,104,75813,1,0,0:0:0:0:
324,104,75858,1,8,0:0:0:0:
324,104,75903,1,0,0:0:0:0:
324,104,75993,1,0,0:0:0:0:
324,104,76039,1,8,0:0:0:0:
324,104,76084,1,0,0:0:0:0:
324,104,76174,1,0,0:0:0:0:
324,104,76219,1,8,0:0:0:0:
324,104,76265,1,0,0:0:0:0:
324,104,76355,1,0,0:0:0:0:
324,104,76400,1,8,0:0:0:0:
324,104,76445,1,0,0:0:0:0:
324,104,76536,1,0,0:0:0:0:
324,104,76581,1,8,0:0:0:0:
324,104,76626,1,0,0:0:0:0:
268,116,76716,1,0,0:0:0:0:
296,108,76762,1,8,0:0:0:0:
296,108,76807,1,0,0:0:0:0:
296,108,76897,1,0,0:0:0:0:
296,108,76942,1,8,0:0:0:0:
296,108,76987,1,0,0:0:0:0:
296,108,77078,1,0,0:0:0:0:
296,108,77123,1,8,0:0:0:0:
296,108,77168,1,0,0:0:0:0:
296,108,77259,1,0,0:0:0:0:
296,108,77304,1,8,0:0:0:0:
296,108,77349,1,0,0:0:0:0:
348,92,77439,1,0,0:0:0:0:
348,92,77484,1,8,0:0:0:0:
348,92,77530,1,0,0:0:0:0:
348,92,77620,1,0,0:0:0:0:
348,92,77665,1,8,0:0:0:0:
348,92,77710,1,0,0:0:0:0:
348,92,77801,1,0,0:0:0:0:
348,92,77846,1,8,0:0:0:0:
348,92,77891,1,0,0:0:0:0:
348,92,77981,1,0,0:0:0:0:
348,92,78027,1,8,0:0:0:0:
348,92,78072,1,0,0:0:0:0:
380,112,78132,1,0,0:0:0:0:
336,120,78207,1,8,0:0:0:0:
348,92,78253,1,0,0:0:0:0:
380,112,78313,1,0,0:0:0:0:
336,120,78388,1,8,0:0:0:0:
348,92,78433,1,0,0:0:0:0:
380,112,78493,1,0,0:0:0:0:
336,120,78568,1,8,0:0:0:0:
348,92,78614,1,0,0:0:0:0:
380,112,78674,1,0,0:0:0:0:
336,120,78749,1,8,0:0:0:0:
348,92,78795,1,0,0:0:0:0:
380,112,78855,1,0,0:0:0:0:
336,120,78930,1,8,0:0:0:0:
348,92,78976,1,0,0:0:0:0:
380,112,79036,1,0,0:0:0:0:
336,120,79111,1,8,0:0:0:0:
348,92,79156,1,0,0:0:0:0:
380,112,79216,1,0,0:0:0:0:
336,120,79291,1,8,0:0:0:0:
348,92,79337,1,0,0:0:0:0:
380,112,79397,1,0,0:0:0:0:
336,120,79472,1,8,0:0:0:0:
348,92,79518,1,0,0:0:0:0:
380,112,79578,1,0,0:0:0:0:
336,120,79653,1,8,0:0:0:0:
348,92,79699,1,0,0:0:0:0:
380,112,79759,1,0,0:0:0:0:
336,120,79834,1,8,0:0:0:0:
348,92,79879,1,0,0:0:0:0:
380,112,79939,1,0,0:0:0:0:
336,120,80014,1,8,0:0:0:0:
348,92,80060,1,0,0:0:0:0:
380,112,80120,1,0,0:0:0:0:
336,120,80195,1,8,0:0:0:0:
348,92,80240,1,0,0:0:0:0:
380,112,80300,1,0,0:0:0:0:
336,120,80375,1,8,0:0:0:0:
348,92,80421,1,0,0:0:0:0:
380,112,80481,1,0,0:0:0:0:
336,120,80556,1,8,0:0:0:0:
348,92,80601,1,0,0:0:0:0:
380,112,80661,1,0,0:0:0:0:
336,120,80736,1,8,0:0:0:0:
348,92,80782,1,0,0:0:0:0:
380,112,80842,1,0,0:0:0:0:
336,120,80917,1,8,0:0:0:0:
364,120,80963,1,4,0:0:0:0:
420,120,81054,1,0,0:0:0:0:
420,120,81144,1,8,0:0:0:0:
368,140,81234,1,0,0:0:0:0:
420,124,81325,1,8,0:0:0:0:
368,140,81415,1,8,0:0:0:0:
420,124,81506,1,0,0:0:0:0:
368,108,81596,1,0,0:0:0:0:
336,120,81686,1,8,0:0:0:0:
336,120,81731,1,8,0:0:0:0:
336,120,81777,1,8,0:0:0:0:
336,120,81867,1,0,0:0:0:0:
336,120,82048,1,0,0:0:0:0:
336,120,82093,1,8,0:0:0:0:
336,120,82138,1,0,0:0:0:0:
336,120,82183,1,8,0:0:0:0:
336,120,82228,1,0,0:0:0:0:
336,120,82274,1,8,0:0:0:0:
336,120,82319,1,0,0:0:0:0:
336,120,82364,1,8,0:0:0:0:
336,120,82409,1,4,0:0:0:0:
356,156,82499,1,0,0:0:0:0:
356,156,82545,1,0,0:0:0:0:
356,156,82590,1,8,0:0:0:0:
356,156,82680,1,0,0:0:0:0:
356,156,82771,1,8,0:0:0:0:
356,156,82861,1,8,0:0:0:0:
384,124,82951,1,8,0:0:0:0:
384,124,82996,1,8,0:0:0:0:
384,124,83042,1,0,0:0:0:0:
384,124,83132,1,0,0:0:0:0:
384,124,83222,1,0,0:0:0:0:
384,124,83313,1,8,0:0:0:0:
384,124,83403,1,0,0:0:0:0:
384,124,83448,1,0,0:0:0:0:
384,124,83493,1,8,0:0:0:0:
384,124,83539,1,8,0:0:0:0:
384,124,83584,1,0,0:0:0:0:
348,100,83674,1,8,0:0:0:0:
312,76,83765,1,0,0:0:0:0:
312,76,83855,1,8,0:0:0:0:
312,76,83945,1,8,0:0:0:0:
312,76,83990,1,8,0:0:0:0:
312,76,84036,1,8,0:0:0:0:
312,76,84126,1,8,0:0:0:0:
312,76,84171,1,8,0:0:0:0:
312,76,84216,1,8,0:0:0:0:
312,76,84262,1,8,0:0:0:0:
312,76,84307,1,0,0:0:0:0:
312,76,84397,1,0,0:0:0:0:
312,76,84487,1,8,0:0:0:0:
312,76,84578,1,0,0:0:0:0:
312,76,84668,1,0,0:0:0:0:
312,76,84713,1,0,0:0:0:0:
312,76,84759,1,8,0:0:0:0:
312,76,84849,1,0,0:0:0:0:
312,76,84939,1,0,0:0:0:0:
312,76,84984,1,0,0:0:0:0:
312,76,85030,1,0,0:0:0:0:
312,76,85120,1,8,0:0:0:0:
312,76,85210,1,0,0:0:0:0:
312,76,85301,1,8,0:0:0:0:
312,76,85391,1,8,0:0:0:0:
312,76,85436,1,8,0:0:0:0:
312,76,85481,1,8,0:0:0:0:
312,76,85572,1,0,0:0:0:0:
312,76,85662,1,0,0:0:0:0:
312,76,85707,1,0,0:0:0:0:
312,76,85753,1,0,0:0:0:0:
312,76,85843,1,0,0:0:0:0:
312,76,85933,1,8,0:0:0:0:
312,76,86024,1,0,0:0:0:0:
272,72,86114,1,0,0:0:0:0:
252,68,86159,1,0,0:0:0:0:
232,64,86204,1,8,0:0:0:0:
232,64,86295,1,0,0:0:0:0:
252,68,86340,1,0,0:0:0:0:
272,72,86385,1,8,0:0:0:0:
292,76,86430,1,8,0:0:0:0:
312,80,86475,1,0,0:0:0:0:
352,92,86566,1,8,0:0:0:0:
392,104,86656,1,0,0:0:0:0:
392,104,86746,1,8,0:0:0:0:
392,148,86837,1,8,0:0:0:0:
392,168,86882,1,8,0:0:0:0:
392,188,86927,1,8,0:0:0:0:
400,228,87018,1,0,0:0:0:0:
400,228,87108,1,8,0:0:0:0:
400,228,87153,1,8,0:0:0:0:
400,228,87198,1,0,0:0:0:0:
400,228,87289,1,0,0:0:0:0:
400,228,87379,1,8,0:0:0:0:
400,228,87469,1,0,0:0:0:0:
400,228,87560,1,8,0:0:0:0:
400,228,87650,1,0,0:0:0:0:
400,228,87740,1,8,0:0:0:0:
400,228,87831,1,0,0:0:0:0:
400,228,87876,1,8,0:0:0:0:
400,228,87921,1,0,0:0:0:0:
400,228,87966,1,8,0:0:0:0:
400,228,88012,1,0,0:0:0:0:
400,228,88057,1,8,0:0:0:0:
400,228,88102,1,0,0:0:0:0:
400,228,88147,1,8,0:0:0:0:
400,228,88192,1,0,0:0:0:0:
416,188,88283,1,0,0:0:0:0:
412,136,88328,1,0,0:0:0:0:
400,148,88373,1,8,0:0:0:0:
384,108,88463,1,0,0:0:0:0:
384,108,88554,1,0,0:0:0:0:
384,108,88599,1,0,0:0:0:0:
412,136,88644,1,8,0:0:0:0:
384,108,88734,1,0,0:0:0:0:
412,136,88825,1,8,0:0:0:0:
412,136,88915,1,0,0:0:0:0:
412,136,89006,1,0,0:0:0:0:
412,136,89051,1,0,0:0:0:0:
412,136,89096,1,8,0:0:0:0:
412,136,89186,1,0,0:0:0:0:
412,136,89277,1,8,0:0:0:0:
412,136,89322,1,8,0:0:0:0:
412,136,89367,1,0,0:0:0:0:
412,136,89457,1,8,0:0:0:0:
412,136,89548,1,0,0:0:0:0:
412,136,89638,1,8,0:0:0:0:
412,136,89683,1,8,0:0:0:0:
412,136,89728,1,0,0:0:0:0:
412,136,89819,1,8,0:0:0:0:
412,136,89909,1,8,0:0:0:0:
412,136,89954,1,8,0:0:0:0:
412,136,89999,1,0,0:0:0:0:
412,136,90090,1,0,0:0:0:0:
372,124,90180,1,8,0:0:0:0:
332,112,90271,1,0,0:0:0:0:
292,112,90361,1,0,0:0:0:0:
252,112,90451,1,0,0:0:0:0:
272,112,90496,1,0,0:0:0:0:
272,112,90542,1,8,0:0:0:0:
272,112,90632,1,0,0:0:0:0:
272,112,90677,1,0,0:0:0:0:
272,112,90722,1,8,0:0:0:0:
272,112,90768,1,8,0:0:0:0:
272,112,90813,1,0,0:0:0:0:
272,112,90903,1,8,0:0:0:0:
272,112,90948,1,8,0:0:0:0:
272,112,90993,1,0,0:0:0:0:
272,112,91039,1,0,0:0:0:0:
272,112,91084,1,8,0:0:0:0:
312,108,91174,1,8,0:0:0:0:
356,108,91265,1,8,0:0:0:0:
356,108,91355,1,0,0:0:0:0:
368,124,91400,1,0,0:0:0:0:
380,140,91445,1,0,0:0:0:0:
404,176,91536,1,0,0:0:0:0:
428,208,91626,1,0,0:0:0:0:
456,240,91716,1,8,0:0:0:0:
428,208,91807,1,8,0:0:0:0:
440,224,91852,1,8,0:0:0:0:
440,224,91897,1,0,0:0:0:0:
440,224,91987,1,8,0:0:0:0:
440,224,92078,1,0,0:0:0:0:
440,224,92123,1,0,0:0:0:0:
440,224,92168,1,8,0:0:0:0:
440,224,92213,1,8,0:0:0:0:
440,224,92259,1,0,0:0:0:0:
440,224,92349,1,8,0:0:0:0:
440,224,92439,1,0,0:0:0:0:
440,224,92530,1,0,0:0:0:0:
440,224,92575,1,8,0:0:0:0:
440,224,92620,1,8,0:0:0:0:
440,224,92665,1,0,0:0:0:0:
440,224,92710,1,8,0:0:0:0:
440,224,92756,1,8,0:0:0:0:
440,224,92801,1,0,0:0:0:0:
440,224,92846,1,8,0:0:0:0:
440,224,92891,1,8,0:0:0:0:
440,224,92936,1,0,0:0:0:0:
440,224,92981,1,8,0:0:0:0:
440,224,93027,1,8,0:0:0:0:
440,224,93072,1,0,0:0:0:0:
440,224,93117,1,0,0:0:0:0:
440,224,93162,1,8,0:0:0:0:
440,224,93207,1,8,0:0:0:0:
440,224,93253,1,0,0:0:0:0:
440,224,93298,1,8,0:0:0:0:
440,224,93343,1,8,0:0:0:0:
440,224,93388,1,8,0:0:0:0:
440,224,93433,1,0,0:0:0:0:
388,156,93614,1,0,0:0:0:0:
388,156,93659,1,8,0:0:0:0:
388,156,93704,1,0,0:0:0:0:
388,156,93749,1,8,0:0:0:0:
388,156,93795,1,0,0:0:0:0:
388,156,93840,1,8,0:0:0:0:
388,156,93885,1,0,0:0:0:0:
388,156,93930,1,8,0:0:0:0:
388,156,93975,1,0,0:0:0:0:
332,164,94066,1,0,0:0:0:0:
304,168,94111,1,0,0:0:0:0:
276,172,94156,1,8,0:0:0:0:
220,184,94246,1,8,0:0:0:0:
220,184,94337,1,0,0:0:0:0:
264,152,94427,1,0,0:0:0:0:
312,120,94518,1,8,0:0:0:0:
360,88,94563,1,8,0:0:0:0:
360,88,94608,1,8,0:0:0:0:
360,88,94653,1,8,0:0:0:0:
360,88,94698,1,0,0:0:0:0:
384,140,94789,1,8,0:0:0:0:
364,88,94879,1,8,0:0:0:0:
384,140,94969,1,0,0:0:0:0:
364,88,95060,1,8,0:0:0:0:
372,116,95105,1,8,0:0:0:0:
372,116,95150,1,8,0:0:0:0:
372,116,95240,1,8,0:0:0:0:
372,116,95331,1,8,0:0:0:0:
372,116,95421,1,0,0:0:0:0:
372,116,95512,1,0,0:0:0:0:
372,116,95557,1,0,0:0:0:0:
372,116,95602,1,8,0:0:0:0:
316,112,95692,1,0,0:0:0:0:
364,88,95783,1,8,0:0:0:0:
364,88,95828,1,8,0:0:0:0:
364,88,95873,1,0,0:0:0:0:
364,88,95963,1,0,0:0:0:0:
364,88,96054,1,8,0:0:0:0:
364,88,96144,1,0,0:0:0:0:
364,88,96234,1,0,0:0:0:0:
364,88,96325,1,8,0:0:0:0:
364,88,96370,1,8,0:0:0:0:
364,88,96415,1,8,0:0:0:0:
364,88,96460,1,8,0:0:0:0:
364,88,96506,1,0,0:0:0:0:
364,88,96596,1,0,0:0:0:0:
364,88,96686,1,8,0:0:0:0:
312,68,96777,1,0,0:0:0:0:
364,88,96867,1,8,0:0:0:0:
416,108,96957,1,8,0:0:0:0:
416,108,97003,1,8,0:0:0:0:
416,108,97048,1,8,0:0:0:0:
416,108,97138,1,0,0:0:0:0:
416,108,97228,1,0,0:0:0:0:
416,108,97274,1,0,0:0:0:0:
416,108,97319,1,0,0:0:0:0:
416,108,97409,1,0,0:0:0:0:
416,108,97499,1,8,0:0:0:0:
416,108,97590,1,0,0:0:0:0:
416,108,97680,1,0,0:0:0:0:
416,108,97725,1,0,0:0:0:0:
416,108,97771,1,8,0:0:0:0:
416,108,97861,1,0,0:0:0:0:
416,108,97906,1,0,0:0:0:0:
416,108,97951,1,8,0:0:0:0:
416,108,97996,1,8,0:0:0:0:
416,108,98042,1,0,0:0:0:0:
416,108,98132,1,8,0:0:0:0:
416,108,98222,1,0,0:0:0:0:
416,108,98313,1,8,0:0:0:0:
416,108,98493,1,8,0:0:0:0:
416,108,98674,1,0,0:0:0:0:
484,20,98855,1,0,0:0:0:0:
468,40,98900,1,0,0:0:0:0:
388,120,98945,1,0,0:0:0:0:
388,120,98975,1,0,0:0:0:0:
388,120,99006,1,0,0:0:0:0:
388,120,99036,1,8,0:0:0:0:
336,144,99126,1,0,0:0:0:0:
388,120,99216,1,8,0:0:0:0:
332,120,99307,1,8,0:0:0:0:
416,108,99397,1,0,0:0:0:0:
416,108,99442,1,8,0:0:0:0:
416,108,99487,1,0,0:0:0:0:
416,108,99533,1,8,0:0:0:0:
416,108,99578,1,0,0:0:0:0:
416,108,99623,1,8,0:0:0:0:
416,108,99668,1,0,0:0:0:0:
416,108,99713,1,8,0:0:0:0:
416,108,99759,1,0,0:0:0:0:
360,108,99849,1,0,0:0:0:0:
360,108,99894,1,0,0:0:0:0:
360,108,99939,1,8,0:0:0:0:
360,108,100030,1,8,0:0:0:0:
360,108,100120,1,0,0:0:0:0:
360,108,100210,1,8,0:0:0:0:
360,108,100301,1,0,0:0:0:0:
360,108,100346,1,0,0:0:0:0:
360,108,100391,1,8,0:0:0:0:
360,108,100436,1,8,0:0:0:0:
360,108,100481,1,0,0:0:0:0:
360,108,100572,1,8,0:0:0:0:
360,108,100617,1,0,0:0:0:0:
360,108,100662,1,8,0:0:0:0:
304,108,100753,1,8,0:0:0:0:
304,108,100843,1,0,0:0:0:0:
304,108,100888,1,0,0:0:0:0:
304,108,100933,1,0,0:0:0:0:
304,108,101024,1,8,0:0:0:0:
304,108,101069,1,8,0:0:0:0:
304,108,101114,1,0,0:0:0:0:
304,108,101159,1,0,0:0:0:0:
304,108,101204,1,8,0:0:0:0:
360,108,101295,1,8,0:0:0:0:
360,108,101385,1,8,0:0:0:0:
360,108,101475,1,0,0:0:0:0:
360,108,101521,1,0,0:0:0:0:
360,108,101566,1,8,0:0:0:0:
360,108,101656,1,0,0:0:0:0:
360,108,101746,1,0,0:0:0:0:
360,108,101837,1,8,0:0:0:0:
360,108,101927,1,0,0:0:0:0:
360,108,102018,1,0,0:0:0:0:
360,108,102063,1,0,0:0:0:0:
360,108,102108,1,8,0:0:0:0:
360,108,102198,1,8,0:0:0:0:
360,108,102289,1,0,0:0:0:0:
360,108,102334,1,0,0:0:0:0:
360,108,102379,1,0,0:0:0:0:
360,108,102424,1,0,0:0:0:0:
360,108,102469,1,8,0:0:0:0:
360,108,102560,1,0,0:0:0:0:
328,60,102650,1,8,0:0:0:0:
328,60,102695,1,0,0:0:0:0:
328,60,102740,1,0,0:0:0:0:
328,60,102831,1,8,0:0:0:0:
328,60,102876,1,0,0:0:0:0:
328,60,102921,1,0,0:0:0:0:
328,60,103012,1,0,0:0:0:0:
328,60,103057,1,0,0:0:0:0:
328,60,103102,1,8,0:0:0:0:
328,60,103192,1,0,0:0:0:0:
328,60,103237,1,0,0:0:0:0:
328,60,103283,1,8,0:0:0:0:
328,60,103373,1,0,0:0:0:0:
328,60,103463,1,0,0:0:0:0:
328,60,103554,1,8,0:0:0:0:
328,60,103644,1,0,0:0:0:0:
328,60,103689,1,0,0:0:0:0:
328,60,103734,1,8,0:0:0:0:
328,60,103825,1,0,0:0:0:0:
328,60,103915,1,8,0:0:0:0:
328,60,103960,1,8,0:0:0:0:
328,60,104006,1,8,0:0:0:0:
328,60,104051,1,8,0:0:0:0:
328,60,104096,1,8,0:0:0:0:
352,112,104186,1,0,0:0:0:0:
352,112,104231,1,0,0:0:0:0:
352,112,104277,1,0,0:0:0:0:
304,88,104367,1,8,0:0:0:0:
256,64,104457,1,0,0:0:0:0:
280,76,104503,1,0,0:0:0:0:
280,76,104548,1,0,0:0:0:0:
280,76,104638,1,8,0:0:0:0:
280,76,104728,1,0,0:0:0:0:
352,112,104819,1,8,0:0:0:0:
352,112,104864,1,8,0:0:0:0:
352,112,104909,1,8,0:0:0:0:
352,112,104954,1,8,0:0:0:0:
352,112,104999,1,0,0:0:0:0:
352,112,105180,1,0,0:0:0:0:
352,112,105225,1,8,0:0:0:0:
352,112,105271,1,0,0:0:0:0:
352,112,105316,1,8,0:0:0:0:
352,112,105361,1,0,0:0:0:0:
352,112,105406,1,8,0:0:0:0:
352,112,105451,1,0,0:0:0:0:
352,112,105496,1,8,0:0:0:0:
352,112,105542,1,4,0:0:0:0:
304,80,105632,1,8,0:0:0:0:
352,104,105722,1,8,0:0:0:0:
352,104,105813,1,8,0:0:0:0:
296,100,105903,1,0,0:0:0:0:
304,80,105993,1,8,0:0:0:0:
304,80,106084,1,8,0:0:0:0:
304,80,106174,1,8,0:0:0:0:
300,136,106265,1,0,0:0:0:0:
292,192,106355,1,0,0:0:0:0:
292,192,106445,1,8,0:0:0:0:
292,192,106626,1,8,0:0:0:0:
292,192,106716,1,8,0:0:0:0:
292,192,106807,1,0,0:0:0:0:
316,144,106897,1,0,0:0:0:0:
292,192,106987,1,8,0:0:0:0:
316,140,107078,1,8,0:0:0:0:
344,92,107168,1,8,0:0:0:0:
316,140,107259,1,0,0:0:0:0:
344,92,107349,1,8,0:0:0:0:
316,140,107439,1,8,0:0:0:0:
344,92,107530,1,8,0:0:0:0:
376,136,107620,1,8,0:0:0:0:
332,88,107710,1,0,0:0:0:0:
316,144,107801,1,8,0:0:0:0:
332,92,107891,1,8,0:0:0:0:
332,92,107981,1,8,0:0:0:0:
332,92,108072,1,0,0:0:0:0:
332,92,108162,1,0,0:0:0:0:
332,92,108253,1,8,0:0:0:0:
424,156,108433,1,8,0:0:0:0:
376,124,108524,1,8,0:0:0:0:
332,92,108614,1,0,0:0:0:0:
376,124,108704,1,0,0:0:0:0:
332,92,108795,1,0,0:0:0:0:
376,124,108885,1,8,0:0:0:0:
332,92,108975,1,8,0:0:0:0:
376,124,109066,1,8,0:0:0:0:
332,92,109156,1,0,0:0:0:0:
376,124,109246,1,0,0:0:0:0:
332,92,109337,1,8,0:0:0:0:
332,92,109518,1,8,0:0:0:0:
376,124,109608,1,8,0:0:0:0:
332,92,109698,1,0,0:0:0:0:
332,92,109789,1,0,0:0:0:0:
332,92,109879,1,8,0:0:0:0:
284,64,109969,1,8,0:0:0:0:
284,64,110060,1,8,0:0:0:0:
284,64,110150,1,0,0:0:0:0:
284,64,110240,1,8,0:0:0:0:
284,64,110331,1,8,0:0:0:0:
284,64,110421,1,8,0:0:0:0:
284,64,110512,1,8,0:0:0:0:
284,64,110602,1,0,0:0:0:0:
284,64,110692,1,8,0:0:0:0:
284,64,110783,1,8,0:0:0:0:
284,64,110873,1,8,0:0:0:0:
284,64,110963,1,0,0:0:0:0:
284,64,111054,1,0,0:0:0:0:
284,64,111144,1,8,0:0:0:0:
396,80,111325,1,0,0:0:0:0:
340,72,111415,1,8,0:0:0:0:
284,64,111506,1,8,0:0:0:0:
340,72,111596,1,8,0:0:0:0:
284,64,111686,1,0,0:0:0:0:
340,72,111777,1,8,0:0:0:0:
284,64,111867,1,8,0:0:0:0:
340,72,111957,1,8,0:0:0:0:
284,60,112048,1,0,0:0:0:0:
336,76,112138,1,8,0:0:0:0:
284,56,112228,1,8,0:0:0:0:
336,80,112319,1,0,0:0:0:0:
284,56,112409,1,8,0:0:0:0:
336,80,112499,1,8,0:0:0:0:
284,56,112590,1,0,0:0:0:0:
336,80,112680,1,8,0:0:0:0:
284,56,112771,1,0,0:0:0:0:
288,112,112861,1,8,0:0:0:0:
288,112,112951,1,8,0:0:0:0:
236,132,113042,1,8,0:0:0:0:
288,112,113132,1,0,0:0:0:0:
288,112,113222,1,8,0:0:0:0:
288,112,113313,1,8,0:0:0:0:
236,132,113403,1,8,0:0:0:0:
288,112,113493,1,0,0:0:0:0:
236,132,113584,1,8,0:0:0:0:
288,112,113674,1,8,0:0:0:0:
236,132,113765,1,0,0:0:0:0:
288,112,113855,1,8,0:0:0:0:
236,132,113945,1,8,0:0:0:0:
288,112,114036,1,0,0:0:0:0:
236,132,114126,1,8,0:0:0:0:
288,112,114216,1,0,0:0:0:0:
324,68,114307,1,8,0:0:0:0:
324,68,114397,1,8,0:0:0:0:
324,68,114487,1,8,0:0:0:0:
308,120,114578,1,8,0:0:0:0:
324,68,114668,1,8,0:0:0:0:
324,68,114759,1,8,0:0:0:0:
324,68,114849,1,8,0:0:0:0:
324,68,114939,1,0,0:0:0:0:
324,68,115030,1,8,0:0:0:0:
324,68,115120,1,8,0:0:0:0:
336,140,115210,1,8,0:0:0:0:
324,68,115301,1,8,0:0:0:0:
324,68,115391,1,8,0:0:0:0:
336,140,115481,1,8,0:0:0:0:
336,140,115572,1,0,0:0:0:0:
324,68,115662,1,0,0:0:0:0:
324,68,115753,1,0,0:0:0:0:
324,68,115843,1,0,0:0:0:0:
324,68,115933,1,0,0:0:0:0:
324,68,116024,1,8,0:0:0:0:
332,104,116084,1,0,0:0:0:0:
336,140,116144,1,0,0:0:0:0:
336,140,116204,1,8,0:0:0:0:
392,152,116295,1,0,0:0:0:0:
392,152,116385,1,8,0:0:0:0:
392,152,116430,1,8,0:0:0:0:
392,152,116475,1,8,0:0:0:0:
392,152,116566,1,0,0:0:0:0:
392,152,116746,1,0,0:0:0:0:
392,152,116792,1,8,0:0:0:0:
392,152,116837,1,0,0:0:0:0:
392,152,116882,1,8,0:0:0:0:
392,152,116927,1,0,0:0:0:0:
392,152,116972,1,8,0:0:0:0:
392,152,117018,1,0,0:0:0:0:
392,152,117063,1,8,0:0:0:0:
392,152,117108,1,4,0:0:0:0:
280,160,117289,1,8,0:0:0:0:
336,156,117379,1,0,0:0:0:0:
388,172,117469,1,8,0:0:0:0:
336,152,117560,1,0,0:0:0:0:
388,136,117650,1,0,0:0:0:0:
352,180,117740,1,8,0:0:0:0:
388,136,117831,1,0,0:0:0:0:
352,180,117921,1,0,0:0:0:0:
388,136,118012,1,8,0:0:0:0:
388,140,118192,1,8,0:0:0:0:
348,180,118283,1,8,0:0:0:0:
388,144,118373,1,0,0:0:0:0:
352,180,118554,1,8,0:0:0:0:
352,180,118644,1,8,0:0:0:0:
352,180,118734,1,8,0:0:0:0:
352,180,118825,1,0,0:0:0:0:
348,180,119006,1,0,0:0:0:0:
348,180,119096,1,0,0:0:0:0:
348,180,119186,1,8,0:0:0:0:
348,180,119277,1,0,0:0:0:0:
352,180,119367,1,0,0:0:0:0:
348,180,119457,1,0,0:0:0:0:
348,180,119548,1,8,0:0:0:0:
348,180,119638,1,8,0:0:0:0:
348,180,119728,1,0,0:0:0:0:
348,180,119819,1,8,0:0:0:0:
348,180,119999,1,8,0:0:0:0:
348,180,120090,1,8,0:0:0:0:
348,180,120180,1,8,0:0:0:0:
348,180,120271,1,0,0:0:0:0:
380,152,120361,1,0,0:0:0:0:
380,152,120451,1,0,0:0:0:0:
380,152,120542,1,0,0:0:0:0:
380,152,120632,1,8,0:0:0:0:
424,116,120722,1,0,0:0:0:0:
424,116,120813,1,0,0:0:0:0:
424,116,120903,1,8,0:0:0:0:
424,116,121084,1,8,0:0:0:0:
424,116,121174,1,8,0:0:0:0:
424,116,121265,1,0,0:0:0:0:
424,116,121445,1,8,0:0:0:0:
380,152,121536,1,8,0:0:0:0:
380,152,121626,1,8,0:0:0:0:
380,152,121716,1,8,0:0:0:0:
380,152,121807,1,0,0:0:0:0:
380,152,121897,1,8,0:0:0:0:
380,152,121987,1,8,0:0:0:0:
380,152,122078,1,8,0:0:0:0:
380,152,122168,1,0,0:0:0:0:
380,152,122259,1,0,0:0:0:0:
380,152,122349,1,0,0:0:0:0:
380,152,122439,1,8,0:0:0:0:
380,152,122530,1,8,0:0:0:0:
380,152,122620,1,0,0:0:0:0:
380,152,122710,1,8,0:0:0:0:
380,152,122801,1,8,0:0:0:0:
380,152,122891,1,4,0:0:0:0:
408,120,123433,1,0,0:0:0:0:
408,120,123614,1,8,0:0:0:0:
408,120,124156,1,8,0:0:0:0:
408,120,124337,1,0,0:0:0:0:
408,120,124698,1,0,0:0:0:0:
408,120,124879,1,8,0:0:0:0:
408,120,125060,1,8,0:0:0:0:
408,120,125602,1,8,0:0:0:0:
408,120,125783,1,0,0:0:0:0:
408,120,126325,1,0,0:0:0:0:
408,120,126506,1,8,0:0:0:0:
408,120,127048,1,8,0:0:0:0:
408,120,127228,1,0,0:0:0:0:
408,120,127590,1,0,0:0:0:0:
408,120,127771,1,8,0:0:0:0:
408,120,127951,1,8,0:0:0:0:
408,120,128313,1,0,0:0:0:0:
408,120,128493,1,8,0:0:0:0:
304,168,128674,1,12,0:0:0:0:
352,128,133012,1,8,0:0:0:0:
352,128,133102,1,0,0:0:0:0:
352,128,133192,1,8,0:0:0:0:
352,128,133283,1,0,0:0:0:0:
400,156,133373,1,8,0:0:0:0:
376,144,133418,1,8,0:0:0:0:
352,128,133463,1,8,0:0:0:0:
352,128,133554,1,0,0:0:0:0:
352,128,133644,1,8,0:0:0:0:
408,140,133734,1,8,0:0:0:0:
436,144,133780,1,8,0:0:0:0:
436,144,133825,1,8,0:0:0:0:
436,144,133870,1,8,0:0:0:0:
436,144,133915,1,0,0:0:0:0:
436,144,134096,1,0,0:0:0:0:
436,144,134141,1,8,0:0:0:0:
436,144,134186,1,0,0:0:0:0:
436,144,134231,1,8,0:0:0:0:
436,144,134277,1,0,0:0:0:0:
436,144,134322,1,8,0:0:0:0:
436,144,134367,1,0,0:0:0:0:
436,144,134412,1,8,0:0:0:0:
436,144,134457,1,4,0:0:0:0:
408,140,134548,1,8,0:0:0:0:
408,140,134638,1,0,0:0:0:0:
408,140,134728,1,8,0:0:0:0:
408,140,134819,1,0,0:0:0:0:
408,140,134909,1,8,0:0:0:0:
408,140,134999,1,0,0:0:0:0:
408,140,135090,1,8,0:0:0:0:
408,140,135180,1,0,0:0:0:0:
408,140,135271,1,8,0:0:0:0:
408,140,135361,1,0,0:0:0:0:
408,140,135451,1,8,0:0:0:0:
408,140,135542,1,0,0:0:0:0:
408,140,135632,1,8,0:0:0:0:
408,140,135722,1,0,0:0:0:0:
352,136,135813,1,8,0:0:0:0:
408,140,135903,1,0,0:0:0:0:
408,140,135993,1,8,0:0:0:0:
408,140,136084,1,0,0:0:0:0:
408,140,136174,1,8,0:0:0:0:
408,140,136265,1,0,0:0:0:0:
408,140,136355,1,8,0:0:0:0:
408,140,136445,1,0,0:0:0:0:
408,140,136536,1,8,0:0:0:0:
408,140,136626,1,0,0:0:0:0:
408,140,136716,1,8,0:0:0:0:
408,140,136807,1,0,0:0:0:0:
408,140,136897,1,8,0:0:0:0:
408,140,136987,1,0,0:0:0:0:
408,140,137078,1,8,0:0:0:0:
408,140,137168,1,0,0:0:0:0:
408,140,137259,1,8,0:0:0:0:
408,140,137349,1,0,0:0:0:0:
352,84,137439,1,8,0:0:0:0:
352,84,137469,1,8,0:0:0:0:
352,84,137529,1,0,0:0:0:0:
296,96,137620,1,8,0:0:0:0:
276,96,137650,1,8,0:0:0:0:
240,92,137710,1,0,0:0:0:0:
352,84,137800,1,8,0:0:0:0:
352,84,137830,1,8,0:0:0:0:
352,84,137890,1,0,0:0:0:0:
296,96,137981,1,8,0:0:0:0:
276,96,138011,1,8,0:0:0:0:
240,92,138071,1,0,0:0:0:0:
352,84,138162,1,8,0:0:0:0:
352,84,138192,1,8,0:0:0:0:
352,84,138252,1,0,0:0:0:0:
296,96,138343,1,8,0:0:0:0:
276,96,138373,1,8,0:0:0:0:
240,92,138433,1,0,0:0:0:0:
352,84,138523,1,8,0:0:0:0:
352,84,138553,1,8,0:0:0:0:
352,84,138613,1,0,0:0:0:0:
296,96,138704,1,8,0:0:0:0:
276,96,138734,1,8,0:0:0:0:
240,92,138794,1,0,0:0:0:0:
352,84,138885,1,8,0:0:0:0:
352,84,138915,1,8,0:0:0:0:
352,84,138975,1,0,0:0:0:0:
296,96,139066,1,8,0:0:0:0:
276,96,139096,1,8,0:0:0:0:
240,92,139156,1,0,0:0:0:0:
352,84,139246,1,8,0:0:0:0:
352,84,139276,1,8,0:0:0:0:
352,84,139336,1,0,0:0:0:0:
296,96,139427,1,8,0:0:0:0:
276,96,139457,1,8,0:0:0:0:
240,92,139517,1,0,0:0:0:0:
352,84,139608,1,8,0:0:0:0:
352,84,139638,1,8,0:0:0:0:
352,84,139698,1,0,0:0:0:0:
296,96,139789,1,8,0:0:0:0:
276,96,139819,1,8,0:0:0:0:
240,92,139879,1,0,0:0:0:0:
352,84,139969,1,8,0:0:0:0:
352,84,139999,1,8,0:0:0:0:
352,84,140059,1,0,0:0:0:0:
296,96,140150,1,8,0:0:0:0:
276,96,140180,1,8,0:0:0:0:
240,92,140240,1,0,0:0:0:0:
296,100,140331,1,0,0:0:0:0:
324,104,140376,1,8,0:0:0:0:
324,104,140421,1,0,0:0:0:0:
324,104,140511,1,0,0:0:0:0:
324,104,140556,1,8,0:0:0:0:
324,104,140602,1,0,0:0:0:0:
324,104,140692,1,0,0:0:0:0:
324,104,140737,1,8,0:0:0:0:
324,104,140782,1,0,0:0:0:0:
324,104,140873,1,0,0:0:0:0:
324,104,140918,1,8,0:0:0:0:
324,104,140963,1,0,0:0:0:0:
324,104,141053,1,0,0:0:0:0:
324,104,141099,1,8,0:0:0:0:
324,104,141144,1,0,0:0:0:0:
324,104,141234,1,0,0:0:0:0:
324,104,141279,1,8,0:0:0:0:
324,104,141325,1,0,0:0:0:0:
324,104,141415,1,0,0:0:0:0:
324,104,141460,1,8,0:0:0:0:
324,104,141505,1,0,0:0:0:0:
324,104,141596,1,0,0:0:0:0:
324,104,141641,1,8,0:0:0:0:
324,104,141686,1,0,0:0:0:0:
268,116,141776,1,0,0:0:0:0:
296,108,141822,1,8,0:0:0:0:
296,108,141867,1,0,0:0:0:0:
296,108,141957,1,0,0:0:0:0:
296,108,142002,1,8,0:0:0:0:
296,108,142047,1,0,0:0:0:0:
296,108,142138,1,0,0:0:0:0:
296,108,142183,1,8,0:0:0:0:
296,108,142228,1,0,0:0:0:0:
296,108,142319,1,0,0:0:0:0:
296,108,142364,1,8,0:0:0:0:
296,108,142409,1,0,0:0:0:0:
348,92,142499,1,0,0:0:0:0:
348,92,142544,1,8,0:0:0:0:
348,92,142590,1,0,0:0:0:0:
348,92,142680,1,0,0:0:0:0:
348,92,142725,1,8,0:0:0:0:
348,92,142770,1,0,0:0:0:0:
348,92,142861,1,0,0:0:0:0:
348,92,142906,1,8,0:0:0:0:
348,92,142951,1,0,0:0:0:0:
348,92,143041,1,0,0:0:0:0:
348,92,143087,1,8,0:0:0:0:
348,92,143132,1,0,0:0:0:0:
380,112,143192,1,0,0:0:0:0:
336,120,143267,1,8,0:0:0:0:
348,92,143313,1,0,0:0:0:0:
380,112,143373,1,0,0:0:0:0:
336,120,143448,1,8,0:0:0:0:
348,92,143493,1,0,0:0:0:0:
380,112,143553,1,0,0:0:0:0:
336,120,143628,1,8,0:0:0:0:
348,92,143674,1,0,0:0:0:0:
380,112,143734,1,0,0:0:0:0:
336,120,143809,1,8,0:0:0:0:
348,92,143855,1,0,0:0:0:0:
380,112,143915,1,0,0:0:0:0:
336,120,143990,1,8,0:0:0:0:
348,92,144036,1,0,0:0:0:0:
380,112,144096,1,0,0:0:0:0:
336,120,144171,1,8,0:0:0:0:
348,92,144216,1,0,0:0:0:0:
380,112,144276,1,0,0:0:0:0:
336,120,144351,1,8,0:0:0:0:
348,92,144397,1,0,0:0:0:0:
380,112,144457,1,0,0:0:0:0:
336,120,144532,1,8,0:0:0:0:
348,92,144578,1,0,0:0:0:0:
380,112,144638,1,0,0:0:0:0:
336,120,144713,1,8,0:0:0:0:
348,92,144759,1,0,0:0:0:0:
380,112,144819,1,0,0:0:0:0:
336,120,144894,1,8,0:0:0:0:
348,92,144939,1,0,0:0:0:0:
380,112,144999,1,0,0:0:0:0:
336,120,145074,1,8,0:0:0:0:
348,92,145120,1,0,0:0:0:0:
380,112,145180,1,0,0:0:0:0:
336,120,145255,1,8,0:0:0:0:
348,92,145300,1,0,0:0:0:0:
380,112,145360,1,0,0:0:0:0:
336,120,145435,1,8,0:0:0:0:
348,92,145481,1,0,0:0:0:0:
380,112,145541,1,0,0:0:0:0:
336,120,145616,1,8,0:0:0:0:
348,92,145661,1,0,0:0:0:0:
380,112,145721,1,0,0:0:0:0:
336,120,145796,1,8,0:0:0:0:
348,92,145842,1,0,0:0:0:0:
380,112,145902,1,0,0:0:0:0:
336,120,145977,1,8,0:0:0:0:
364,120,146023,1,4,0:0:0:0:
400,144,146385,1,8,0:0:0:0:
400,144,146566,1,0,0:0:0:0:
400,144,146656,1,0,0:0:0:0:
400,144,146746,1,0,0:0:0:0:
400,144,146927,1,8,0:0:0:0:
400,144,147108,1,0,0:0:0:0:
400,144,147289,1,8,0:0:0:0:
292,168,147469,1,4,0:0:0:0:
328,124,147560,1,0,0:0:0:0:
328,152,147605,1,0,0:0:0:0:
328,152,147650,1,8,0:0:0:0:
328,152,147740,1,8,0:0:0:0:
328,152,147831,1,0,0:0:0:0:
328,152,147876,1,0,0:0:0:0:
328,152,147921,1,8,0:0:0:0:
328,152,148012,1,0,0:0:0:0:
328,152,148102,1,8,0:0:0:0:
400,144,148192,1,0,0:0:0:0:
400,144,148237,1,0,0:0:0:0:
400,144,148283,1,0,0:0:0:0:
400,144,148328,1,0,0:0:0:0:
400,144,148373,1,8,0:0:0:0:
400,144,148463,1,0,0:0:0:0:
400,144,148554,1,8,0:0:0:0:
400,144,148599,1,8,0:0:0:0:
400,144,148644,1,0,0:0:0:0:
400,144,148734,1,8,0:0:0:0:
400,144,148825,1,0,0:0:0:0:
400,144,148915,1,8,0:0:0:0:
400,144,149006,1,8,0:0:0:0:
400,144,149051,1,8,0:0:0:0:
400,144,149096,1,0,0:0:0:0:
400,144,149186,1,0,0:0:0:0:
348,128,149277,1,8,0:0:0:0:
400,144,149322,1,8,0:0:0:0:
372,136,149367,1,0,0:0:0:0:
400,144,149412,1,0,0:0:0:0:
400,144,149457,1,0,0:0:0:0:
400,144,149548,1,8,0:0:0:0:
400,144,149638,1,0,0:0:0:0:
348,124,149728,1,0,0:0:0:0:
320,112,149774,1,0,0:0:0:0:
296,100,149819,1,8,0:0:0:0:
424,128,149909,1,8,0:0:0:0:
424,128,149999,1,0,0:0:0:0:
404,104,150045,1,0,0:0:0:0:
424,128,150090,1,0,0:0:0:0:
424,128,150180,1,8,0:0:0:0:
424,128,150271,1,0,0:0:0:0:
388,84,150361,1,8,0:0:0:0:
356,40,150451,1,8,0:0:0:0:
372,64,150496,1,0,0:0:0:0:
372,64,150542,1,8,0:0:0:0:
372,64,150632,1,0,0:0:0:0:
372,64,150722,1,0,0:0:0:0:
372,64,150768,1,0,0:0:0:0:
372,64,150813,1,0,0:0:0:0:
372,64,150903,1,0,0:0:0:0:
372,64,150993,1,8,0:0:0:0:
372,64,151084,1,8,0:0:0:0:
372,64,151129,1,0,0:0:0:0:
372,64,151174,1,0,0:0:0:0:
372,64,151265,1,8,0:0:0:0:
372,64,151310,1,0,0:0:0:0:
372,64,151355,1,0,0:0:0:0:
372,64,151445,1,8,0:0:0:0:
372,64,151490,1,0,0:0:0:0:
372,64,151536,1,0,0:0:0:0:
372,64,151626,1,8,0:0:0:0:
372,64,151671,1,0,0:0:0:0:
372,64,151716,1,0,0:0:0:0:
316,60,151807,1,8,0:0:0:0:
268,88,151897,1,0,0:0:0:0:
268,88,151942,1,0,0:0:0:0:
268,88,151987,1,8,0:0:0:0:
268,88,152078,1,0,0:0:0:0:
324,84,152168,1,8,0:0:0:0:
352,84,152213,1,8,0:0:0:0:
380,84,152259,1,0,0:0:0:0:
436,80,152349,1,0,0:0:0:0:
436,80,152439,1,8,0:0:0:0:
436,80,152530,1,0,0:0:0:0:
436,80,152575,1,0,0:0:0:0:
436,80,152620,1,8,0:0:0:0:
436,80,152710,1,0,0:0:0:0:
436,80,152756,1,0,0:0:0:0:
436,80,152801,1,8,0:0:0:0:
436,80,152891,1,0,0:0:0:0:
436,80,152936,1,8,0:0:0:0:
436,80,152981,1,0,0:0:0:0:
436,80,153027,1,8,0:0:0:0:
436,80,153072,1,0,0:0:0:0:
436,80,153117,1,8,0:0:0:0:
436,80,153162,1,0,0:0:0:0:
436,80,153207,1,8,0:0:0:0:
436,80,153253,1,0,0:0:0:0:
404,124,153343,1,0,0:0:0:0:
388,148,153388,1,0,0:0:0:0:
368,168,153433,1,8,0:0:0:0:
328,208,153524,1,8,0:0:0:0:
344,156,153614,1,0,0:0:0:0:
344,156,153659,1,0,0:0:0:0:
344,156,153704,1,8,0:0:0:0:
344,156,153795,1,0,0:0:0:0:
344,156,153885,1,8,0:0:0:0:
312,108,153975,1,0,0:0:0:0:
328,132,154021,1,0,0:0:0:0:
328,132,154066,1,0,0:0:0:0:
328,132,154156,1,8,0:0:0:0:
328,132,154246,1,0,0:0:0:0:
328,132,154337,1,8,0:0:0:0:
328,132,154382,1,8,0:0:0:0:
328,132,154427,1,0,0:0:0:0:
328,132,154518,1,8,0:0:0:0:
328,132,154563,1,8,0:0:0:0:
328,132,154608,1,0,0:0:0:0:
328,132,154698,1,8,0:0:0:0:
328,132,154743,1,0,0:0:0:0:
328,132,154789,1,0,0:0:0:0:
372,96,154879,1,8,0:0:0:0:
352,116,154924,1,0,0:0:0:0:
352,116,154969,1,0,0:0:0:0:
352,116,155060,1,8,0:0:0:0:
352,116,155105,1,0,0:0:0:0:
352,116,155150,1,0,0:0:0:0:
352,116,155240,1,8,0:0:0:0:
352,116,155286,1,0,0:0:0:0:
352,116,155331,1,0,0:0:0:0:
372,96,155421,1,0,0:0:0:0:
372,96,155466,1,0,0:0:0:0:
372,96,155512,1,8,0:0:0:0:
372,96,155602,1,0,0:0:0:0:
372,96,155647,1,0,0:0:0:0:
372,96,155692,1,8,0:0:0:0:
372,152,155783,1,8,0:0:0:0:
372,124,155828,1,0,0:0:0:0:
372,124,155873,1,0,0:0:0:0:
372,124,155963,1,8,0:0:0:0:
372,124,156009,1,0,0:0:0:0:
372,124,156054,1,0,0:0:0:0:
376,68,156144,1,8,0:0:0:0:
376,68,156189,1,0,0:0:0:0:
376,68,156234,1,0,0:0:0:0:
376,68,156280,1,0,0:0:0:0:
376,68,156325,1,8,0:0:0:0:
320,76,156415,1,0,0:0:0:0:
356,120,156506,1,0,0:0:0:0:
340,96,156551,1,0,0:0:0:0:
324,76,156596,1,0,0:0:0:0:
340,96,156686,1,0,0:0:0:0:
340,96,156777,1,8,0:0:0:0:
356,120,156867,1,8,0:0:0:0:
356,120,156912,1,0,0:0:0:0:
340,96,156957,1,0,0:0:0:0:
396,100,157048,1,8,0:0:0:0:
368,96,157093,1,0,0:0:0:0:
340,96,157138,1,0,0:0:0:0:
368,96,157228,1,8,0:0:0:0:
368,96,157274,1,0,0:0:0:0:
368,96,157319,1,0,0:0:0:0:
368,96,157409,1,8,0:0:0:0:
368,96,157454,1,0,0:0:0:0:
368,96,157499,1,0,0:0:0:0:
340,96,157590,1,8,0:0:0:0:
340,96,157635,1,0,0:0:0:0:
340,96,157680,1,0,0:0:0:0:
340,96,157725,1,8,0:0:0:0:
340,96,157771,1,8,0:0:0:0:
340,96,157816,1,0,0:0:0:0:
340,96,157861,1,8,0:0:0:0:
340,96,157906,1,8,0:0:0:0:
340,96,157951,1,0,0:0:0:0:
340,96,157996,1,8,0:0:0:0:
340,96,158042,1,8,0:0:0:0:
340,96,158087,1,8,0:0:0:0:
340,96,158132,1,0,0:0:0:0:
340,96,158177,1,0,0:0:0:0:
340,96,158222,1,0,0:0:0:0:
340,96,158268,1,8,0:0:0:0:
340,96,158313,1,0,0:0:0:0:
340,96,158358,1,8,0:0:0:0:
340,96,158403,1,8,0:0:0:0:
340,96,158448,1,8,0:0:0:0:
340,96,158493,1,0,0:0:0:0:
340,96,158674,1,0,0:0:0:0:
312,104,158719,1,8,0:0:0:0:
312,104,158765,1,0,0:0:0:0:
312,104,158810,1,8,0:0:0:0:
312,104,158855,1,0,0:0:0:0:
312,104,158900,1,8,0:0:0:0:
312,104,158945,1,0,0:0:0:0:
312,104,158990,1,8,0:0:0:0:
312,104,159036,1,4,0:0:0:0:
260,120,159126,1,0,0:0:0:0:
312,104,159171,1,0,0:0:0:0:
312,104,159216,1,8,0:0:0:0:
312,104,159307,1,8,0:0:0:0:
368,104,159397,1,0,0:0:0:0:
368,104,159442,1,0,0:0:0:0:
368,104,159487,1,8,0:0:0:0:
368,104,159578,1,0,0:0:0:0:
368,104,159668,1,8,0:0:0:0:
380,160,159759,1,0,0:0:0:0:
376,132,159804,1,8,0:0:0:0:
376,132,159849,1,8,0:0:0:0:
376,132,159894,1,0,0:0:0:0:
376,132,159939,1,8,0:0:0:0:
376,132,159984,1,8,0:0:0:0:
376,132,160030,1,0,0:0:0:0:
376,132,160075,1,8,0:0:0:0:
376,132,160120,1,0,0:0:0:0:
376,132,160165,1,0,0:0:0:0:
376,132,160210,1,8,0:0:0:0:
376,132,160256,1,0,0:0:0:0:
376,132,160301,1,8,0:0:0:0:
376,132,160346,1,8,0:0:0:0:
376,132,160391,1,0,0:0:0:0:
376,132,160436,1,0,0:0:0:0:
376,132,160481,1,0,0:0:0:0:
432,148,160572,1,0,0:0:0:0:
380,132,160662,1,8,0:0:0:0:
436,148,160753,1,0,0:0:0:0:
380,136,160843,1,8,0:0:0:0:
380,136,160888,1,8,0:0:0:0:
404,148,160933,1,0,0:0:0:0:
396,120,160978,1,8,0:0:0:0:
396,120,161024,1,8,0:0:0:0:
396,120,161069,1,0,0:0:0:0:
396,120,161114,1,8,0:0:0:0:
396,120,161159,1,8,0:0:0:0:
396,120,161204,1,0,0:0:0:0:
432,148,161249,1,0,0:0:0:0:
432,148,161295,1,8,0:0:0:0:
432,148,161340,1,0,0:0:0:0:
432,148,161385,1,0,0:0:0:0:
432,148,161430,1,8,0:0:0:0:
432,148,161475,1,0,0:0:0:0:
432,148,161521,1,0,0:0:0:0:
432,148,161566,1,8,0:0:0:0:
432,148,161611,1,0,0:0:0:0:
436,148,161656,1,0,0:0:0:0:
436,148,161701,1,8,0:0:0:0:
436,148,161746,1,0,0:0:0:0:
412,136,161792,1,0,0:0:0:0:
432,148,161837,1,8,0:0:0:0:
432,148,161882,1,0,0:0:0:0:
404,140,161927,1,8,0:0:0:0:
396,120,162018,1,8,0:0:0:0:
396,120,162063,1,8,0:0:0:0:
396,120,162108,1,8,0:0:0:0:
396,120,162198,1,0,0:0:0:0:
396,120,162289,1,0,0:0:0:0:
396,120,162334,1,0,0:0:0:0:
396,120,162379,1,0,0:0:0:0:
396,120,162469,1,0,0:0:0:0:
396,120,162560,1,8,0:0:0:0:
340,120,162650,1,0,0:0:0:0:
312,120,162695,1,0,0:0:0:0:
284,124,162740,1,8,0:0:0:0:
284,124,162786,1,0,0:0:0:0:
292,96,162831,1,8,0:0:0:0:
296,68,162876,1,8,0:0:0:0:
296,68,162921,1,0,0:0:0:0:
296,68,162966,1,0,0:0:0:0:
296,68,163012,1,8,0:0:0:0:
292,96,163102,1,0,0:0:0:0:
292,96,163192,1,8,0:0:0:0:
292,96,163283,1,0,0:0:0:0:
296,68,163373,1,8,0:0:0:0:
296,68,163554,1,8,0:0:0:0:
296,68,163734,1,0,0:0:0:0:
404,96,163915,1,0,0:0:0:0:
404,96,163960,1,0,0:0:0:0:
404,96,164006,1,0,0:0:0:0:
440,88,164036,1,0,0:0:0:0:
440,88,164066,1,0,0:0:0:0:
440,88,164096,1,8,0:0:0:0:
440,88,164186,1,0,0:0:0:0:
440,88,164277,1,8,0:0:0:0:
440,88,164367,1,8,0:0:0:0:
440,88,164457,1,0,0:0:0:0:
440,88,164503,1,8,0:0:0:0:
440,88,164548,1,0,0:0:0:0:
440,88,164593,1,8,0:0:0:0:
440,88,164638,1,0,0:0:0:0:
440,88,164683,1,8,0:0:0:0:
440,88,164728,1,0,0:0:0:0:
440,88,164774,1,8,0:0:0:0:
440,88,164819,1,4,0:0:0:0:
388,108,164909,1,0,0:0:0:0:
360,116,164954,1,0,0:0:0:0:
332,124,164999,1,8,0:0:0:0:
276,140,165090,1,8,0:0:0:0:
324,116,165180,1,0,0:0:0:0:
360,116,165225,1,0,0:0:0:0:
360,116,165271,1,8,0:0:0:0:
360,116,165361,1,0,0:0:0:0:
360,116,165451,1,8,0:0:0:0:
404,80,165542,1,8,0:0:0:0:
404,80,165632,1,0,0:0:0:0:
404,80,165722,1,8,0:0:0:0:
388,108,165768,1,8,0:0:0:0:
388,108,165813,1,0,0:0:0:0:
436,84,165903,1,8,0:0:0:0:
436,84,165948,1,0,0:0:0:0:
436,84,165993,1,0,0:0:0:0:
436,84,166039,1,0,0:0:0:0:
436,84,166084,1,8,0:0:0:0:
436,84,166129,1,0,0:0:0:0:
436,84,166174,1,0,0:0:0:0:
436,84,166219,1,0,0:0:0:0:
412,100,166265,1,8,0:0:0:0:
412,100,166355,1,8,0:0:0:0:
412,100,166400,1,8,0:0:0:0:
412,100,166445,1,0,0:0:0:0:
412,100,166536,1,0,0:0:0:0:
412,100,166626,1,8,0:0:0:0:
412,100,166671,1,8,0:0:0:0:
412,100,166716,1,0,0:0:0:0:
412,100,166807,1,0,0:0:0:0:
364,128,166897,1,8,0:0:0:0:
412,100,166987,1,0,0:0:0:0:
388,116,167033,1,0,0:0:0:0:
388,116,167078,1,8,0:0:0:0:
388,116,167168,1,0,0:0:0:0:
388,116,167213,1,0,0:0:0:0:
388,116,167259,1,8,0:0:0:0:
388,116,167349,1,8,0:0:0:0:
388,116,167394,1,0,0:0:0:0:
388,116,167439,1,0,0:0:0:0:
388,116,167530,1,8,0:0:0:0:
388,116,167575,1,0,0:0:0:0:
388,116,167620,1,0,0:0:0:0:
340,140,167710,1,8,0:0:0:0:
328,84,167801,1,8,0:0:0:0:
332,112,167846,1,0,0:0:0:0:
332,112,167891,1,8,0:0:0:0:
332,112,167981,1,0,0:0:0:0:
388,104,168072,1,0,0:0:0:0:
388,104,168117,1,0,0:0:0:0:
388,104,168162,1,0,0:0:0:0:
388,104,168253,1,0,0:0:0:0:
388,104,168343,1,8,0:0:0:0:
392,48,168433,1,0,0:0:0:0:
392,48,168478,1,0,0:0:0:0:
392,48,168524,1,0,0:0:0:0:
384,76,168569,1,8,0:0:0:0:
384,76,168614,1,8,0:0:0:0:
384,76,168659,1,0,0:0:0:0:
384,76,168704,1,8,0:0:0:0:
384,76,168749,1,8,0:0:0:0:
384,76,168795,1,0,0:0:0:0:
384,76,168840,1,8,0:0:0:0:
384,76,168885,1,8,0:0:0:0:
384,76,168930,1,0,0:0:0:0:
384,76,168975,1,8,0:0:0:0:
384,76,169021,1,8,0:0:0:0:
384,76,169066,1,8,0:0:0:0:
384,76,169111,1,8,0:0:0:0:
384,76,169156,1,0,0:0:0:0:
384,76,169246,1,8,0:0:0:0:
384,76,169292,1,8,0:0:0:0:
384,76,169337,1,8,0:0:0:0:
384,76,169427,1,0,0:0:0:0:
384,76,169518,1,8,0:0:0:0:
384,76,169608,1,8,0:0:0:0:
384,76,169698,1,0,0:0:0:0:
384,76,169743,1,0,0:0:0:0:
384,76,169789,1,0,0:0:0:0:
384,76,169834,1,0,0:0:0:0:
384,76,169879,1,8,0:0:0:0:
384,76,169924,1,8,0:0:0:0:
384,76,169969,1,8,0:0:0:0:
384,76,170015,1,8,0:0:0:0:
384,76,170060,1,0,0:0:0:0:
320,168,170240,1,0,0:0:0:0:
336,144,170286,1,8,0:0:0:0:
352,120,170331,1,0,0:0:0:0:
368,96,170376,1,8,0:0:0:0:
368,96,170421,1,0,0:0:0:0:
368,96,170466,1,8,0:0:0:0:
368,96,170512,1,0,0:0:0:0:
368,96,170557,1,8,0:0:0:0:
368,96,170602,1,4,0:0:0:0:
420,68,170963,1,8,0:0:0:0:
420,68,171144,1,0,0:0:0:0:
408,124,171234,1,0,0:0:0:0:
420,68,171325,1,0,0:0:0:0:
400,180,171506,1,8,0:0:0:0:
420,72,171686,1,0,0:0:0:0:
396,180,171867,1,8,0:0:0:0:
